0
SECTION
  2
HEADER
  9
$ACADVER
  1
AC1024
  9
$ACADMAINTVER
 70
    63
  9
$DWGCODEPAGE
  3
ANSI_1252
  9
$AUTHOR
  1
PR
  9
$REVISIONNUMBER
  1
-
  9
$CUSTOMPROPERTYTAG
  1
Manager
  9
$CUSTOMPROPERTY
  1

  9
$CUSTOMPROPERTYTAG
  1
Company
  9
$CUSTOMPROPERTY
  1

  9
$CUSTOMPROPERTYTAG
  1
Category
  9
$CUSTOMPROPERTY
  1

  9
$CUSTOMPROPERTYTAG
  1
Part Number
  9
$CUSTOMPROPERTY
  1
HWDWA72P30F1
  9
$CUSTOMPROPERTYTAG
  1
Description
  9
$CUSTOMPROPERTY
  1
N1P PANEL MASTER VIEW
  9
$CUSTOMPROPERTYTAG
  1
Project
  9
$CUSTOMPROPERTY
  1

  9
$CUSTOMPROPERTYTAG
  1
Designer
  9
$CUSTOMPROPERTY
  1
PR
  9
$CUSTOMPROPERTYTAG
  1
Engineer
  9
$CUSTOMPROPERTY
  1

  9
$CUSTOMPROPERTYTAG
  1
Authority
  9
$CUSTOMPROPERTY
  1

  9
$CUSTOMPROPERTYTAG
  1
Cost Center
  9
$CUSTOMPROPERTY
  1

  9
$CUSTOMPROPERTYTAG
  1
Vendor
  9
$CUSTOMPROPERTY
  1

  9
$CUSTOMPROPERTYTAG
  1
User Status
  9
$CUSTOMPROPERTY
  1

  9
$CUSTOMPROPERTYTAG
  1
Design Status
  9
$CUSTOMPROPERTY
  1
WorkInProgress
  9
$CUSTOMPROPERTYTAG
  1
Checked by
  9
$CUSTOMPROPERTY
  1
NJ
  9
$CUSTOMPROPERTYTAG
  1
Engr Approved by
  9
$CUSTOMPROPERTY
  1

  9
$CUSTOMPROPERTYTAG
  1
Date Eng Approved
  9
$CUSTOMPROPERTY
  1
06/19/2013
  9
$CUSTOMPROPERTYTAG
  1
Mfg Approved by
  9
$CUSTOMPROPERTY
  1

  9
$CUSTOMPROPERTYTAG
  1
DWG. NO
  9
$CUSTOMPROPERTY
  1

  9
$CUSTOMPROPERTYTAG
  1
NUMBER OF SHEETS
  9
$CUSTOMPROPERTY
  1
1
  9
$CUSTOMPROPERTYTAG
  1
DRAWING #
  9
$CUSTOMPROPERTY
  1
1
  9
$INSBASE
 10
0.0
 20
0.0
 30
0.0
  9
$EXTMIN
 10
0.0
 20
0.0
 30
0.0
  9
$EXTMAX
 10
204.0
 20
132.0
 30
0.0
  9
$LIMMIN
 10
0.0
 20
0.0
  9
$LIMMAX
 10
204.0
 20
132.0
  9
$ORTHOMODE
 70
     0
  9
$REGENMODE
 70
     1
  9
$FILLMODE
 70
     1
  9
$QTEXTMODE
 70
     0
  9
$MIRRTEXT
 70
     0
  9
$LTSCALE
 40
12.0
  9
$ATTMODE
 70
     1
  9
$TEXTSIZE
 40
0.2
  9
$TRACEWID
 40
0.05
  9
$TEXTSTYLE
  7
Standard
  9
$CLAYER
  8
0
  9
$CELTYPE
  6
ByLayer
  9
$CECOLOR
 62
   256
  9
$CELTSCALE
 40
1.0
  9
$DISPSILH
 70
     0
  9
$DIMSCALE
 40
1.0
  9
$DIMASZ
 40
0.0708661417322835
  9
$DIMEXO
 40
0.0625
  9
$DIMDLI
 40
0.38
  9
$DIMRND
 40
0.0
  9
$DIMDLE
 40
0.0
  9
$DIMEXE
 40
0.18
  9
$DIMTP
 40
0.0
  9
$DIMTM
 40
0.0
  9
$DIMTXT
 40
0.0708661417322835
  9
$DIMCEN
 40
0.09
  9
$DIMTSZ
 40
0.0
  9
$DIMTOL
 70
     0
  9
$DIMLIM
 70
     0
  9
$DIMTIH
 70
     1
  9
$DIMTOH
 70
     1
  9
$DIMSE1
 70
     0
  9
$DIMSE2
 70
     0
  9
$DIMTAD
 70
     0
  9
$DIMZIN
 70
     0
  9
$DIMBLK
  1

  9
$DIMASO
 70
     1
  9
$DIMSHO
 70
     1
  9
$DIMPOST
  1

  9
$DIMAPOST
  1

  9
$DIMALT
 70
     0
  9
$DIMALTD
 70
     2
  9
$DIMALTF
 40
25.4
  9
$DIMLFAC
 40
1.0
  9
$DIMTOFL
 70
     0
  9
$DIMTVP
 40
0.0
  9
$DIMTIX
 70
     0
  9
$DIMSOXD
 70
     0
  9
$DIMSAH
 70
     0
  9
$DIMBLK1
  1

  9
$DIMBLK2
  1

  9
$DIMSTYLE
  2
STANDARD
  9
$DIMCLRD
 70
     0
  9
$DIMCLRE
 70
     0
  9
$DIMCLRT
 70
     0
  9
$DIMTFAC
 40
1.0
  9
$DIMGAP
 40
0.09
  9
$DIMJUST
 70
     0
  9
$DIMSD1
 70
     0
  9
$DIMSD2
 70
     0
  9
$DIMTOLJ
 70
     1
  9
$DIMTZIN
 70
     0
  9
$DIMALTZ
 70
     0
  9
$DIMALTTZ
 70
     0
  9
$DIMUPT
 70
     0
  9
$DIMDEC
 70
     4
  9
$DIMTDEC
 70
     4
  9
$DIMALTU
 70
     2
  9
$DIMALTTD
 70
     2
  9
$DIMTXSTY
  7
Standard
  9
$DIMAUNIT
 70
     0
  9
$DIMADEC
 70
     0
  9
$DIMALTRND
 40
0.0
  9
$DIMAZIN
 70
     0
  9
$DIMDSEP
 70
    46
  9
$DIMATFIT
 70
     3
  9
$DIMFRAC
 70
     0
  9
$DIMLDRBLK
  1

  9
$DIMLUNIT
 70
     2
  9
$DIMLWD
 70
    -2
  9
$DIMLWE
 70
    -2
  9
$DIMTMOVE
 70
     0
  9
$DIMFXL
 40
1.0
  9
$DIMFXLON
 70
     0
  9
$DIMJOGANG
 40
0.7853981633974483
  9
$DIMTFILL
 70
     0
  9
$DIMTFILLCLR
 70
     0
  9
$DIMARCSYM
 70
     0
  9
$DIMLTYPE
  6

  9
$DIMLTEX1
  6

  9
$DIMLTEX2
  6

  9
$DIMTXTDIRECTION
 70
     0
  9
$LUNITS
 70
     2
  9
$LUPREC
 70
     4
  9
$SKETCHINC
 40
0.1
  9
$FILLETRAD
 40
0.0
  9
$AUNITS
 70
     0
  9
$AUPREC
 70
     0
  9
$MENU
  1
.
  9
$ELEVATION
 40
0.0
  9
$PELEVATION
 40
0.0
  9
$THICKNESS
 40
0.0
  9
$LIMCHECK
 70
     0
  9
$CHAMFERA
 40
0.0
  9
$CHAMFERB
 40
0.0
  9
$CHAMFERC
 40
0.0
  9
$CHAMFERD
 40
0.0
  9
$SKPOLY
 70
     0
  9
$TDCREATE
 40
2456465.798125058
  9
$TDUCREATE
 40
2456465.568958392
  9
$TDUPDATE
 40
2456465.798125070
  9
$TDUUPDATE
 40
2456465.568958403
  9
$TDINDWG
 40
0.0000458565
  9
$TDUSRTIMER
 40
0.0000458565
  9
$USRTIMER
 70
     1
  9
$ANGBASE
 50
0.0
  9
$ANGDIR
 70
     0
  9
$PDMODE
 70
     0
  9
$PDSIZE
 40
0.0
  9
$PLINEWID
 40
0.0
  9
$SPLFRAME
 70
     0
  9
$SPLINETYPE
 70
     6
  9
$SPLINESEGS
 70
     8
  9
$HANDSEED
  5
E89
  9
$SURFTAB1
 70
     6
  9
$SURFTAB2
 70
     6
  9
$SURFTYPE
 70
     6
  9
$SURFU
 70
     6
  9
$SURFV
 70
     6
  9
$UCSBASE
  2

  9
$UCSNAME
  2

  9
$UCSORG
 10
0.0
 20
0.0
 30
0.0
  9
$UCSXDIR
 10
1.0
 20
0.0
 30
0.0
  9
$UCSYDIR
 10
0.0
 20
1.0
 30
0.0
  9
$UCSORTHOREF
  2

  9
$UCSORTHOVIEW
 70
     0
  9
$UCSORGTOP
 10
0.0
 20
0.0
 30
0.0
  9
$UCSORGBOTTOM
 10
0.0
 20
0.0
 30
0.0
  9
$UCSORGLEFT
 10
0.0
 20
0.0
 30
0.0
  9
$UCSORGRIGHT
 10
0.0
 20
0.0
 30
0.0
  9
$UCSORGFRONT
 10
0.0
 20
0.0
 30
0.0
  9
$UCSORGBACK
 10
0.0
 20
0.0
 30
0.0
  9
$PUCSBASE
  2

  9
$PUCSNAME
  2

  9
$PUCSORG
 10
0.0
 20
0.0
 30
0.0
  9
$PUCSXDIR
 10
1.0
 20
0.0
 30
0.0
  9
$PUCSYDIR
 10
0.0
 20
1.0
 30
0.0
  9
$PUCSORTHOREF
  2

  9
$PUCSORTHOVIEW
 70
     0
  9
$PUCSORGTOP
 10
0.0
 20
0.0
 30
0.0
  9
$PUCSORGBOTTOM
 10
0.0
 20
0.0
 30
0.0
  9
$PUCSORGLEFT
 10
0.0
 20
0.0
 30
0.0
  9
$PUCSORGRIGHT
 10
0.0
 20
0.0
 30
0.0
  9
$PUCSORGFRONT
 10
0.0
 20
0.0
 30
0.0
  9
$PUCSORGBACK
 10
0.0
 20
0.0
 30
0.0
  9
$USERI1
 70
     0
  9
$USERI2
 70
     0
  9
$USERI3
 70
     0
  9
$USERI4
 70
     0
  9
$USERI5
 70
     0
  9
$USERR1
 40
0.0
  9
$USERR2
 40
0.0
  9
$USERR3
 40
0.0
  9
$USERR4
 40
0.0
  9
$USERR5
 40
0.0
  9
$WORLDVIEW
 70
     1
  9
$SHADEDGE
 70
     3
  9
$SHADEDIF
 70
    70
  9
$TILEMODE
 70
     1
  9
$MAXACTVP
 70
    64
  9
$PINSBASE
 10
0.0
 20
0.0
 30
0.0
  9
$PLIMCHECK
 70
     0
  9
$PEXTMIN
 10
0.0
 20
0.0
 30
0.0
  9
$PEXTMAX
 10
204.0
 20
132.0
 30
0.0
  9
$PLIMMIN
 10
0.0
 20
0.0
  9
$PLIMMAX
 10
204.0
 20
132.0
  9
$UNITMODE
 70
     0
  9
$VISRETAIN
 70
     1
  9
$PLINEGEN
 70
     0
  9
$PSLTSCALE
 70
     1
  9
$TREEDEPTH
 70
  3020
  9
$CMLSTYLE
  2
Standard
  9
$CMLJUST
 70
     0
  9
$CMLSCALE
 40
1.0
  9
$PROXYGRAPHICS
 70
     1
  9
$MEASUREMENT
 70
     0
  9
$CELWEIGHT
370
    -1
  9
$ENDCAPS
280
     0
  9
$JOINSTYLE
280
     0
  9
$LWDISPLAY
290
     0
  9
$INSUNITS
 70
     1
  9
$HYPERLINKBASE
  1

  9
$STYLESHEET
  1

  9
$XEDIT
290
     1
  9
$CEPSNTYPE
380
     0
  9
$PSTYLEMODE
290
     1
  9
$FINGERPRINTGUID
  2
{EC28BCAE-55F7-4A10-9B07-7884FD67CF92}
  9
$VERSIONGUID
  2
{CE796FA5-E1DB-445D-ACA5-083FFEE9213D}
  9
$EXTNAMES
290
     1
  9
$PSVPSCALE
 40
0.0
  9
$OLESTARTUP
290
     0
  9
$SORTENTS
280
   127
  9
$INDEXCTL
280
     0
  9
$HIDETEXT
280
     1
  9
$XCLIPFRAME
280
     2
  9
$HALOGAP
280
     0
  9
$OBSCOLOR
 70
   257
  9
$OBSLTYPE
280
     0
  9
$INTERSECTIONDISPLAY
280
     0
  9
$INTERSECTIONCOLOR
 70
   257
  9
$DIMASSOC
280
     1
  9
$PROJECTNAME
  1

  9
$CAMERADISPLAY
290
     0
  9
$LENSLENGTH
 40
50.0
  9
$CAMERAHEIGHT
 40
0.0
  9
$STEPSPERSEC
 40
2.0
  9
$STEPSIZE
 40
6.0
  9
$3DDWFPREC
 40
2.0
  9
$PSOLWIDTH
 40
0.25
  9
$PSOLHEIGHT
 40
4.0
  9
$LOFTANG1
 40
1.570796326794896
  9
$LOFTANG2
 40
1.570796326794896
  9
$LOFTMAG1
 40
0.0
  9
$LOFTMAG2
 40
0.0
  9
$LOFTPARAM
 70
     7
  9
$LOFTNORMALS
280
     1
  9
$LATITUDE
 40
37.795
  9
$LONGITUDE
 40
-122.394
  9
$NORTHDIRECTION
 40
0.0
  9
$TIMEZONE
 70
 -8000
  9
$LIGHTGLYPHDISPLAY
280
     1
  9
$TILEMODELIGHTSYNCH
280
     1
  9
$CMATERIAL
347
11
  9
$SOLIDHIST
280
     0
  9
$SHOWHIST
280
     1
  9
$DWFFRAME
280
     2
  9
$DGNFRAME
280
     0
  9
$REALWORLDSCALE
290
     1
  9
$INTERFERECOLOR
 62
     1
  9
$INTERFEREOBJVS
345
33
  9
$INTERFEREVPVS
346
30
  9
$CSHADOW
280
     0
  9
$SHADOWPLANELOCATION
 40
0.0
  0
ENDSEC
  0
SECTION
  2
CLASSES
  0
CLASS
  1
ACDBDICTIONARYWDFLT
  2
AcDbDictionaryWithDefault
  3
ObjectDBX Classes
 90
        0
 91
        1
280
     0
281
     0
  0
CLASS
  1
MATERIAL
  2
AcDbMaterial
  3
ObjectDBX Classes
 90
     1153
 91
        3
280
     0
281
     0
  0
CLASS
  1
VISUALSTYLE
  2
AcDbVisualStyle
  3
ObjectDBX Classes
 90
     4095
 91
       24
280
     0
281
     0
  0
CLASS
  1
SCALE
  2
AcDbScale
  3
ObjectDBX Classes
 90
     1153
 91
       17
280
     0
281
     0
  0
CLASS
  1
TABLESTYLE
  2
AcDbTableStyle
  3
ObjectDBX Classes
 90
     4095
 91
        1
280
     0
281
     0
  0
CLASS
  1
MLEADERSTYLE
  2
AcDbMLeaderStyle
  3
ACDB_MLEADERSTYLE_CLASS
 90
     4095
 91
        1
280
     0
281
     0
  0
CLASS
  1
DICTIONARYVAR
  2
AcDbDictionaryVar
  3
ObjectDBX Classes
 90
        0
 91
        3
280
     0
281
     0
  0
CLASS
  1
CELLSTYLEMAP
  2
AcDbCellStyleMap
  3
ObjectDBX Classes
 90
     1152
 91
        1
280
     0
281
     0
  0
ENDSEC
  0
SECTION
  2
TABLES
  0
TABLE
  2
VPORT
  5
8
330
0
100
AcDbSymbolTable
 70
     1
  0
VPORT
  5
57
330
8
100
AcDbSymbolTableRecord
100
AcDbViewportTableRecord
  2
*Active
 70
     0
 10
0.0
 20
0.0
 11
1.0
 21
1.0
 12
102.0
 22
66.0
 13
0.0
 23
0.0
 14
1.0
 24
1.0
 15
0.0
 25
0.0
 16
0.0
 26
0.0
 36
1.0
 17
0.0
 27
0.0
 37
0.0
 40
132.0
 41
1.545454545454545
 42
50.0
 43
0.0
 44
0.0
 50
0.0
 51
0.0
 71
     0
 72
   100
 73
     1
 74
     1
 75
     0
 76
     0
 77
     0
 78
     0
281
     0
 65
     1
110
0.0
120
0.0
130
0.0
111
1.0
121
0.0
131
0.0
112
0.0
122
1.0
132
0.0
 79
     0
146
0.0
 60
     3
 61
     5
292
     1
282
     1
141
0.0
142
0.0
 63
   250
421
  3355443
  0
ENDTAB
  0
TABLE
  2
LTYPE
  5
5
330
0
100
AcDbSymbolTable
 70
    59
  0
LTYPE
  5
5B
330
5
100
AcDbSymbolTableRecord
100
AcDbLinetypeTableRecord
  2
ByBlock
 70
     0
  3

 72
    65
 73
     0
 40
0.0
  0
LTYPE
  5
5C
330
5
100
AcDbSymbolTableRecord
100
AcDbLinetypeTableRecord
  2
ByLayer
 70
     0
  3

 72
    65
 73
     0
 40
0.0
  0
LTYPE
  5
5D
330
5
100
AcDbSymbolTableRecord
100
AcDbLinetypeTableRecord
  2
Continuous
 70
     0
  3
Solid line
 72
    65
 73
     0
 40
0.0
  0
LTYPE
  5
7C
330
5
100
AcDbSymbolTableRecord
100
AcDbLinetypeTableRecord
  2
BY_STANDARD
 70
     0
  3
By Standard ____________    ____    ____   _
 72
    65
 73
     6
 40
1.240299999999999
 49
0.6614
 74
     0
 49
-0.0827
 74
     0
 49
0.1654
 74
     0
 49
-0.0827
 74
     0
 49
0.1654
 74
     0
 49
-0.0827
 74
     0
  0
LTYPE
  5
7D
330
5
100
AcDbSymbolTableRecord
100
AcDbLinetypeTableRecord
  2
CHAIN
 70
     0
  3
Chain ____ _ ____ _ ____ _ ____ _ ____ _ ____
 72
    65
 73
     4
 40
0.7087
 49
0.4724000000000001
 74
     0
 49
-0.0591
 74
     0
 49
0.1181
 74
     0
 49
-0.0591
 74
     0
  0
LTYPE
  5
7E
330
5
100
AcDbSymbolTableRecord
100
AcDbLinetypeTableRecord
  2
DASH_DOT
 70
     0
  3
Dash dot __ . __ . __ . __ . __ . __ . __ . __
 72
    65
 73
     4
 40
0.37
 49
0.24
 74
     0
 49
-0.06
 74
     0
 49
0.01
 74
     0
 49
-0.06
 74
     0
  0
LTYPE
  5
7F
330
5
100
AcDbSymbolTableRecord
100
AcDbLinetypeTableRecord
  2
DOUBLE_DASH_DOT
 70
     0
  3
Double-Dash Dot __ __ . __ __ . __ __ . __ _
 72
    65
 73
     6
 40
0.4398
 49
0.24
 74
     0
 49
-0.06
 74
     0
 49
0.0098
 74
     0
 49
-0.06
 74
     0
 49
0.01
 74
     0
 49
-0.06
 74
     0
  0
LTYPE
  5
80
330
5
100
AcDbSymbolTableRecord
100
AcDbLinetypeTableRecord
  2
DASH_TRIPLE_DOT
 70
     0
  3
Dash Triple-Dot _ . . . _ . . . _ . . . _
 72
    65
 73
     8
 40
0.51
 49
0.24
 74
     0
 49
-0.06
 74
     0
 49
0.01
 74
     0
 49
-0.06
 74
     0
 49
0.01
 74
     0
 49
-0.06
 74
     0
 49
0.01
 74
     0
 49
-0.06
 74
     0
  0
LTYPE
  5
81
330
5
100
AcDbSymbolTableRecord
100
AcDbLinetypeTableRecord
  2
DASHED
 70
     0
  3
Dashed __ __ __ __ __ __ __ __ __ __ __ __ __ _
 72
    65
 73
     2
 40
0.2067
 49
0.1654
 74
     0
 49
-0.0413
 74
     0
  0
LTYPE
  5
82
330
5
100
AcDbSymbolTableRecord
100
AcDbLinetypeTableRecord
  2
DASH_DOUBLE_DOT
 70
     0
  3
Dash Double-Dot __ . . __ . . __ . . __ . .
 72
    65
 73
     6
 40
0.4398
 49
0.24
 74
     0
 49
-0.06
 74
     0
 49
0.0098
 74
     0
 49
-0.06
 74
     0
 49
0.01
 74
     0
 49
-0.06
 74
     0
  0
LTYPE
  5
83
330
5
100
AcDbSymbolTableRecord
100
AcDbLinetypeTableRecord
  2
DASHED_SPACE
 70
     0
  3
Dashed Space __ __ __ __ __ __ __ __ __ __ __ _
 72
    65
 73
     2
 40
0.2067
 49
0.1654
 74
     0
 49
-0.0413
 74
     0
  0
LTYPE
  5
84
330
5
100
AcDbSymbolTableRecord
100
AcDbLinetypeTableRecord
  2
DOTTED
 70
     0
  3
Dotted . . . . . . . . . . . . . . . . . . . . 
 72
    65
 73
     2
 40
0.0482
 49
0.0069
 74
     0
 49
-0.0413
 74
     0
  0
LTYPE
  5
85
330
5
100
AcDbSymbolTableRecord
100
AcDbLinetypeTableRecord
  2
DOUBLE_DASH_CHAIN
 70
     0
  3
Double-Dash Chain ______  __  __  ______  __  _
 72
    65
 73
     6
 40
1.240299999999999
 49
0.6614
 74
     0
 49
-0.0827
 74
     0
 49
0.1654
 74
     0
 49
-0.0827
 74
     0
 49
0.1654
 74
     0
 49
-0.0827
 74
     0
  0
LTYPE
  5
87
330
5
100
AcDbSymbolTableRecord
100
AcDbLinetypeTableRecord
  2
DOUBLE_DASH_DOUBLE_DOT
 70
     0
  3
Double-Dash Double-dot _ _ . . _ _ . . _
 72
    65
 73
     8
 40
0.7400000000000001
 49
0.24
 74
     0
 49
-0.06
 74
     0
 49
0.24
 74
     0
 49
-0.06
 74
     0
 49
0.01
 74
     0
 49
-0.06
 74
     0
 49
0.01
 74
     0
 49
-0.06
 74
     0
  0
LTYPE
  5
88
330
5
100
AcDbSymbolTableRecord
100
AcDbLinetypeTableRecord
  2
DOUBLE_DASH_TRIPLE_DOT
 70
     0
  3
Double Dash Triple Dot __ __ . . . __ __ . .
 72
    65
 73
    10
 40
0.8100000000000001
 49
0.24
 74
     0
 49
-0.06
 74
     0
 49
0.24
 74
     0
 49
-0.06
 74
     0
 49
0.01
 74
     0
 49
-0.06
 74
     0
 49
0.01
 74
     0
 49
-0.06
 74
     0
 49
0.01
 74
     0
 49
-0.06
 74
     0
  0
LTYPE
  5
89
330
5
100
AcDbSymbolTableRecord
100
AcDbLinetypeTableRecord
  2
LONG_DASH_DOTTED
 70
     0
  3
Long Dash Dotted ____ . ____ . ____ . ____ . _
 72
    65
 73
     4
 40
0.3543
 49
0.2362
 74
     0
 49
-0.0295
 74
     0
 49
0.0591
 74
     0
 49
-0.0295
 74
     0
  0
LTYPE
  5
8A
330
5
100
AcDbSymbolTableRecord
100
AcDbLinetypeTableRecord
  2
LONG_DASH_DOUBLE_DOT
 70
     0
  3
Long Dash Double Dot ________  .  .  ________  
 72
    65
 73
     6
 40
0.6799999999999999
 49
0.48
 74
     0
 49
-0.06
 74
     0
 49
0.01
 74
     0
 49
-0.06
 74
     0
 49
0.01
 74
     0
 49
-0.06
 74
     0
  0
LTYPE
  5
8B
330
5
100
AcDbSymbolTableRecord
100
AcDbLinetypeTableRecord
  2
LONG_DASH_TRIPLE_DOT
 70
     0
  3
Long Dash Triple Dot ____ ... ____ ... ____
 72
    65
 73
     8
 40
0.3689
 49
0.2362
 74
     0
 49
-0.0295
 74
     0
 49
0.0049
 74
     0
 49
-0.0295
 74
     0
 49
0.0049
 74
     0
 49
-0.0295
 74
     0
 49
0.0049
 74
     0
 49
-0.0295
 74
     0
  0
LTYPE
  5
8C
330
5
100
AcDbSymbolTableRecord
100
AcDbLinetypeTableRecord
  2
BORDER
 70
     0
  3
Border __ __ . __ __ . __ __ . __ __ . __ __ .
 72
    65
 73
     6
 40
1.75
 49
0.5
 74
     0
 49
-0.25
 74
     0
 49
0.5
 74
     0
 49
-0.25
 74
     0
 49
0.0
 74
     0
 49
-0.25
 74
     0
  0
LTYPE
  5
8D
330
5
100
AcDbSymbolTableRecord
100
AcDbLinetypeTableRecord
  2
BORDER2
 70
     0
  3
Border (.5x) __.__.__.__.__.__.__.__.__.__.__.
 72
    65
 73
     6
 40
0.875
 49
0.25
 74
     0
 49
-0.125
 74
     0
 49
0.25
 74
     0
 49
-0.125
 74
     0
 49
0.0
 74
     0
 49
-0.125
 74
     0
  0
LTYPE
  5
8E
330
5
100
AcDbSymbolTableRecord
100
AcDbLinetypeTableRecord
  2
BORDERX2
 70
     0
  3
Border (2x) ____  ____  .  ____  ____  .  ___
 72
    65
 73
     6
 40
3.5
 49
1.0
 74
     0
 49
-0.5
 74
     0
 49
1.0
 74
     0
 49
-0.5
 74
     0
 49
0.0
 74
     0
 49
-0.5
 74
     0
  0
LTYPE
  5
8F
330
5
100
AcDbSymbolTableRecord
100
AcDbLinetypeTableRecord
  2
CENTER
 70
     0
  3
Center ____ _ ____ _ ____ _ ____ _ ____ _ ____
 72
    65
 73
     4
 40
2.0
 49
1.25
 74
     0
 49
-0.25
 74
     0
 49
0.25
 74
     0
 49
-0.25
 74
     0
  0
LTYPE
  5
90
330
5
100
AcDbSymbolTableRecord
100
AcDbLinetypeTableRecord
  2
CENTER2
 70
     0
  3
Center (.5x) ___ _ ___ _ ___ _ ___ _ ___ _ ___
 72
    65
 73
     4
 40
1.125
 49
0.75
 74
     0
 49
-0.125
 74
     0
 49
0.125
 74
     0
 49
-0.125
 74
     0
  0
LTYPE
  5
91
330
5
100
AcDbSymbolTableRecord
100
AcDbLinetypeTableRecord
  2
CENTERX2
 70
     0
  3
Center (2x) ________  __  ________  __  _____
 72
    65
 73
     4
 40
4.0
 49
2.5
 74
     0
 49
-0.5
 74
     0
 49
0.5
 74
     0
 49
-0.5
 74
     0
  0
LTYPE
  5
92
330
5
100
AcDbSymbolTableRecord
100
AcDbLinetypeTableRecord
  2
DASHDOT2
 70
     0
  3
Dash dot (.5x) _._._._._._._._._._._._._._._.
 72
    65
 73
     4
 40
0.5
 49
0.25
 74
     0
 49
-0.125
 74
     0
 49
0.0
 74
     0
 49
-0.125
 74
     0
  0
LTYPE
  5
93
330
5
100
AcDbSymbolTableRecord
100
AcDbLinetypeTableRecord
  2
DASHDOTX2
 70
     0
  3
Dash dot (2x) ____  .  ____  .  ____  .  ___
 72
    65
 73
     4
 40
2.0
 49
1.0
 74
     0
 49
-0.5
 74
     0
 49
0.0
 74
     0
 49
-0.5
 74
     0
  0
LTYPE
  5
95
330
5
100
AcDbSymbolTableRecord
100
AcDbLinetypeTableRecord
  2
DASHED2
 70
     0
  3
Dashed (.5x) _ _ _ _ _ _ _ _ _ _ _ _ _ _ _ _ _
 72
    65
 73
     2
 40
0.375
 49
0.25
 74
     0
 49
-0.125
 74
     0
  0
LTYPE
  5
96
330
5
100
AcDbSymbolTableRecord
100
AcDbLinetypeTableRecord
  2
DASHEDX2
 70
     0
  3
Dashed (2x) ____  ____  ____  ____  ____  ___
 72
    65
 73
     2
 40
1.5
 49
1.0
 74
     0
 49
-0.5
 74
     0
  0
LTYPE
  5
97
330
5
100
AcDbSymbolTableRecord
100
AcDbLinetypeTableRecord
  2
DIVIDE
 70
     0
  3
Divide ____ . . ____ . . ____ . . ____ . . ____
 72
    65
 73
     6
 40
1.25
 49
0.5
 74
     0
 49
-0.25
 74
     0
 49
0.0
 74
     0
 49
-0.25
 74
     0
 49
0.0
 74
     0
 49
-0.25
 74
     0
  0
LTYPE
  5
98
330
5
100
AcDbSymbolTableRecord
100
AcDbLinetypeTableRecord
  2
DIVIDE2
 70
     0
  3
Divide (.5x) __..__..__..__..__..__..__..__.._
 72
    65
 73
     6
 40
0.625
 49
0.25
 74
     0
 49
-0.125
 74
     0
 49
0.0
 74
     0
 49
-0.125
 74
     0
 49
0.0
 74
     0
 49
-0.125
 74
     0
  0
LTYPE
  5
99
330
5
100
AcDbSymbolTableRecord
100
AcDbLinetypeTableRecord
  2
DIVIDEX2
 70
     0
  3
Divide (2x) ________  .  .  ________  .  .  _
 72
    65
 73
     6
 40
2.5
 49
1.0
 74
     0
 49
-0.5
 74
     0
 49
0.0
 74
     0
 49
-0.5
 74
     0
 49
0.0
 74
     0
 49
-0.5
 74
     0
  0
LTYPE
  5
9A
330
5
100
AcDbSymbolTableRecord
100
AcDbLinetypeTableRecord
  2
DOT
 70
     0
  3
Dot . . . . . . . . . . . . . . . . . . . . . .
 72
    65
 73
     2
 40
0.25
 49
0.0
 74
     0
 49
-0.25
 74
     0
  0
LTYPE
  5
9B
330
5
100
AcDbSymbolTableRecord
100
AcDbLinetypeTableRecord
  2
DOT2
 70
     0
  3
Dot (.5x) .....................................
 72
    65
 73
     2
 40
0.125
 49
0.0
 74
     0
 49
-0.125
 74
     0
  0
LTYPE
  5
9C
330
5
100
AcDbSymbolTableRecord
100
AcDbLinetypeTableRecord
  2
DOTX2
 70
     0
  3
Dot (2x) .  .  .  .  .  .  .  .  .  .  .  .  . 
 72
    65
 73
     2
 40
0.5
 49
0.0
 74
     0
 49
-0.5
 74
     0
  0
LTYPE
  5
9D
330
5
100
AcDbSymbolTableRecord
100
AcDbLinetypeTableRecord
  2
HIDDEN
 70
     0
  3
Hidden __ __ __ __ __ __ __ __ __ __ __ __ __ _
 72
    65
 73
     2
 40
0.375
 49
0.25
 74
     0
 49
-0.125
 74
     0
  0
LTYPE
  5
9E
330
5
100
AcDbSymbolTableRecord
100
AcDbLinetypeTableRecord
  2
HIDDEN2
 70
     0
  3
Hidden (.5x) _ _ _ _ _ _ _ _ _ _ _ _ _ _ _ _ _
 72
    65
 73
     2
 40
0.1875
 49
0.125
 74
     0
 49
-0.0625
 74
     0
  0
LTYPE
  5
9F
330
5
100
AcDbSymbolTableRecord
100
AcDbLinetypeTableRecord
  2
HIDDENX2
 70
     0
  3
Hidden (2x) ____ ____ ____ ____ ____ ____ ____
 72
    65
 73
     2
 40
0.75
 49
0.5
 74
     0
 49
-0.25
 74
     0
  0
LTYPE
  5
A0
330
5
100
AcDbSymbolTableRecord
100
AcDbLinetypeTableRecord
  2
PHANTOM
 70
     0
  3
Phantom ______  __  __  ______  __  __  ______
 72
    65
 73
     6
 40
2.5
 49
1.25
 74
     0
 49
-0.25
 74
     0
 49
0.25
 74
     0
 49
-0.25
 74
     0
 49
0.25
 74
     0
 49
-0.25
 74
     0
  0
LTYPE
  5
A1
330
5
100
AcDbSymbolTableRecord
100
AcDbLinetypeTableRecord
  2
PHANTOM2
 70
     0
  3
Phantom (.5x) ___ _ _ ___ _ _ ___ _ _ ___ _ _
 72
    65
 73
     6
 40
1.25
 49
0.625
 74
     0
 49
-0.125
 74
     0
 49
0.125
 74
     0
 49
-0.125
 74
     0
 49
0.125
 74
     0
 49
-0.125
 74
     0
  0
LTYPE
  5
A2
330
5
100
AcDbSymbolTableRecord
100
AcDbLinetypeTableRecord
  2
PHANTOMX2
 70
     0
  3
Phantom (2x) ____________    ____    ____   _
 72
    65
 73
     6
 40
5.0
 49
2.5
 74
     0
 49
-0.5
 74
     0
 49
0.5
 74
     0
 49
-0.5
 74
     0
 49
0.5
 74
     0
 49
-0.5
 74
     0
  0
LTYPE
  5
A3
330
5
100
AcDbSymbolTableRecord
100
AcDbLinetypeTableRecord
  2
ACAD_ISO02W100
 70
     0
  3
ISO dash __ __ __ __ __ __ __ __ __ __ __ __ __
 72
    65
 73
     2
 40
0.59
 49
0.47
 74
     0
 49
-0.12
 74
     0
  0
LTYPE
  5
A4
330
5
100
AcDbSymbolTableRecord
100
AcDbLinetypeTableRecord
  2
ACAD_ISO03W100
 70
     0
  3
ISO dash space __    __    __    __    __    __
 72
    65
 73
     2
 40
1.179999999999999
 49
0.47
 74
     0
 49
-0.71
 74
     0
  0
LTYPE
  5
A5
330
5
100
AcDbSymbolTableRecord
100
AcDbLinetypeTableRecord
  2
ACAD_ISO04W100
 70
     0
  3
ISO long-dash dot ____ . ____ . ____ . ____ . _
 72
    65
 73
     4
 40
1.179999999999999
 49
0.9399999999999998
 74
     0
 49
-0.12
 74
     0
 49
0.0
 74
     0
 49
-0.12
 74
     0
  0
LTYPE
  5
A6
330
5
100
AcDbSymbolTableRecord
100
AcDbLinetypeTableRecord
  2
ACAD_ISO05W100
 70
     0
  3
ISO long-dash double-dot ____ .. ____ .. ____ .
 72
    65
 73
     6
 40
1.299999999999999
 49
0.9399999999999998
 74
     0
 49
-0.12
 74
     0
 49
0.0
 74
     0
 49
-0.12
 74
     0
 49
0.0
 74
     0
 49
-0.12
 74
     0
  0
LTYPE
  5
A7
330
5
100
AcDbSymbolTableRecord
100
AcDbLinetypeTableRecord
  2
ACAD_ISO06W100
 70
     0
  3
ISO long-dash triple-dot ____ ... ____ ... ____
 72
    65
 73
     8
 40
1.419999999999999
 49
0.9399999999999998
 74
     0
 49
-0.12
 74
     0
 49
0.0
 74
     0
 49
-0.12
 74
     0
 49
0.0
 74
     0
 49
-0.12
 74
     0
 49
0.0
 74
     0
 49
-0.12
 74
     0
  0
LTYPE
  5
A8
330
5
100
AcDbSymbolTableRecord
100
AcDbLinetypeTableRecord
  2
ACAD_ISO07W100
 70
     0
  3
ISO dot . . . . . . . . . . . . . . . . . . . .
 72
    65
 73
     2
 40
0.12
 49
0.0
 74
     0
 49
-0.12
 74
     0
  0
LTYPE
  5
A9
330
5
100
AcDbSymbolTableRecord
100
AcDbLinetypeTableRecord
  2
ACAD_ISO08W100
 70
     0
  3
ISO long-dash short-dash ____ __ ____ __ ____ _
 72
    65
 73
     4
 40
0.95
 49
0.47
 74
     0
 49
-0.12
 74
     0
 49
0.24
 74
     0
 49
-0.12
 74
     0
  0
LTYPE
  5
AA
330
5
100
AcDbSymbolTableRecord
100
AcDbLinetypeTableRecord
  2
ACAD_ISO09W100
 70
     0
  3
ISO long-dash double-short-dash ____ __ __ ____
 72
    65
 73
     6
 40
1.31
 49
0.47
 74
     0
 49
-0.12
 74
     0
 49
0.24
 74
     0
 49
-0.12
 74
     0
 49
0.24
 74
     0
 49
-0.12
 74
     0
  0
LTYPE
  5
AB
330
5
100
AcDbSymbolTableRecord
100
AcDbLinetypeTableRecord
  2
ACAD_ISO10W100
 70
     0
  3
ISO dash dot __ . __ . __ . __ . __ . __ . __ .
 72
    65
 73
     4
 40
0.71
 49
0.47
 74
     0
 49
-0.12
 74
     0
 49
0.0
 74
     0
 49
-0.12
 74
     0
  0
LTYPE
  5
AC
330
5
100
AcDbSymbolTableRecord
100
AcDbLinetypeTableRecord
  2
ACAD_ISO11W100
 70
     0
  3
ISO double-dash dot __ __ . __ __ . __ __ . __ 
 72
    65
 73
     6
 40
1.299999999999999
 49
0.47
 74
     0
 49
-0.12
 74
     0
 49
0.47
 74
     0
 49
-0.12
 74
     0
 49
0.0
 74
     0
 49
-0.12
 74
     0
  0
LTYPE
  5
AD
330
5
100
AcDbSymbolTableRecord
100
AcDbLinetypeTableRecord
  2
ACAD_ISO12W100
 70
     0
  3
ISO dash double-dot __ . . __ . . __ . . __ . .
 72
    65
 73
     6
 40
0.8299999999999998
 49
0.47
 74
     0
 49
-0.12
 74
     0
 49
0.0
 74
     0
 49
-0.12
 74
     0
 49
0.0
 74
     0
 49
-0.12
 74
     0
  0
LTYPE
  5
AE
330
5
100
AcDbSymbolTableRecord
100
AcDbLinetypeTableRecord
  2
ACAD_ISO13W100
 70
     0
  3
ISO double-dash double-dot __ __ . . __ __ . . 
 72
    65
 73
     8
 40
1.419999999999999
 49
0.47
 74
     0
 49
-0.12
 74
     0
 49
0.47
 74
     0
 49
-0.12
 74
     0
 49
0.0
 74
     0
 49
-0.12
 74
     0
 49
0.0
 74
     0
 49
-0.12
 74
     0
  0
LTYPE
  5
AF
330
5
100
AcDbSymbolTableRecord
100
AcDbLinetypeTableRecord
  2
ACAD_ISO14W100
 70
     0
  3
ISO dash triple-dot __ . . . __ . . . __ . . . 
 72
    65
 73
     8
 40
0.95
 49
0.47
 74
     0
 49
-0.12
 74
     0
 49
0.0
 74
     0
 49
-0.12
 74
     0
 49
0.0
 74
     0
 49
-0.12
 74
     0
 49
0.0
 74
     0
 49
-0.12
 74
     0
  0
LTYPE
  5
B0
330
5
100
AcDbSymbolTableRecord
100
AcDbLinetypeTableRecord
  2
ACAD_ISO15W100
 70
     0
  3
ISO double-dash triple-dot __ __ . . . __ __ . 
 72
    65
 73
    10
 40
1.539999999999999
 49
0.47
 74
     0
 49
-0.12
 74
     0
 49
0.47
 74
     0
 49
-0.12
 74
     0
 49
0.0
 74
     0
 49
-0.12
 74
     0
 49
0.0
 74
     0
 49
-0.12
 74
     0
 49
0.0
 74
     0
 49
-0.12
 74
     0
  0
LTYPE
  5
B3
330
5
100
AcDbSymbolTableRecord
100
AcDbLinetypeTableRecord
  2
FENCELINE1
 70
     0
  3
Fenceline circle ----0-----0----0-----0----0---
 72
    65
 73
     4
 40
1.45
 49
0.25
 74
     0
 49
-0.1
 74
     4
 75
   133
340
B2
 46
0.1
 50
0.0
 44
-0.1
 45
0.0
 49
-0.1
 74
     0
 49
1.0
 74
     0
  0
LTYPE
  5
B4
330
5
100
AcDbSymbolTableRecord
100
AcDbLinetypeTableRecord
  2
FENCELINE2
 70
     0
  3
Fenceline square ----[]-----[]----[]-----[]----
 72
    65
 73
     4
 40
1.45
 49
0.25
 74
     0
 49
-0.1
 74
     4
 75
   132
340
B2
 46
0.1
 50
0.0
 44
-0.1
 45
0.0
 49
-0.1
 74
     0
 49
1.0
 74
     0
  0
LTYPE
  5
B5
330
5
100
AcDbSymbolTableRecord
100
AcDbLinetypeTableRecord
  2
TRACKS
 70
     0
  3
Tracks -|-|-|-|-|-|-|-|-|-|-|-|-|-|-|-|-|-|-|-|
 72
    65
 73
     2
 40
0.3
 49
0.15
 74
     4
 75
   130
340
B2
 46
0.25
 50
0.0
 44
0.0
 45
0.0
 49
0.15
 74
     0
  0
LTYPE
  5
B6
330
5
100
AcDbSymbolTableRecord
100
AcDbLinetypeTableRecord
  2
BATTING
 70
     0
  3
Batting SSSSSSSSSSSSSSSSSSSSSSSSSSSSSSSSSSSSSSS
 72
    65
 73
     4
 40
0.4001000000000001
 49
0.0001
 74
     0
 49
-0.1
 74
     4
 75
   134
340
B2
 46
0.1
 50
0.0
 44
-0.1
 45
0.0
 49
-0.2
 74
     4
 75
   134
340
B2
 46
0.1
 50
180.0
 44
0.1
 45
0.0
 49
-0.1
 74
     0
  0
LTYPE
  5
B7
330
5
100
AcDbSymbolTableRecord
100
AcDbLinetypeTableRecord
  2
HOT_WATER_SUPPLY
 70
     0
  3
Hot water supply ---- HW ---- HW ---- HW ----
 72
    65
 73
     3
 40
0.9
 49
0.5
 74
     0
 49
-0.2
 74
     2
 75
     0
340
55
 46
0.1
 50
0.0
 44
-0.1
 45
-0.05
  9
HW
 49
-0.2
 74
     0
  0
LTYPE
  5
B8
330
5
100
AcDbSymbolTableRecord
100
AcDbLinetypeTableRecord
  2
GAS_LINE
 70
     0
  3
Gas line ----GAS----GAS----GAS----GAS----GAS---
 72
    65
 73
     3
 40
0.95
 49
0.5
 74
     0
 49
-0.2
 74
     2
 75
     0
340
55
 46
0.1
 50
0.0
 44
-0.1
 45
-0.05
  9
GAS
 49
-0.25
 74
     0
  0
LTYPE
  5
B9
330
5
100
AcDbSymbolTableRecord
100
AcDbLinetypeTableRecord
  2
ZIGZAG
 70
     0
  3
Zig zag /\/\/\/\/\/\/\/\/\/\/\/\/\/\/\/\/\/\/\/
 72
    65
 73
     4
 40
0.8001000000000001
 49
0.0001
 74
     0
 49
-0.2
 74
     4
 75
   131
340
B2
 46
0.2
 50
0.0
 44
-0.2
 45
0.0
 49
-0.4
 74
     4
 75
   131
340
B2
 46
0.2
 50
180.0
 44
0.2
 45
0.0
 49
-0.2
 74
     0
  0
ENDTAB
  0
TABLE
  2
LAYER
  5
2
330
0
100
AcDbSymbolTable
 70
    27
  0
LAYER
  5
54
330
2
100
AcDbSymbolTableRecord
100
AcDbLayerTableRecord
  2
0
 70
     0
 62
     7
  6
Continuous
370
    18
390
F
347
21
  0
LAYER
  5
C0
330
2
100
AcDbSymbolTableRecord
100
AcDbLayerTableRecord
  2
Center Mark (ANSI)
 70
     0
 62
     7
  6
Continuous
370
    15
390
F
347
21
  0
LAYER
  5
C1
330
2
100
AcDbSymbolTableRecord
100
AcDbLayerTableRecord
  2
Centerline (ANSI)
 70
     0
 62
     7
  6
Continuous
370
    15
390
F
347
21
  0
LAYER
  5
C3
330
2
100
AcDbSymbolTableRecord
100
AcDbLayerTableRecord
  2
Dimension (ANSI)
 70
     0
 62
     7
  6
Continuous
370
    13
390
F
347
21
  0
LAYER
  5
C5
330
2
100
AcDbSymbolTableRecord
100
AcDbLayerTableRecord
  2
Hidden (ANSI)
 70
     0
 62
     7
  6
DASHED
370
    15
390
F
347
21
  0
LAYER
  5
CC
330
2
100
AcDbSymbolTableRecord
100
AcDbLayerTableRecord
  2
Symbol (ANSI)
 70
     0
 62
     7
  6
Continuous
370
    18
390
F
347
21
  0
LAYER
  5
CF
330
2
100
AcDbSymbolTableRecord
100
AcDbLayerTableRecord
  2
Visible (ANSI)
 70
     0
 62
     7
  6
Continuous
370
    13
390
F
347
21
  0
LAYER
  5
D0
330
2
100
AcDbSymbolTableRecord
100
AcDbLayerTableRecord
  2
Visible Narrow (ANSI)
 70
     0
 62
     7
  6
Continuous
370
    18
390
F
347
21
  0
LAYER
  5
551
330
2
100
AcDbSymbolTableRecord
100
AcDbLayerTableRecord
  2
Defpoints
 70
     0
 62
     7
  6
Continuous
290
     0
370
    -3
390
F
347
21
  0
ENDTAB
  0
TABLE
  2
STYLE
  5
3
330
0
100
AcDbSymbolTable
 70
    18
  0
STYLE
  5
55
330
3
100
AcDbSymbolTableRecord
100
AcDbTextStyleTableRecord
  2
Standard
 70
     0
 40
0.0
 41
1.0
 50
0.0
 71
     0
 42
0.2
  3
txt
  4

  0
STYLE
  5
5A
330
3
100
AcDbSymbolTableRecord
100
AcDbTextStyleTableRecord
  2
Annotative
 70
     0
 40
0.0
 41
1.0
 50
0.0
 71
     0
 42
0.2
  3
txt
  4

1001
AcadAnnotative
1000
AnnotativeData
1002
{
1070
     1
1070
     1
1002
}
  0
STYLE
  5
B2
330
3
100
AcDbSymbolTableRecord
100
AcDbTextStyleTableRecord
  2

 70
     1
 40
0.0
 41
1.0
 50
0.0
 71
     0
 42
0.2
  3
ltypeshp.shx
  4

  0
STYLE
  5
D4
330
3
100
AcDbSymbolTableRecord
100
AcDbTextStyleTableRecord
  2
ITALICC_120
 70
     0
 40
0.0
 41
1.0
 50
0.0
 71
     0
 42
0.2
  3
italicc.shx
  4

  0
STYLE
  5
D5
330
3
100
AcDbSymbolTableRecord
100
AcDbTextStyleTableRecord
  2
Label Text (ANSI)
 70
     0
 40
0.0
 41
1.0
 50
0.0
 71
     0
 42
0.2
  3
tahoma.ttf
  4

1001
ACAD
1000
Tahoma
1071
      256
  0
STYLE
  5
D6
330
3
100
AcDbSymbolTableRecord
100
AcDbTextStyleTableRecord
  2
Note Text (ANSI)
 70
     0
 40
0.0
 41
1.0
 50
0.0
 71
     0
 42
0.2
  3
tahoma.ttf
  4

1001
ACAD
1000
Tahoma
1071
      256
  0
STYLE
  5
D7
330
3
100
AcDbSymbolTableRecord
100
AcDbTextStyleTableRecord
  2
ROMANS
 70
     0
 40
0.0
 41
1.0
 50
0.0
 71
     0
 42
0.2
  3
romans.shx
  4

  0
STYLE
  5
D8
330
3
100
AcDbSymbolTableRecord
100
AcDbTextStyleTableRecord
  2
SANSSERIF_114
 70
     0
 40
0.0
 41
1.0
 50
0.0
 71
     0
 42
0.2
  3
tahoma.ttf
  4

1001
ACAD
1000
Tahoma
1071
      256
  0
STYLE
  5
D9
330
3
100
AcDbSymbolTableRecord
100
AcDbTextStyleTableRecord
  2
SANSSERIF_117
 70
     0
 40
0.0
 41
1.0
 50
0.0
 71
     0
 42
0.2
  3
tahoma.ttf
  4

1001
ACAD
1000
Tahoma
1071
      256
  0
STYLE
  5
DA
330
3
100
AcDbSymbolTableRecord
100
AcDbTextStyleTableRecord
  2
STANDARDAM_ANSI
 70
     0
 40
0.0
 41
1.0
 50
0.0
 71
     0
 42
0.2
  3
txt.shx
  4

  0
STYLE
  5
DB
330
3
100
AcDbSymbolTableRecord
100
AcDbTextStyleTableRecord
  2
StandardAM_ANSI$0
 70
     0
 40
0.0
 41
1.0
 50
0.0
 71
     0
 42
0.2
  3
txt.shx
  4

  0
STYLE
  5
DC
330
3
100
AcDbSymbolTableRecord
100
AcDbTextStyleTableRecord
  2
STANDARDAM_ANSI$3
 70
     0
 40
0.0
 41
1.0
 50
0.0
 71
     0
 42
0.2
  3
txt.shx
  4

  0
STYLE
  5
DD
330
3
100
AcDbSymbolTableRecord
100
AcDbTextStyleTableRecord
  2
STANDARDAM_ANSI$4
 70
     0
 40
0.0
 41
1.0
 50
0.0
 71
     0
 42
0.2
  3
txt.shx
  4

  0
STYLE
  5
DE
330
3
100
AcDbSymbolTableRecord
100
AcDbTextStyleTableRecord
  2
STANDARDAM_ANSI$7
 70
     0
 40
0.0
 41
1.0
 50
0.0
 71
     0
 42
0.2
  3
txt.shx
  4

  0
STYLE
  5
DF
330
3
100
AcDbSymbolTableRecord
100
AcDbTextStyleTableRecord
  2
STANDARDAM_ANSI$SF
 70
     0
 40
0.0
 41
1.0
 50
0.0
 71
     0
 42
0.2
  3
txt.shx
  4

  0
STYLE
  5
E0
330
3
100
AcDbSymbolTableRecord
100
AcDbTextStyleTableRecord
  2
STANDARDAM_ANSI$SH
 70
     0
 40
0.0
 41
1.0
 50
0.0
 71
     0
 42
0.2
  3
txt.shx
  4

  0
STYLE
  5
E1
330
3
100
AcDbSymbolTableRecord
100
AcDbTextStyleTableRecord
  2
STANDARDSTANDARD
 70
     0
 40
0.0
 41
1.0
 50
0.0
 71
     0
 42
0.2
  3
txt.shx
  4

  0
STYLE
  5
2E1
330
3
100
AcDbSymbolTableRecord
100
AcDbTextStyleTableRecord
  2
Text Style153
 70
     0
 40
0.0
 41
1.0
 50
0.0
 71
     0
 42
0.2
  3
tahoma.ttf
  4

1001
ACAD
1000
Tahoma
1071
      256
  0
ENDTAB
  0
TABLE
  2
VIEW
  5
6
330
0
100
AcDbSymbolTable
 70
     0
  0
ENDTAB
  0
TABLE
  2
UCS
  5
7
330
0
100
AcDbSymbolTable
 70
     0
  0
ENDTAB
  0
TABLE
  2
APPID
  5
9
330
0
100
AcDbSymbolTable
 70
     3
  0
APPID
  5
56
330
9
100
AcDbSymbolTableRecord
100
AcDbRegAppTableRecord
  2
ACAD
 70
     0
  0
APPID
  5
5E
330
9
100
AcDbSymbolTableRecord
100
AcDbRegAppTableRecord
  2
AcadAnnotative
 70
     0
  0
APPID
  5
C66
330
9
100
AcDbSymbolTableRecord
100
AcDbRegAppTableRecord
  2
ACAD_DSTYLE_DIMRADIAL_EXTENSION
 70
     0
  0
ENDTAB
  0
TABLE
  2
DIMSTYLE
  5
A
330
0
100
AcDbSymbolTable
 70
    27
100
AcDbDimStyleTable
 71
     2
340
F6
340
58
  0
DIMSTYLE
105
58
330
A
100
AcDbSymbolTableRecord
100
AcDbDimStyleTableRecord
  2
STANDARD
 70
     0
 41
0.1800000071525573
 42
0.0625
140
0.1800000071525574
144
1.0
147
0.0900000035762787
176
   256
177
   256
178
   256
274
     3
340
55
371
    -1
372
    -1
  0
DIMSTYLE
105
59
330
A
100
AcDbSymbolTableRecord
100
AcDbDimStyleTableRecord
  2
Annotative
 70
     0
340
55
1001
AcadAnnotative
1000
AnnotativeData
1002
{
1070
     1
1070
     1
1002
}
  0
DIMSTYLE
105
E2
330
A
100
AcDbSymbolTableRecord
100
AcDbDimStyleTableRecord
  2
AM_ANSI
 70
     0
  4
 mm
 40
12.0
 41
0.119999997317791
 42
0.05
 43
0.5
 44
0.1
 45
0.00000001
 78
     4
 79
     2
140
0.1200000047683716
146
0.7099999189376831
147
0.0599999986588955
176
   256
177
   256
178
     2
284
     4
340
DA
371
    -1
372
    -1
  0
DIMSTYLE
105
E3
330
A
100
AcDbSymbolTableRecord
100
AcDbDimStyleTableRecord
  2
AM_ANSI$7
 70
     0
  4
 mm
 40
12.0
 41
0.119999997317791
 42
0.05
 43
0.5
 44
0.1
 45
0.00000001
 78
     4
 79
     2
140
0.1200000047683716
146
0.7099999189376831
147
0.0599999986588955
176
   256
177
   256
178
     2
284
     4
340
DA
371
    -1
372
    -1
  0
DIMSTYLE
105
E4
330
A
100
AcDbSymbolTableRecord
100
AcDbDimStyleTableRecord
  2
AM_ANSI$0
 70
     0
  4
 mm
 40
12.0
 41
0.119999997317791
 42
0.05
 43
0.5
 44
0.1
 45
0.00000001
 78
     4
 79
     2
140
0.1200000047683716
146
0.7099999189376831
147
0.0599999986588955
176
   256
177
   256
178
     2
284
     4
340
DB
371
    -1
372
    -1
  0
DIMSTYLE
105
E5
330
A
100
AcDbSymbolTableRecord
100
AcDbDimStyleTableRecord
  2
AM_ANSI$0$7
 70
     0
  4
 mm
 40
12.0
 41
0.119999997317791
 42
0.05
 43
0.5
 44
0.1
 45
0.00000001
 78
     4
 79
     2
140
0.1200000047683716
146
0.7099999189376831
147
0.0599999986588955
176
   256
177
   256
178
     2
284
     4
340
DB
371
    -1
372
    -1
  0
DIMSTYLE
105
E6
330
A
100
AcDbSymbolTableRecord
100
AcDbDimStyleTableRecord
  2
AM_ANSI$3
 70
     0
  4
 mm
 40
12.0
 41
0.119999997317791
 42
0.05
 43
0.5
 44
0.1
 45
0.00000001
 78
     4
 79
     2
140
0.1200000047683716
146
0.7099999189376831
147
0.0599999986588955
176
   256
177
   256
178
     2
284
     4
340
DC
371
    -1
372
    -1
  0
DIMSTYLE
105
E7
330
A
100
AcDbSymbolTableRecord
100
AcDbDimStyleTableRecord
  2
AM_ANSI$3$7
 70
     0
  4
 mm
 40
12.0
 41
0.119999997317791
 42
0.05
 43
0.5
 44
0.1
 45
0.00000001
 78
     4
 79
     2
140
0.1200000047683716
146
0.7099999189376831
147
0.0599999986588955
176
   256
177
   256
178
     2
284
     4
340
DC
371
    -1
372
    -1
  0
DIMSTYLE
105
E8
330
A
100
AcDbSymbolTableRecord
100
AcDbDimStyleTableRecord
  2
AM_ANSI$4
 70
     0
  4
 mm
 40
12.0
 41
0.119999997317791
 42
0.05
 43
0.5
 44
0.1
 45
0.00000001
 78
     4
 79
     2
140
0.1200000047683716
146
0.7099999189376831
147
0.0599999986588955
176
   256
177
   256
178
     2
284
     4
340
DD
371
    -1
372
    -1
  0
DIMSTYLE
105
E9
330
A
100
AcDbSymbolTableRecord
100
AcDbDimStyleTableRecord
  2
AM_ANSI$4$7
 70
     0
  4
 mm
 40
12.0
 41
0.119999997317791
 42
0.05
 43
0.5
 44
0.1
 45
0.00000001
 78
     4
 79
     2
140
0.1200000047683716
146
0.7099999189376831
147
0.0599999986588955
176
   256
177
   256
178
     2
284
     4
340
DD
371
    -1
372
    -1
  0
DIMSTYLE
105
EA
330
A
100
AcDbSymbolTableRecord
100
AcDbDimStyleTableRecord
  2
AM_ANSI$SF
 70
     0
  4
 mm
 40
12.0
 41
0.119999997317791
 42
0.05
 43
0.5
 44
0.1
 45
0.00000001
 75
     1
 76
     1
 78
     4
 79
     2
140
0.1200000047683716
146
0.7099999189376831
147
0.0599999986588955
176
   256
177
   256
178
     2
284
     4
340
DF
371
    -1
372
    -1
  0
DIMSTYLE
105
EB
330
A
100
AcDbSymbolTableRecord
100
AcDbDimStyleTableRecord
  2
AM_ANSI$SF$7
 70
     0
  4
 mm
 40
12.0
 41
0.119999997317791
 42
0.05
 43
0.5
 44
0.1
 45
0.00000001
 75
     1
 76
     1
 78
     4
 79
     2
140
0.1200000047683716
146
0.7099999189376831
147
0.0599999986588955
176
   256
177
   256
178
     2
284
     4
340
DF
371
    -1
372
    -1
  0
DIMSTYLE
105
EC
330
A
100
AcDbSymbolTableRecord
100
AcDbDimStyleTableRecord
  2
AM_ANSI$SH
 70
     0
  4
 mm
 40
12.0
 41
0.119999997317791
 42
0.05
 43
0.5
 44
0.1
 45
0.00000001
 75
     1
 76
     1
 78
     4
 79
     2
140
0.1200000047683716
146
0.7099999189376831
147
0.0599999986588955
176
   256
177
   256
178
     2
284
     4
340
E0
371
    -1
372
    -1
  0
DIMSTYLE
105
ED
330
A
100
AcDbSymbolTableRecord
100
AcDbDimStyleTableRecord
  2
AM_ANSI$SH$7
 70
     0
  4
 mm
 40
12.0
 41
0.119999997317791
 42
0.05
 43
0.5
 44
0.1
 45
0.00000001
 75
     1
 76
     1
 78
     4
 79
     2
140
0.1200000047683716
146
0.7099999189376831
147
0.0599999986588955
176
   256
177
   256
178
     2
284
     4
340
E0
371
    -1
372
    -1
  0
DIMSTYLE
105
EE
330
A
100
AcDbSymbolTableRecord
100
AcDbDimStyleTableRecord
  2
Architectural (ANSI)
 70
     0
 40
12.0
 41
0.0984251946210861
 43
0.2362204724409449
 44
0.125
 45
0.00000001
 46
0.3937007874015748
 78
     3
 79
     3
140
0.1200000047683716
147
0.031496062992126
171
     1
176
   256
177
   256
178
   256
272
     2
274
     1
276
     2
277
     4
284
    12
285
     4
286
    12
340
D6
371
    -1
372
    -1
  0
DIMSTYLE
105
EF
330
A
100
AcDbSymbolTableRecord
100
AcDbDimStyleTableRecord
  2
Architectural (ANSI)$7
 70
     0
 40
12.0
 41
0.0984251946210861
 43
0.2362204724409449
 44
0.125
 45
0.00000001
 46
0.3937007874015748
 78
     3
 79
     3
140
0.1200000047683716
147
0.031496062992126
171
     1
176
   256
177
   256
178
   256
272
     2
274
     1
276
     2
277
     4
284
    12
285
     4
286
    12
340
D6
371
    -1
372
    -1
  0
DIMSTYLE
105
F0
330
A
100
AcDbSymbolTableRecord
100
AcDbDimStyleTableRecord
  2
Default - Fraction (ANSI)
 70
     0
 40
12.0
 41
0.0984251946210861
 43
0.2362204724409449
 44
0.125
 45
0.00000001
 46
0.3937007874015748
 79
     3
140
0.1200000047683716
147
0.031496062992126
171
     1
176
   256
177
   256
178
   256
272
     2
274
     1
276
     2
277
     5
284
    12
285
     4
286
    12
340
D6
371
    -1
372
    -1
  0
DIMSTYLE
105
F1
330
A
100
AcDbSymbolTableRecord
100
AcDbDimStyleTableRecord
  2
Default - Fraction (ANSI)$7
 70
     0
 40
12.0
 41
0.0984251946210861
 43
0.2362204724409449
 44
0.125
 45
0.00000001
 46
0.3937007874015748
 79
     3
140
0.1200000047683716
147
0.031496062992126
171
     1
176
   256
177
   256
178
   256
272
     2
274
     1
276
     2
277
     5
284
    12
285
     4
286
    12
340
D6
371
    -1
372
    -1
  0
DIMSTYLE
105
F2
330
A
100
AcDbSymbolTableRecord
100
AcDbDimStyleTableRecord
  2
Default - mm (ANSI)
 70
     0
 40
12.0
 41
0.0984251946210861
 42
0.063
 43
0.2362204724409449
 44
0.125
 45
0.00000001
 46
0.3937007874015748
 73
     0
 78
     4
 79
     1
140
0.1200000047683716
143
1.0
144
25.4
147
0.031496062992126
171
     1
176
   256
177
   256
178
   256
179
     1
271
     2
272
     2
274
     1
284
     4
285
     4
340
D6
371
    -1
372
    -1
  0
DIMSTYLE
105
F3
330
A
100
AcDbSymbolTableRecord
100
AcDbDimStyleTableRecord
  2
Default - mm (ANSI)$7
 70
     0
 40
12.0
 41
0.0984251946210861
 42
0.063
 43
0.2362204724409449
 44
0.125
 45
0.00000001
 46
0.3937007874015748
 73
     0
 78
     4
 79
     1
140
0.1200000047683716
143
1.0
144
25.4
147
0.031496062992126
171
     1
176
   256
177
   256
178
   256
179
     1
271
     2
272
     2
274
     1
284
     4
285
     4
340
D6
371
    -1
372
    -1
  0
DIMSTYLE
105
F4
330
A
100
AcDbSymbolTableRecord
100
AcDbDimStyleTableRecord
  2
Default - mm [in] (ANSI)
 70
     0
  4
 in
 40
12.0
 41
0.0984251946210861
 42
0.063
 43
0.25
 44
0.125
 45
0.00000001
 46
0.3937007874015748
 73
     0
 78
     4
 79
     1
140
0.1200000047683716
143
0.03937
144
25.4
147
0.031496062992126
170
     1
171
     3
176
   256
177
   256
178
   256
179
     1
271
     2
272
     2
274
     3
284
     4
285
     4
286
     4
340
D6
371
    -1
372
    -1
  0
DIMSTYLE
105
F5
330
A
100
AcDbSymbolTableRecord
100
AcDbDimStyleTableRecord
  2
Default - mm [in] (ANSI)$7
 70
     0
  4
 in
 40
12.0
 41
0.0984251946210861
 42
0.063
 43
0.25
 44
0.125
 45
0.00000001
 46
0.3937007874015748
 73
     0
 78
     4
 79
     1
140
0.1200000047683716
143
0.03937
144
25.4
147
0.031496062992126
170
     1
171
     3
176
   256
177
   256
178
   256
179
     1
271
     2
272
     2
274
     3
284
     4
285
     4
286
     4
340
D6
371
    -1
372
    -1
  0
DIMSTYLE
105
F6
102
{ACAD_REACTORS
330
54F
330
63B
330
725
330
80F
330
90F
330
9F9
330
AE3
330
BCD
330
C87
330
D90
102
}
330
A
100
AcDbSymbolTableRecord
100
AcDbDimStyleTableRecord
  2
Default (ANSI)
 70
     0
 40
12.0
 41
0.0984251946210861
 43
0.2362204724409449
 44
0.125
 45
0.00000001
 46
0.3937007874015748
 79
     1
140
0.1200000047683716
147
0.031496062992126
171
     1
176
   256
177
   256
178
   256
271
     2
272
     2
274
     1
284
     4
285
     4
340
D6
371
    -1
372
    -1
  0
DIMSTYLE
105
F7
330
A
100
AcDbSymbolTableRecord
100
AcDbDimStyleTableRecord
  2
Default (ANSI)$7
 70
     0
 40
12.0
 41
0.0984251946210861
 43
0.2362204724409449
 44
0.125
 45
0.00000001
 46
0.3937007874015748
 79
     1
140
0.1200000047683716
147
0.031496062992126
171
     1
176
   256
177
   256
178
   256
271
     2
272
     2
274
     1
284
     4
285
     4
340
D6
371
    -1
372
    -1
  0
DIMSTYLE
105
F8
330
A
100
AcDbSymbolTableRecord
100
AcDbDimStyleTableRecord
  2
Alternate (ANSI)
 70
     0
 40
12.0
 41
0.0979999974370003
340
55
342
F9
  0
DIMSTYLE
105
10B
330
A
100
AcDbSymbolTableRecord
100
AcDbDimStyleTableRecord
  2
Datum (ANSI)
 70
     0
 40
12.0
 41
0.0979999974370003
340
55
342
F9
  0
DIMSTYLE
105
11A
330
A
100
AcDbSymbolTableRecord
100
AcDbDimStyleTableRecord
  2
Large (ANSI)
 70
     0
 40
12.0
 41
0.1959999948740005
340
55
342
F9
  0
ENDTAB
  0
TABLE
  2
BLOCK_RECORD
  5
1
330
0
100
AcDbSymbolTable
 70
    14
  0
BLOCK_RECORD
  5
6C
330
1
100
AcDbSymbolTableRecord
100
AcDbBlockTableRecord
  2
*Model_Space
340
6F
 70
     0
280
     1
281
     0
  0
BLOCK_RECORD
  5
68
330
1
100
AcDbSymbolTableRecord
100
AcDbBlockTableRecord
  2
*Paper_Space
340
6B
 70
     0
280
     1
281
     0
  0
BLOCK_RECORD
  5
70
330
1
100
AcDbSymbolTableRecord
100
AcDbBlockTableRecord
  2
*Paper_Space0
340
73
 70
     0
280
     1
281
     0
  0
BLOCK_RECORD
  5
F9
330
1
100
AcDbSymbolTableRecord
100
AcDbBlockTableRecord
  2
_Closed
340
0
 70
     0
280
     1
281
     0
  0
BLOCK_RECORD
  5
100
330
1
100
AcDbSymbolTableRecord
100
AcDbBlockTableRecord
  2
DatumFilled45
340
0
 70
     0
280
     1
281
     0
  0
BLOCK_RECORD
  5
10C
330
1
100
AcDbSymbolTableRecord
100
AcDbBlockTableRecord
  2
Filled-1
340
0
 70
     0
280
     1
281
     0
  0
BLOCK_RECORD
  5
552
330
1
100
AcDbSymbolTableRecord
100
AcDbBlockTableRecord
  2
*D4
340
0
 70
     0
280
     1
281
     0
  0
BLOCK_RECORD
  5
63C
330
1
100
AcDbSymbolTableRecord
100
AcDbBlockTableRecord
  2
*D5
340
0
 70
     0
280
     1
281
     0
  0
BLOCK_RECORD
  5
726
330
1
100
AcDbSymbolTableRecord
100
AcDbBlockTableRecord
  2
*D6
340
0
 70
     0
280
     1
281
     0
  0
BLOCK_RECORD
  5
810
330
1
100
AcDbSymbolTableRecord
100
AcDbBlockTableRecord
  2
*D7
340
0
 70
     0
280
     1
281
     0
  0
BLOCK_RECORD
  5
910
330
1
100
AcDbSymbolTableRecord
100
AcDbBlockTableRecord
  2
*D8
340
0
 70
     0
280
     1
281
     0
  0
BLOCK_RECORD
  5
9FA
330
1
100
AcDbSymbolTableRecord
100
AcDbBlockTableRecord
  2
*D9
340
0
 70
     0
280
     1
281
     0
  0
BLOCK_RECORD
  5
AE4
330
1
100
AcDbSymbolTableRecord
100
AcDbBlockTableRecord
  2
*D10
340
0
 70
     0
280
     1
281
     0
  0
BLOCK_RECORD
  5
BCE
330
1
100
AcDbSymbolTableRecord
100
AcDbBlockTableRecord
  2
*D11
340
0
 70
     0
280
     1
281
     0
  0
BLOCK_RECORD
  5
C88
330
1
100
AcDbSymbolTableRecord
100
AcDbBlockTableRecord
  2
*D12
340
0
 70
     0
280
     1
281
     0
  0
BLOCK_RECORD
  5
D91
330
1
100
AcDbSymbolTableRecord
100
AcDbBlockTableRecord
  2
*D13
340
0
 70
     0
280
     1
281
     0
  0
ENDTAB
  0
ENDSEC
  0
SECTION
  2
BLOCKS
  0
BLOCK
  5
6D
330
6C
100
AcDbEntity
  8
0
100
AcDbBlockBegin
  2
*Model_Space
 70
     0
 10
0.0
 20
0.0
 30
0.0
  3
*Model_Space
  1

  0
ENDBLK
  5
6E
330
6C
100
AcDbEntity
  8
0
100
AcDbBlockEnd
  0
BLOCK
  5
69
330
68
100
AcDbEntity
 67
     1
  8
0
100
AcDbBlockBegin
  2
*Paper_Space
 70
     0
 10
0.0
 20
0.0
 30
0.0
  3
*Paper_Space
  1

  0
ENDBLK
  5
6A
330
68
100
AcDbEntity
 67
     1
  8
0
100
AcDbBlockEnd
  0
BLOCK
  5
71
330
70
100
AcDbEntity
 67
     1
  8
0
100
AcDbBlockBegin
  2
*Paper_Space0
 70
     0
 10
0.0
 20
0.0
 30
0.0
  3
*Paper_Space0
  1

  0
ENDBLK
  5
72
330
70
100
AcDbEntity
 67
     1
  8
0
100
AcDbBlockEnd
  0
BLOCK
  5
FE
330
F9
100
AcDbEntity
  8
0
100
AcDbBlockBegin
  2
_Closed
 70
     0
 10
0.0
 20
0.0
 30
0.0
  3
_Closed
  1

  0
LINE
  5
FA
330
F9
100
AcDbEntity
  8
0
  6
ByBlock
 62
     0
370
    -2
100
AcDbLine
 10
-1.0
 20
0.1666666666666666
 30
0.0
 11
0.0
 21
0.0
 31
0.0
  0
LINE
  5
FB
330
F9
100
AcDbEntity
  8
0
  6
ByBlock
 62
     0
370
    -2
100
AcDbLine
 10
0.0
 20
0.0
 30
0.0
 11
-1.0
 21
-0.1666666666666666
 31
0.0
  0
LINE
  5
FC
330
F9
100
AcDbEntity
  8
0
  6
ByBlock
 62
     0
370
    -2
100
AcDbLine
 10
-1.0
 20
0.1666666666666666
 30
0.0
 11
-1.0
 21
-0.1666666666666666
 31
0.0
  0
LINE
  5
FD
330
F9
100
AcDbEntity
  8
0
  6
ByBlock
 62
     0
370
    -2
100
AcDbLine
 10
0.0
 20
0.0
 30
0.0
 11
-1.0
 21
0.0
 31
0.0
  0
ENDBLK
  5
FF
330
F9
100
AcDbEntity
  8
0
100
AcDbBlockEnd
  0
BLOCK
  5
101
330
100
100
AcDbEntity
  8
0
100
AcDbBlockBegin
  2
DatumFilled45
 70
     0
 10
0.0
 20
0.0
 30
0.0
  3
DatumFilled45
  1

  0
POLYLINE
  5
103
330
100
100
AcDbEntity
  8
0
 62
     0
100
AcDb2dPolyline
 66
     1
 10
0.0
 20
0.0
 30
0.0
 70
   128
  0
VERTEX
  5
104
330
103
100
AcDbEntity
  8
0
 62
     0
100
AcDbVertex
100
AcDb2dVertex
 10
0.0
 20
0.9999999999999998
 30
0.0
  0
VERTEX
  5
105
330
103
100
AcDbEntity
  8
0
 62
     0
100
AcDbVertex
100
AcDb2dVertex
 10
0.0
 20
-0.9999999999999998
 30
0.0
  0
VERTEX
  5
107
330
103
100
AcDbEntity
  8
0
 62
     0
100
AcDbVertex
100
AcDb2dVertex
 10
-0.9999999999999998
 20
0.0
 30
0.0
  0
VERTEX
  5
108
330
103
100
AcDbEntity
  8
0
 62
     0
100
AcDbVertex
100
AcDb2dVertex
 10
0.0
 20
0.9999999999999998
 30
0.0
  0
SEQEND
  5
106
330
103
100
AcDbEntity
  8
0
 62
     0
  0
SOLID
  5
10A
330
100
100
AcDbEntity
  8
0
 62
     0
100
AcDbTrace
 10
0.0
 20
0.9999999999999998
 30
0.0
 11
0.0
 21
-0.9999999999999998
 31
0.0
 12
-0.9999999999999998
 22
0.0
 32
0.0
 13
0.0
 23
0.9999999999999998
 33
0.0
  0
ENDBLK
  5
102
330
100
100
AcDbEntity
  8
0
100
AcDbBlockEnd
  0
BLOCK
  5
10D
330
10C
100
AcDbEntity
  8
0
100
AcDbBlockBegin
  2
Filled-1
 70
     0
 10
0.0
 20
0.0
 30
0.0
  3
Filled-1
  1

  0
LINE
  5
10F
330
10C
100
AcDbEntity
  8
0
 62
     0
100
AcDbLine
 10
-0.9999999999999998
 20
0.0
 30
0.0
 11
0.0
 21
0.0
 31
0.0
  0
POLYLINE
  5
110
330
10C
100
AcDbEntity
  8
0
 62
     0
100
AcDb2dPolyline
 66
     1
 10
0.0
 20
0.0
 30
0.0
 70
   128
  0
VERTEX
  5
111
330
110
100
AcDbEntity
  8
0
 62
     0
100
AcDbVertex
100
AcDb2dVertex
 10
-0.9999999999999998
 20
-0.0994897959183674
 30
0.0
  0
VERTEX
  5
112
330
110
100
AcDbEntity
  8
0
 62
     0
100
AcDbVertex
100
AcDb2dVertex
 10
0.0
 20
0.0
 30
0.0
  0
VERTEX
  5
114
330
110
100
AcDbEntity
  8
0
 62
     0
100
AcDbVertex
100
AcDb2dVertex
 10
-0.9999999999999998
 20
0.0994897959183674
 30
0.0
  0
VERTEX
  5
115
330
110
100
AcDbEntity
  8
0
 62
     0
100
AcDbVertex
100
AcDb2dVertex
 10
-0.9999999999999998
 20
-0.0994897959183674
 30
0.0
  0
SEQEND
  5
113
330
110
100
AcDbEntity
  8
0
 62
     0
  0
SOLID
  5
116
330
10C
100
AcDbEntity
  8
0
 62
     0
100
AcDbTrace
 10
-0.9999999999999998
 20
-0.0994897959183674
 30
0.0
 11
0.0
 21
0.0
 31
0.0
 12
-0.9999999999999998
 22
0.0994897959183674
 32
0.0
 13
-0.9999999999999998
 23
-0.0994897959183674
 33
0.0
  0
LINE
  5
117
330
10C
100
AcDbEntity
  8
0
 62
     0
100
AcDbLine
 10
-0.9999999999999998
 20
-0.0994897959183674
 30
0.0
 11
0.0
 21
0.0
 31
0.0
  0
LINE
  5
118
330
10C
100
AcDbEntity
  8
0
 62
     0
100
AcDbLine
 10
0.0
 20
0.0
 30
0.0
 11
-0.9999999999999998
 21
0.0994897959183674
 31
0.0
  0
LINE
  5
119
330
10C
100
AcDbEntity
  8
0
 62
     0
100
AcDbLine
 10
-0.9999999999999998
 20
0.0994897959183674
 30
0.0
 11
-0.9999999999999998
 21
-0.0994897959183674
 31
0.0
  0
ENDBLK
  5
10E
330
10C
100
AcDbEntity
  8
0
100
AcDbBlockEnd
  0
BLOCK
  5
553
330
552
100
AcDbEntity
  8
0
100
AcDbBlockBegin
  2
*D4
 70
     1
 10
0.0
 20
0.0
 30
0.0
  3
*D4
  1

  0
LINE
  5
631
330
552
100
AcDbEntity
  8
Dimension (ANSI)
440
 16777216
100
AcDbLine
 10
37.55871236183502
 20
92.28681813269055
 30
0.0
 11
37.55871236183502
 21
103.4305189200921
 31
0.0
  0
LINE
  5
632
330
552
100
AcDbEntity
  8
Dimension (ANSI)
440
 16777216
100
AcDbLine
 10
63.55871236183503
 20
92.28681813269055
 30
0.0
 11
63.55871236183503
 21
103.4305189200921
 31
0.0
  0
LINE
  5
633
330
552
100
AcDbEntity
  8
Dimension (ANSI)
440
 16777216
100
AcDbLine
 10
38.73981469728806
 20
101.9305189200921
 30
0.0
 11
47.81138410734285
 21
101.9305189200921
 31
0.0
  0
LINE
  5
634
330
552
100
AcDbEntity
  8
Dimension (ANSI)
440
 16777216
100
AcDbLine
 10
62.37761002638199
 20
101.9305189200921
 30
0.0
 11
53.30604061632719
 21
101.9305189200921
 31
0.0
  0
SOLID
  5
635
330
552
100
AcDbEntity
  8
Dimension (ANSI)
440
 16777216
100
AcDbTrace
 10
38.73981469728806
 20
102.1273693093343
 30
0.0
 11
38.73981469728806
 21
101.7336685308499
 31
0.0
 12
37.55871236183502
 22
101.9305189200921
 32
0.0
 13
37.55871236183502
 23
101.9305189200921
 33
0.0
  0
SOLID
  5
636
330
552
100
AcDbEntity
  8
Dimension (ANSI)
440
 16777216
100
AcDbTrace
 10
62.37761002638199
 20
102.1273693093343
 30
0.0
 11
62.37761002638199
 21
101.7336685308499
 31
0.0
 12
63.55871236183503
 22
101.9305189200921
 32
0.0
 13
63.55871236183503
 23
101.9305189200921
 33
0.0
  0
MTEXT
  5
637
330
552
100
AcDbEntity
  8
Dimension (ANSI)
440
 16777216
100
AcDbMText
 10
48.18933686324836
 20
102.6804987972978
 30
0.0
 40
1.440000057220458
 41
0.0
 46
0.0
 71
     1
 72
     1
  1
\A1;26.00
  7
Note Text (ANSI)
 73
     1
 44
1.0
  0
POINT
  5
638
330
552
100
AcDbEntity
  8
Defpoints
 62
     0
440
 16777216
100
AcDbPoint
 10
37.55871236183502
 20
91.53681813269056
 30
0.0
  0
POINT
  5
639
330
552
100
AcDbEntity
  8
Defpoints
 62
     0
440
 16777216
100
AcDbPoint
 10
63.55871236183503
 20
91.53681813269056
 30
0.0
  0
POINT
  5
63A
330
552
100
AcDbEntity
  8
Defpoints
 62
     0
440
 16777216
100
AcDbPoint
 10
63.55871236183503
 20
101.9305189200921
 30
0.0
  0
ENDBLK
  5
554
330
552
100
AcDbEntity
  8
0
100
AcDbBlockEnd
  0
BLOCK
  5
63D
330
63C
100
AcDbEntity
  8
0
100
AcDbBlockBegin
  2
*D5
 70
     1
 10
0.0
 20
0.0
 30
0.0
  3
*D5
  1

  0
LINE
  5
71B
330
63C
100
AcDbEntity
  8
Dimension (ANSI)
440
 16777216
100
AcDbLine
 10
37.55871236183502
 20
92.28681813269055
 30
0.0
 11
37.55871236183502
 21
98.82776884224568
 31
0.0
  0
LINE
  5
71C
330
63C
100
AcDbEntity
  8
Dimension (ANSI)
440
 16777216
100
AcDbLine
 10
38.43371236183502
 20
93.3533593934268
 30
0.0
 11
38.43371236183502
 21
98.82776884224568
 31
0.0
  0
LINE
  5
71D
330
63C
100
AcDbEntity
  8
Dimension (ANSI)
440
 16777216
100
AcDbLine
 10
39.61481469728806
 20
97.3277688422457
 30
0.0
 11
40.79591703274108
 21
97.3277688422457
 31
0.0
  0
LINE
  5
71E
330
63C
100
AcDbEntity
  8
Dimension (ANSI)
440
 16777216
100
AcDbLine
 10
36.37761002638199
 20
97.3277688422457
 30
0.0
 11
34.58623281490137
 21
97.3277688422457
 31
0.0
  0
SOLID
  5
71F
330
63C
100
AcDbEntity
  8
Dimension (ANSI)
440
 16777216
100
AcDbTrace
 10
39.61481469728806
 20
97.52461923148786
 30
0.0
 11
39.61481469728806
 21
97.13091845300352
 31
0.0
 12
38.43371236183502
 22
97.3277688422457
 32
0.0
 13
38.43371236183502
 23
97.3277688422457
 33
0.0
  0
SOLID
  5
720
330
63C
100
AcDbEntity
  8
Dimension (ANSI)
440
 16777216
100
AcDbTrace
 10
36.37761002638199
 20
97.52461923148786
 30
0.0
 11
36.37761002638199
 21
97.13091845300352
 31
0.0
 12
37.55871236183502
 22
97.3277688422457
 32
0.0
 13
37.55871236183502
 23
97.3277688422457
 33
0.0
  0
MTEXT
  5
721
330
63C
100
AcDbEntity
  8
Dimension (ANSI)
440
 16777216
100
AcDbMText
 10
30.51688974140186
 20
98.0806499955721
 30
0.0
 40
1.440000057220458
 41
0.0
 46
0.0
 71
     1
 72
     1
  1
\A1;0.88
  7
Note Text (ANSI)
 73
     1
 44
1.0
  0
POINT
  5
722
330
63C
100
AcDbEntity
  8
Defpoints
 62
     0
440
 16777216
100
AcDbPoint
 10
37.55871236183502
 20
91.53681813269056
 30
0.0
  0
POINT
  5
723
330
63C
100
AcDbEntity
  8
Defpoints
 62
     0
440
 16777216
100
AcDbPoint
 10
38.43371236183502
 20
92.60335939342679
 30
0.0
  0
POINT
  5
724
330
63C
100
AcDbEntity
  8
Defpoints
 62
     0
440
 16777216
100
AcDbPoint
 10
38.43371236183502
 20
97.3277688422457
 30
0.0
  0
ENDBLK
  5
63E
330
63C
100
AcDbEntity
  8
0
100
AcDbBlockEnd
  0
BLOCK
  5
727
330
726
100
AcDbEntity
  8
0
100
AcDbBlockBegin
  2
*D6
 70
     1
 10
0.0
 20
0.0
 30
0.0
  3
*D6
  1

  0
LINE
  5
805
330
726
100
AcDbEntity
  8
Dimension (ANSI)
440
 16777216
100
AcDbLine
 10
38.43371236183502
 20
93.3533593934268
 30
0.0
 11
38.43371236183502
 21
98.8277688422457
 31
0.0
  0
LINE
  5
806
330
726
100
AcDbEntity
  8
Dimension (ANSI)
440
 16777216
100
AcDbLine
 10
62.68371236183503
 20
93.3533593934268
 30
0.0
 11
62.68371236183503
 21
98.8277688422457
 31
0.0
  0
LINE
  5
807
330
726
100
AcDbEntity
  8
Dimension (ANSI)
440
 16777216
100
AcDbLine
 10
39.61481469728806
 20
97.3277688422457
 30
0.0
 11
47.82298921182571
 21
97.3277688422457
 31
0.0
  0
LINE
  5
808
330
726
100
AcDbEntity
  8
Dimension (ANSI)
440
 16777216
100
AcDbLine
 10
61.50261002638199
 20
97.3277688422457
 30
0.0
 11
53.29443551184432
 21
97.3277688422457
 31
0.0
  0
SOLID
  5
809
330
726
100
AcDbEntity
  8
Dimension (ANSI)
440
 16777216
100
AcDbTrace
 10
39.61481469728806
 20
97.52461923148787
 30
0.0
 11
39.61481469728806
 21
97.13091845300354
 31
0.0
 12
38.43371236183502
 22
97.3277688422457
 32
0.0
 13
38.43371236183502
 23
97.3277688422457
 33
0.0
  0
SOLID
  5
80A
330
726
100
AcDbEntity
  8
Dimension (ANSI)
440
 16777216
100
AcDbTrace
 10
61.50261002638199
 20
97.52461923148787
 30
0.0
 11
61.50261002638199
 21
97.13091845300354
 31
0.0
 12
62.68371236183503
 22
97.3277688422457
 32
0.0
 13
62.68371236183503
 23
97.3277688422457
 33
0.0
  0
MTEXT
  5
80B
330
726
100
AcDbEntity
  8
Dimension (ANSI)
440
 16777216
100
AcDbMText
 10
48.20094196773123
 20
98.0777487194514
 30
0.0
 40
1.440000057220458
 41
0.0
 46
0.0
 71
     1
 72
     1
  1
\A1;24.25
  7
Note Text (ANSI)
 73
     1
 44
1.0
  0
POINT
  5
80C
330
726
100
AcDbEntity
  8
Defpoints
 62
     0
440
 16777216
100
AcDbPoint
 10
38.43371236183502
 20
92.60335939342679
 30
0.0
  0
POINT
  5
80D
330
726
100
AcDbEntity
  8
Defpoints
 62
     0
440
 16777216
100
AcDbPoint
 10
62.68371236183503
 20
92.60335939342679
 30
0.0
  0
POINT
  5
80E
330
726
100
AcDbEntity
  8
Defpoints
 62
     0
440
 16777216
100
AcDbPoint
 10
62.68371236183503
 20
97.3277688422457
 30
0.0
  0
ENDBLK
  5
728
330
726
100
AcDbEntity
  8
0
100
AcDbBlockEnd
  0
BLOCK
  5
811
330
810
100
AcDbEntity
  8
0
100
AcDbBlockBegin
  2
*D7
 70
     1
 10
0.0
 20
0.0
 30
0.0
  3
*D7
  1

  0
LINE
  5
904
330
810
100
AcDbEntity
  8
Dimension (ANSI)
440
 16777216
100
AcDbLine
 10
36.96875362257128
 20
31.69685939342682
 30
0.0
 11
33.83255316317167
 21
31.69685939342682
 31
0.0
  0
LINE
  5
905
330
810
100
AcDbEntity
  8
Dimension (ANSI)
440
 16777216
100
AcDbLine
 10
35.90221236183502
 20
32.57185939342682
 30
0.0
 11
33.83255316317167
 21
32.57185939342682
 31
0.0
  0
LINE
  5
906
330
810
100
AcDbEntity
  8
Dimension (ANSI)
440
 16777216
100
AcDbLine
 10
35.33255316317167
 20
33.75296172887985
 30
0.0
 11
35.33255316317167
 21
34.93406406433288
 31
0.0
  0
LINE
  5
907
330
810
100
AcDbEntity
  8
Dimension (ANSI)
440
 16777216
100
AcDbLine
 10
35.33255316317167
 20
30.51575705797378
 30
0.0
 11
35.33255316317167
 21
28.25288740284113
 31
0.0
  0
LINE
  5
908
330
810
100
AcDbEntity
  8
Dimension (ANSI)
440
 16777216
100
AcDbLine
 10
35.33255316317167
 20
28.25288740284113
 30
0.0
 11
34.15145082771863
 21
28.25288740284113
 31
0.0
  0
SOLID
  5
909
330
810
100
AcDbEntity
  8
Dimension (ANSI)
440
 16777216
100
AcDbTrace
 10
35.1357027739295
 20
33.75296172887985
 30
0.0
 11
35.52940355241384
 21
33.75296172887985
 31
0.0
 12
35.33255316317167
 22
32.57185939342682
 32
0.0
 13
35.33255316317167
 23
32.57185939342682
 33
0.0
  0
SOLID
  5
90A
330
810
100
AcDbEntity
  8
Dimension (ANSI)
440
 16777216
100
AcDbTrace
 10
35.1357027739295
 20
30.51575705797378
 30
0.0
 11
35.52940355241384
 21
30.51575705797378
 31
0.0
 12
35.33255316317167
 22
31.69685939342682
 32
0.0
 13
35.33255316317167
 23
31.69685939342682
 33
0.0
  0
MTEXT
  5
90B
330
810
100
AcDbEntity
  8
Dimension (ANSI)
440
 16777216
100
AcDbMText
 10
30.08210775421912
 20
29.00576855616755
 30
0.0
 40
1.440000057220458
 41
0.0
 46
0.0
 71
     1
 72
     1
  1
\A1;0.88
  7
Note Text (ANSI)
 73
     1
 44
1.0
  0
POINT
  5
90C
330
810
100
AcDbEntity
  8
Defpoints
 62
     0
440
 16777216
100
AcDbPoint
 10
37.71875362257128
 20
31.69685939342682
 30
0.0
  0
POINT
  5
90D
330
810
100
AcDbEntity
  8
Defpoints
 62
     0
440
 16777216
100
AcDbPoint
 10
36.65221236183502
 20
32.57185939342682
 30
0.0
  0
POINT
  5
90E
330
810
100
AcDbEntity
  8
Defpoints
 62
     0
440
 16777216
100
AcDbPoint
 10
35.33255316317167
 20
32.57185939342682
 30
0.0
  0
ENDBLK
  5
812
330
810
100
AcDbEntity
  8
0
100
AcDbBlockEnd
  0
BLOCK
  5
911
330
910
100
AcDbEntity
  8
0
100
AcDbBlockBegin
  2
*D8
 70
     1
 10
0.0
 20
0.0
 30
0.0
  3
*D8
  1

  0
LINE
  5
9EF
330
910
100
AcDbEntity
  8
Dimension (ANSI)
440
 16777216
100
AcDbLine
 10
35.90221236183502
 20
32.57185939342682
 30
0.0
 11
30.42780291301613
 21
32.57185939342682
 31
0.0
  0
LINE
  5
9F0
330
910
100
AcDbEntity
  8
Dimension (ANSI)
440
 16777216
100
AcDbLine
 10
35.90221236183503
 20
61.69685939342681
 30
0.0
 11
30.42780291301613
 21
61.69685939342681
 31
0.0
  0
LINE
  5
9F1
330
910
100
AcDbEntity
  8
Dimension (ANSI)
440
 16777216
100
AcDbLine
 10
31.92780291301613
 20
33.75296172887985
 30
0.0
 11
31.92780291301613
 21
46.00642676031561
 31
0.0
  0
LINE
  5
9F2
330
910
100
AcDbEntity
  8
Dimension (ANSI)
440
 16777216
100
AcDbLine
 10
31.92780291301613
 20
60.51575705797378
 30
0.0
 11
31.92780291301613
 21
48.26229202653802
 31
0.0
  0
SOLID
  5
9F3
330
910
100
AcDbEntity
  8
Dimension (ANSI)
440
 16777216
100
AcDbTrace
 10
31.73095252377395
 20
33.75296172887985
 30
0.0
 11
32.1246533022583
 21
33.75296172887985
 31
0.0
 12
31.92780291301613
 22
32.57185939342682
 32
0.0
 13
31.92780291301613
 23
32.57185939342682
 33
0.0
  0
SOLID
  5
9F4
330
910
100
AcDbEntity
  8
Dimension (ANSI)
440
 16777216
100
AcDbTrace
 10
31.73095252377396
 20
60.51575705797378
 30
0.0
 11
32.12465330225831
 21
60.51575705797378
 31
0.0
 12
31.92780291301613
 22
61.69685939342681
 32
0.0
 13
31.92780291301613
 23
61.69685939342681
 33
0.0
  0
MTEXT
  5
9F5
330
910
100
AcDbEntity
  8
Dimension (ANSI)
440
 16777216
100
AcDbMText
 10
29.57438443309341
 20
47.88433927063251
 30
0.0
 40
1.440000057220458
 41
0.0
 46
0.0
 71
     1
 72
     1
  1
\A1;29.13
  7
Note Text (ANSI)
 73
     1
 44
1.0
  0
POINT
  5
9F6
330
910
100
AcDbEntity
  8
Defpoints
 62
     0
440
 16777216
100
AcDbPoint
 10
36.65221236183502
 20
32.57185939342682
 30
0.0
  0
POINT
  5
9F7
330
910
100
AcDbEntity
  8
Defpoints
 62
     0
440
 16777216
100
AcDbPoint
 10
36.65221236183504
 20
61.69685939342681
 30
0.0
  0
POINT
  5
9F8
330
910
100
AcDbEntity
  8
Defpoints
 62
     0
440
 16777216
100
AcDbPoint
 10
31.92780291301613
 20
61.69685939342681
 30
0.0
  0
ENDBLK
  5
912
330
910
100
AcDbEntity
  8
0
100
AcDbBlockEnd
  0
BLOCK
  5
9FB
330
9FA
100
AcDbEntity
  8
0
100
AcDbBlockBegin
  2
*D9
 70
     1
 10
0.0
 20
0.0
 30
0.0
  3
*D9
  1

  0
LINE
  5
AD9
330
9FA
100
AcDbEntity
  8
Dimension (ANSI)
440
 16777216
100
AcDbLine
 10
35.90221236183502
 20
32.57185939342682
 30
0.0
 11
21.92386590514212
 21
32.57185939342682
 31
0.0
  0
LINE
  5
ADA
330
9FA
100
AcDbEntity
  8
Dimension (ANSI)
440
 16777216
100
AcDbLine
 10
35.90221236183503
 20
90.8218593934268
 30
0.0
 11
21.92386590514213
 21
90.82185939342682
 31
0.0
  0
LINE
  5
ADB
330
9FA
100
AcDbEntity
  8
Dimension (ANSI)
440
 16777216
100
AcDbLine
 10
23.42386590514212
 20
33.75296172887985
 30
0.0
 11
23.42386590514212
 21
60.56602548419487
 31
0.0
  0
LINE
  5
ADC
330
9FA
100
AcDbEntity
  8
Dimension (ANSI)
440
 16777216
100
AcDbLine
 10
23.42386590514213
 20
89.64075705797379
 30
0.0
 11
23.42386590514212
 21
62.82769330265871
 31
0.0
  0
SOLID
  5
ADD
330
9FA
100
AcDbEntity
  8
Dimension (ANSI)
440
 16777216
100
AcDbTrace
 10
23.22701551589994
 20
33.75296172887985
 30
0.0
 11
23.62071629438429
 21
33.75296172887985
 31
0.0
 12
23.42386590514212
 22
32.57185939342682
 32
0.0
 13
23.42386590514212
 23
32.57185939342682
 33
0.0
  0
SOLID
  5
ADE
330
9FA
100
AcDbEntity
  8
Dimension (ANSI)
440
 16777216
100
AcDbTrace
 10
23.22701551589996
 20
89.64075705797379
 30
0.0
 11
23.6207162943843
 21
89.64075705797379
 31
0.0
 12
23.42386590514213
 22
90.82185939342682
 32
0.0
 13
23.42386590514213
 23
90.82185939342682
 33
0.0
  0
MTEXT
  5
ADF
330
9FA
100
AcDbEntity
  8
Dimension (ANSI)
440
 16777216
100
AcDbMText
 10
21.07334870134012
 20
62.44974054675321
 30
0.0
 40
1.440000057220458
 41
0.0
 46
0.0
 71
     1
 72
     1
  1
\A1;58.25
  7
Note Text (ANSI)
 73
     1
 44
1.0
  0
POINT
  5
AE0
330
9FA
100
AcDbEntity
  8
Defpoints
 62
     0
440
 16777216
100
AcDbPoint
 10
36.65221236183502
 20
32.57185939342682
 30
0.0
  0
POINT
  5
AE1
330
9FA
100
AcDbEntity
  8
Defpoints
 62
     0
440
 16777216
100
AcDbPoint
 10
36.65221236183503
 20
90.8218593934268
 30
0.0
  0
POINT
  5
AE2
330
9FA
100
AcDbEntity
  8
Defpoints
 62
     0
440
 16777216
100
AcDbPoint
 10
23.42386590514213
 20
90.82185939342682
 30
0.0
  0
ENDBLK
  5
9FC
330
9FA
100
AcDbEntity
  8
0
100
AcDbBlockEnd
  0
BLOCK
  5
AE5
330
AE4
100
AcDbEntity
  8
0
100
AcDbBlockBegin
  2
*D10
 70
     1
 10
0.0
 20
0.0
 30
0.0
  3
*D10
  1

  0
LINE
  5
BC3
330
AE4
100
AcDbEntity
  8
Dimension (ANSI)
440
 16777216
100
AcDbLine
 10
36.96875362257128
 20
31.69685939342682
 30
0.0
 11
14.48647015800435
 21
31.69685939342682
 31
0.0
  0
LINE
  5
BC4
330
AE4
100
AcDbEntity
  8
Dimension (ANSI)
440
 16777216
100
AcDbLine
 10
36.96875362257127
 20
91.69685939342681
 30
0.0
 11
14.48647015800436
 21
91.69685939342683
 31
0.0
  0
LINE
  5
BC5
330
AE4
100
AcDbEntity
  8
Dimension (ANSI)
440
 16777216
100
AcDbLine
 10
15.98647015800435
 20
32.87796172887985
 30
0.0
 11
15.98647015800436
 21
60.56941030633574
 31
0.0
  0
LINE
  5
BC6
330
AE4
100
AcDbEntity
  8
Dimension (ANSI)
440
 16777216
100
AcDbLine
 10
15.98647015800437
 20
90.51575705797379
 30
0.0
 11
15.98647015800436
 21
62.82430848051791
 31
0.0
  0
SOLID
  5
BC7
330
AE4
100
AcDbEntity
  8
Dimension (ANSI)
440
 16777216
100
AcDbTrace
 10
15.78961976876218
 20
32.87796172887985
 30
0.0
 11
16.18332054724653
 21
32.87796172887985
 31
0.0
 12
15.98647015800435
 22
31.69685939342682
 32
0.0
 13
15.98647015800435
 23
31.69685939342682
 33
0.0
  0
SOLID
  5
BC8
330
AE4
100
AcDbEntity
  8
Dimension (ANSI)
440
 16777216
100
AcDbTrace
 10
15.78961976876219
 20
90.51575705797379
 30
0.0
 11
16.18332054724654
 21
90.51575705797379
 31
0.0
 12
15.98647015800437
 22
91.69685939342683
 32
0.0
 13
15.98647015800437
 23
91.69685939342683
 33
0.0
  0
MTEXT
  5
BC9
330
AE4
100
AcDbEntity
  8
Dimension (ANSI)
440
 16777216
100
AcDbMText
 10
13.60548955493481
 20
62.44635572461239
 30
0.0
 40
1.440000057220458
 41
0.0
 46
0.0
 71
     1
 72
     1
  1
\A1;60.00
  7
Note Text (ANSI)
 73
     1
 44
1.0
  0
POINT
  5
BCA
330
AE4
100
AcDbEntity
  8
Defpoints
 62
     0
440
 16777216
100
AcDbPoint
 10
37.71875362257128
 20
31.69685939342682
 30
0.0
  0
POINT
  5
BCB
330
AE4
100
AcDbEntity
  8
Defpoints
 62
     0
440
 16777216
100
AcDbPoint
 10
37.71875362257127
 20
91.69685939342681
 30
0.0
  0
POINT
  5
BCC
330
AE4
100
AcDbEntity
  8
Defpoints
 62
     0
440
 16777216
100
AcDbPoint
 10
15.98647015800437
 20
91.69685939342683
 30
0.0
  0
ENDBLK
  5
AE6
330
AE4
100
AcDbEntity
  8
0
100
AcDbBlockEnd
  0
BLOCK
  5
BCF
330
BCE
100
AcDbEntity
  8
0
100
AcDbBlockBegin
  2
*D11
 70
     1
 10
0.0
 20
0.0
 30
0.0
  3
*D11
  1

  0
LINE
  5
C7F
330
BCE
100
AcDbEntity
  8
Dimension (ANSI)
440
 16777216
100
AcDbLine
 10
66.60008197880012
 20
29.58453902327852
 30
0.0
 11
64.9896859992438
 21
29.58453902327852
 31
0.0
  0
LINE
  5
C80
330
BCE
100
AcDbEntity
  8
Dimension (ANSI)
440
 16777216
100
AcDbLine
 10
64.9896859992438
 20
29.58453902327852
 30
0.0
 11
63.57743189131169
 21
31.414072282467
 31
0.0
  0
MTEXT
  5
C81
330
BCE
100
AcDbEntity
  8
Dimension (ANSI)
440
 16777216
100
AcDbMText
 10
66.97803473470563
 20
29.58453902327852
 30
0.0
 40
1.440000057220458
 41
0.0
 46
0.0
 71
     4
 72
     1
  1
\A1;∅0.563{\P(6 PL.)}
  7
Note Text (ANSI)
 73
     1
 44
1.0
  0
SOLID
  5
C82
330
BCE
100
AcDbEntity
  8
Dimension (ANSI)
440
 16777216
100
AcDbTrace
 10
63.7332574618906
 20
31.53435722457761
 30
0.0
 11
63.42160632073279
 21
31.29378734035638
 31
0.0
 12
62.85572223864803
 22
32.34902570594043
 32
0.0
 13
62.85572223864803
 23
32.34902570594043
 33
0.0
  0
LINE
  5
C83
330
BCE
100
AcDbEntity
  8
Dimension (ANSI)
440
 16777216
100
AcDbLine
 10
61.60371236183503
 20
32.57185939342682
 30
0.0
 11
63.76371236183502
 21
32.57185939342682
 31
0.0
  0
LINE
  5
C84
330
BCE
100
AcDbEntity
  8
Dimension (ANSI)
440
 16777216
100
AcDbLine
 10
62.68371236183502
 20
31.49185939342681
 30
0.0
 11
62.68371236183502
 21
33.6518593934268
 31
0.0
  0
POINT
  5
C85
330
BCE
100
AcDbEntity
  8
Defpoints
 62
     0
440
 16777216
100
AcDbPoint
 10
62.85572223864803
 20
32.34902570594043
 30
0.0
  0
POINT
  5
C86
330
BCE
100
AcDbEntity
  8
Defpoints
 62
     0
440
 16777216
100
AcDbPoint
 10
62.51170248502202
 20
32.79469308091319
 30
0.0
  0
ENDBLK
  5
BD0
330
BCE
100
AcDbEntity
  8
0
100
AcDbBlockEnd
  0
BLOCK
  5
C89
330
C88
100
AcDbEntity
  8
0
100
AcDbBlockBegin
  2
*D12
 70
     1
 10
0.0
 20
0.0
 30
0.0
  3
*D12
  1

  0
LINE
  5
D87
330
C88
100
AcDbEntity
  8
Dimension (ANSI)
440
 16777216
100
AcDbLine
 10
56.85724678697121
 20
113.2242852826758
 30
0.0
 11
56.85724678697121
 21
112.0431829472228
 31
0.0
  0
LINE
  5
D88
330
C88
100
AcDbEntity
  8
Dimension (ANSI)
440
 16777216
100
AcDbLine
 10
56.85724678697121
 20
116.461489953582
 30
0.0
 11
56.85724678697121
 21
120.3443596287361
 31
0.0
  0
LINE
  5
D89
330
C88
100
AcDbEntity
  8
Dimension (ANSI)
440
 16777216
100
AcDbLine
 10
56.85724678697121
 20
120.3443596287361
 30
0.0
 11
58.03834912242424
 21
120.3443596287361
 31
0.0
  0
SOLID
  5
D8A
330
C88
100
AcDbEntity
  8
Dimension (ANSI)
440
 16777216
100
AcDbTrace
 10
56.66039639772904
 20
113.2242852826758
 30
0.0
 11
57.05409717621338
 21
113.2242852826758
 31
0.0
 12
56.85724678697121
 22
114.4053876181288
 32
0.0
 13
56.85724678697121
 23
114.4053876181288
 33
0.0
  0
SOLID
  5
D8B
330
C88
100
AcDbEntity
  8
Dimension (ANSI)
440
 16777216
100
AcDbTrace
 10
56.66039639772904
 20
116.461489953582
 30
0.0
 11
57.05409717621338
 21
116.461489953582
 31
0.0
 12
56.85724678697121
 22
115.2803876181289
 32
0.0
 13
56.85724678697121
 23
115.2803876181289
 33
0.0
  0
MTEXT
  5
D8C
330
C88
100
AcDbEntity
  8
Dimension (ANSI)
440
 16777216
100
AcDbMText
 10
60.31857192148073
 20
120.3443596287361
 30
0.0
 40
1.440000057220458
 41
0.0
 46
0.0
 71
     5
 72
     1
  1
\A1;0.88{\PTYP.}
  7
Note Text (ANSI)
 73
     1
 44
1.0
  0
POINT
  5
D8D
330
C88
100
AcDbEntity
  8
Defpoints
 62
     0
440
 16777216
100
AcDbPoint
 10
60.31857192148073
 20
115.2803876181289
 30
0.0
  0
POINT
  5
D8E
330
C88
100
AcDbEntity
  8
Defpoints
 62
     0
440
 16777216
100
AcDbPoint
 10
60.32233375130468
 20
114.4053876181288
 30
0.0
  0
POINT
  5
D8F
330
C88
100
AcDbEntity
  8
Defpoints
 62
     0
440
 16777216
100
AcDbPoint
 10
56.85724678697121
 20
114.4053876181288
 30
0.0
  0
ENDBLK
  5
C8A
330
C88
100
AcDbEntity
  8
0
100
AcDbBlockEnd
  0
BLOCK
  5
D92
330
D91
100
AcDbEntity
  8
0
100
AcDbBlockBegin
  2
*D13
 70
     1
 10
0.0
 20
0.0
 30
0.0
  3
*D13
  1

  0
LINE
  5
E77
330
D91
100
AcDbEntity
  8
Dimension (ANSI)
440
 16777216
100
AcDbLine
 10
99.79116784642178
 20
88.7221895747014
 30
0.0
 11
98.61006551096874
 21
88.7221895747014
 31
0.0
  0
LINE
  5
E78
330
D91
100
AcDbEntity
  8
Dimension (ANSI)
440
 16777216
100
AcDbLine
 10
103.0283725173278
 20
88.7221895747014
 30
0.0
 11
104.8743255860316
 21
88.7221895747014
 31
0.0
  0
SOLID
  5
E79
330
D91
100
AcDbEntity
  8
Dimension (ANSI)
440
 16777216
100
AcDbTrace
 10
99.79116784642178
 20
88.91903996394358
 30
0.0
 11
99.79116784642178
 21
88.52533918545923
 31
0.0
 12
100.9722701818748
 22
88.7221895747014
 32
0.0
 13
100.9722701818748
 23
88.7221895747014
 33
0.0
  0
SOLID
  5
E7A
330
D91
100
AcDbEntity
  8
Dimension (ANSI)
440
 16777216
100
AcDbTrace
 10
103.0283725173278
 20
88.91903996394358
 30
0.0
 11
103.0283725173278
 21
88.52533918545923
 31
0.0
 12
101.8472701818748
 22
88.7221895747014
 32
0.0
 13
101.8472701818748
 23
88.7221895747014
 33
0.0
  0
MTEXT
  5
E7B
330
D91
100
AcDbEntity
  8
Dimension (ANSI)
440
 16777216
100
AcDbMText
 10
105.2522783419371
 20
88.7221895747014
 30
0.0
 40
1.440000057220458
 41
0.0
 46
0.0
 71
     4
 72
     1
  1
\A1;0.88{\PTYP.}
  7
Note Text (ANSI)
 73
     1
 44
1.0
  0
POINT
  5
E7C
330
D91
100
AcDbEntity
  8
Defpoints
 62
     0
440
 16777216
100
AcDbPoint
 10
101.8472701818748
 20
88.7221895747014
 30
0.0
  0
POINT
  5
E7D
330
D91
100
AcDbEntity
  8
Defpoints
 62
     0
440
 16777216
100
AcDbPoint
 10
100.9722701818748
 20
88.72836705371753
 30
0.0
  0
POINT
  5
E7E
330
D91
100
AcDbEntity
  8
Defpoints
 62
     0
440
 16777216
100
AcDbPoint
 10
100.9722701818748
 20
88.7221895747014
 30
0.0
  0
ENDBLK
  5
D93
330
D91
100
AcDbEntity
  8
0
100
AcDbBlockEnd
  0
ENDSEC
  0
SECTION
  2
ENTITIES
  0
CIRCLE
  5
11B
330
6C
100
AcDbEntity
  8
Visible (ANSI)
100
AcDbCircle
 10
62.68371236183504
 20
61.69685939342682
 30
0.0
 40
0.2814999999999999
  0
CIRCLE
  5
11C
330
6C
100
AcDbEntity
  8
Visible (ANSI)
100
AcDbCircle
 10
38.43371236183503
 20
61.69685939342681
 30
0.0
 40
0.2814999999999999
  0
CIRCLE
  5
11D
330
6C
100
AcDbEntity
  8
Visible (ANSI)
100
AcDbCircle
 10
62.68371236183503
 20
90.82185939342682
 30
0.0
 40
0.2814999999999999
  0
CIRCLE
  5
11E
330
6C
100
AcDbEntity
  8
Visible (ANSI)
100
AcDbCircle
 10
38.43371236183502
 20
90.82185939342682
 30
0.0
 40
0.2814999999999999
  0
CIRCLE
  5
11F
330
6C
100
AcDbEntity
  8
Visible (ANSI)
100
AcDbCircle
 10
38.43371236183502
 20
32.57185939342682
 30
0.0
 40
0.2814999999999999
  0
CIRCLE
  5
120
330
6C
100
AcDbEntity
  8
Visible (ANSI)
100
AcDbCircle
 10
62.68371236183503
 20
32.57185939342682
 30
0.0
 40
0.2814999999999999
  0
LINE
  5
121
330
6C
100
AcDbEntity
  8
Visible (ANSI)
100
AcDbLine
 10
63.55871236183503
 20
91.53681813269058
 30
0.0
 11
63.55871236183503
 21
31.85690065416305
 31
0.0
  0
LINE
  5
122
330
6C
100
AcDbEntity
  8
Visible (ANSI)
100
AcDbLine
 10
37.71875362257127
 20
91.69685939342681
 30
0.0
 11
63.39867110109879
 21
91.69685939342681
 31
0.0
  0
LINE
  5
123
330
6C
100
AcDbEntity
  8
Visible (ANSI)
100
AcDbLine
 10
37.55871236183504
 20
31.85690065416305
 30
0.0
 11
37.55871236183502
 21
91.53681813269058
 31
0.0
  0
LINE
  5
124
330
6C
100
AcDbEntity
  8
Visible (ANSI)
100
AcDbLine
 10
63.3986711010988
 20
31.69685939342682
 30
0.0
 11
37.71875362257128
 21
31.69685939342682
 31
0.0
  0
LINE
  5
125
330
6C
100
AcDbEntity
  8
Hidden (ANSI)
 48
1.093663692474365
100
AcDbLine
 10
63.46496236183504
 20
31.85690065416305
 30
0.0
 11
63.46496236183503
 21
91.53681813269058
 31
0.0
  0
LINE
  5
126
330
6C
100
AcDbEntity
  8
Hidden (ANSI)
 48
1.035313606262207
100
AcDbLine
 10
63.39867110109879
 20
91.6031093934268
 30
0.0
 11
37.71875362257127
 21
91.6031093934268
 31
0.0
  0
LINE
  5
127
330
6C
100
AcDbEntity
  8
Hidden (ANSI)
 48
1.093663692474365
100
AcDbLine
 10
37.65246236183502
 20
91.53681813269058
 30
0.0
 11
37.65246236183504
 21
31.85690065416305
 31
0.0
  0
LINE
  5
128
330
6C
100
AcDbEntity
  8
Hidden (ANSI)
 48
1.035313606262207
100
AcDbLine
 10
37.71875362257128
 20
31.79060939342682
 30
0.0
 11
63.3986711010988
 21
31.79060939342682
 31
0.0
  0
POLYLINE
  5
129
330
6C
100
AcDbEntity
  8
Visible (ANSI)
100
AcDb2dPolyline
 66
     1
 10
0.0
 20
0.0
 30
0.0
 70
   128
  0
VERTEX
  5
12A
330
129
100
AcDbEntity
  8
Visible (ANSI)
100
AcDbVertex
100
AcDb2dVertex
 10
63.44936307349534
 20
91.58751034538299
 30
0.0
  0
VERTEX
  5
12B
330
129
100
AcDbEntity
  8
Visible (ANSI)
100
AcDbVertex
100
AcDb2dVertex
 10
63.45651487994373
 20
91.58539574154444
 30
0.0
  0
VERTEX
  5
12D
330
129
100
AcDbEntity
  8
Visible (ANSI)
100
AcDbVertex
100
AcDb2dVertex
 10
63.46363664940578
 20
91.58328714510313
 30
0.0
  0
VERTEX
  5
12E
330
129
100
AcDbEntity
  8
Visible (ANSI)
100
AcDbVertex
100
AcDb2dVertex
 10
63.47069534119651
 20
91.58117254126453
 30
0.0
  0
VERTEX
  5
12F
330
129
100
AcDbEntity
  8
Visible (ANSI)
100
AcDbVertex
100
AcDb2dVertex
 10
63.47766392202819
 20
91.57905793742594
 30
0.0
  0
VERTEX
  5
130
330
129
100
AcDbEntity
  8
Visible (ANSI)
100
AcDbVertex
100
AcDb2dVertex
 10
63.48451235491451
 20
91.57694934098463
 30
0.0
  0
VERTEX
  5
131
330
129
100
AcDbEntity
  8
Visible (ANSI)
100
AcDbVertex
100
AcDb2dVertex
 10
63.49120759917048
 20
91.57483473714606
 30
0.0
  0
VERTEX
  5
132
330
129
100
AcDbEntity
  8
Visible (ANSI)
100
AcDbVertex
100
AcDb2dVertex
 10
63.49772562520702
 20
91.57272614070475
 30
0.0
  0
VERTEX
  5
133
330
129
100
AcDbEntity
  8
Visible (ANSI)
100
AcDbVertex
100
AcDb2dVertex
 10
63.50403639603779
 20
91.57061153686615
 30
0.0
  0
VERTEX
  5
134
330
129
100
AcDbEntity
  8
Visible (ANSI)
100
AcDbVertex
100
AcDb2dVertex
 10
63.51011287837508
 20
91.56850294042483
 30
0.0
  0
VERTEX
  5
135
330
129
100
AcDbEntity
  8
Visible (ANSI)
100
AcDbVertex
100
AcDb2dVertex
 10
63.51593104262981
 20
91.56638833658623
 30
0.0
  0
VERTEX
  5
136
330
129
100
AcDbEntity
  8
Visible (ANSI)
100
AcDbVertex
100
AcDb2dVertex
 10
63.52146085181566
 20
91.5642737327477
 30
0.0
  0
VERTEX
  5
137
330
129
100
AcDbEntity
  8
Visible (ANSI)
100
AcDbVertex
100
AcDb2dVertex
 10
63.52668428374079
 20
91.56216513630637
 30
0.0
  0
VERTEX
  5
138
330
129
100
AcDbEntity
  8
Visible (ANSI)
100
AcDbVertex
100
AcDb2dVertex
 10
63.53157730881615
 20
91.56005053246778
 30
0.0
  0
VERTEX
  5
139
330
129
100
AcDbEntity
  8
Visible (ANSI)
100
AcDbVertex
100
AcDb2dVertex
 10
63.53611589745265
 20
91.55794193602647
 30
0.0
  0
VERTEX
  5
13A
330
129
100
AcDbEntity
  8
Visible (ANSI)
100
AcDbVertex
100
AcDb2dVertex
 10
63.54028503115713
 20
91.55582733218787
 30
0.0
  0
VERTEX
  5
13B
330
129
100
AcDbEntity
  8
Visible (ANSI)
100
AcDbVertex
100
AcDb2dVertex
 10
63.54406368403914
 20
91.55371272834932
 30
0.0
  0
VERTEX
  5
13C
330
129
100
AcDbEntity
  8
Visible (ANSI)
100
AcDbVertex
100
AcDb2dVertex
 10
63.54743683760552
 20
91.55160413190799
 30
0.0
  0
VERTEX
  5
13D
330
129
100
AcDbEntity
  8
Visible (ANSI)
100
AcDbVertex
100
AcDb2dVertex
 10
63.55038947336308
 20
91.5494895280694
 30
0.0
  0
VERTEX
  5
13E
330
129
100
AcDbEntity
  8
Visible (ANSI)
100
AcDbVertex
100
AcDb2dVertex
 10
63.55290957651731
 20
91.54738093162809
 30
0.0
  0
VERTEX
  5
13F
330
129
100
AcDbEntity
  8
Visible (ANSI)
100
AcDbVertex
100
AcDb2dVertex
 10
63.55498513227364
 20
91.54526632778949
 30
0.0
  0
VERTEX
  5
140
330
129
100
AcDbEntity
  8
Visible (ANSI)
100
AcDbVertex
100
AcDb2dVertex
 10
63.55661013323483
 20
91.54315172395092
 30
0.0
  0
VERTEX
  5
141
330
129
100
AcDbEntity
  8
Visible (ANSI)
100
AcDbVertex
100
AcDb2dVertex
 10
63.55777556830496
 20
91.54104312750963
 30
0.0
  0
VERTEX
  5
142
330
129
100
AcDbEntity
  8
Visible (ANSI)
100
AcDbVertex
100
AcDb2dVertex
 10
63.5584784337854
 20
91.53892852367103
 30
0.0
  0
VERTEX
  5
143
330
129
100
AcDbEntity
  8
Visible (ANSI)
100
AcDbVertex
100
AcDb2dVertex
 10
63.55871272227887
 20
91.53681992722971
 30
0.0
  0
SEQEND
  5
12C
330
129
100
AcDbEntity
  8
Visible (ANSI)
  0
POLYLINE
  5
144
330
6C
100
AcDbEntity
  8
Visible (ANSI)
100
AcDb2dPolyline
 66
     1
 10
0.0
 20
0.0
 30
0.0
 70
   128
  0
VERTEX
  5
145
330
144
100
AcDbEntity
  8
Visible (ANSI)
100
AcDbVertex
100
AcDb2dVertex
 10
63.55871272227887
 20
31.85690065714982
 30
0.0
  0
VERTEX
  5
146
330
144
100
AcDbEntity
  8
Visible (ANSI)
100
AcDbVertex
100
AcDb2dVertex
 10
63.5584784337854
 20
31.85478851728277
 30
0.0
  0
VERTEX
  5
148
330
144
100
AcDbEntity
  8
Visible (ANSI)
100
AcDbVertex
100
AcDb2dVertex
 10
63.55777556830496
 20
31.85267637741572
 30
0.0
  0
VERTEX
  5
149
330
144
100
AcDbEntity
  8
Visible (ANSI)
100
AcDbVertex
100
AcDb2dVertex
 10
63.55661013323483
 20
31.85056424928187
 30
0.0
  0
VERTEX
  5
14A
330
144
100
AcDbEntity
  8
Visible (ANSI)
100
AcDbVertex
100
AcDb2dVertex
 10
63.55498513227364
 20
31.84845210941483
 30
0.0
  0
VERTEX
  5
14B
330
144
100
AcDbEntity
  8
Visible (ANSI)
100
AcDbVertex
100
AcDb2dVertex
 10
63.55290957651731
 20
31.84633996954778
 30
0.0
  0
VERTEX
  5
14C
330
144
100
AcDbEntity
  8
Visible (ANSI)
100
AcDbVertex
100
AcDb2dVertex
 10
63.55038947336308
 20
31.84422784141393
 30
0.0
  0
VERTEX
  5
14D
330
144
100
AcDbEntity
  8
Visible (ANSI)
100
AcDbVertex
100
AcDb2dVertex
 10
63.54743683760552
 20
31.84211570154689
 30
0.0
  0
VERTEX
  5
14E
330
144
100
AcDbEntity
  8
Visible (ANSI)
100
AcDbVertex
100
AcDb2dVertex
 10
63.54406368403914
 20
31.84000356167984
 30
0.0
  0
VERTEX
  5
14F
330
144
100
AcDbEntity
  8
Visible (ANSI)
100
AcDbVertex
100
AcDb2dVertex
 10
63.54028503115713
 20
31.83789143354599
 30
0.0
  0
VERTEX
  5
150
330
144
100
AcDbEntity
  8
Visible (ANSI)
100
AcDbVertex
100
AcDb2dVertex
 10
63.53611589745265
 20
31.83577929367894
 30
0.0
  0
VERTEX
  5
151
330
144
100
AcDbEntity
  8
Visible (ANSI)
100
AcDbVertex
100
AcDb2dVertex
 10
63.53157730881615
 20
31.8336671538119
 30
0.0
  0
VERTEX
  5
152
330
144
100
AcDbEntity
  8
Visible (ANSI)
100
AcDbVertex
100
AcDb2dVertex
 10
63.52668428374079
 20
31.83155502567805
 30
0.0
  0
VERTEX
  5
153
330
144
100
AcDbEntity
  8
Visible (ANSI)
100
AcDbVertex
100
AcDb2dVertex
 10
63.52146085181566
 20
31.829442885811
 30
0.0
  0
VERTEX
  5
154
330
144
100
AcDbEntity
  8
Visible (ANSI)
100
AcDbVertex
100
AcDb2dVertex
 10
63.51593104262981
 20
31.82733075767715
 30
0.0
  0
VERTEX
  5
155
330
144
100
AcDbEntity
  8
Visible (ANSI)
100
AcDbVertex
100
AcDb2dVertex
 10
63.51011287837508
 20
31.8252186178101
 30
0.0
  0
VERTEX
  5
156
330
144
100
AcDbEntity
  8
Visible (ANSI)
100
AcDbVertex
100
AcDb2dVertex
 10
63.50403639603779
 20
31.82310647794306
 30
0.0
  0
VERTEX
  5
157
330
144
100
AcDbEntity
  8
Visible (ANSI)
100
AcDbVertex
100
AcDb2dVertex
 10
63.49772562520702
 20
31.82099434980921
 30
0.0
  0
VERTEX
  5
158
330
144
100
AcDbEntity
  8
Visible (ANSI)
100
AcDbVertex
100
AcDb2dVertex
 10
63.49120759917048
 20
31.81888220994216
 30
0.0
  0
VERTEX
  5
159
330
144
100
AcDbEntity
  8
Visible (ANSI)
100
AcDbVertex
100
AcDb2dVertex
 10
63.48451235491451
 20
31.81677007007511
 30
0.0
  0
VERTEX
  5
15A
330
144
100
AcDbEntity
  8
Visible (ANSI)
100
AcDbVertex
100
AcDb2dVertex
 10
63.47766392202819
 20
31.81465794194127
 30
0.0
  0
VERTEX
  5
15B
330
144
100
AcDbEntity
  8
Visible (ANSI)
100
AcDbVertex
100
AcDb2dVertex
 10
63.47069534119651
 20
31.81254580207422
 30
0.0
  0
VERTEX
  5
15C
330
144
100
AcDbEntity
  8
Visible (ANSI)
100
AcDbVertex
100
AcDb2dVertex
 10
63.46363664940578
 20
31.81043366220718
 30
0.0
  0
VERTEX
  5
15D
330
144
100
AcDbEntity
  8
Visible (ANSI)
100
AcDbVertex
100
AcDb2dVertex
 10
63.45651487994373
 20
31.80832153407332
 30
0.0
  0
VERTEX
  5
15E
330
144
100
AcDbEntity
  8
Visible (ANSI)
100
AcDbVertex
100
AcDb2dVertex
 10
63.44936307349534
 20
31.80620939420628
 30
0.0
  0
SEQEND
  5
147
330
144
100
AcDbEntity
  8
Visible (ANSI)
  0
POLYLINE
  5
15F
330
6C
100
AcDbEntity
  8
Visible (ANSI)
100
AcDb2dPolyline
 66
     1
 10
0.0
 20
0.0
 30
0.0
 70
   128
  0
VERTEX
  5
160
330
15F
100
AcDbEntity
  8
Visible (ANSI)
100
AcDbVertex
100
AcDb2dVertex
 10
37.6680623626145
 20
91.58751034538299
 30
0.0
  0
VERTEX
  5
161
330
15F
100
AcDbEntity
  8
Visible (ANSI)
100
AcDbVertex
100
AcDb2dVertex
 10
37.67017450248154
 20
91.59465914813278
 30
0.0
  0
VERTEX
  5
163
330
15F
100
AcDbEntity
  8
Visible (ANSI)
100
AcDbVertex
100
AcDb2dVertex
 10
37.6722866306154
 20
91.60178392129344
 30
0.0
  0
VERTEX
  5
164
330
15F
100
AcDbEntity
  8
Visible (ANSI)
100
AcDbVertex
100
AcDb2dVertex
 10
37.67439877048244
 20
91.60884261308417
 30
0.0
  0
VERTEX
  5
165
330
15F
100
AcDbEntity
  8
Visible (ANSI)
100
AcDbVertex
100
AcDb2dVertex
 10
37.67651091034949
 20
91.61581119391586
 30
0.0
  0
VERTEX
  5
166
330
15F
100
AcDbEntity
  8
Visible (ANSI)
100
AcDbVertex
100
AcDb2dVertex
 10
37.67862303848333
 20
91.62265962680217
 30
0.0
  0
VERTEX
  5
167
330
15F
100
AcDbEntity
  8
Visible (ANSI)
100
AcDbVertex
100
AcDb2dVertex
 10
37.68073517835038
 20
91.62935787475676
 30
0.0
  0
VERTEX
  5
168
330
15F
100
AcDbEntity
  8
Visible (ANSI)
100
AcDbVertex
100
AcDb2dVertex
 10
37.68284731821743
 20
91.63587590079334
 30
0.0
  0
VERTEX
  5
169
330
15F
100
AcDbEntity
  8
Visible (ANSI)
100
AcDbVertex
100
AcDb2dVertex
 10
37.68495944635128
 20
91.64218366792546
 30
0.0
  0
VERTEX
  5
16A
330
15F
100
AcDbEntity
  8
Visible (ANSI)
100
AcDbVertex
100
AcDb2dVertex
 10
37.68707158621833
 20
91.64826315396137
 30
0.0
  0
VERTEX
  5
16B
330
15F
100
AcDbEntity
  8
Visible (ANSI)
100
AcDbVertex
100
AcDb2dVertex
 10
37.68918372608537
 20
91.6540783145175
 30
0.0
  0
VERTEX
  5
16C
330
15F
100
AcDbEntity
  8
Visible (ANSI)
100
AcDbVertex
100
AcDb2dVertex
 10
37.69129585421922
 20
91.65961112740196
 30
0.0
  0
VERTEX
  5
16D
330
15F
100
AcDbEntity
  8
Visible (ANSI)
100
AcDbVertex
100
AcDb2dVertex
 10
37.69340799408626
 20
91.66483155562845
 30
0.0
  0
VERTEX
  5
16E
330
15F
100
AcDbEntity
  8
Visible (ANSI)
100
AcDbVertex
100
AcDb2dVertex
 10
37.69552012222012
 20
91.66972157700518
 30
0.0
  0
VERTEX
  5
16F
330
15F
100
AcDbEntity
  8
Visible (ANSI)
100
AcDbVertex
100
AcDb2dVertex
 10
37.69763226208716
 20
91.67426316934033
 30
0.0
  0
VERTEX
  5
170
330
15F
100
AcDbEntity
  8
Visible (ANSI)
100
AcDbVertex
100
AcDb2dVertex
 10
37.69974440195421
 20
91.67843230304479
 30
0.0
  0
VERTEX
  5
171
330
15F
100
AcDbEntity
  8
Visible (ANSI)
100
AcDbVertex
100
AcDb2dVertex
 10
37.70185653008806
 20
91.68221095592683
 30
0.0
  0
VERTEX
  5
172
330
15F
100
AcDbEntity
  8
Visible (ANSI)
100
AcDbVertex
100
AcDb2dVertex
 10
37.7039686699551
 20
91.68558110579457
 30
0.0
  0
VERTEX
  5
173
330
15F
100
AcDbEntity
  8
Visible (ANSI)
100
AcDbVertex
100
AcDb2dVertex
 10
37.70608080982216
 20
91.68853674525076
 30
0.0
  0
VERTEX
  5
174
330
15F
100
AcDbEntity
  8
Visible (ANSI)
100
AcDbVertex
100
AcDb2dVertex
 10
37.708192937956
 20
91.69105384470633
 30
0.0
  0
VERTEX
  5
175
330
15F
100
AcDbEntity
  8
Visible (ANSI)
100
AcDbVertex
100
AcDb2dVertex
 10
37.71030507782305
 20
91.69313240416132
 30
0.0
  0
VERTEX
  5
176
330
15F
100
AcDbEntity
  8
Visible (ANSI)
100
AcDbVertex
100
AcDb2dVertex
 10
37.71241721769009
 20
91.69476040882111
 30
0.0
  0
VERTEX
  5
177
330
15F
100
AcDbEntity
  8
Visible (ANSI)
100
AcDbVertex
100
AcDb2dVertex
 10
37.71452934582394
 20
91.69592584389127
 30
0.0
  0
VERTEX
  5
178
330
15F
100
AcDbEntity
  8
Visible (ANSI)
100
AcDbVertex
100
AcDb2dVertex
 10
37.71664148569099
 20
91.69662270197441
 30
0.0
  0
VERTEX
  5
179
330
15F
100
AcDbEntity
  8
Visible (ANSI)
100
AcDbVertex
100
AcDb2dVertex
 10
37.71875362555804
 20
91.69685699046791
 30
0.0
  0
SEQEND
  5
162
330
15F
100
AcDbEntity
  8
Visible (ANSI)
  0
POLYLINE
  5
17A
330
6C
100
AcDbEntity
  8
Visible (ANSI)
100
AcDb2dPolyline
 66
     1
 10
0.0
 20
0.0
 30
0.0
 70
   128
  0
VERTEX
  5
17B
330
17A
100
AcDbEntity
  8
Visible (ANSI)
100
AcDbVertex
100
AcDb2dVertex
 10
63.39866965164342
 20
91.69685699046791
 30
0.0
  0
VERTEX
  5
17C
330
17A
100
AcDbEntity
  8
Visible (ANSI)
100
AcDbVertex
100
AcDb2dVertex
 10
63.400784255482
 20
91.69662270197441
 30
0.0
  0
VERTEX
  5
17E
330
17A
100
AcDbEntity
  8
Visible (ANSI)
100
AcDbVertex
100
AcDb2dVertex
 10
63.40289585562194
 20
91.69592584389127
 30
0.0
  0
VERTEX
  5
17F
330
17A
100
AcDbEntity
  8
Visible (ANSI)
100
AcDbVertex
100
AcDb2dVertex
 10
63.40500745576189
 20
91.69476040882111
 30
0.0
  0
VERTEX
  5
180
330
17A
100
AcDbEntity
  8
Visible (ANSI)
100
AcDbVertex
100
AcDb2dVertex
 10
63.40711905590184
 20
91.69313240416132
 30
0.0
  0
VERTEX
  5
181
330
17A
100
AcDbEntity
  8
Visible (ANSI)
100
AcDbVertex
100
AcDb2dVertex
 10
63.40923065604179
 20
91.69105384470633
 30
0.0
  0
VERTEX
  5
182
330
17A
100
AcDbEntity
  8
Visible (ANSI)
100
AcDbVertex
100
AcDb2dVertex
 10
63.41134525988038
 20
91.68853674525076
 30
0.0
  0
VERTEX
  5
183
330
17A
100
AcDbEntity
  8
Visible (ANSI)
100
AcDbVertex
100
AcDb2dVertex
 10
63.41345686002032
 20
91.68558110579457
 30
0.0
  0
VERTEX
  5
184
330
17A
100
AcDbEntity
  8
Visible (ANSI)
100
AcDbVertex
100
AcDb2dVertex
 10
63.41556846016026
 20
91.68221095592683
 30
0.0
  0
VERTEX
  5
185
330
17A
100
AcDbEntity
  8
Visible (ANSI)
100
AcDbVertex
100
AcDb2dVertex
 10
63.41768006030022
 20
91.67843230304479
 30
0.0
  0
VERTEX
  5
186
330
17A
100
AcDbEntity
  8
Visible (ANSI)
100
AcDbVertex
100
AcDb2dVertex
 10
63.41979166044017
 20
91.67426316934033
 30
0.0
  0
VERTEX
  5
187
330
17A
100
AcDbEntity
  8
Visible (ANSI)
100
AcDbVertex
100
AcDb2dVertex
 10
63.42190326058011
 20
91.66972157700518
 30
0.0
  0
VERTEX
  5
188
330
17A
100
AcDbEntity
  8
Visible (ANSI)
100
AcDbVertex
100
AcDb2dVertex
 10
63.42401786441869
 20
91.66483155562845
 30
0.0
  0
VERTEX
  5
189
330
17A
100
AcDbEntity
  8
Visible (ANSI)
100
AcDbVertex
100
AcDb2dVertex
 10
63.42612946455864
 20
91.65961112740196
 30
0.0
  0
VERTEX
  5
18A
330
17A
100
AcDbEntity
  8
Visible (ANSI)
100
AcDbVertex
100
AcDb2dVertex
 10
63.42824106469859
 20
91.6540783145175
 30
0.0
  0
VERTEX
  5
18B
330
17A
100
AcDbEntity
  8
Visible (ANSI)
100
AcDbVertex
100
AcDb2dVertex
 10
63.43035266483854
 20
91.64826315396137
 30
0.0
  0
VERTEX
  5
18C
330
17A
100
AcDbEntity
  8
Visible (ANSI)
100
AcDbVertex
100
AcDb2dVertex
 10
63.43246426497849
 20
91.64218366792546
 30
0.0
  0
VERTEX
  5
18D
330
17A
100
AcDbEntity
  8
Visible (ANSI)
100
AcDbVertex
100
AcDb2dVertex
 10
63.43457886881707
 20
91.63587590079334
 30
0.0
  0
VERTEX
  5
18E
330
17A
100
AcDbEntity
  8
Visible (ANSI)
100
AcDbVertex
100
AcDb2dVertex
 10
63.43669046895701
 20
91.62935787475676
 30
0.0
  0
VERTEX
  5
18F
330
17A
100
AcDbEntity
  8
Visible (ANSI)
100
AcDbVertex
100
AcDb2dVertex
 10
63.43880206909697
 20
91.62265962680217
 30
0.0
  0
VERTEX
  5
190
330
17A
100
AcDbEntity
  8
Visible (ANSI)
100
AcDbVertex
100
AcDb2dVertex
 10
63.44091366923692
 20
91.61581119391586
 30
0.0
  0
VERTEX
  5
191
330
17A
100
AcDbEntity
  8
Visible (ANSI)
100
AcDbVertex
100
AcDb2dVertex
 10
63.44302526937686
 20
91.60884261308417
 30
0.0
  0
VERTEX
  5
192
330
17A
100
AcDbEntity
  8
Visible (ANSI)
100
AcDbVertex
100
AcDb2dVertex
 10
63.44513686951682
 20
91.60178392129344
 30
0.0
  0
VERTEX
  5
193
330
17A
100
AcDbEntity
  8
Visible (ANSI)
100
AcDbVertex
100
AcDb2dVertex
 10
63.44725147335539
 20
91.59465914813278
 30
0.0
  0
VERTEX
  5
194
330
17A
100
AcDbEntity
  8
Visible (ANSI)
100
AcDbVertex
100
AcDb2dVertex
 10
63.44936307349534
 20
91.58751034538299
 30
0.0
  0
SEQEND
  5
17D
330
17A
100
AcDbEntity
  8
Visible (ANSI)
  0
POLYLINE
  5
195
330
6C
100
AcDbEntity
  8
Visible (ANSI)
100
AcDb2dPolyline
 66
     1
 10
0.0
 20
0.0
 30
0.0
 70
   128
  0
VERTEX
  5
196
330
195
100
AcDbEntity
  8
Visible (ANSI)
100
AcDbVertex
100
AcDb2dVertex
 10
37.6680623626145
 20
31.80620939420628
 30
0.0
  0
VERTEX
  5
197
330
195
100
AcDbEntity
  8
Visible (ANSI)
100
AcDbVertex
100
AcDb2dVertex
 10
37.66091053269971
 20
31.80832153407332
 30
0.0
  0
VERTEX
  5
199
330
195
100
AcDbEntity
  8
Visible (ANSI)
100
AcDbVertex
100
AcDb2dVertex
 10
37.65378932056457
 20
31.81043366220718
 30
0.0
  0
VERTEX
  5
19A
330
195
100
AcDbEntity
  8
Visible (ANSI)
100
AcDbVertex
100
AcDb2dVertex
 10
37.6467292325233
 20
31.81254580207422
 30
0.0
  0
VERTEX
  5
19B
330
195
100
AcDbEntity
  8
Visible (ANSI)
100
AcDbVertex
100
AcDb2dVertex
 10
37.63976049916004
 20
31.81465794194127
 30
0.0
  0
VERTEX
  5
19C
330
195
100
AcDbEntity
  8
Visible (ANSI)
100
AcDbVertex
100
AcDb2dVertex
 10
37.63291295799675
 20
31.81677007007511
 30
0.0
  0
VERTEX
  5
19D
330
195
100
AcDbEntity
  8
Visible (ANSI)
100
AcDbVertex
100
AcDb2dVertex
 10
37.62621593029472
 20
31.81888220994216
 30
0.0
  0
VERTEX
  5
19E
330
195
100
AcDbEntity
  8
Visible (ANSI)
100
AcDbVertex
100
AcDb2dVertex
 10
37.61969809198934
 20
31.82099434980921
 30
0.0
  0
VERTEX
  5
19F
330
195
100
AcDbEntity
  8
Visible (ANSI)
100
AcDbVertex
100
AcDb2dVertex
 10
37.61338736222477
 20
31.82310647794306
 30
0.0
  0
VERTEX
  5
1A0
330
195
100
AcDbEntity
  8
Visible (ANSI)
100
AcDbVertex
100
AcDb2dVertex
 10
37.6073107566889
 20
31.8252186178101
 30
0.0
  0
VERTEX
  5
1A1
330
195
100
AcDbEntity
  8
Visible (ANSI)
100
AcDbVertex
100
AcDb2dVertex
 10
37.60149429961444
 20
31.82733075767715
 30
0.0
  0
VERTEX
  5
1A2
330
195
100
AcDbEntity
  8
Visible (ANSI)
100
AcDbVertex
100
AcDb2dVertex
 10
37.59596289764701
 20
31.829442885811
 30
0.0
  0
VERTEX
  5
1A3
330
195
100
AcDbEntity
  8
Visible (ANSI)
100
AcDbVertex
100
AcDb2dVertex
 10
37.59074023424633
 20
31.83155502567805
 30
0.0
  0
VERTEX
  5
1A4
330
195
100
AcDbEntity
  8
Visible (ANSI)
100
AcDbVertex
100
AcDb2dVertex
 10
37.58584867875399
 20
31.8336671538119
 30
0.0
  0
VERTEX
  5
1A5
330
195
100
AcDbEntity
  8
Visible (ANSI)
100
AcDbVertex
100
AcDb2dVertex
 10
37.58130917346141
 20
31.83577929367894
 30
0.0
  0
VERTEX
  5
1A6
330
195
100
AcDbEntity
  8
Visible (ANSI)
100
AcDbVertex
100
AcDb2dVertex
 10
37.57714116027732
 20
31.83789143354599
 30
0.0
  0
VERTEX
  5
1A7
330
195
100
AcDbEntity
  8
Visible (ANSI)
100
AcDbVertex
100
AcDb2dVertex
 10
37.57336248392891
 20
31.84000356167984
 30
0.0
  0
VERTEX
  5
1A8
330
195
100
AcDbEntity
  8
Visible (ANSI)
100
AcDbVertex
100
AcDb2dVertex
 10
37.56998932742924
 20
31.84211570154689
 30
0.0
  0
VERTEX
  5
1A9
330
195
100
AcDbEntity
  8
Visible (ANSI)
100
AcDbVertex
100
AcDb2dVertex
 10
37.5670361350781
 20
31.84422784141393
 30
0.0
  0
VERTEX
  5
1AA
330
195
100
AcDbEntity
  8
Visible (ANSI)
100
AcDbVertex
100
AcDb2dVertex
 10
37.56451555232942
 20
31.84633996954778
 30
0.0
  0
VERTEX
  5
1AB
330
195
100
AcDbEntity
  8
Visible (ANSI)
100
AcDbVertex
100
AcDb2dVertex
 10
37.56243837262518
 20
31.84845210941483
 30
0.0
  0
VERTEX
  5
1AC
330
195
100
AcDbEntity
  8
Visible (ANSI)
100
AcDbVertex
100
AcDb2dVertex
 10
37.56081349137928
 20
31.85056424928187
 30
0.0
  0
VERTEX
  5
1AD
330
195
100
AcDbEntity
  8
Visible (ANSI)
100
AcDbVertex
100
AcDb2dVertex
 10
37.55964786628635
 20
31.85267637741572
 30
0.0
  0
VERTEX
  5
1AE
330
195
100
AcDbEntity
  8
Visible (ANSI)
100
AcDbVertex
100
AcDb2dVertex
 10
37.55894648858455
 20
31.85478851728277
 30
0.0
  0
VERTEX
  5
1AF
330
195
100
AcDbEntity
  8
Visible (ANSI)
100
AcDbVertex
100
AcDb2dVertex
 10
37.55871236183504
 20
31.85690065714982
 30
0.0
  0
SEQEND
  5
198
330
195
100
AcDbEntity
  8
Visible (ANSI)
  0
POLYLINE
  5
1B0
330
6C
100
AcDbEntity
  8
Visible (ANSI)
100
AcDb2dPolyline
 66
     1
 10
0.0
 20
0.0
 30
0.0
 70
   128
  0
VERTEX
  5
1B1
330
1B0
100
AcDbEntity
  8
Visible (ANSI)
100
AcDbVertex
100
AcDb2dVertex
 10
37.55871236183502
 20
91.53681992722971
 30
0.0
  0
VERTEX
  5
1B2
330
1B0
100
AcDbEntity
  8
Visible (ANSI)
100
AcDbVertex
100
AcDb2dVertex
 10
37.55894648858455
 20
91.53892852367103
 30
0.0
  0
VERTEX
  5
1B4
330
1B0
100
AcDbEntity
  8
Visible (ANSI)
100
AcDbVertex
100
AcDb2dVertex
 10
37.55964786628635
 20
91.54104312750963
 30
0.0
  0
VERTEX
  5
1B5
330
1B0
100
AcDbEntity
  8
Visible (ANSI)
100
AcDbVertex
100
AcDb2dVertex
 10
37.56081349137928
 20
91.54315172395092
 30
0.0
  0
VERTEX
  5
1B6
330
1B0
100
AcDbEntity
  8
Visible (ANSI)
100
AcDbVertex
100
AcDb2dVertex
 10
37.56243837262518
 20
91.54526632778949
 30
0.0
  0
VERTEX
  5
1B7
330
1B0
100
AcDbEntity
  8
Visible (ANSI)
100
AcDbVertex
100
AcDb2dVertex
 10
37.56451555232942
 20
91.54738093162809
 30
0.0
  0
VERTEX
  5
1B8
330
1B0
100
AcDbEntity
  8
Visible (ANSI)
100
AcDbVertex
100
AcDb2dVertex
 10
37.5670361350781
 20
91.5494895280694
 30
0.0
  0
VERTEX
  5
1B9
330
1B0
100
AcDbEntity
  8
Visible (ANSI)
100
AcDbVertex
100
AcDb2dVertex
 10
37.56998932742924
 20
91.55160413190799
 30
0.0
  0
VERTEX
  5
1BA
330
1B0
100
AcDbEntity
  8
Visible (ANSI)
100
AcDbVertex
100
AcDb2dVertex
 10
37.57336248392891
 20
91.55371272834932
 30
0.0
  0
VERTEX
  5
1BB
330
1B0
100
AcDbEntity
  8
Visible (ANSI)
100
AcDbVertex
100
AcDb2dVertex
 10
37.57714116027732
 20
91.55582733218787
 30
0.0
  0
VERTEX
  5
1BC
330
1B0
100
AcDbEntity
  8
Visible (ANSI)
100
AcDbVertex
100
AcDb2dVertex
 10
37.58130917346141
 20
91.55794193602647
 30
0.0
  0
VERTEX
  5
1BD
330
1B0
100
AcDbEntity
  8
Visible (ANSI)
100
AcDbVertex
100
AcDb2dVertex
 10
37.58584867875399
 20
91.56005053246778
 30
0.0
  0
VERTEX
  5
1BE
330
1B0
100
AcDbEntity
  8
Visible (ANSI)
100
AcDbVertex
100
AcDb2dVertex
 10
37.59074023424633
 20
91.56216513630637
 30
0.0
  0
VERTEX
  5
1BF
330
1B0
100
AcDbEntity
  8
Visible (ANSI)
100
AcDbVertex
100
AcDb2dVertex
 10
37.59596289764701
 20
91.5642737327477
 30
0.0
  0
VERTEX
  5
1C0
330
1B0
100
AcDbEntity
  8
Visible (ANSI)
100
AcDbVertex
100
AcDb2dVertex
 10
37.60149429961444
 20
91.56638833658623
 30
0.0
  0
VERTEX
  5
1C1
330
1B0
100
AcDbEntity
  8
Visible (ANSI)
100
AcDbVertex
100
AcDb2dVertex
 10
37.6073107566889
 20
91.56850294042483
 30
0.0
  0
VERTEX
  5
1C2
330
1B0
100
AcDbEntity
  8
Visible (ANSI)
100
AcDbVertex
100
AcDb2dVertex
 10
37.61338736222477
 20
91.57061153686615
 30
0.0
  0
VERTEX
  5
1C3
330
1B0
100
AcDbEntity
  8
Visible (ANSI)
100
AcDbVertex
100
AcDb2dVertex
 10
37.61969809198934
 20
91.57272614070475
 30
0.0
  0
VERTEX
  5
1C4
330
1B0
100
AcDbEntity
  8
Visible (ANSI)
100
AcDbVertex
100
AcDb2dVertex
 10
37.62621593029472
 20
91.57483473714606
 30
0.0
  0
VERTEX
  5
1C5
330
1B0
100
AcDbEntity
  8
Visible (ANSI)
100
AcDbVertex
100
AcDb2dVertex
 10
37.63291295799675
 20
91.57694934098463
 30
0.0
  0
VERTEX
  5
1C6
330
1B0
100
AcDbEntity
  8
Visible (ANSI)
100
AcDbVertex
100
AcDb2dVertex
 10
37.63976049916004
 20
91.57905793742594
 30
0.0
  0
VERTEX
  5
1C7
330
1B0
100
AcDbEntity
  8
Visible (ANSI)
100
AcDbVertex
100
AcDb2dVertex
 10
37.6467292325233
 20
91.58117254126453
 30
0.0
  0
VERTEX
  5
1C8
330
1B0
100
AcDbEntity
  8
Visible (ANSI)
100
AcDbVertex
100
AcDb2dVertex
 10
37.65378932056457
 20
91.58328714510313
 30
0.0
  0
VERTEX
  5
1C9
330
1B0
100
AcDbEntity
  8
Visible (ANSI)
100
AcDbVertex
100
AcDb2dVertex
 10
37.66091053269971
 20
91.58539574154444
 30
0.0
  0
VERTEX
  5
1CA
330
1B0
100
AcDbEntity
  8
Visible (ANSI)
100
AcDbVertex
100
AcDb2dVertex
 10
37.6680623626145
 20
91.58751034538299
 30
0.0
  0
SEQEND
  5
1B3
330
1B0
100
AcDbEntity
  8
Visible (ANSI)
  0
POLYLINE
  5
1CB
330
6C
100
AcDbEntity
  8
Visible (ANSI)
100
AcDb2dPolyline
 66
     1
 10
0.0
 20
0.0
 30
0.0
 70
   128
  0
VERTEX
  5
1CC
330
1CB
100
AcDbEntity
  8
Visible (ANSI)
100
AcDbVertex
100
AcDb2dVertex
 10
63.44936307349534
 20
31.80620939420628
 30
0.0
  0
VERTEX
  5
1CD
330
1CB
100
AcDbEntity
  8
Visible (ANSI)
100
AcDbVertex
100
AcDb2dVertex
 10
63.44725147335539
 20
31.79905756429149
 30
0.0
  0
VERTEX
  5
1CF
330
1CB
100
AcDbEntity
  8
Visible (ANSI)
100
AcDbVertex
100
AcDb2dVertex
 10
63.44513686951682
 20
31.79193635215634
 30
0.0
  0
VERTEX
  5
1D0
330
1CB
100
AcDbEntity
  8
Visible (ANSI)
100
AcDbVertex
100
AcDb2dVertex
 10
63.44302526937686
 20
31.78487626411508
 30
0.0
  0
VERTEX
  5
1D1
330
1CB
100
AcDbEntity
  8
Visible (ANSI)
100
AcDbVertex
100
AcDb2dVertex
 10
63.44091366923692
 20
31.77790753075182
 30
0.0
  0
VERTEX
  5
1D2
330
1CB
100
AcDbEntity
  8
Visible (ANSI)
100
AcDbVertex
100
AcDb2dVertex
 10
63.43880206909697
 20
31.77105998958853
 30
0.0
  0
VERTEX
  5
1D3
330
1CB
100
AcDbEntity
  8
Visible (ANSI)
100
AcDbVertex
100
AcDb2dVertex
 10
63.43669046895701
 20
31.7643629618865
 30
0.0
  0
VERTEX
  5
1D4
330
1CB
100
AcDbEntity
  8
Visible (ANSI)
100
AcDbVertex
100
AcDb2dVertex
 10
63.43457886881707
 20
31.75784512358112
 30
0.0
  0
VERTEX
  5
1D5
330
1CB
100
AcDbEntity
  8
Visible (ANSI)
100
AcDbVertex
100
AcDb2dVertex
 10
63.43246426497849
 20
31.75153439381655
 30
0.0
  0
VERTEX
  5
1D6
330
1CB
100
AcDbEntity
  8
Visible (ANSI)
100
AcDbVertex
100
AcDb2dVertex
 10
63.43035266483854
 20
31.74545778828068
 30
0.0
  0
VERTEX
  5
1D7
330
1CB
100
AcDbEntity
  8
Visible (ANSI)
100
AcDbVertex
100
AcDb2dVertex
 10
63.42824106469859
 20
31.73964133120622
 30
0.0
  0
VERTEX
  5
1D8
330
1CB
100
AcDbEntity
  8
Visible (ANSI)
100
AcDbVertex
100
AcDb2dVertex
 10
63.42612946455864
 20
31.73410992923879
 30
0.0
  0
VERTEX
  5
1D9
330
1CB
100
AcDbEntity
  8
Visible (ANSI)
100
AcDbVertex
100
AcDb2dVertex
 10
63.42401786441869
 20
31.7288872658381
 30
0.0
  0
VERTEX
  5
1DA
330
1CB
100
AcDbEntity
  8
Visible (ANSI)
100
AcDbVertex
100
AcDb2dVertex
 10
63.42190326058011
 20
31.72399571034577
 30
0.0
  0
VERTEX
  5
1DB
330
1CB
100
AcDbEntity
  8
Visible (ANSI)
100
AcDbVertex
100
AcDb2dVertex
 10
63.41979166044017
 20
31.71945620505319
 30
0.0
  0
VERTEX
  5
1DC
330
1CB
100
AcDbEntity
  8
Visible (ANSI)
100
AcDbVertex
100
AcDb2dVertex
 10
63.41768006030022
 20
31.7152881918691
 30
0.0
  0
VERTEX
  5
1DD
330
1CB
100
AcDbEntity
  8
Visible (ANSI)
100
AcDbVertex
100
AcDb2dVertex
 10
63.41556846016026
 20
31.71150951552069
 30
0.0
  0
VERTEX
  5
1DE
330
1CB
100
AcDbEntity
  8
Visible (ANSI)
100
AcDbVertex
100
AcDb2dVertex
 10
63.41345686002032
 20
31.70813635902101
 30
0.0
  0
VERTEX
  5
1DF
330
1CB
100
AcDbEntity
  8
Visible (ANSI)
100
AcDbVertex
100
AcDb2dVertex
 10
63.41134525988038
 20
31.70518316666988
 30
0.0
  0
VERTEX
  5
1E0
330
1CB
100
AcDbEntity
  8
Visible (ANSI)
100
AcDbVertex
100
AcDb2dVertex
 10
63.40923065604179
 20
31.7026625839212
 30
0.0
  0
VERTEX
  5
1E1
330
1CB
100
AcDbEntity
  8
Visible (ANSI)
100
AcDbVertex
100
AcDb2dVertex
 10
63.40711905590184
 20
31.70058540421696
 30
0.0
  0
VERTEX
  5
1E2
330
1CB
100
AcDbEntity
  8
Visible (ANSI)
100
AcDbVertex
100
AcDb2dVertex
 10
63.40500745576189
 20
31.69896052297106
 30
0.0
  0
VERTEX
  5
1E3
330
1CB
100
AcDbEntity
  8
Visible (ANSI)
100
AcDbVertex
100
AcDb2dVertex
 10
63.40289585562194
 20
31.69779489787813
 30
0.0
  0
VERTEX
  5
1E4
330
1CB
100
AcDbEntity
  8
Visible (ANSI)
100
AcDbVertex
100
AcDb2dVertex
 10
63.400784255482
 20
31.69709352017633
 30
0.0
  0
VERTEX
  5
1E5
330
1CB
100
AcDbEntity
  8
Visible (ANSI)
100
AcDbVertex
100
AcDb2dVertex
 10
63.39866965164342
 20
31.69685939342682
 30
0.0
  0
SEQEND
  5
1CE
330
1CB
100
AcDbEntity
  8
Visible (ANSI)
  0
POLYLINE
  5
1E6
330
6C
100
AcDbEntity
  8
Visible (ANSI)
100
AcDb2dPolyline
 66
     1
 10
0.0
 20
0.0
 30
0.0
 70
   128
  0
VERTEX
  5
1E7
330
1E6
100
AcDbEntity
  8
Visible (ANSI)
100
AcDbVertex
100
AcDb2dVertex
 10
37.71875362555804
 20
31.69685939342682
 30
0.0
  0
VERTEX
  5
1E8
330
1E6
100
AcDbEntity
  8
Visible (ANSI)
100
AcDbVertex
100
AcDb2dVertex
 10
37.71664148569099
 20
31.69709352017633
 30
0.0
  0
VERTEX
  5
1EA
330
1E6
100
AcDbEntity
  8
Visible (ANSI)
100
AcDbVertex
100
AcDb2dVertex
 10
37.71452934582394
 20
31.69779489787813
 30
0.0
  0
VERTEX
  5
1EB
330
1E6
100
AcDbEntity
  8
Visible (ANSI)
100
AcDbVertex
100
AcDb2dVertex
 10
37.71241721769009
 20
31.69896052297106
 30
0.0
  0
VERTEX
  5
1EC
330
1E6
100
AcDbEntity
  8
Visible (ANSI)
100
AcDbVertex
100
AcDb2dVertex
 10
37.71030507782305
 20
31.70058540421696
 30
0.0
  0
VERTEX
  5
1ED
330
1E6
100
AcDbEntity
  8
Visible (ANSI)
100
AcDbVertex
100
AcDb2dVertex
 10
37.708192937956
 20
31.7026625839212
 30
0.0
  0
VERTEX
  5
1EE
330
1E6
100
AcDbEntity
  8
Visible (ANSI)
100
AcDbVertex
100
AcDb2dVertex
 10
37.70608080982216
 20
31.70518316666988
 30
0.0
  0
VERTEX
  5
1EF
330
1E6
100
AcDbEntity
  8
Visible (ANSI)
100
AcDbVertex
100
AcDb2dVertex
 10
37.7039686699551
 20
31.70813635902101
 30
0.0
  0
VERTEX
  5
1F0
330
1E6
100
AcDbEntity
  8
Visible (ANSI)
100
AcDbVertex
100
AcDb2dVertex
 10
37.70185653008806
 20
31.71150951552069
 30
0.0
  0
VERTEX
  5
1F1
330
1E6
100
AcDbEntity
  8
Visible (ANSI)
100
AcDbVertex
100
AcDb2dVertex
 10
37.69974440195421
 20
31.7152881918691
 30
0.0
  0
VERTEX
  5
1F2
330
1E6
100
AcDbEntity
  8
Visible (ANSI)
100
AcDbVertex
100
AcDb2dVertex
 10
37.69763226208716
 20
31.71945620505319
 30
0.0
  0
VERTEX
  5
1F3
330
1E6
100
AcDbEntity
  8
Visible (ANSI)
100
AcDbVertex
100
AcDb2dVertex
 10
37.69552012222012
 20
31.72399571034577
 30
0.0
  0
VERTEX
  5
1F4
330
1E6
100
AcDbEntity
  8
Visible (ANSI)
100
AcDbVertex
100
AcDb2dVertex
 10
37.69340799408626
 20
31.7288872658381
 30
0.0
  0
VERTEX
  5
1F5
330
1E6
100
AcDbEntity
  8
Visible (ANSI)
100
AcDbVertex
100
AcDb2dVertex
 10
37.69129585421922
 20
31.73410992923879
 30
0.0
  0
VERTEX
  5
1F6
330
1E6
100
AcDbEntity
  8
Visible (ANSI)
100
AcDbVertex
100
AcDb2dVertex
 10
37.68918372608537
 20
31.73964133120622
 30
0.0
  0
VERTEX
  5
1F7
330
1E6
100
AcDbEntity
  8
Visible (ANSI)
100
AcDbVertex
100
AcDb2dVertex
 10
37.68707158621833
 20
31.74545778828068
 30
0.0
  0
VERTEX
  5
1F8
330
1E6
100
AcDbEntity
  8
Visible (ANSI)
100
AcDbVertex
100
AcDb2dVertex
 10
37.68495944635128
 20
31.75153439381655
 30
0.0
  0
VERTEX
  5
1F9
330
1E6
100
AcDbEntity
  8
Visible (ANSI)
100
AcDbVertex
100
AcDb2dVertex
 10
37.68284731821743
 20
31.75784512358112
 30
0.0
  0
VERTEX
  5
1FA
330
1E6
100
AcDbEntity
  8
Visible (ANSI)
100
AcDbVertex
100
AcDb2dVertex
 10
37.68073517835038
 20
31.7643629618865
 30
0.0
  0
VERTEX
  5
1FB
330
1E6
100
AcDbEntity
  8
Visible (ANSI)
100
AcDbVertex
100
AcDb2dVertex
 10
37.67862303848333
 20
31.77105998958853
 30
0.0
  0
VERTEX
  5
1FC
330
1E6
100
AcDbEntity
  8
Visible (ANSI)
100
AcDbVertex
100
AcDb2dVertex
 10
37.67651091034949
 20
31.77790753075182
 30
0.0
  0
VERTEX
  5
1FD
330
1E6
100
AcDbEntity
  8
Visible (ANSI)
100
AcDbVertex
100
AcDb2dVertex
 10
37.67439877048244
 20
31.78487626411508
 30
0.0
  0
VERTEX
  5
1FE
330
1E6
100
AcDbEntity
  8
Visible (ANSI)
100
AcDbVertex
100
AcDb2dVertex
 10
37.6722866306154
 20
31.79193635215634
 30
0.0
  0
VERTEX
  5
1FF
330
1E6
100
AcDbEntity
  8
Visible (ANSI)
100
AcDbVertex
100
AcDb2dVertex
 10
37.67017450248154
 20
31.79905756429149
 30
0.0
  0
VERTEX
  5
200
330
1E6
100
AcDbEntity
  8
Visible (ANSI)
100
AcDbVertex
100
AcDb2dVertex
 10
37.6680623626145
 20
31.80620939420628
 30
0.0
  0
SEQEND
  5
1E9
330
1E6
100
AcDbEntity
  8
Visible (ANSI)
  0
LINE
  5
201
330
6C
100
AcDbEntity
  8
Hidden (ANSI)
 48
0.0147804422304034
100
AcDbLine
 10
63.46496236183504
 20
31.85690065416305
 30
0.0
 11
63.55871236183503
 21
31.85690065416305
 31
0.0
  0
POLYLINE
  5
202
330
6C
100
AcDbEntity
  8
Hidden (ANSI)
 48
0.008836392313242
100
AcDb2dPolyline
 66
     1
 10
0.0
 20
0.0
 30
0.0
 70
   128
  0
VERTEX
  5
203
330
202
100
AcDbEntity
  8
Hidden (ANSI)
 48
0.008836392313242
100
AcDbVertex
100
AcDb2dVertex
 10
63.44936307349534
 20
31.80620939420628
 30
0.0
  0
VERTEX
  5
204
330
202
100
AcDbEntity
  8
Hidden (ANSI)
 48
0.008836392313242
100
AcDbVertex
100
AcDb2dVertex
 10
63.4503813273324
 20
31.80832153407332
 30
0.0
  0
VERTEX
  5
206
330
202
100
AcDbEntity
  8
Hidden (ANSI)
 48
0.008836392313242
100
AcDbVertex
100
AcDb2dVertex
 10
63.45139958116944
 20
31.81043366220718
 30
0.0
  0
VERTEX
  5
207
330
202
100
AcDbEntity
  8
Hidden (ANSI)
 48
0.008836392313242
100
AcDbVertex
100
AcDb2dVertex
 10
63.45240582021194
 20
31.81254580207422
 30
0.0
  0
VERTEX
  5
208
330
202
100
AcDbEntity
  8
Hidden (ANSI)
 48
0.008836392313242
100
AcDbVertex
100
AcDb2dVertex
 10
63.45340004445991
 20
31.81465794194127
 30
0.0
  0
VERTEX
  5
209
330
202
100
AcDbEntity
  8
Hidden (ANSI)
 48
0.008836392313242
100
AcDbVertex
100
AcDb2dVertex
 10
63.45437624651608
 20
31.81677007007511
 30
0.0
  0
VERTEX
  5
20A
330
202
100
AcDbEntity
  8
Hidden (ANSI)
 48
0.008836392313242
100
AcDbVertex
100
AcDb2dVertex
 10
63.4553314226818
 20
31.81888220994216
 30
0.0
  0
VERTEX
  5
20B
330
202
100
AcDbEntity
  8
Hidden (ANSI)
 48
0.008836392313242
100
AcDbVertex
100
AcDb2dVertex
 10
63.45626256925844
 20
31.82099434980921
 30
0.0
  0
VERTEX
  5
20C
330
202
100
AcDbEntity
  8
Hidden (ANSI)
 48
0.008836392313242
100
AcDbVertex
100
AcDb2dVertex
 10
63.45716367884875
 20
31.82310647794306
 30
0.0
  0
VERTEX
  5
20D
330
202
100
AcDbEntity
  8
Hidden (ANSI)
 48
0.008836392313242
100
AcDbVertex
100
AcDb2dVertex
 10
63.45802874405544
 20
31.8252186178101
 30
0.0
  0
VERTEX
  5
20E
330
202
100
AcDbEntity
  8
Hidden (ANSI)
 48
0.008836392313242
100
AcDbVertex
100
AcDb2dVertex
 10
63.45885776487852
 20
31.82733075767715
 30
0.0
  0
VERTEX
  5
20F
330
202
100
AcDbEntity
  8
Hidden (ANSI)
 48
0.008836392313242
100
AcDbVertex
100
AcDb2dVertex
 10
63.45964773761936
 20
31.829442885811
 30
0.0
  0
VERTEX
  5
210
330
202
100
AcDbEntity
  8
Hidden (ANSI)
 48
0.008836392313242
100
AcDbVertex
100
AcDb2dVertex
 10
63.46039265488069
 20
31.83155502567805
 30
0.0
  0
VERTEX
  5
211
330
202
100
AcDbEntity
  8
Hidden (ANSI)
 48
0.008836392313242
100
AcDbVertex
100
AcDb2dVertex
 10
63.46109251666248
 20
31.8336671538119
 30
0.0
  0
VERTEX
  5
212
330
202
100
AcDbEntity
  8
Hidden (ANSI)
 48
0.008836392313242
100
AcDbVertex
100
AcDb2dVertex
 10
63.46173831186887
 20
31.83577929367894
 30
0.0
  0
VERTEX
  5
213
330
202
100
AcDbEntity
  8
Hidden (ANSI)
 48
0.008836392313242
100
AcDbVertex
100
AcDb2dVertex
 10
63.46233304419847
 20
31.83789143354599
 30
0.0
  0
VERTEX
  5
214
330
202
100
AcDbEntity
  8
Hidden (ANSI)
 48
0.008836392313242
100
AcDbVertex
100
AcDb2dVertex
 10
63.46287370995265
 20
31.84000356167984
 30
0.0
  0
VERTEX
  5
215
330
202
100
AcDbEntity
  8
Hidden (ANSI)
 48
0.008836392313242
100
AcDbVertex
100
AcDb2dVertex
 10
63.46335430173414
 20
31.84211570154689
 30
0.0
  0
VERTEX
  5
216
330
202
100
AcDbEntity
  8
Hidden (ANSI)
 48
0.008836392313242
100
AcDbVertex
100
AcDb2dVertex
 10
63.46377481954295
 20
31.84422784141393
 30
0.0
  0
VERTEX
  5
217
330
202
100
AcDbEntity
  8
Hidden (ANSI)
 48
0.008836392313242
100
AcDbVertex
100
AcDb2dVertex
 10
63.46413526337908
 20
31.84633996954778
 30
0.0
  0
VERTEX
  5
218
330
202
100
AcDbEntity
  8
Hidden (ANSI)
 48
0.008836392313242
100
AcDbVertex
100
AcDb2dVertex
 10
63.46442962584525
 20
31.84845210941483
 30
0.0
  0
VERTEX
  5
219
330
202
100
AcDbEntity
  8
Hidden (ANSI)
 48
0.008836392313242
100
AcDbVertex
100
AcDb2dVertex
 10
63.46466391433873
 20
31.85056424928187
 30
0.0
  0
VERTEX
  5
21A
330
202
100
AcDbEntity
  8
Hidden (ANSI)
 48
0.008836392313242
100
AcDbVertex
100
AcDb2dVertex
 10
63.46482911776361
 20
31.85267637741572
 30
0.0
  0
VERTEX
  5
21B
330
202
100
AcDbEntity
  8
Hidden (ANSI)
 48
0.008836392313242
100
AcDbVertex
100
AcDb2dVertex
 10
63.46492823981854
 20
31.85478851728277
 30
0.0
  0
VERTEX
  5
21C
330
202
100
AcDbEntity
  8
Hidden (ANSI)
 48
0.008836392313242
100
AcDbVertex
100
AcDb2dVertex
 10
63.46496128050353
 20
31.85690065714982
 30
0.0
  0
SEQEND
  5
205
330
202
100
AcDbEntity
  8
Hidden (ANSI)
 48
0.008836392313242
  0
LINE
  5
21D
330
6C
100
AcDbEntity
  8
Hidden (ANSI)
 48
0.0147804422304034
100
AcDbLine
 10
63.46496236183503
 20
91.53681813269058
 30
0.0
 11
63.55871236183503
 21
91.53681813269058
 31
0.0
  0
POLYLINE
  5
21E
330
6C
100
AcDbEntity
  8
Hidden (ANSI)
 48
0.0088362731039524
100
AcDb2dPolyline
 66
     1
 10
0.0
 20
0.0
 30
0.0
 70
   128
  0
VERTEX
  5
21F
330
21E
100
AcDbEntity
  8
Hidden (ANSI)
 48
0.0088362731039524
100
AcDbVertex
100
AcDb2dVertex
 10
63.44936307349534
 20
91.58751034538299
 30
0.0
  0
VERTEX
  5
220
330
21E
100
AcDbEntity
  8
Hidden (ANSI)
 48
0.0088362731039524
100
AcDbVertex
100
AcDb2dVertex
 10
63.4503813273324
 20
91.58539574154444
 30
0.0
  0
VERTEX
  5
222
330
21E
100
AcDbEntity
  8
Hidden (ANSI)
 48
0.0088362731039524
100
AcDbVertex
100
AcDb2dVertex
 10
63.45139958116944
 20
91.58328714510313
 30
0.0
  0
VERTEX
  5
223
330
21E
100
AcDbEntity
  8
Hidden (ANSI)
 48
0.0088362731039524
100
AcDbVertex
100
AcDb2dVertex
 10
63.45240582021194
 20
91.58117254126453
 30
0.0
  0
VERTEX
  5
224
330
21E
100
AcDbEntity
  8
Hidden (ANSI)
 48
0.0088362731039524
100
AcDbVertex
100
AcDb2dVertex
 10
63.45340004445991
 20
91.57905793742594
 30
0.0
  0
VERTEX
  5
225
330
21E
100
AcDbEntity
  8
Hidden (ANSI)
 48
0.0088362731039524
100
AcDbVertex
100
AcDb2dVertex
 10
63.45437624651608
 20
91.57694934098463
 30
0.0
  0
VERTEX
  5
226
330
21E
100
AcDbEntity
  8
Hidden (ANSI)
 48
0.0088362731039524
100
AcDbVertex
100
AcDb2dVertex
 10
63.4553314226818
 20
91.57483473714606
 30
0.0
  0
VERTEX
  5
227
330
21E
100
AcDbEntity
  8
Hidden (ANSI)
 48
0.0088362731039524
100
AcDbVertex
100
AcDb2dVertex
 10
63.45626256925844
 20
91.57272614070475
 30
0.0
  0
VERTEX
  5
228
330
21E
100
AcDbEntity
  8
Hidden (ANSI)
 48
0.0088362731039524
100
AcDbVertex
100
AcDb2dVertex
 10
63.45716367884875
 20
91.57061153686615
 30
0.0
  0
VERTEX
  5
229
330
21E
100
AcDbEntity
  8
Hidden (ANSI)
 48
0.0088362731039524
100
AcDbVertex
100
AcDb2dVertex
 10
63.45802874405544
 20
91.56850294042483
 30
0.0
  0
VERTEX
  5
22A
330
21E
100
AcDbEntity
  8
Hidden (ANSI)
 48
0.0088362731039524
100
AcDbVertex
100
AcDb2dVertex
 10
63.45885776487852
 20
91.56638833658623
 30
0.0
  0
VERTEX
  5
22B
330
21E
100
AcDbEntity
  8
Hidden (ANSI)
 48
0.0088362731039524
100
AcDbVertex
100
AcDb2dVertex
 10
63.45964773761936
 20
91.5642737327477
 30
0.0
  0
VERTEX
  5
22C
330
21E
100
AcDbEntity
  8
Hidden (ANSI)
 48
0.0088362731039524
100
AcDbVertex
100
AcDb2dVertex
 10
63.46039265488069
 20
91.56216513630637
 30
0.0
  0
VERTEX
  5
22D
330
21E
100
AcDbEntity
  8
Hidden (ANSI)
 48
0.0088362731039524
100
AcDbVertex
100
AcDb2dVertex
 10
63.46109251666248
 20
91.56005053246778
 30
0.0
  0
VERTEX
  5
22E
330
21E
100
AcDbEntity
  8
Hidden (ANSI)
 48
0.0088362731039524
100
AcDbVertex
100
AcDb2dVertex
 10
63.46173831186887
 20
91.55794193602647
 30
0.0
  0
VERTEX
  5
22F
330
21E
100
AcDbEntity
  8
Hidden (ANSI)
 48
0.0088362731039524
100
AcDbVertex
100
AcDb2dVertex
 10
63.46233304419847
 20
91.55582733218787
 30
0.0
  0
VERTEX
  5
230
330
21E
100
AcDbEntity
  8
Hidden (ANSI)
 48
0.0088362731039524
100
AcDbVertex
100
AcDb2dVertex
 10
63.46287370995265
 20
91.55371272834932
 30
0.0
  0
VERTEX
  5
231
330
21E
100
AcDbEntity
  8
Hidden (ANSI)
 48
0.0088362731039524
100
AcDbVertex
100
AcDb2dVertex
 10
63.46335430173414
 20
91.55160413190799
 30
0.0
  0
VERTEX
  5
232
330
21E
100
AcDbEntity
  8
Hidden (ANSI)
 48
0.0088362731039524
100
AcDbVertex
100
AcDb2dVertex
 10
63.46377481954295
 20
91.5494895280694
 30
0.0
  0
VERTEX
  5
233
330
21E
100
AcDbEntity
  8
Hidden (ANSI)
 48
0.0088362731039524
100
AcDbVertex
100
AcDb2dVertex
 10
63.46413526337908
 20
91.54738093162809
 30
0.0
  0
VERTEX
  5
234
330
21E
100
AcDbEntity
  8
Hidden (ANSI)
 48
0.0088362731039524
100
AcDbVertex
100
AcDb2dVertex
 10
63.46442962584525
 20
91.54526632778949
 30
0.0
  0
VERTEX
  5
235
330
21E
100
AcDbEntity
  8
Hidden (ANSI)
 48
0.0088362731039524
100
AcDbVertex
100
AcDb2dVertex
 10
63.46466391433873
 20
91.54315172395092
 30
0.0
  0
VERTEX
  5
236
330
21E
100
AcDbEntity
  8
Hidden (ANSI)
 48
0.0088362731039524
100
AcDbVertex
100
AcDb2dVertex
 10
63.46482911776361
 20
91.54104312750963
 30
0.0
  0
VERTEX
  5
237
330
21E
100
AcDbEntity
  8
Hidden (ANSI)
 48
0.0088362731039524
100
AcDbVertex
100
AcDb2dVertex
 10
63.46492823981854
 20
91.53892852367103
 30
0.0
  0
VERTEX
  5
238
330
21E
100
AcDbEntity
  8
Hidden (ANSI)
 48
0.0088362731039524
100
AcDbVertex
100
AcDb2dVertex
 10
63.46496128050353
 20
91.53681992722971
 30
0.0
  0
SEQEND
  5
221
330
21E
100
AcDbEntity
  8
Hidden (ANSI)
 48
0.0088362731039524
  0
LINE
  5
239
330
6C
100
AcDbEntity
  8
Hidden (ANSI)
 48
0.0147804422304034
100
AcDbLine
 10
63.39867110109879
 20
91.6031093934268
 30
0.0
 11
63.39867110109879
 21
91.69685939342681
 31
0.0
  0
POLYLINE
  5
23A
330
6C
100
AcDbEntity
  8
Hidden (ANSI)
 48
0.0088366977870464
100
AcDb2dPolyline
 66
     1
 10
0.0
 20
0.0
 30
0.0
 70
   128
  0
VERTEX
  5
23B
330
23A
100
AcDbEntity
  8
Hidden (ANSI)
 48
0.0088366977870464
100
AcDbVertex
100
AcDb2dVertex
 10
63.44936307349534
 20
91.58751034538299
 30
0.0
  0
VERTEX
  5
23C
330
23A
100
AcDbEntity
  8
Hidden (ANSI)
 48
0.0088366977870464
100
AcDbVertex
100
AcDb2dVertex
 10
63.44725147335539
 20
91.58853160291871
 30
0.0
  0
VERTEX
  5
23E
330
23A
100
AcDbEntity
  8
Hidden (ANSI)
 48
0.0088366977870464
100
AcDbVertex
100
AcDb2dVertex
 10
63.44513686951682
 20
91.58954685305708
 30
0.0
  0
VERTEX
  5
23F
330
23A
100
AcDbEntity
  8
Hidden (ANSI)
 48
0.0088366977870464
100
AcDbVertex
100
AcDb2dVertex
 10
63.44302526937686
 20
91.59055008840098
 30
0.0
  0
VERTEX
  5
240
330
23A
100
AcDbEntity
  8
Hidden (ANSI)
 48
0.0088366977870464
100
AcDbVertex
100
AcDb2dVertex
 10
63.44091366923692
 20
91.59154731634757
 30
0.0
  0
VERTEX
  5
241
330
23A
100
AcDbEntity
  8
Hidden (ANSI)
 48
0.0088366977870464
100
AcDbVertex
100
AcDb2dVertex
 10
63.43880206909697
 20
91.59252652210238
 30
0.0
  0
VERTEX
  5
242
330
23A
100
AcDbEntity
  8
Hidden (ANSI)
 48
0.0088366977870464
100
AcDbVertex
100
AcDb2dVertex
 10
63.43669046895701
 20
91.59348169826809
 30
0.0
  0
VERTEX
  5
243
330
23A
100
AcDbEntity
  8
Hidden (ANSI)
 48
0.0088366977870464
100
AcDbVertex
100
AcDb2dVertex
 10
63.43457886881707
 20
91.59440683744749
 30
0.0
  0
VERTEX
  5
244
330
23A
100
AcDbEntity
  8
Hidden (ANSI)
 48
0.0088366977870464
100
AcDbVertex
100
AcDb2dVertex
 10
63.43246426497849
 20
91.5953079470378
 30
0.0
  0
VERTEX
  5
245
330
23A
100
AcDbEntity
  8
Hidden (ANSI)
 48
0.0088366977870464
100
AcDbVertex
100
AcDb2dVertex
 10
63.43035266483854
 20
91.59617901964173
 30
0.0
  0
VERTEX
  5
246
330
23A
100
AcDbEntity
  8
Hidden (ANSI)
 48
0.0088366977870464
100
AcDbVertex
100
AcDb2dVertex
 10
63.42824106469859
 20
91.59700804046481
 30
0.0
  0
VERTEX
  5
247
330
23A
100
AcDbEntity
  8
Hidden (ANSI)
 48
0.0088366977870464
100
AcDbVertex
100
AcDb2dVertex
 10
63.42612946455864
 20
91.59779500950703
 30
0.0
  0
VERTEX
  5
248
330
23A
100
AcDbEntity
  8
Hidden (ANSI)
 48
0.0088366977870464
100
AcDbVertex
100
AcDb2dVertex
 10
63.42401786441869
 20
91.59853992676834
 30
0.0
  0
VERTEX
  5
249
330
23A
100
AcDbEntity
  8
Hidden (ANSI)
 48
0.0088366977870464
100
AcDbVertex
100
AcDb2dVertex
 10
63.42190326058011
 20
91.59923678485153
 30
0.0
  0
VERTEX
  5
24A
330
23A
100
AcDbEntity
  8
Hidden (ANSI)
 48
0.0088366977870464
100
AcDbVertex
100
AcDb2dVertex
 10
63.41979166044017
 20
91.59988558375655
 30
0.0
  0
VERTEX
  5
24B
330
23A
100
AcDbEntity
  8
Hidden (ANSI)
 48
0.0088366977870464
100
AcDbVertex
100
AcDb2dVertex
 10
63.41768006030022
 20
91.60048031608615
 30
0.0
  0
VERTEX
  5
24C
330
23A
100
AcDbEntity
  8
Hidden (ANSI)
 48
0.0088366977870464
100
AcDbVertex
100
AcDb2dVertex
 10
63.41556846016026
 20
91.60102098184033
 30
0.0
  0
VERTEX
  5
24D
330
23A
100
AcDbEntity
  8
Hidden (ANSI)
 48
0.0088366977870464
100
AcDbVertex
100
AcDb2dVertex
 10
63.41345686002032
 20
91.60150157362181
 30
0.0
  0
VERTEX
  5
24E
330
23A
100
AcDbEntity
  8
Hidden (ANSI)
 48
0.0088366977870464
100
AcDbVertex
100
AcDb2dVertex
 10
63.41134525988038
 20
91.60192209143064
 30
0.0
  0
VERTEX
  5
24F
330
23A
100
AcDbEntity
  8
Hidden (ANSI)
 48
0.0088366977870464
100
AcDbVertex
100
AcDb2dVertex
 10
63.40923065604179
 20
91.60228253526675
 30
0.0
  0
VERTEX
  5
250
330
23A
100
AcDbEntity
  8
Hidden (ANSI)
 48
0.0088366977870464
100
AcDbVertex
100
AcDb2dVertex
 10
63.40711905590184
 20
91.6025768977329
 30
0.0
  0
VERTEX
  5
251
330
23A
100
AcDbEntity
  8
Hidden (ANSI)
 48
0.0088366977870464
100
AcDbVertex
100
AcDb2dVertex
 10
63.40500745576189
 20
91.60281118622638
 30
0.0
  0
VERTEX
  5
252
330
23A
100
AcDbEntity
  8
Hidden (ANSI)
 48
0.0088366977870464
100
AcDbVertex
100
AcDb2dVertex
 10
63.40289585562194
 20
91.60297338595263
 30
0.0
  0
VERTEX
  5
253
330
23A
100
AcDbEntity
  8
Hidden (ANSI)
 48
0.0088366977870464
100
AcDbVertex
100
AcDb2dVertex
 10
63.400784255482
 20
91.60307551170623
 30
0.0
  0
VERTEX
  5
254
330
23A
100
AcDbEntity
  8
Hidden (ANSI)
 48
0.0088366977870464
100
AcDbVertex
100
AcDb2dVertex
 10
63.39866965164342
 20
91.60311155608985
 30
0.0
  0
SEQEND
  5
23D
330
23A
100
AcDbEntity
  8
Hidden (ANSI)
 48
0.0088366977870464
  0
LINE
  5
255
330
6C
100
AcDbEntity
  8
Hidden (ANSI)
 48
0.0147804422304034
100
AcDbLine
 10
37.71875362257127
 20
91.6031093934268
 30
0.0
 11
37.71875362257127
 21
91.69685939342681
 31
0.0
  0
POLYLINE
  5
256
330
6C
100
AcDbEntity
  8
Hidden (ANSI)
 48
0.0088363895192742
100
AcDb2dPolyline
 66
     1
 10
0.0
 20
0.0
 30
0.0
 70
   128
  0
VERTEX
  5
257
330
256
100
AcDbEntity
  8
Hidden (ANSI)
 48
0.0088363895192742
100
AcDbVertex
100
AcDb2dVertex
 10
37.6680623626145
 20
91.58751034538299
 30
0.0
  0
VERTEX
  5
258
330
256
100
AcDbEntity
  8
Hidden (ANSI)
 48
0.0088363895192742
100
AcDbVertex
100
AcDb2dVertex
 10
37.67017450248154
 20
91.58853160291871
 30
0.0
  0
VERTEX
  5
25A
330
256
100
AcDbEntity
  8
Hidden (ANSI)
 48
0.0088363895192742
100
AcDbVertex
100
AcDb2dVertex
 10
37.6722866306154
 20
91.58954685305708
 30
0.0
  0
VERTEX
  5
25B
330
256
100
AcDbEntity
  8
Hidden (ANSI)
 48
0.0088363895192742
100
AcDbVertex
100
AcDb2dVertex
 10
37.67439877048244
 20
91.59055008840098
 30
0.0
  0
VERTEX
  5
25C
330
256
100
AcDbEntity
  8
Hidden (ANSI)
 48
0.0088363895192742
100
AcDbVertex
100
AcDb2dVertex
 10
37.67651091034949
 20
91.59154731634757
 30
0.0
  0
VERTEX
  5
25D
330
256
100
AcDbEntity
  8
Hidden (ANSI)
 48
0.0088363895192742
100
AcDbVertex
100
AcDb2dVertex
 10
37.67862303848333
 20
91.59252652210238
 30
0.0
  0
VERTEX
  5
25E
330
256
100
AcDbEntity
  8
Hidden (ANSI)
 48
0.0088363895192742
100
AcDbVertex
100
AcDb2dVertex
 10
37.68073517835038
 20
91.59348169826809
 30
0.0
  0
VERTEX
  5
25F
330
256
100
AcDbEntity
  8
Hidden (ANSI)
 48
0.0088363895192742
100
AcDbVertex
100
AcDb2dVertex
 10
37.68284731821743
 20
91.59440683744749
 30
0.0
  0
VERTEX
  5
260
330
256
100
AcDbEntity
  8
Hidden (ANSI)
 48
0.0088363895192742
100
AcDbVertex
100
AcDb2dVertex
 10
37.68495944635128
 20
91.5953079470378
 30
0.0
  0
VERTEX
  5
261
330
256
100
AcDbEntity
  8
Hidden (ANSI)
 48
0.0088363895192742
100
AcDbVertex
100
AcDb2dVertex
 10
37.68707158621833
 20
91.59617901964173
 30
0.0
  0
VERTEX
  5
262
330
256
100
AcDbEntity
  8
Hidden (ANSI)
 48
0.0088363895192742
100
AcDbVertex
100
AcDb2dVertex
 10
37.68918372608537
 20
91.59700804046481
 30
0.0
  0
VERTEX
  5
263
330
256
100
AcDbEntity
  8
Hidden (ANSI)
 48
0.0088363895192742
100
AcDbVertex
100
AcDb2dVertex
 10
37.69129585421922
 20
91.59779500950703
 30
0.0
  0
VERTEX
  5
264
330
256
100
AcDbEntity
  8
Hidden (ANSI)
 48
0.0088363895192742
100
AcDbVertex
100
AcDb2dVertex
 10
37.69340799408626
 20
91.59853992676834
 30
0.0
  0
VERTEX
  5
265
330
256
100
AcDbEntity
  8
Hidden (ANSI)
 48
0.0088363895192742
100
AcDbVertex
100
AcDb2dVertex
 10
37.69552012222012
 20
91.59923678485153
 30
0.0
  0
VERTEX
  5
266
330
256
100
AcDbEntity
  8
Hidden (ANSI)
 48
0.0088363895192742
100
AcDbVertex
100
AcDb2dVertex
 10
37.69763226208716
 20
91.59988558375655
 30
0.0
  0
VERTEX
  5
267
330
256
100
AcDbEntity
  8
Hidden (ANSI)
 48
0.0088363895192742
100
AcDbVertex
100
AcDb2dVertex
 10
37.69974440195421
 20
91.60048031608615
 30
0.0
  0
VERTEX
  5
268
330
256
100
AcDbEntity
  8
Hidden (ANSI)
 48
0.0088363895192742
100
AcDbVertex
100
AcDb2dVertex
 10
37.70185653008806
 20
91.60102098184033
 30
0.0
  0
VERTEX
  5
269
330
256
100
AcDbEntity
  8
Hidden (ANSI)
 48
0.0088363895192742
100
AcDbVertex
100
AcDb2dVertex
 10
37.7039686699551
 20
91.60150157362181
 30
0.0
  0
VERTEX
  5
26A
330
256
100
AcDbEntity
  8
Hidden (ANSI)
 48
0.0088363895192742
100
AcDbVertex
100
AcDb2dVertex
 10
37.70608080982216
 20
91.60192209143064
 30
0.0
  0
VERTEX
  5
26B
330
256
100
AcDbEntity
  8
Hidden (ANSI)
 48
0.0088363895192742
100
AcDbVertex
100
AcDb2dVertex
 10
37.708192937956
 20
91.60228253526675
 30
0.0
  0
VERTEX
  5
26C
330
256
100
AcDbEntity
  8
Hidden (ANSI)
 48
0.0088363895192742
100
AcDbVertex
100
AcDb2dVertex
 10
37.71030507782305
 20
91.6025768977329
 30
0.0
  0
VERTEX
  5
26D
330
256
100
AcDbEntity
  8
Hidden (ANSI)
 48
0.0088363895192742
100
AcDbVertex
100
AcDb2dVertex
 10
37.71241721769009
 20
91.60281118622638
 30
0.0
  0
VERTEX
  5
26E
330
256
100
AcDbEntity
  8
Hidden (ANSI)
 48
0.0088363895192742
100
AcDbVertex
100
AcDb2dVertex
 10
37.71452934582394
 20
91.60297338595263
 30
0.0
  0
VERTEX
  5
26F
330
256
100
AcDbEntity
  8
Hidden (ANSI)
 48
0.0088363895192742
100
AcDbVertex
100
AcDb2dVertex
 10
37.71664148569099
 20
91.60307551170623
 30
0.0
  0
VERTEX
  5
270
330
256
100
AcDbEntity
  8
Hidden (ANSI)
 48
0.0088363895192742
100
AcDbVertex
100
AcDb2dVertex
 10
37.71875362555804
 20
91.60311155608985
 30
0.0
  0
SEQEND
  5
259
330
256
100
AcDbEntity
  8
Hidden (ANSI)
 48
0.0088363895192742
  0
LINE
  5
271
330
6C
100
AcDbEntity
  8
Hidden (ANSI)
 48
0.0147804422304034
100
AcDbLine
 10
37.65246236183502
 20
91.53681813269058
 30
0.0
 11
37.55871236183502
 21
91.53681813269058
 31
0.0
  0
POLYLINE
  5
272
330
6C
100
AcDbEntity
  8
Hidden (ANSI)
 48
0.0088363168761134
100
AcDb2dPolyline
 66
     1
 10
0.0
 20
0.0
 30
0.0
 70
   128
  0
VERTEX
  5
273
330
272
100
AcDbEntity
  8
Hidden (ANSI)
 48
0.0088363168761134
100
AcDbVertex
100
AcDb2dVertex
 10
37.6680623626145
 20
91.58751034538299
 30
0.0
  0
VERTEX
  5
274
330
272
100
AcDbEntity
  8
Hidden (ANSI)
 48
0.0088363168761134
100
AcDbVertex
100
AcDb2dVertex
 10
37.66704206720104
 20
91.58539574154444
 30
0.0
  0
VERTEX
  5
276
330
272
100
AcDbEntity
  8
Hidden (ANSI)
 48
0.0088363168761134
100
AcDbVertex
100
AcDb2dVertex
 10
37.66602614827036
 20
91.58328714510313
 30
0.0
  0
VERTEX
  5
277
330
272
100
AcDbEntity
  8
Hidden (ANSI)
 48
0.0088363168761134
100
AcDbVertex
100
AcDb2dVertex
 10
37.66501894710563
 20
91.58117254126453
 30
0.0
  0
VERTEX
  5
278
330
272
100
AcDbEntity
  8
Hidden (ANSI)
 48
0.0088363168761134
100
AcDbVertex
100
AcDb2dVertex
 10
37.66402478152365
 20
91.57905793742594
 30
0.0
  0
VERTEX
  5
279
330
272
100
AcDbEntity
  8
Hidden (ANSI)
 48
0.0088363168761134
100
AcDbVertex
100
AcDb2dVertex
 10
37.66304791067521
 20
91.57694934098463
 30
0.0
  0
VERTEX
  5
27A
330
272
100
AcDbEntity
  8
Hidden (ANSI)
 48
0.0088363168761134
100
AcDbVertex
100
AcDb2dVertex
 10
37.66209249984553
 20
91.57483473714606
 30
0.0
  0
VERTEX
  5
27B
330
272
100
AcDbEntity
  8
Hidden (ANSI)
 48
0.0088363168761134
100
AcDbVertex
100
AcDb2dVertex
 10
37.66116265565383
 20
91.57272614070475
 30
0.0
  0
VERTEX
  5
27C
330
272
100
AcDbEntity
  8
Hidden (ANSI)
 48
0.0088363168761134
100
AcDbVertex
100
AcDb2dVertex
 10
37.66026236738738
 20
91.57061153686615
 30
0.0
  0
VERTEX
  5
27D
330
272
100
AcDbEntity
  8
Hidden (ANSI)
 48
0.0088363168761134
100
AcDbVertex
100
AcDb2dVertex
 10
37.65939547180182
 20
91.56850294042483
 30
0.0
  0
VERTEX
  5
27E
330
272
100
AcDbEntity
  8
Hidden (ANSI)
 48
0.0088363168761134
100
AcDbVertex
100
AcDb2dVertex
 10
37.65856568832089
 20
91.56638833658623
 30
0.0
  0
VERTEX
  5
27F
330
272
100
AcDbEntity
  8
Hidden (ANSI)
 48
0.0088363168761134
100
AcDbVertex
100
AcDb2dVertex
 10
37.6577765721035
 20
91.5642737327477
 30
0.0
  0
VERTEX
  5
280
330
272
100
AcDbEntity
  8
Hidden (ANSI)
 48
0.0088363168761134
100
AcDbVertex
100
AcDb2dVertex
 10
37.65703149644401
 20
91.56216513630637
 30
0.0
  0
VERTEX
  5
281
330
272
100
AcDbEntity
  8
Hidden (ANSI)
 48
0.0088363168761134
100
AcDbVertex
100
AcDb2dVertex
 10
37.65633365863882
 20
91.56005053246778
 30
0.0
  0
VERTEX
  5
282
330
272
100
AcDbEntity
  8
Hidden (ANSI)
 48
0.0088363168761134
100
AcDbVertex
100
AcDb2dVertex
 10
37.65568605065337
 20
91.55794193602647
 30
0.0
  0
VERTEX
  5
283
330
272
100
AcDbEntity
  8
Hidden (ANSI)
 48
0.0088363168761134
100
AcDbVertex
100
AcDb2dVertex
 10
37.65509143565576
 20
91.55582733218787
 30
0.0
  0
VERTEX
  5
284
330
272
100
AcDbEntity
  8
Hidden (ANSI)
 48
0.0088363168761134
100
AcDbVertex
100
AcDb2dVertex
 10
37.65455236561647
 20
91.55371272834932
 30
0.0
  0
VERTEX
  5
285
330
272
100
AcDbEntity
  8
Hidden (ANSI)
 48
0.0088363168761134
100
AcDbVertex
100
AcDb2dVertex
 10
37.65407114610889
 20
91.55160413190799
 30
0.0
  0
VERTEX
  5
286
330
272
100
AcDbEntity
  8
Hidden (ANSI)
 48
0.0088363168761134
100
AcDbVertex
100
AcDb2dVertex
 10
37.65364984217583
 20
91.5494895280694
 30
0.0
  0
VERTEX
  5
287
330
272
100
AcDbEntity
  8
Hidden (ANSI)
 48
0.0088363168761134
100
AcDbVertex
100
AcDb2dVertex
 10
37.65329024899655
 20
91.54738093162809
 30
0.0
  0
VERTEX
  5
288
330
272
100
AcDbEntity
  8
Hidden (ANSI)
 48
0.0088363168761134
100
AcDbVertex
100
AcDb2dVertex
 10
37.65299392121975
 20
91.54526632778949
 30
0.0
  0
VERTEX
  5
289
330
272
100
AcDbEntity
  8
Hidden (ANSI)
 48
0.0088363168761134
100
AcDbVertex
100
AcDb2dVertex
 10
37.65276211429761
 20
91.54315172395092
 30
0.0
  0
VERTEX
  5
28A
330
272
100
AcDbEntity
  8
Hidden (ANSI)
 48
0.0088363168761134
100
AcDbVertex
100
AcDb2dVertex
 10
37.65259581968532
 20
91.54104312750963
 30
0.0
  0
VERTEX
  5
28B
330
272
100
AcDbEntity
  8
Hidden (ANSI)
 48
0.0088363168761134
100
AcDbVertex
100
AcDb2dVertex
 10
37.65249576484116
 20
91.53892852367103
 30
0.0
  0
VERTEX
  5
28C
330
272
100
AcDbEntity
  8
Hidden (ANSI)
 48
0.0088363168761134
100
AcDbVertex
100
AcDb2dVertex
 10
37.65246236042705
 20
91.53681992722971
 30
0.0
  0
SEQEND
  5
275
330
272
100
AcDbEntity
  8
Hidden (ANSI)
 48
0.0088363168761134
  0
LINE
  5
28D
330
6C
100
AcDbEntity
  8
Hidden (ANSI)
 48
0.0147804422304034
100
AcDbLine
 10
37.65246236183504
 20
31.85690065416305
 30
0.0
 11
37.55871236183504
 21
31.85690065416305
 31
0.0
  0
POLYLINE
  5
28E
330
6C
100
AcDbEntity
  8
Hidden (ANSI)
 48
0.008836436085403
100
AcDb2dPolyline
 66
     1
 10
0.0
 20
0.0
 30
0.0
 70
   128
  0
VERTEX
  5
28F
330
28E
100
AcDbEntity
  8
Hidden (ANSI)
 48
0.008836436085403
100
AcDbVertex
100
AcDb2dVertex
 10
37.6680623626145
 20
31.80620939420628
 30
0.0
  0
VERTEX
  5
290
330
28E
100
AcDbEntity
  8
Hidden (ANSI)
 48
0.008836436085403
100
AcDbVertex
100
AcDb2dVertex
 10
37.66704206720104
 20
31.80832153407332
 30
0.0
  0
VERTEX
  5
292
330
28E
100
AcDbEntity
  8
Hidden (ANSI)
 48
0.008836436085403
100
AcDbVertex
100
AcDb2dVertex
 10
37.66602614827036
 20
31.81043366220718
 30
0.0
  0
VERTEX
  5
293
330
28E
100
AcDbEntity
  8
Hidden (ANSI)
 48
0.008836436085403
100
AcDbVertex
100
AcDb2dVertex
 10
37.66501894710563
 20
31.81254580207422
 30
0.0
  0
VERTEX
  5
294
330
28E
100
AcDbEntity
  8
Hidden (ANSI)
 48
0.008836436085403
100
AcDbVertex
100
AcDb2dVertex
 10
37.66402478152365
 20
31.81465794194127
 30
0.0
  0
VERTEX
  5
295
330
28E
100
AcDbEntity
  8
Hidden (ANSI)
 48
0.008836436085403
100
AcDbVertex
100
AcDb2dVertex
 10
37.66304791067521
 20
31.81677007007511
 30
0.0
  0
VERTEX
  5
296
330
28E
100
AcDbEntity
  8
Hidden (ANSI)
 48
0.008836436085403
100
AcDbVertex
100
AcDb2dVertex
 10
37.66209249984553
 20
31.81888220994216
 30
0.0
  0
VERTEX
  5
297
330
28E
100
AcDbEntity
  8
Hidden (ANSI)
 48
0.008836436085403
100
AcDbVertex
100
AcDb2dVertex
 10
37.66116265565383
 20
31.82099434980921
 30
0.0
  0
VERTEX
  5
298
330
28E
100
AcDbEntity
  8
Hidden (ANSI)
 48
0.008836436085403
100
AcDbVertex
100
AcDb2dVertex
 10
37.66026236738738
 20
31.82310647794306
 30
0.0
  0
VERTEX
  5
299
330
28E
100
AcDbEntity
  8
Hidden (ANSI)
 48
0.008836436085403
100
AcDbVertex
100
AcDb2dVertex
 10
37.65939547180182
 20
31.8252186178101
 30
0.0
  0
VERTEX
  5
29A
330
28E
100
AcDbEntity
  8
Hidden (ANSI)
 48
0.008836436085403
100
AcDbVertex
100
AcDb2dVertex
 10
37.65856568832089
 20
31.82733075767715
 30
0.0
  0
VERTEX
  5
29B
330
28E
100
AcDbEntity
  8
Hidden (ANSI)
 48
0.008836436085403
100
AcDbVertex
100
AcDb2dVertex
 10
37.6577765721035
 20
31.829442885811
 30
0.0
  0
VERTEX
  5
29C
330
28E
100
AcDbEntity
  8
Hidden (ANSI)
 48
0.008836436085403
100
AcDbVertex
100
AcDb2dVertex
 10
37.65703149644401
 20
31.83155502567805
 30
0.0
  0
VERTEX
  5
29D
330
28E
100
AcDbEntity
  8
Hidden (ANSI)
 48
0.008836436085403
100
AcDbVertex
100
AcDb2dVertex
 10
37.65633365863882
 20
31.8336671538119
 30
0.0
  0
VERTEX
  5
29E
330
28E
100
AcDbEntity
  8
Hidden (ANSI)
 48
0.008836436085403
100
AcDbVertex
100
AcDb2dVertex
 10
37.65568605065337
 20
31.83577929367894
 30
0.0
  0
VERTEX
  5
29F
330
28E
100
AcDbEntity
  8
Hidden (ANSI)
 48
0.008836436085403
100
AcDbVertex
100
AcDb2dVertex
 10
37.65509143565576
 20
31.83789143354599
 30
0.0
  0
VERTEX
  5
2A0
330
28E
100
AcDbEntity
  8
Hidden (ANSI)
 48
0.008836436085403
100
AcDbVertex
100
AcDb2dVertex
 10
37.65455236561647
 20
31.84000356167984
 30
0.0
  0
VERTEX
  5
2A1
330
28E
100
AcDbEntity
  8
Hidden (ANSI)
 48
0.008836436085403
100
AcDbVertex
100
AcDb2dVertex
 10
37.65407114610889
 20
31.84211570154689
 30
0.0
  0
VERTEX
  5
2A2
330
28E
100
AcDbEntity
  8
Hidden (ANSI)
 48
0.008836436085403
100
AcDbVertex
100
AcDb2dVertex
 10
37.65364984217583
 20
31.84422784141393
 30
0.0
  0
VERTEX
  5
2A3
330
28E
100
AcDbEntity
  8
Hidden (ANSI)
 48
0.008836436085403
100
AcDbVertex
100
AcDb2dVertex
 10
37.65329024899655
 20
31.84633996954778
 30
0.0
  0
VERTEX
  5
2A4
330
28E
100
AcDbEntity
  8
Hidden (ANSI)
 48
0.008836436085403
100
AcDbVertex
100
AcDb2dVertex
 10
37.65299392121975
 20
31.84845210941483
 30
0.0
  0
VERTEX
  5
2A5
330
28E
100
AcDbEntity
  8
Hidden (ANSI)
 48
0.008836436085403
100
AcDbVertex
100
AcDb2dVertex
 10
37.65276211429761
 20
31.85056424928187
 30
0.0
  0
VERTEX
  5
2A6
330
28E
100
AcDbEntity
  8
Hidden (ANSI)
 48
0.008836436085403
100
AcDbVertex
100
AcDb2dVertex
 10
37.65259581968532
 20
31.85267637741572
 30
0.0
  0
VERTEX
  5
2A7
330
28E
100
AcDbEntity
  8
Hidden (ANSI)
 48
0.008836436085403
100
AcDbVertex
100
AcDb2dVertex
 10
37.65249576484116
 20
31.85478851728277
 30
0.0
  0
VERTEX
  5
2A8
330
28E
100
AcDbEntity
  8
Hidden (ANSI)
 48
0.008836436085403
100
AcDbVertex
100
AcDb2dVertex
 10
37.65246236042705
 20
31.85690065714982
 30
0.0
  0
SEQEND
  5
291
330
28E
100
AcDbEntity
  8
Hidden (ANSI)
 48
0.008836436085403
  0
LINE
  5
2A9
330
6C
100
AcDbEntity
  8
Hidden (ANSI)
 48
0.0147804422304034
100
AcDbLine
 10
37.71875362257128
 20
31.79060939342682
 30
0.0
 11
37.71875362257128
 21
31.69685939342682
 31
0.0
  0
POLYLINE
  5
2AA
330
6C
100
AcDbEntity
  8
Hidden (ANSI)
 48
0.008836436085403
100
AcDb2dPolyline
 66
     1
 10
0.0
 20
0.0
 30
0.0
 70
   128
  0
VERTEX
  5
2AB
330
2AA
100
AcDbEntity
  8
Hidden (ANSI)
 48
0.008836436085403
100
AcDbVertex
100
AcDb2dVertex
 10
37.6680623626145
 20
31.80620939420628
 30
0.0
  0
VERTEX
  5
2AC
330
2AA
100
AcDbEntity
  8
Hidden (ANSI)
 48
0.008836436085403
100
AcDbVertex
100
AcDb2dVertex
 10
37.67017450248154
 20
31.80518909879282
 30
0.0
  0
VERTEX
  5
2AE
330
2AA
100
AcDbEntity
  8
Hidden (ANSI)
 48
0.008836436085403
100
AcDbVertex
100
AcDb2dVertex
 10
37.6722866306154
 20
31.80417317986214
 30
0.0
  0
VERTEX
  5
2AF
330
2AA
100
AcDbEntity
  8
Hidden (ANSI)
 48
0.008836436085403
100
AcDbVertex
100
AcDb2dVertex
 10
37.67439877048244
 20
31.80316597869741
 30
0.0
  0
VERTEX
  5
2B0
330
2AA
100
AcDbEntity
  8
Hidden (ANSI)
 48
0.008836436085403
100
AcDbVertex
100
AcDb2dVertex
 10
37.67651091034949
 20
31.80217181311542
 30
0.0
  0
VERTEX
  5
2B1
330
2AA
100
AcDbEntity
  8
Hidden (ANSI)
 48
0.008836436085403
100
AcDbVertex
100
AcDb2dVertex
 10
37.67862303848333
 20
31.80119494226699
 30
0.0
  0
VERTEX
  5
2B2
330
2AA
100
AcDbEntity
  8
Hidden (ANSI)
 48
0.008836436085403
100
AcDbVertex
100
AcDb2dVertex
 10
37.68073517835038
 20
31.80023953143731
 30
0.0
  0
VERTEX
  5
2B3
330
2AA
100
AcDbEntity
  8
Hidden (ANSI)
 48
0.008836436085403
100
AcDbVertex
100
AcDb2dVertex
 10
37.68284731821743
 20
31.79930968724562
 30
0.0
  0
VERTEX
  5
2B4
330
2AA
100
AcDbEntity
  8
Hidden (ANSI)
 48
0.008836436085403
100
AcDbVertex
100
AcDb2dVertex
 10
37.68495944635128
 20
31.79840939897915
 30
0.0
  0
VERTEX
  5
2B5
330
2AA
100
AcDbEntity
  8
Hidden (ANSI)
 48
0.008836436085403
100
AcDbVertex
100
AcDb2dVertex
 10
37.68707158621833
 20
31.79754250339361
 30
0.0
  0
VERTEX
  5
2B6
330
2AA
100
AcDbEntity
  8
Hidden (ANSI)
 48
0.008836436085403
100
AcDbVertex
100
AcDb2dVertex
 10
37.68918372608537
 20
31.79671271991267
 30
0.0
  0
VERTEX
  5
2B7
330
2AA
100
AcDbEntity
  8
Hidden (ANSI)
 48
0.008836436085403
100
AcDbVertex
100
AcDb2dVertex
 10
37.69129585421922
 20
31.79592360369527
 30
0.0
  0
VERTEX
  5
2B8
330
2AA
100
AcDbEntity
  8
Hidden (ANSI)
 48
0.008836436085403
100
AcDbVertex
100
AcDb2dVertex
 10
37.69340799408626
 20
31.79517852803579
 30
0.0
  0
VERTEX
  5
2B9
330
2AA
100
AcDbEntity
  8
Hidden (ANSI)
 48
0.008836436085403
100
AcDbVertex
100
AcDb2dVertex
 10
37.69552012222012
 20
31.7944806902306
 30
0.0
  0
VERTEX
  5
2BA
330
2AA
100
AcDbEntity
  8
Hidden (ANSI)
 48
0.008836436085403
100
AcDbVertex
100
AcDb2dVertex
 10
37.69763226208716
 20
31.79383308224516
 30
0.0
  0
VERTEX
  5
2BB
330
2AA
100
AcDbEntity
  8
Hidden (ANSI)
 48
0.008836436085403
100
AcDbVertex
100
AcDb2dVertex
 10
37.69974440195421
 20
31.79323846724753
 30
0.0
  0
VERTEX
  5
2BC
330
2AA
100
AcDbEntity
  8
Hidden (ANSI)
 48
0.008836436085403
100
AcDbVertex
100
AcDb2dVertex
 10
37.70185653008806
 20
31.79269939720825
 30
0.0
  0
VERTEX
  5
2BD
330
2AA
100
AcDbEntity
  8
Hidden (ANSI)
 48
0.008836436085403
100
AcDbVertex
100
AcDb2dVertex
 10
37.7039686699551
 20
31.79221817770067
 30
0.0
  0
VERTEX
  5
2BE
330
2AA
100
AcDbEntity
  8
Hidden (ANSI)
 48
0.008836436085403
100
AcDbVertex
100
AcDb2dVertex
 10
37.70608080982216
 20
31.79179687376761
 30
0.0
  0
VERTEX
  5
2BF
330
2AA
100
AcDbEntity
  8
Hidden (ANSI)
 48
0.008836436085403
100
AcDbVertex
100
AcDb2dVertex
 10
37.708192937956
 20
31.79143728058833
 30
0.0
  0
VERTEX
  5
2C0
330
2AA
100
AcDbEntity
  8
Hidden (ANSI)
 48
0.008836436085403
100
AcDbVertex
100
AcDb2dVertex
 10
37.71030507782305
 20
31.79114095281153
 30
0.0
  0
VERTEX
  5
2C1
330
2AA
100
AcDbEntity
  8
Hidden (ANSI)
 48
0.008836436085403
100
AcDbVertex
100
AcDb2dVertex
 10
37.71241721769009
 20
31.79090914588939
 30
0.0
  0
VERTEX
  5
2C2
330
2AA
100
AcDbEntity
  8
Hidden (ANSI)
 48
0.008836436085403
100
AcDbVertex
100
AcDb2dVertex
 10
37.71452934582394
 20
31.7907428512771
 30
0.0
  0
VERTEX
  5
2C3
330
2AA
100
AcDbEntity
  8
Hidden (ANSI)
 48
0.008836436085403
100
AcDbVertex
100
AcDb2dVertex
 10
37.71664148569099
 20
31.79064279643294
 30
0.0
  0
VERTEX
  5
2C4
330
2AA
100
AcDbEntity
  8
Hidden (ANSI)
 48
0.008836436085403
100
AcDbVertex
100
AcDb2dVertex
 10
37.71875362555804
 20
31.79060939201884
 30
0.0
  0
SEQEND
  5
2AD
330
2AA
100
AcDbEntity
  8
Hidden (ANSI)
 48
0.008836436085403
  0
LINE
  5
2C5
330
6C
100
AcDbEntity
  8
Hidden (ANSI)
 48
0.0147804422304034
100
AcDbLine
 10
63.3986711010988
 20
31.79060939342682
 30
0.0
 11
63.3986711010988
 21
31.69685939342682
 31
0.0
  0
POLYLINE
  5
2C6
330
6C
100
AcDbEntity
  8
Hidden (ANSI)
 48
0.0088367452844977
100
AcDb2dPolyline
 66
     1
 10
0.0
 20
0.0
 30
0.0
 70
   128
  0
VERTEX
  5
2C7
330
2C6
100
AcDbEntity
  8
Hidden (ANSI)
 48
0.0088367452844977
100
AcDbVertex
100
AcDb2dVertex
 10
63.44936307349534
 20
31.80620939420628
 30
0.0
  0
VERTEX
  5
2C8
330
2C6
100
AcDbEntity
  8
Hidden (ANSI)
 48
0.0088367452844977
100
AcDbVertex
100
AcDb2dVertex
 10
63.44725147335539
 20
31.80518909879282
 30
0.0
  0
VERTEX
  5
2CA
330
2C6
100
AcDbEntity
  8
Hidden (ANSI)
 48
0.0088367452844977
100
AcDbVertex
100
AcDb2dVertex
 10
63.44513686951682
 20
31.80417317986214
 30
0.0
  0
VERTEX
  5
2CB
330
2C6
100
AcDbEntity
  8
Hidden (ANSI)
 48
0.0088367452844977
100
AcDbVertex
100
AcDb2dVertex
 10
63.44302526937686
 20
31.80316597869741
 30
0.0
  0
VERTEX
  5
2CC
330
2C6
100
AcDbEntity
  8
Hidden (ANSI)
 48
0.0088367452844977
100
AcDbVertex
100
AcDb2dVertex
 10
63.44091366923692
 20
31.80217181311542
 30
0.0
  0
VERTEX
  5
2CD
330
2C6
100
AcDbEntity
  8
Hidden (ANSI)
 48
0.0088367452844977
100
AcDbVertex
100
AcDb2dVertex
 10
63.43880206909697
 20
31.80119494226699
 30
0.0
  0
VERTEX
  5
2CE
330
2C6
100
AcDbEntity
  8
Hidden (ANSI)
 48
0.0088367452844977
100
AcDbVertex
100
AcDb2dVertex
 10
63.43669046895701
 20
31.80023953143731
 30
0.0
  0
VERTEX
  5
2CF
330
2C6
100
AcDbEntity
  8
Hidden (ANSI)
 48
0.0088367452844977
100
AcDbVertex
100
AcDb2dVertex
 10
63.43457886881707
 20
31.79930968724562
 30
0.0
  0
VERTEX
  5
2D0
330
2C6
100
AcDbEntity
  8
Hidden (ANSI)
 48
0.0088367452844977
100
AcDbVertex
100
AcDb2dVertex
 10
63.43246426497849
 20
31.79840939897915
 30
0.0
  0
VERTEX
  5
2D1
330
2C6
100
AcDbEntity
  8
Hidden (ANSI)
 48
0.0088367452844977
100
AcDbVertex
100
AcDb2dVertex
 10
63.43035266483854
 20
31.79754250339361
 30
0.0
  0
VERTEX
  5
2D2
330
2C6
100
AcDbEntity
  8
Hidden (ANSI)
 48
0.0088367452844977
100
AcDbVertex
100
AcDb2dVertex
 10
63.42824106469859
 20
31.79671271991267
 30
0.0
  0
VERTEX
  5
2D3
330
2C6
100
AcDbEntity
  8
Hidden (ANSI)
 48
0.0088367452844977
100
AcDbVertex
100
AcDb2dVertex
 10
63.42612946455864
 20
31.79592360369527
 30
0.0
  0
VERTEX
  5
2D4
330
2C6
100
AcDbEntity
  8
Hidden (ANSI)
 48
0.0088367452844977
100
AcDbVertex
100
AcDb2dVertex
 10
63.42401786441869
 20
31.79517852803579
 30
0.0
  0
VERTEX
  5
2D5
330
2C6
100
AcDbEntity
  8
Hidden (ANSI)
 48
0.0088367452844977
100
AcDbVertex
100
AcDb2dVertex
 10
63.42190326058011
 20
31.7944806902306
 30
0.0
  0
VERTEX
  5
2D6
330
2C6
100
AcDbEntity
  8
Hidden (ANSI)
 48
0.0088367452844977
100
AcDbVertex
100
AcDb2dVertex
 10
63.41979166044017
 20
31.79383308224516
 30
0.0
  0
VERTEX
  5
2D7
330
2C6
100
AcDbEntity
  8
Hidden (ANSI)
 48
0.0088367452844977
100
AcDbVertex
100
AcDb2dVertex
 10
63.41768006030022
 20
31.79323846724753
 30
0.0
  0
VERTEX
  5
2D8
330
2C6
100
AcDbEntity
  8
Hidden (ANSI)
 48
0.0088367452844977
100
AcDbVertex
100
AcDb2dVertex
 10
63.41556846016026
 20
31.79269939720825
 30
0.0
  0
VERTEX
  5
2D9
330
2C6
100
AcDbEntity
  8
Hidden (ANSI)
 48
0.0088367452844977
100
AcDbVertex
100
AcDb2dVertex
 10
63.41345686002032
 20
31.79221817770067
 30
0.0
  0
VERTEX
  5
2DA
330
2C6
100
AcDbEntity
  8
Hidden (ANSI)
 48
0.0088367452844977
100
AcDbVertex
100
AcDb2dVertex
 10
63.41134525988038
 20
31.79179687376761
 30
0.0
  0
VERTEX
  5
2DB
330
2C6
100
AcDbEntity
  8
Hidden (ANSI)
 48
0.0088367452844977
100
AcDbVertex
100
AcDb2dVertex
 10
63.40923065604179
 20
31.79143728058833
 30
0.0
  0
VERTEX
  5
2DC
330
2C6
100
AcDbEntity
  8
Hidden (ANSI)
 48
0.0088367452844977
100
AcDbVertex
100
AcDb2dVertex
 10
63.40711905590184
 20
31.79114095281153
 30
0.0
  0
VERTEX
  5
2DD
330
2C6
100
AcDbEntity
  8
Hidden (ANSI)
 48
0.0088367452844977
100
AcDbVertex
100
AcDb2dVertex
 10
63.40500745576189
 20
31.79090914588939
 30
0.0
  0
VERTEX
  5
2DE
330
2C6
100
AcDbEntity
  8
Hidden (ANSI)
 48
0.0088367452844977
100
AcDbVertex
100
AcDb2dVertex
 10
63.40289585562194
 20
31.7907428512771
 30
0.0
  0
VERTEX
  5
2DF
330
2C6
100
AcDbEntity
  8
Hidden (ANSI)
 48
0.0088367452844977
100
AcDbVertex
100
AcDb2dVertex
 10
63.400784255482
 20
31.79064279643294
 30
0.0
  0
VERTEX
  5
2E0
330
2C6
100
AcDbEntity
  8
Hidden (ANSI)
 48
0.0088367452844977
100
AcDbVertex
100
AcDb2dVertex
 10
63.39866965164342
 20
31.79060939201884
 30
0.0
  0
SEQEND
  5
2C9
330
2C6
100
AcDbEntity
  8
Hidden (ANSI)
 48
0.0088367452844977
  0
MTEXT
  5
2E2
330
6C
100
AcDbEntity
  8
Symbol (ANSI)
100
AcDbMText
 10
44.9141227065416
 20
25.7677602011051
 30
0.0
 40
1.440000017796914
 41
0.0
 46
0.0
 71
     7
 72
     1
  1
FRONT VIEW
  7
Text Style153
 73
     1
 44
1.0
  0
LINE
  5
2E4
330
6C
100
AcDbEntity
  8
Symbol (ANSI)
370
    30
100
AcDbLine
 10
44.77012233612096
 20
25.47410055260642
 30
0.0
 11
56.34730238754909
 21
25.47410055260642
 31
0.0
  0
POLYLINE
  5
2E5
330
6C
100
AcDbEntity
  8
Visible (ANSI)
100
AcDb2dPolyline
 66
     1
 10
0.0
 20
0.0
 30
0.0
 70
   128
  0
VERTEX
  5
2E6
330
2E5
100
AcDbEntity
  8
Visible (ANSI)
100
AcDbVertex
100
AcDb2dVertex
 10
100.9722701832828
 20
91.58751034538299
 30
0.0
  0
VERTEX
  5
2E7
330
2E5
100
AcDbEntity
  8
Visible (ANSI)
100
AcDbVertex
100
AcDb2dVertex
 10
100.9725043075115
 20
91.5853957415444
 30
0.0
  0
VERTEX
  5
2E9
330
2E5
100
AcDbEntity
  8
Visible (ANSI)
100
AcDbVertex
100
AcDb2dVertex
 10
100.9732056887424
 20
91.58328714510309
 30
0.0
  0
VERTEX
  5
2EA
330
2E5
100
AcDbEntity
  8
Visible (ANSI)
100
AcDbVertex
100
AcDb2dVertex
 10
100.9743713115437
 20
91.5811725412645
 30
0.0
  0
VERTEX
  5
2EB
330
2E5
100
AcDbEntity
  8
Visible (ANSI)
100
AcDbVertex
100
AcDb2dVertex
 10
100.9759961951729
 20
91.57905793742594
 30
0.0
  0
VERTEX
  5
2EC
330
2E5
100
AcDbEntity
  8
Visible (ANSI)
100
AcDbVertex
100
AcDb2dVertex
 10
100.9780733701105
 20
91.57694934098463
 30
0.0
  0
VERTEX
  5
2ED
330
2E5
100
AcDbEntity
  8
Visible (ANSI)
100
AcDbVertex
100
AcDb2dVertex
 10
100.9805939543259
 20
91.57483473714604
 30
0.0
  0
VERTEX
  5
2EE
330
2E5
100
AcDbEntity
  8
Visible (ANSI)
100
AcDbVertex
100
AcDb2dVertex
 10
100.9835471474104
 20
91.57272614070471
 30
0.0
  0
VERTEX
  5
2EF
330
2E5
100
AcDbEntity
  8
Visible (ANSI)
100
AcDbVertex
100
AcDb2dVertex
 10
100.9869203068433
 20
91.57061153686614
 30
0.0
  0
VERTEX
  5
2F0
330
2E5
100
AcDbEntity
  8
Visible (ANSI)
100
AcDbVertex
100
AcDb2dVertex
 10
100.9906989773251
 20
91.56850294042483
 30
0.0
  0
VERTEX
  5
2F1
330
2E5
100
AcDbEntity
  8
Visible (ANSI)
100
AcDbVertex
100
AcDb2dVertex
 10
100.9948669963758
 20
91.56638833658623
 30
0.0
  0
VERTEX
  5
2F2
330
2E5
100
AcDbEntity
  8
Visible (ANSI)
100
AcDbVertex
100
AcDb2dVertex
 10
100.9994065002018
 20
91.56427373274764
 30
0.0
  0
VERTEX
  5
2F3
330
2E5
100
AcDbEntity
  8
Visible (ANSI)
100
AcDbVertex
100
AcDb2dVertex
 10
101.0042980527608
 20
91.56216513630633
 30
0.0
  0
VERTEX
  5
2F4
330
2E5
100
AcDbEntity
  8
Visible (ANSI)
100
AcDbVertex
100
AcDb2dVertex
 10
101.0095207161615
 20
91.56005053246776
 30
0.0
  0
VERTEX
  5
2F5
330
2E5
100
AcDbEntity
  8
Visible (ANSI)
100
AcDbVertex
100
AcDb2dVertex
 10
101.0150521210622
 20
91.55794193602645
 30
0.0
  0
VERTEX
  5
2F6
330
2E5
100
AcDbEntity
  8
Visible (ANSI)
100
AcDbVertex
100
AcDb2dVertex
 10
101.0208685781367
 20
91.55582733218787
 30
0.0
  0
VERTEX
  5
2F7
330
2E5
100
AcDbEntity
  8
Visible (ANSI)
100
AcDbVertex
100
AcDb2dVertex
 10
101.0269451807392
 20
91.55371272834928
 30
0.0
  0
VERTEX
  5
2F8
330
2E5
100
AcDbEntity
  8
Visible (ANSI)
100
AcDbVertex
100
AcDb2dVertex
 10
101.0332559134371
 20
91.55160413190797
 30
0.0
  0
VERTEX
  5
2F9
330
2E5
100
AcDbEntity
  8
Visible (ANSI)
100
AcDbVertex
100
AcDb2dVertex
 10
101.0397737488092
 20
91.54948952806938
 30
0.0
  0
VERTEX
  5
2FA
330
2E5
100
AcDbEntity
  8
Visible (ANSI)
100
AcDbVertex
100
AcDb2dVertex
 10
101.0464707765112
 20
91.54738093162807
 30
0.0
  0
VERTEX
  5
2FB
330
2E5
100
AcDbEntity
  8
Visible (ANSI)
100
AcDbVertex
100
AcDb2dVertex
 10
101.0533183191412
 20
91.54526632778949
 30
0.0
  0
VERTEX
  5
2FC
330
2E5
100
AcDbEntity
  8
Visible (ANSI)
100
AcDbVertex
100
AcDb2dVertex
 10
101.0602870550711
 20
91.5431517239509
 30
0.0
  0
VERTEX
  5
2FD
330
2E5
100
AcDbEntity
  8
Visible (ANSI)
100
AcDbVertex
100
AcDb2dVertex
 10
101.0673471427457
 20
91.54104312750957
 30
0.0
  0
VERTEX
  5
2FE
330
2E5
100
AcDbEntity
  8
Visible (ANSI)
100
AcDbVertex
100
AcDb2dVertex
 10
101.0744683497475
 20
91.538928523671
 30
0.0
  0
VERTEX
  5
2FF
330
2E5
100
AcDbEntity
  8
Visible (ANSI)
100
AcDbVertex
100
AcDb2dVertex
 10
101.0816201825956
 20
91.53681992722971
 30
0.0
  0
SEQEND
  5
2E8
330
2E5
100
AcDbEntity
  8
Visible (ANSI)
  0
POLYLINE
  5
300
330
6C
100
AcDbEntity
  8
Visible (ANSI)
100
AcDb2dPolyline
 66
     1
 10
0.0
 20
0.0
 30
0.0
 70
   128
  0
VERTEX
  5
301
330
300
100
AcDbEntity
  8
Visible (ANSI)
100
AcDbVertex
100
AcDb2dVertex
 10
101.0816201825956
 20
31.8569006571498
 30
0.0
  0
VERTEX
  5
302
330
300
100
AcDbEntity
  8
Visible (ANSI)
100
AcDbVertex
100
AcDb2dVertex
 10
101.0744683497475
 20
31.85478851728275
 30
0.0
  0
VERTEX
  5
304
330
300
100
AcDbEntity
  8
Visible (ANSI)
100
AcDbVertex
100
AcDb2dVertex
 10
101.0673471427457
 20
31.85267637741571
 30
0.0
  0
VERTEX
  5
305
330
300
100
AcDbEntity
  8
Visible (ANSI)
100
AcDbVertex
100
AcDb2dVertex
 10
101.0602870550711
 20
31.85056424928186
 30
0.0
  0
VERTEX
  5
306
330
300
100
AcDbEntity
  8
Visible (ANSI)
100
AcDbVertex
100
AcDb2dVertex
 10
101.0533183191412
 20
31.84845210941481
 30
0.0
  0
VERTEX
  5
307
330
300
100
AcDbEntity
  8
Visible (ANSI)
100
AcDbVertex
100
AcDb2dVertex
 10
101.0464707765112
 20
31.84633996954776
 30
0.0
  0
VERTEX
  5
308
330
300
100
AcDbEntity
  8
Visible (ANSI)
100
AcDbVertex
100
AcDb2dVertex
 10
101.0397737488092
 20
31.84422784141391
 30
0.0
  0
VERTEX
  5
309
330
300
100
AcDbEntity
  8
Visible (ANSI)
100
AcDbVertex
100
AcDb2dVertex
 10
101.0332559134371
 20
31.84211570154687
 30
0.0
  0
VERTEX
  5
30A
330
300
100
AcDbEntity
  8
Visible (ANSI)
100
AcDbVertex
100
AcDb2dVertex
 10
101.0269451807392
 20
31.84000356167982
 30
0.0
  0
VERTEX
  5
30B
330
300
100
AcDbEntity
  8
Visible (ANSI)
100
AcDbVertex
100
AcDb2dVertex
 10
101.0208685781367
 20
31.83789143354597
 30
0.0
  0
VERTEX
  5
30C
330
300
100
AcDbEntity
  8
Visible (ANSI)
100
AcDbVertex
100
AcDb2dVertex
 10
101.0150521210622
 20
31.83577929367892
 30
0.0
  0
VERTEX
  5
30D
330
300
100
AcDbEntity
  8
Visible (ANSI)
100
AcDbVertex
100
AcDb2dVertex
 10
101.0095207161615
 20
31.83366715381188
 30
0.0
  0
VERTEX
  5
30E
330
300
100
AcDbEntity
  8
Visible (ANSI)
100
AcDbVertex
100
AcDb2dVertex
 10
101.0042980527608
 20
31.83155502567803
 30
0.0
  0
VERTEX
  5
30F
330
300
100
AcDbEntity
  8
Visible (ANSI)
100
AcDbVertex
100
AcDb2dVertex
 10
100.9994065002018
 20
31.82944288581099
 30
0.0
  0
VERTEX
  5
310
330
300
100
AcDbEntity
  8
Visible (ANSI)
100
AcDbVertex
100
AcDb2dVertex
 10
100.9948669963758
 20
31.82733075767713
 30
0.0
  0
VERTEX
  5
311
330
300
100
AcDbEntity
  8
Visible (ANSI)
100
AcDbVertex
100
AcDb2dVertex
 10
100.9906989773251
 20
31.82521861781009
 30
0.0
  0
VERTEX
  5
312
330
300
100
AcDbEntity
  8
Visible (ANSI)
100
AcDbVertex
100
AcDb2dVertex
 10
100.9869203068433
 20
31.82310647794305
 30
0.0
  0
VERTEX
  5
313
330
300
100
AcDbEntity
  8
Visible (ANSI)
100
AcDbVertex
100
AcDb2dVertex
 10
100.9835471474104
 20
31.82099434980919
 30
0.0
  0
VERTEX
  5
314
330
300
100
AcDbEntity
  8
Visible (ANSI)
100
AcDbVertex
100
AcDb2dVertex
 10
100.9805939543259
 20
31.81888220994215
 30
0.0
  0
VERTEX
  5
315
330
300
100
AcDbEntity
  8
Visible (ANSI)
100
AcDbVertex
100
AcDb2dVertex
 10
100.9780733701105
 20
31.8167700700751
 30
0.0
  0
VERTEX
  5
316
330
300
100
AcDbEntity
  8
Visible (ANSI)
100
AcDbVertex
100
AcDb2dVertex
 10
100.9759961951729
 20
31.81465794194125
 30
0.0
  0
VERTEX
  5
317
330
300
100
AcDbEntity
  8
Visible (ANSI)
100
AcDbVertex
100
AcDb2dVertex
 10
100.9743713115437
 20
31.8125458020742
 30
0.0
  0
VERTEX
  5
318
330
300
100
AcDbEntity
  8
Visible (ANSI)
100
AcDbVertex
100
AcDb2dVertex
 10
100.9732056887424
 20
31.81043366220716
 30
0.0
  0
VERTEX
  5
319
330
300
100
AcDbEntity
  8
Visible (ANSI)
100
AcDbVertex
100
AcDb2dVertex
 10
100.9725043075115
 20
31.8083215340733
 30
0.0
  0
VERTEX
  5
31A
330
300
100
AcDbEntity
  8
Visible (ANSI)
100
AcDbVertex
100
AcDb2dVertex
 10
100.9722701832828
 20
31.80620939420626
 30
0.0
  0
SEQEND
  5
303
330
300
100
AcDbEntity
  8
Visible (ANSI)
  0
LINE
  5
31B
330
6C
100
AcDbEntity
  8
Visible (ANSI)
100
AcDbLine
 10
101.8472701818748
 20
31.85690065416304
 30
0.0
 11
101.0816201818748
 21
31.85690065416304
 31
0.0
  0
LINE
  5
31C
330
6C
100
AcDbEntity
  8
Visible (ANSI)
100
AcDbLine
 10
101.0493491230038
 20
31.8062093934268
 30
0.0
 11
100.9722701818748
 21
31.8062093934268
 31
0.0
  0
LINE
  5
31D
330
6C
100
AcDbEntity
  8
Visible (ANSI)
100
AcDbLine
 10
101.0660201818748
 20
31.8062093934268
 30
0.0
 11
101.0493491230038
 21
31.8062093934268
 31
0.0
  0
POLYLINE
  5
31E
330
6C
100
AcDbEntity
  8
Visible (ANSI)
100
AcDb2dPolyline
 66
     1
 10
0.0
 20
0.0
 30
0.0
 70
   128
  0
VERTEX
  5
31F
330
31E
100
AcDbEntity
  8
Visible (ANSI)
100
AcDbVertex
100
AcDb2dVertex
 10
101.0660201818748
 20
31.80620939420626
 30
0.0
  0
VERTEX
  5
320
330
31E
100
AcDbEntity
  8
Visible (ANSI)
100
AcDbVertex
100
AcDb2dVertex
 10
101.066053582671
 20
31.8083215340733
 30
0.0
  0
VERTEX
  5
322
330
31E
100
AcDbEntity
  8
Visible (ANSI)
100
AcDbVertex
100
AcDb2dVertex
 10
101.0661536420383
 20
31.81043366220716
 30
0.0
  0
VERTEX
  5
323
330
31E
100
AcDbEntity
  8
Visible (ANSI)
100
AcDbVertex
100
AcDb2dVertex
 10
101.0663199315058
 20
31.8125458020742
 30
0.0
  0
VERTEX
  5
324
330
31E
100
AcDbEntity
  8
Visible (ANSI)
100
AcDbVertex
100
AcDb2dVertex
 10
101.0665517390009
 20
31.81465794194125
 30
0.0
  0
VERTEX
  5
325
330
31E
100
AcDbEntity
  8
Visible (ANSI)
100
AcDbVertex
100
AcDb2dVertex
 10
101.0668480718193
 20
31.8167700700751
 30
0.0
  0
VERTEX
  5
326
330
31E
100
AcDbEntity
  8
Visible (ANSI)
100
AcDbVertex
100
AcDb2dVertex
 10
101.0672076611486
 20
31.81888220994215
 30
0.0
  0
VERTEX
  5
327
330
31E
100
AcDbEntity
  8
Visible (ANSI)
100
AcDbVertex
100
AcDb2dVertex
 10
101.06762896719
 20
31.82099434980919
 30
0.0
  0
VERTEX
  5
328
330
31E
100
AcDbEntity
  8
Visible (ANSI)
100
AcDbVertex
100
AcDb2dVertex
 10
101.0681101855976
 20
31.82310647794305
 30
0.0
  0
VERTEX
  5
329
330
31E
100
AcDbEntity
  8
Visible (ANSI)
100
AcDbVertex
100
AcDb2dVertex
 10
101.0686492560035
 20
31.82521861781009
 30
0.0
  0
VERTEX
  5
32A
330
31E
100
AcDbEntity
  8
Visible (ANSI)
100
AcDbVertex
100
AcDb2dVertex
 10
101.0692438699011
 20
31.82733075767713
 30
0.0
  0
VERTEX
  5
32B
330
31E
100
AcDbEntity
  8
Visible (ANSI)
100
AcDbVertex
100
AcDb2dVertex
 10
101.0698914808199
 20
31.82944288581099
 30
0.0
  0
VERTEX
  5
32C
330
31E
100
AcDbEntity
  8
Visible (ANSI)
100
AcDbVertex
100
AcDb2dVertex
 10
101.0705893160584
 20
31.83155502567803
 30
0.0
  0
VERTEX
  5
32D
330
31E
100
AcDbEntity
  8
Visible (ANSI)
100
AcDbVertex
100
AcDb2dVertex
 10
101.071334387318
 20
31.83366715381188
 30
0.0
  0
VERTEX
  5
32E
330
31E
100
AcDbEntity
  8
Visible (ANSI)
100
AcDbVertex
100
AcDb2dVertex
 10
101.0721235035354
 20
31.83577929367892
 30
0.0
  0
VERTEX
  5
32F
330
31E
100
AcDbEntity
  8
Visible (ANSI)
100
AcDbVertex
100
AcDb2dVertex
 10
101.0729532859163
 20
31.83789143354597
 30
0.0
  0
VERTEX
  5
330
330
31E
100
AcDbEntity
  8
Visible (ANSI)
100
AcDbVertex
100
AcDb2dVertex
 10
101.0738201822352
 20
31.84000356167982
 30
0.0
  0
VERTEX
  5
331
330
31E
100
AcDbEntity
  8
Visible (ANSI)
100
AcDbVertex
100
AcDb2dVertex
 10
101.0747204785682
 20
31.84211570154687
 30
0.0
  0
VERTEX
  5
332
330
31E
100
AcDbEntity
  8
Visible (ANSI)
100
AcDbVertex
100
AcDb2dVertex
 10
101.07565032056
 20
31.84422784141391
 30
0.0
  0
VERTEX
  5
333
330
31E
100
AcDbEntity
  8
Visible (ANSI)
100
AcDbVertex
100
AcDb2dVertex
 10
101.0766057262564
 20
31.84633996954776
 30
0.0
  0
VERTEX
  5
334
330
31E
100
AcDbEntity
  8
Visible (ANSI)
100
AcDbVertex
100
AcDb2dVertex
 10
101.077582604438
 20
31.84845210941481
 30
0.0
  0
VERTEX
  5
335
330
31E
100
AcDbEntity
  8
Visible (ANSI)
100
AcDbVertex
100
AcDb2dVertex
 10
101.0785767729533
 20
31.85056424928186
 30
0.0
  0
VERTEX
  5
336
330
31E
100
AcDbEntity
  8
Visible (ANSI)
100
AcDbVertex
100
AcDb2dVertex
 10
101.0795839726514
 20
31.85267637741571
 30
0.0
  0
VERTEX
  5
337
330
31E
100
AcDbEntity
  8
Visible (ANSI)
100
AcDbVertex
100
AcDb2dVertex
 10
101.0805998930487
 20
31.85478851728275
 30
0.0
  0
VERTEX
  5
338
330
31E
100
AcDbEntity
  8
Visible (ANSI)
100
AcDbVertex
100
AcDb2dVertex
 10
101.0816201825956
 20
31.8569006571498
 30
0.0
  0
SEQEND
  5
321
330
31E
100
AcDbEntity
  8
Visible (ANSI)
  0
POLYLINE
  5
339
330
6C
100
AcDbEntity
  8
Visible (ANSI)
100
AcDb2dPolyline
 66
     1
 10
0.0
 20
0.0
 30
0.0
 70
   128
  0
VERTEX
  5
33A
330
339
100
AcDbEntity
  8
Visible (ANSI)
100
AcDbVertex
100
AcDb2dVertex
 10
101.0660201818748
 20
91.58751034538299
 30
0.0
  0
VERTEX
  5
33B
330
339
100
AcDbEntity
  8
Visible (ANSI)
100
AcDbVertex
100
AcDb2dVertex
 10
101.066053582671
 20
91.5853957415444
 30
0.0
  0
VERTEX
  5
33D
330
339
100
AcDbEntity
  8
Visible (ANSI)
100
AcDbVertex
100
AcDb2dVertex
 10
101.0661536420383
 20
91.58328714510309
 30
0.0
  0
VERTEX
  5
33E
330
339
100
AcDbEntity
  8
Visible (ANSI)
100
AcDbVertex
100
AcDb2dVertex
 10
101.0663199315058
 20
91.5811725412645
 30
0.0
  0
VERTEX
  5
33F
330
339
100
AcDbEntity
  8
Visible (ANSI)
100
AcDbVertex
100
AcDb2dVertex
 10
101.0665517390009
 20
91.57905793742594
 30
0.0
  0
VERTEX
  5
340
330
339
100
AcDbEntity
  8
Visible (ANSI)
100
AcDbVertex
100
AcDb2dVertex
 10
101.0668480718193
 20
91.57694934098463
 30
0.0
  0
VERTEX
  5
341
330
339
100
AcDbEntity
  8
Visible (ANSI)
100
AcDbVertex
100
AcDb2dVertex
 10
101.0672076611486
 20
91.57483473714604
 30
0.0
  0
VERTEX
  5
342
330
339
100
AcDbEntity
  8
Visible (ANSI)
100
AcDbVertex
100
AcDb2dVertex
 10
101.06762896719
 20
91.57272614070471
 30
0.0
  0
VERTEX
  5
343
330
339
100
AcDbEntity
  8
Visible (ANSI)
100
AcDbVertex
100
AcDb2dVertex
 10
101.0681101855976
 20
91.57061153686614
 30
0.0
  0
VERTEX
  5
344
330
339
100
AcDbEntity
  8
Visible (ANSI)
100
AcDbVertex
100
AcDb2dVertex
 10
101.0686492560035
 20
91.56850294042483
 30
0.0
  0
VERTEX
  5
345
330
339
100
AcDbEntity
  8
Visible (ANSI)
100
AcDbVertex
100
AcDb2dVertex
 10
101.0692438699011
 20
91.56638833658623
 30
0.0
  0
VERTEX
  5
346
330
339
100
AcDbEntity
  8
Visible (ANSI)
100
AcDbVertex
100
AcDb2dVertex
 10
101.0698914808199
 20
91.56427373274764
 30
0.0
  0
VERTEX
  5
347
330
339
100
AcDbEntity
  8
Visible (ANSI)
100
AcDbVertex
100
AcDb2dVertex
 10
101.0705893160584
 20
91.56216513630633
 30
0.0
  0
VERTEX
  5
348
330
339
100
AcDbEntity
  8
Visible (ANSI)
100
AcDbVertex
100
AcDb2dVertex
 10
101.071334387318
 20
91.56005053246776
 30
0.0
  0
VERTEX
  5
349
330
339
100
AcDbEntity
  8
Visible (ANSI)
100
AcDbVertex
100
AcDb2dVertex
 10
101.0721235035354
 20
91.55794193602645
 30
0.0
  0
VERTEX
  5
34A
330
339
100
AcDbEntity
  8
Visible (ANSI)
100
AcDbVertex
100
AcDb2dVertex
 10
101.0729532859163
 20
91.55582733218787
 30
0.0
  0
VERTEX
  5
34B
330
339
100
AcDbEntity
  8
Visible (ANSI)
100
AcDbVertex
100
AcDb2dVertex
 10
101.0738201822352
 20
91.55371272834928
 30
0.0
  0
VERTEX
  5
34C
330
339
100
AcDbEntity
  8
Visible (ANSI)
100
AcDbVertex
100
AcDb2dVertex
 10
101.0747204785682
 20
91.55160413190797
 30
0.0
  0
VERTEX
  5
34D
330
339
100
AcDbEntity
  8
Visible (ANSI)
100
AcDbVertex
100
AcDb2dVertex
 10
101.07565032056
 20
91.54948952806938
 30
0.0
  0
VERTEX
  5
34E
330
339
100
AcDbEntity
  8
Visible (ANSI)
100
AcDbVertex
100
AcDb2dVertex
 10
101.0766057262564
 20
91.54738093162807
 30
0.0
  0
VERTEX
  5
34F
330
339
100
AcDbEntity
  8
Visible (ANSI)
100
AcDbVertex
100
AcDb2dVertex
 10
101.077582604438
 20
91.54526632778949
 30
0.0
  0
VERTEX
  5
350
330
339
100
AcDbEntity
  8
Visible (ANSI)
100
AcDbVertex
100
AcDb2dVertex
 10
101.0785767729533
 20
91.5431517239509
 30
0.0
  0
VERTEX
  5
351
330
339
100
AcDbEntity
  8
Visible (ANSI)
100
AcDbVertex
100
AcDb2dVertex
 10
101.0795839726514
 20
91.54104312750957
 30
0.0
  0
VERTEX
  5
352
330
339
100
AcDbEntity
  8
Visible (ANSI)
100
AcDbVertex
100
AcDb2dVertex
 10
101.0805998930487
 20
91.538928523671
 30
0.0
  0
VERTEX
  5
353
330
339
100
AcDbEntity
  8
Visible (ANSI)
100
AcDbVertex
100
AcDb2dVertex
 10
101.0816201825956
 20
91.53681992722971
 30
0.0
  0
SEQEND
  5
33C
330
339
100
AcDbEntity
  8
Visible (ANSI)
  0
LINE
  5
354
330
6C
100
AcDbEntity
  8
Visible (ANSI)
100
AcDbLine
 10
101.0660201818748
 20
91.58750939342679
 30
0.0
 11
101.0493491230038
 21
91.58750939342679
 31
0.0
  0
LINE
  5
355
330
6C
100
AcDbEntity
  8
Visible (ANSI)
100
AcDbLine
 10
101.0493491230038
 20
91.58750939342679
 30
0.0
 11
100.9722701818748
 21
91.58750939342679
 31
0.0
  0
LINE
  5
356
330
6C
100
AcDbEntity
  8
Visible (ANSI)
100
AcDbLine
 10
101.0816201818748
 20
91.53681813269054
 30
0.0
 11
101.8472701818748
 21
91.53681813269054
 31
0.0
  0
POLYLINE
  5
357
330
6C
100
AcDbEntity
  8
Visible (ANSI)
100
AcDb2dPolyline
 66
     1
 10
0.0
 20
0.0
 30
0.0
 70
   128
  0
VERTEX
  5
358
330
357
100
AcDbEntity
  8
Visible (ANSI)
100
AcDbVertex
100
AcDb2dVertex
 10
101.0816201825956
 20
91.69685699046787
 30
0.0
  0
VERTEX
  5
359
330
357
100
AcDbEntity
  8
Visible (ANSI)
100
AcDbVertex
100
AcDb2dVertex
 10
101.0744683497475
 20
91.6966227019744
 30
0.0
  0
VERTEX
  5
35B
330
357
100
AcDbEntity
  8
Visible (ANSI)
100
AcDbVertex
100
AcDb2dVertex
 10
101.0673471427456
 20
91.69592584389123
 30
0.0
  0
VERTEX
  5
35C
330
357
100
AcDbEntity
  8
Visible (ANSI)
100
AcDbVertex
100
AcDb2dVertex
 10
101.060287055071
 20
91.69476040882111
 30
0.0
  0
VERTEX
  5
35D
330
357
100
AcDbEntity
  8
Visible (ANSI)
100
AcDbVertex
100
AcDb2dVertex
 10
101.0533183191411
 20
91.69313240416128
 30
0.0
  0
VERTEX
  5
35E
330
357
100
AcDbEntity
  8
Visible (ANSI)
100
AcDbVertex
100
AcDb2dVertex
 10
101.0464707765112
 20
91.69105384470631
 30
0.0
  0
VERTEX
  5
35F
330
357
100
AcDbEntity
  8
Visible (ANSI)
100
AcDbVertex
100
AcDb2dVertex
 10
101.0397737488092
 20
91.68853674525072
 30
0.0
  0
VERTEX
  5
360
330
357
100
AcDbEntity
  8
Visible (ANSI)
100
AcDbVertex
100
AcDb2dVertex
 10
101.0332559134371
 20
91.68558110579452
 30
0.0
  0
VERTEX
  5
361
330
357
100
AcDbEntity
  8
Visible (ANSI)
100
AcDbVertex
100
AcDb2dVertex
 10
101.0269451807392
 20
91.68221095592679
 30
0.0
  0
VERTEX
  5
362
330
357
100
AcDbEntity
  8
Visible (ANSI)
100
AcDbVertex
100
AcDb2dVertex
 10
101.0208685781366
 20
91.67843230304479
 30
0.0
  0
VERTEX
  5
363
330
357
100
AcDbEntity
  8
Visible (ANSI)
100
AcDbVertex
100
AcDb2dVertex
 10
101.0150521210622
 20
91.67426316934029
 30
0.0
  0
VERTEX
  5
364
330
357
100
AcDbEntity
  8
Visible (ANSI)
100
AcDbVertex
100
AcDb2dVertex
 10
101.0095207161614
 20
91.66972157700516
 30
0.0
  0
VERTEX
  5
365
330
357
100
AcDbEntity
  8
Visible (ANSI)
100
AcDbVertex
100
AcDb2dVertex
 10
101.0042980527608
 20
91.66483155562843
 30
0.0
  0
VERTEX
  5
366
330
357
100
AcDbEntity
  8
Visible (ANSI)
100
AcDbVertex
100
AcDb2dVertex
 10
100.9994065002017
 20
91.65961112740193
 30
0.0
  0
VERTEX
  5
367
330
357
100
AcDbEntity
  8
Visible (ANSI)
100
AcDbVertex
100
AcDb2dVertex
 10
100.9948669963758
 20
91.65407831451746
 30
0.0
  0
VERTEX
  5
368
330
357
100
AcDbEntity
  8
Visible (ANSI)
100
AcDbVertex
100
AcDb2dVertex
 10
100.9906989773251
 20
91.64826315396137
 30
0.0
  0
VERTEX
  5
369
330
357
100
AcDbEntity
  8
Visible (ANSI)
100
AcDbVertex
100
AcDb2dVertex
 10
100.9869203068433
 20
91.64218366792544
 30
0.0
  0
VERTEX
  5
36A
330
357
100
AcDbEntity
  8
Visible (ANSI)
100
AcDbVertex
100
AcDb2dVertex
 10
100.9835471474103
 20
91.63587590079329
 30
0.0
  0
VERTEX
  5
36B
330
357
100
AcDbEntity
  8
Visible (ANSI)
100
AcDbVertex
100
AcDb2dVertex
 10
100.9805939543259
 20
91.62935787475676
 30
0.0
  0
VERTEX
  5
36C
330
357
100
AcDbEntity
  8
Visible (ANSI)
100
AcDbVertex
100
AcDb2dVertex
 10
100.9780733701105
 20
91.62265962680216
 30
0.0
  0
VERTEX
  5
36D
330
357
100
AcDbEntity
  8
Visible (ANSI)
100
AcDbVertex
100
AcDb2dVertex
 10
100.9759961951729
 20
91.61581119391584
 30
0.0
  0
VERTEX
  5
36E
330
357
100
AcDbEntity
  8
Visible (ANSI)
100
AcDbVertex
100
AcDb2dVertex
 10
100.9743713115437
 20
91.60884261308416
 30
0.0
  0
VERTEX
  5
36F
330
357
100
AcDbEntity
  8
Visible (ANSI)
100
AcDbVertex
100
AcDb2dVertex
 10
100.9732056887424
 20
91.60178392129344
 30
0.0
  0
VERTEX
  5
370
330
357
100
AcDbEntity
  8
Visible (ANSI)
100
AcDbVertex
100
AcDb2dVertex
 10
100.9725043075115
 20
91.59465914813273
 30
0.0
  0
VERTEX
  5
371
330
357
100
AcDbEntity
  8
Visible (ANSI)
100
AcDbVertex
100
AcDb2dVertex
 10
100.9722701832828
 20
91.58751034538299
 30
0.0
  0
SEQEND
  5
35A
330
357
100
AcDbEntity
  8
Visible (ANSI)
  0
LINE
  5
372
330
6C
100
AcDbEntity
  8
Visible (ANSI)
100
AcDbLine
 10
101.0816201818748
 20
91.6031093934268
 30
0.0
 11
101.8472701818748
 21
91.60310939342666
 31
0.0
  0
LINE
  5
373
330
6C
100
AcDbEntity
  8
Visible (ANSI)
100
AcDbLine
 10
101.8472701818748
 20
91.69685939342667
 30
0.0
 11
101.0816201818748
 21
91.69685939342681
 31
0.0
  0
LINE
  5
374
330
6C
100
AcDbEntity
  8
Visible (ANSI)
100
AcDbLine
 10
101.0816201818748
 20
91.6031093934268
 30
0.0
 11
101.0816201818748
 21
91.69685939342681
 31
0.0
  0
LINE
  5
375
330
6C
100
AcDbEntity
  8
Visible (ANSI)
100
AcDbLine
 10
101.8472701818748
 20
91.60310939342666
 30
0.0
 11
101.8472701818748
 21
91.69685939342667
 31
0.0
  0
POLYLINE
  5
376
330
6C
100
AcDbEntity
  8
Visible (ANSI)
100
AcDb2dPolyline
 66
     1
 10
0.0
 20
0.0
 30
0.0
 70
   128
  0
VERTEX
  5
377
330
376
100
AcDbEntity
  8
Visible (ANSI)
100
AcDbVertex
100
AcDb2dVertex
 10
101.0660201818748
 20
91.58751034538299
 30
0.0
  0
VERTEX
  5
378
330
376
100
AcDbEntity
  8
Visible (ANSI)
100
AcDbVertex
100
AcDb2dVertex
 10
101.066053582671
 20
91.58853160291867
 30
0.0
  0
VERTEX
  5
37A
330
376
100
AcDbEntity
  8
Visible (ANSI)
100
AcDbVertex
100
AcDb2dVertex
 10
101.0661536420383
 20
91.58954685305708
 30
0.0
  0
VERTEX
  5
37B
330
376
100
AcDbEntity
  8
Visible (ANSI)
100
AcDbVertex
100
AcDb2dVertex
 10
101.0663199315058
 20
91.59055008840095
 30
0.0
  0
VERTEX
  5
37C
330
376
100
AcDbEntity
  8
Visible (ANSI)
100
AcDbVertex
100
AcDb2dVertex
 10
101.0665517390009
 20
91.59154731634757
 30
0.0
  0
VERTEX
  5
37D
330
376
100
AcDbEntity
  8
Visible (ANSI)
100
AcDbVertex
100
AcDb2dVertex
 10
101.0668480718193
 20
91.59252652210236
 30
0.0
  0
VERTEX
  5
37E
330
376
100
AcDbEntity
  8
Visible (ANSI)
100
AcDbVertex
100
AcDb2dVertex
 10
101.0672076611486
 20
91.59348169826808
 30
0.0
  0
VERTEX
  5
37F
330
376
100
AcDbEntity
  8
Visible (ANSI)
100
AcDbVertex
100
AcDb2dVertex
 10
101.0676289671899
 20
91.59440683744746
 30
0.0
  0
VERTEX
  5
380
330
376
100
AcDbEntity
  8
Visible (ANSI)
100
AcDbVertex
100
AcDb2dVertex
 10
101.0681101855976
 20
91.59530794703776
 30
0.0
  0
VERTEX
  5
381
330
376
100
AcDbEntity
  8
Visible (ANSI)
100
AcDbVertex
100
AcDb2dVertex
 10
101.0686492560035
 20
91.59617901964173
 30
0.0
  0
VERTEX
  5
382
330
376
100
AcDbEntity
  8
Visible (ANSI)
100
AcDbVertex
100
AcDb2dVertex
 10
101.0692438699011
 20
91.59700804046481
 30
0.0
  0
VERTEX
  5
383
330
376
100
AcDbEntity
  8
Visible (ANSI)
100
AcDbVertex
100
AcDb2dVertex
 10
101.0698914808199
 20
91.59779500950701
 30
0.0
  0
VERTEX
  5
384
330
376
100
AcDbEntity
  8
Visible (ANSI)
100
AcDbVertex
100
AcDb2dVertex
 10
101.0705893160584
 20
91.59853992676834
 30
0.0
  0
VERTEX
  5
385
330
376
100
AcDbEntity
  8
Visible (ANSI)
100
AcDbVertex
100
AcDb2dVertex
 10
101.071334387318
 20
91.59923678485148
 30
0.0
  0
VERTEX
  5
386
330
376
100
AcDbEntity
  8
Visible (ANSI)
100
AcDbVertex
100
AcDb2dVertex
 10
101.0721235035354
 20
91.59988558375651
 30
0.0
  0
VERTEX
  5
387
330
376
100
AcDbEntity
  8
Visible (ANSI)
100
AcDbVertex
100
AcDb2dVertex
 10
101.0729532859163
 20
91.6004803160861
 30
0.0
  0
VERTEX
  5
388
330
376
100
AcDbEntity
  8
Visible (ANSI)
100
AcDbVertex
100
AcDb2dVertex
 10
101.0738201822352
 20
91.60102098184029
 30
0.0
  0
VERTEX
  5
389
330
376
100
AcDbEntity
  8
Visible (ANSI)
100
AcDbVertex
100
AcDb2dVertex
 10
101.0747204785682
 20
91.60150157362179
 30
0.0
  0
VERTEX
  5
38A
330
376
100
AcDbEntity
  8
Visible (ANSI)
100
AcDbVertex
100
AcDb2dVertex
 10
101.0756503205599
 20
91.6019220914306
 30
0.0
  0
VERTEX
  5
38B
330
376
100
AcDbEntity
  8
Visible (ANSI)
100
AcDbVertex
100
AcDb2dVertex
 10
101.0766057262563
 20
91.60228253526673
 30
0.0
  0
VERTEX
  5
38C
330
376
100
AcDbEntity
  8
Visible (ANSI)
100
AcDbVertex
100
AcDb2dVertex
 10
101.077582604438
 20
91.6025768977329
 30
0.0
  0
VERTEX
  5
38D
330
376
100
AcDbEntity
  8
Visible (ANSI)
100
AcDbVertex
100
AcDb2dVertex
 10
101.0785767729533
 20
91.60281118622638
 30
0.0
  0
VERTEX
  5
38E
330
376
100
AcDbEntity
  8
Visible (ANSI)
100
AcDbVertex
100
AcDb2dVertex
 10
101.0795839726514
 20
91.60297338595263
 30
0.0
  0
VERTEX
  5
38F
330
376
100
AcDbEntity
  8
Visible (ANSI)
100
AcDbVertex
100
AcDb2dVertex
 10
101.0805998930487
 20
91.60307551170619
 30
0.0
  0
VERTEX
  5
390
330
376
100
AcDbEntity
  8
Visible (ANSI)
100
AcDbVertex
100
AcDb2dVertex
 10
101.0816201825956
 20
91.6031115560898
 30
0.0
  0
SEQEND
  5
379
330
376
100
AcDbEntity
  8
Visible (ANSI)
  0
POLYLINE
  5
391
330
6C
100
AcDbEntity
  8
Visible (ANSI)
100
AcDb2dPolyline
 66
     1
 10
0.0
 20
0.0
 30
0.0
 70
   128
  0
VERTEX
  5
392
330
391
100
AcDbEntity
  8
Visible (ANSI)
100
AcDbVertex
100
AcDb2dVertex
 10
100.9722701832828
 20
31.80620939420626
 30
0.0
  0
VERTEX
  5
393
330
391
100
AcDbEntity
  8
Visible (ANSI)
100
AcDbVertex
100
AcDb2dVertex
 10
100.9725043075115
 20
31.79905756429147
 30
0.0
  0
VERTEX
  5
395
330
391
100
AcDbEntity
  8
Visible (ANSI)
100
AcDbVertex
100
AcDb2dVertex
 10
100.9732056887424
 20
31.79193635215633
 30
0.0
  0
VERTEX
  5
396
330
391
100
AcDbEntity
  8
Visible (ANSI)
100
AcDbVertex
100
AcDb2dVertex
 10
100.9743713115437
 20
31.78487626411507
 30
0.0
  0
VERTEX
  5
397
330
391
100
AcDbEntity
  8
Visible (ANSI)
100
AcDbVertex
100
AcDb2dVertex
 10
100.9759961951729
 20
31.7779075307518
 30
0.0
  0
VERTEX
  5
398
330
391
100
AcDbEntity
  8
Visible (ANSI)
100
AcDbVertex
100
AcDb2dVertex
 10
100.9780733701105
 20
31.77105998958852
 30
0.0
  0
VERTEX
  5
399
330
391
100
AcDbEntity
  8
Visible (ANSI)
100
AcDbVertex
100
AcDb2dVertex
 10
100.9805939543259
 20
31.76436296188648
 30
0.0
  0
VERTEX
  5
39A
330
391
100
AcDbEntity
  8
Visible (ANSI)
100
AcDbVertex
100
AcDb2dVertex
 10
100.9835471474103
 20
31.75784512358111
 30
0.0
  0
VERTEX
  5
39B
330
391
100
AcDbEntity
  8
Visible (ANSI)
100
AcDbVertex
100
AcDb2dVertex
 10
100.9869203068433
 20
31.75153439381653
 30
0.0
  0
VERTEX
  5
39C
330
391
100
AcDbEntity
  8
Visible (ANSI)
100
AcDbVertex
100
AcDb2dVertex
 10
100.9906989773251
 20
31.74545778828066
 30
0.0
  0
VERTEX
  5
39D
330
391
100
AcDbEntity
  8
Visible (ANSI)
100
AcDbVertex
100
AcDb2dVertex
 10
100.9948669963758
 20
31.7396413312062
 30
0.0
  0
VERTEX
  5
39E
330
391
100
AcDbEntity
  8
Visible (ANSI)
100
AcDbVertex
100
AcDb2dVertex
 10
100.9994065002017
 20
31.73410992923877
 30
0.0
  0
VERTEX
  5
39F
330
391
100
AcDbEntity
  8
Visible (ANSI)
100
AcDbVertex
100
AcDb2dVertex
 10
101.0042980527608
 20
31.72888726583809
 30
0.0
  0
VERTEX
  5
3A0
330
391
100
AcDbEntity
  8
Visible (ANSI)
100
AcDbVertex
100
AcDb2dVertex
 10
101.0095207161614
 20
31.72399571034575
 30
0.0
  0
VERTEX
  5
3A1
330
391
100
AcDbEntity
  8
Visible (ANSI)
100
AcDbVertex
100
AcDb2dVertex
 10
101.0150521210622
 20
31.71945620505317
 30
0.0
  0
VERTEX
  5
3A2
330
391
100
AcDbEntity
  8
Visible (ANSI)
100
AcDbVertex
100
AcDb2dVertex
 10
101.0208685781366
 20
31.71528819186908
 30
0.0
  0
VERTEX
  5
3A3
330
391
100
AcDbEntity
  8
Visible (ANSI)
100
AcDbVertex
100
AcDb2dVertex
 10
101.0269451807392
 20
31.71150951552068
 30
0.0
  0
VERTEX
  5
3A4
330
391
100
AcDbEntity
  8
Visible (ANSI)
100
AcDbVertex
100
AcDb2dVertex
 10
101.0332559134371
 20
31.708136359021
 30
0.0
  0
VERTEX
  5
3A5
330
391
100
AcDbEntity
  8
Visible (ANSI)
100
AcDbVertex
100
AcDb2dVertex
 10
101.0397737488092
 20
31.70518316666986
 30
0.0
  0
VERTEX
  5
3A6
330
391
100
AcDbEntity
  8
Visible (ANSI)
100
AcDbVertex
100
AcDb2dVertex
 10
101.0464707765112
 20
31.70266258392118
 30
0.0
  0
VERTEX
  5
3A7
330
391
100
AcDbEntity
  8
Visible (ANSI)
100
AcDbVertex
100
AcDb2dVertex
 10
101.0533183191411
 20
31.70058540421694
 30
0.0
  0
VERTEX
  5
3A8
330
391
100
AcDbEntity
  8
Visible (ANSI)
100
AcDbVertex
100
AcDb2dVertex
 10
101.060287055071
 20
31.69896052297104
 30
0.0
  0
VERTEX
  5
3A9
330
391
100
AcDbEntity
  8
Visible (ANSI)
100
AcDbVertex
100
AcDb2dVertex
 10
101.0673471427456
 20
31.69779489787811
 30
0.0
  0
VERTEX
  5
3AA
330
391
100
AcDbEntity
  8
Visible (ANSI)
100
AcDbVertex
100
AcDb2dVertex
 10
101.0744683497475
 20
31.69709352017632
 30
0.0
  0
VERTEX
  5
3AB
330
391
100
AcDbEntity
  8
Visible (ANSI)
100
AcDbVertex
100
AcDb2dVertex
 10
101.0816201825956
 20
31.6968593934268
 30
0.0
  0
SEQEND
  5
394
330
391
100
AcDbEntity
  8
Visible (ANSI)
  0
LINE
  5
3AC
330
6C
100
AcDbEntity
  8
Visible (ANSI)
100
AcDbLine
 10
101.0816201818748
 20
31.7906093934268
 30
0.0
 11
101.8472701818748
 21
31.7906093934268
 31
0.0
  0
LINE
  5
3AD
330
6C
100
AcDbEntity
  8
Visible (ANSI)
100
AcDbLine
 10
101.0816201818748
 20
31.7906093934268
 30
0.0
 11
101.0816201818748
 21
31.6968593934268
 31
0.0
  0
POLYLINE
  5
3AE
330
6C
100
AcDbEntity
  8
Visible (ANSI)
100
AcDb2dPolyline
 66
     1
 10
0.0
 20
0.0
 30
0.0
 70
   128
  0
VERTEX
  5
3AF
330
3AE
100
AcDbEntity
  8
Visible (ANSI)
100
AcDbVertex
100
AcDb2dVertex
 10
101.0660201818748
 20
31.80620939420626
 30
0.0
  0
VERTEX
  5
3B0
330
3AE
100
AcDbEntity
  8
Visible (ANSI)
100
AcDbVertex
100
AcDb2dVertex
 10
101.066053582671
 20
31.8051890987928
 30
0.0
  0
VERTEX
  5
3B2
330
3AE
100
AcDbEntity
  8
Visible (ANSI)
100
AcDbVertex
100
AcDb2dVertex
 10
101.0661536420383
 20
31.80417317986212
 30
0.0
  0
VERTEX
  5
3B3
330
3AE
100
AcDbEntity
  8
Visible (ANSI)
100
AcDbVertex
100
AcDb2dVertex
 10
101.0663199315058
 20
31.80316597869739
 30
0.0
  0
VERTEX
  5
3B4
330
3AE
100
AcDbEntity
  8
Visible (ANSI)
100
AcDbVertex
100
AcDb2dVertex
 10
101.0665517390009
 20
31.80217181311541
 30
0.0
  0
VERTEX
  5
3B5
330
3AE
100
AcDbEntity
  8
Visible (ANSI)
100
AcDbVertex
100
AcDb2dVertex
 10
101.0668480718193
 20
31.80119494226697
 30
0.0
  0
VERTEX
  5
3B6
330
3AE
100
AcDbEntity
  8
Visible (ANSI)
100
AcDbVertex
100
AcDb2dVertex
 10
101.0672076611486
 20
31.80023953143729
 30
0.0
  0
VERTEX
  5
3B7
330
3AE
100
AcDbEntity
  8
Visible (ANSI)
100
AcDbVertex
100
AcDb2dVertex
 10
101.0676289671899
 20
31.7993096872456
 30
0.0
  0
VERTEX
  5
3B8
330
3AE
100
AcDbEntity
  8
Visible (ANSI)
100
AcDbVertex
100
AcDb2dVertex
 10
101.0681101855976
 20
31.79840939897914
 30
0.0
  0
VERTEX
  5
3B9
330
3AE
100
AcDbEntity
  8
Visible (ANSI)
100
AcDbVertex
100
AcDb2dVertex
 10
101.0686492560035
 20
31.79754250339359
 30
0.0
  0
VERTEX
  5
3BA
330
3AE
100
AcDbEntity
  8
Visible (ANSI)
100
AcDbVertex
100
AcDb2dVertex
 10
101.0692438699011
 20
31.79671271991265
 30
0.0
  0
VERTEX
  5
3BB
330
3AE
100
AcDbEntity
  8
Visible (ANSI)
100
AcDbVertex
100
AcDb2dVertex
 10
101.0698914808199
 20
31.79592360369526
 30
0.0
  0
VERTEX
  5
3BC
330
3AE
100
AcDbEntity
  8
Visible (ANSI)
100
AcDbVertex
100
AcDb2dVertex
 10
101.0705893160584
 20
31.79517852803577
 30
0.0
  0
VERTEX
  5
3BD
330
3AE
100
AcDbEntity
  8
Visible (ANSI)
100
AcDbVertex
100
AcDb2dVertex
 10
101.071334387318
 20
31.79448069023059
 30
0.0
  0
VERTEX
  5
3BE
330
3AE
100
AcDbEntity
  8
Visible (ANSI)
100
AcDbVertex
100
AcDb2dVertex
 10
101.0721235035354
 20
31.79383308224514
 30
0.0
  0
VERTEX
  5
3BF
330
3AE
100
AcDbEntity
  8
Visible (ANSI)
100
AcDbVertex
100
AcDb2dVertex
 10
101.0729532859163
 20
31.79323846724752
 30
0.0
  0
VERTEX
  5
3C0
330
3AE
100
AcDbEntity
  8
Visible (ANSI)
100
AcDbVertex
100
AcDb2dVertex
 10
101.0738201822352
 20
31.79269939720823
 30
0.0
  0
VERTEX
  5
3C1
330
3AE
100
AcDbEntity
  8
Visible (ANSI)
100
AcDbVertex
100
AcDb2dVertex
 10
101.0747204785682
 20
31.79221817770065
 30
0.0
  0
VERTEX
  5
3C2
330
3AE
100
AcDbEntity
  8
Visible (ANSI)
100
AcDbVertex
100
AcDb2dVertex
 10
101.0756503205599
 20
31.79179687376759
 30
0.0
  0
VERTEX
  5
3C3
330
3AE
100
AcDbEntity
  8
Visible (ANSI)
100
AcDbVertex
100
AcDb2dVertex
 10
101.0766057262563
 20
31.79143728058831
 30
0.0
  0
VERTEX
  5
3C4
330
3AE
100
AcDbEntity
  8
Visible (ANSI)
100
AcDbVertex
100
AcDb2dVertex
 10
101.077582604438
 20
31.79114095281152
 30
0.0
  0
VERTEX
  5
3C5
330
3AE
100
AcDbEntity
  8
Visible (ANSI)
100
AcDbVertex
100
AcDb2dVertex
 10
101.0785767729533
 20
31.79090914588937
 30
0.0
  0
VERTEX
  5
3C6
330
3AE
100
AcDbEntity
  8
Visible (ANSI)
100
AcDbVertex
100
AcDb2dVertex
 10
101.0795839726514
 20
31.79074285127708
 30
0.0
  0
VERTEX
  5
3C7
330
3AE
100
AcDbEntity
  8
Visible (ANSI)
100
AcDbVertex
100
AcDb2dVertex
 10
101.0805998930487
 20
31.79064279643293
 30
0.0
  0
VERTEX
  5
3C8
330
3AE
100
AcDbEntity
  8
Visible (ANSI)
100
AcDbVertex
100
AcDb2dVertex
 10
101.0816201825956
 20
31.79060939201882
 30
0.0
  0
SEQEND
  5
3B1
330
3AE
100
AcDbEntity
  8
Visible (ANSI)
  0
LINE
  5
3C9
330
6C
100
AcDbEntity
  8
Visible (ANSI)
100
AcDbLine
 10
101.0816201818748
 20
31.6968593934268
 30
0.0
 11
101.8472701818748
 21
31.6968593934268
 31
0.0
  0
LINE
  5
3CA
330
6C
100
AcDbEntity
  8
Visible (ANSI)
100
AcDbLine
 10
101.8472701818748
 20
31.7906093934268
 30
0.0
 11
101.8472701818748
 21
31.6968593934268
 31
0.0
  0
LINE
  5
3CB
330
6C
100
AcDbEntity
  8
Visible (ANSI)
100
AcDbLine
 10
100.9722701818748
 20
31.8062093934268
 30
0.0
 11
100.9722701818748
 21
91.58750939342679
 31
0.0
  0
LINE
  5
3CC
330
6C
100
AcDbEntity
  8
Hidden (ANSI)
 48
1.095521569252014
100
AcDbLine
 10
101.0660201818748
 20
91.58750939342679
 30
0.0
 11
101.0660201818748
 21
31.8062093934268
 31
0.0
  0
LINE
  5
3CD
330
6C
100
AcDbEntity
  8
Visible (ANSI)
100
AcDbLine
 10
101.8472701818748
 20
91.53681813269054
 30
0.0
 11
101.8472701818748
 21
31.85690065416305
 31
0.0
  0
LINE
  5
3CE
330
6C
100
AcDbEntity
  8
Hidden (ANSI)
 48
0.0147804422304034
100
AcDbLine
 10
101.0660201818746
 20
61.41535939342681
 30
0.0
 11
100.9722701818746
 21
61.41535939342681
 31
0.0
  0
LINE
  5
3CF
330
6C
100
AcDbEntity
  8
Hidden (ANSI)
 48
0.0147804422304034
100
AcDbLine
 10
101.0660201818746
 20
61.97835939342681
 30
0.0
 11
100.9722701818746
 21
61.97835939342681
 31
0.0
  0
LINE
  5
3D0
330
6C
100
AcDbEntity
  8
Hidden (ANSI)
 48
0.0147804422304034
100
AcDbLine
 10
101.0660201818746
 20
90.54035939342679
 30
0.0
 11
100.9722701818746
 21
90.54035939342679
 31
0.0
  0
LINE
  5
3D1
330
6C
100
AcDbEntity
  8
Hidden (ANSI)
 48
0.0147804422304034
100
AcDbLine
 10
101.0660201818746
 20
91.10335939342681
 30
0.0
 11
100.9722701818746
 21
91.10335939342681
 31
0.0
  0
LINE
  5
3D2
330
6C
100
AcDbEntity
  8
Hidden (ANSI)
 48
0.0147804422304034
100
AcDbLine
 10
101.0660201818746
 20
32.2903593934268
 30
0.0
 11
100.9722701818746
 21
32.2903593934268
 31
0.0
  0
LINE
  5
3D3
330
6C
100
AcDbEntity
  8
Hidden (ANSI)
 48
0.0147804422304034
100
AcDbLine
 10
101.0660201818746
 20
32.8533593934268
 30
0.0
 11
100.9722701818746
 21
32.8533593934268
 31
0.0
  0
MTEXT
  5
3D4
330
6C
100
AcDbEntity
  8
Symbol (ANSI)
100
AcDbMText
 10
96.61796350331229
 20
25.77709569426067
 30
0.0
 40
1.440000017796914
 41
0.0
 46
0.0
 71
     7
 72
     1
  1
SIDE VIEW
  7
Text Style153
 73
     1
 44
1.0
  0
LINE
  5
3D5
330
6C
100
AcDbEntity
  8
Symbol (ANSI)
370
    30
100
AcDbLine
 10
96.54423531365692
 20
25.47876830028418
 30
0.0
 11
106.2753211585228
 21
25.47876830028418
 31
0.0
  0
ELLIPSE
  5
3D6
330
6C
100
AcDbEntity
  8
Visible (ANSI)
100
AcDbEllipse
 10
163.4823360364587
 20
56.58148943413692
 30
0.0
 11
-0.1404775675610101
 21
0.2439432372748665
 31
0.0
210
0.0
220
0.0
230
1.0
 40
0.578093115915809
 41
0.0
 42
6.283185307179586
  0
ELLIPSE
  5
3D7
330
6C
100
AcDbEntity
  8
Visible (ANSI)
100
AcDbEllipse
 10
163.5486272971949
 20
56.61966403230496
 30
0.0
 11
-0.1404775675610098
 21
0.2439432372748659
 31
0.0
210
0.0
220
0.0
230
0.9999999999999998
 40
0.578093115915809
 41
0.2372585647783909
 42
2.904334088811491
  0
ELLIPSE
  5
3D8
330
6C
100
AcDbEntity
  8
Visible (ANSI)
100
AcDbEllipse
 10
146.3349965926824
 20
66.45598549359966
 30
0.0
 11
-0.1404775675610101
 21
0.2439432372748665
 31
0.0
210
0.0
220
0.0
230
1.0
 40
0.578093115915809
 41
0.0
 42
6.283185307179586
  0
ELLIPSE
  5
3D9
330
6C
100
AcDbEntity
  8
Visible (ANSI)
100
AcDbEllipse
 10
146.4012878534186
 20
66.49416009176771
 30
0.0
 11
-0.1404775675610089
 21
0.2439432372748646
 31
0.0
210
0.0
220
0.0
230
1.0
 40
0.578093115915809
 41
0.2372585647784398
 42
2.904334088811397
  0
ELLIPSE
  5
3DA
330
6C
100
AcDbEntity
  8
Visible (ANSI)
100
AcDbEllipse
 10
163.4823360364588
 20
80.3925494451758
 30
0.0
 11
-0.1404775675610101
 21
0.2439432372748665
 31
0.0
210
0.0
220
0.0
230
1.0
 40
0.578093115915809
 41
0.0
 42
6.283185307179586
  0
ELLIPSE
  5
3DB
330
6C
100
AcDbEntity
  8
Visible (ANSI)
100
AcDbEllipse
 10
163.548627297195
 20
80.43072404334385
 30
0.0
 11
-0.1404775675610117
 21
0.2439432372748693
 31
0.0
210
0.0
220
0.0
230
1.0
 40
0.5780931159158092
 41
0.2372585647784887
 42
2.904334088811284
  0
ELLIPSE
  5
3DC
330
6C
100
AcDbEntity
  8
Visible (ANSI)
100
AcDbEllipse
 10
146.3349965926825
 20
90.26704550463856
 30
0.0
 11
-0.1404775675610101
 21
0.2439432372748665
 31
0.0
210
0.0
220
0.0
230
1.0
 40
0.578093115915809
 41
0.0
 42
6.283185307179586
  0
ELLIPSE
  5
3DD
330
6C
100
AcDbEntity
  8
Visible (ANSI)
100
AcDbEllipse
 10
146.4012878534187
 20
90.30522010280659
 30
0.0
 11
-0.1404775675610124
 21
0.2439432372748703
 31
0.0
210
0.0
220
0.0
230
1.0
 40
0.5780931159158092
 41
0.2372585647784083
 42
2.904334088811377
  0
ELLIPSE
  5
3DE
330
6C
100
AcDbEntity
  8
Visible (ANSI)
100
AcDbEllipse
 10
146.3349965926824
 20
42.64492548256078
 30
0.0
 11
-0.1404775675610101
 21
0.2439432372748665
 31
0.0
210
0.0
220
0.0
230
1.0
 40
0.578093115915809
 41
0.0
 42
6.283185307179586
  0
ELLIPSE
  5
3DF
330
6C
100
AcDbEntity
  8
Visible (ANSI)
100
AcDbEllipse
 10
146.4012878534186
 20
42.68310008072881
 30
0.0
 11
-0.1404775675610102
 21
0.2439432372748665
 31
0.0
210
0.0
220
0.0
230
1.0
 40
0.578093115915809
 41
0.2372585647784087
 42
2.904334088811396
  0
ELLIPSE
  5
3E0
330
6C
100
AcDbEntity
  8
Visible (ANSI)
100
AcDbEllipse
 10
163.4823360364587
 20
32.77042942309804
 30
0.0
 11
-0.1404775675610101
 21
0.2439432372748665
 31
0.0
210
0.0
220
0.0
230
1.0
 40
0.578093115915809
 41
0.0
 42
6.283185307179586
  0
ELLIPSE
  5
3E1
330
6C
100
AcDbEntity
  8
Visible (ANSI)
100
AcDbEllipse
 10
163.5486272971949
 20
32.80860402126608
 30
0.0
 11
-0.1404775675610089
 21
0.2439432372748644
 31
0.0
210
0.0
220
0.0
230
1.0
 40
0.578093115915809
 41
0.2372585647784732
 42
2.904334088811294
  0
LINE
  5
3E2
330
6C
100
AcDbEntity
  8
Visible Narrow (ANSI)
100
AcDbLine
 10
164.1783765965198
 20
80.66529250857689
 30
0.0
 11
164.1783765965197
 21
31.87414756316684
 31
0.0
  0
LINE
  5
3E3
330
6C
100
AcDbEntity
  8
Visible Narrow (ANSI)
100
AcDbLine
 10
164.0237323434743
 20
31.83270506869729
 30
0.0
 11
164.0237323434743
 21
80.70673500304645
 31
0.0
  0
LINE
  5
3E4
330
6C
100
AcDbEntity
  8
Visible Narrow (ANSI)
100
AcDbLine
 10
145.9067665464032
 20
91.31805422434551
 30
0.0
 11
164.0652103357836
 21
80.86130189654971
 31
0.0
  0
LINE
  5
3E5
330
6C
100
AcDbEntity
  8
Visible Narrow (ANSI)
100
AcDbLine
 10
164.0237323434743
 20
80.70673500304645
 30
0.0
 11
145.7936002856669
 21
91.20476985903929
 31
0.0
  0
LINE
  5
3E6
330
6C
100
AcDbEntity
  8
Visible Narrow (ANSI)
100
AcDbLine
 10
145.7936002856669
 20
91.20476985903929
 30
0.0
 11
145.7936002856668
 21
42.33073992469013
 31
0.0
  0
LINE
  5
3E7
330
6C
100
AcDbEntity
  8
Visible Narrow (ANSI)
100
AcDbLine
 10
145.7936002856668
 20
42.33073992469013
 30
0.0
 11
164.0237323434743
 21
31.83270506869729
 31
0.0
  0
LINE
  5
3E8
330
6C
100
AcDbEntity
  8
Visible (ANSI)
100
AcDbLine
 10
145.7615724121897
 20
91.2285754631077
 30
0.0
 11
145.7615724121895
 21
42.39598802322812
 31
0.0
  0
LINE
  5
3E9
330
6C
100
AcDbEntity
  8
Visible (ANSI)
100
AcDbLine
 10
145.8343194324156
 20
42.27015983504141
 30
0.0
 11
164.0285191050975
 21
31.79281706346742
 31
0.0
  0
POLYLINE
  5
3EA
330
6C
100
AcDbEntity
  8
Visible (ANSI)
100
AcDb2dPolyline
 66
     1
 10
0.0
 20
0.0
 30
0.0
 70
   128
  0
VERTEX
  5
3EB
330
3EA
100
AcDbEntity
  8
Visible (ANSI)
100
AcDbVertex
100
AcDb2dVertex
 10
164.0237328476898
 20
80.70673549210379
 30
0.0
  0
VERTEX
  5
3EC
330
3EA
100
AcDbEntity
  8
Visible (ANSI)
100
AcDbVertex
100
AcDb2dVertex
 10
164.028955489357
 20
80.70218985326615
 30
0.0
  0
VERTEX
  5
3EE
330
3EA
100
AcDbEntity
  8
Visible (ANSI)
100
AcDbVertex
100
AcDb2dVertex
 10
164.0344872922622
 20
80.69785162173948
 30
0.0
  0
VERTEX
  5
3EF
330
3EA
100
AcDbEntity
  8
Visible (ANSI)
100
AcDbVertex
100
AcDb2dVertex
 10
164.0403027608808
 20
80.6937232010175
 30
0.0
  0
VERTEX
  5
3F0
330
3EA
100
AcDbEntity
  8
Visible (ANSI)
100
AcDbVertex
100
AcDb2dVertex
 10
164.046379257875
 20
80.68981848213242
 30
0.0
  0
VERTEX
  5
3F1
330
3EA
100
AcDbEntity
  8
Visible (ANSI)
100
AcDbVertex
100
AcDb2dVertex
 10
164.0526906156935
 20
80.68615176938827
 30
0.0
  0
VERTEX
  5
3F2
330
3EA
100
AcDbEntity
  8
Visible (ANSI)
100
AcDbVertex
100
AcDb2dVertex
 10
164.0592071904998
 20
80.68272307742478
 30
0.0
  0
VERTEX
  5
3F3
330
3EA
100
AcDbEntity
  8
Visible (ANSI)
100
AcDbVertex
100
AcDb2dVertex
 10
164.0659043537664
 20
80.67954761576826
 30
0.0
  0
VERTEX
  5
3F4
330
3EA
100
AcDbEntity
  8
Visible (ANSI)
100
AcDbVertex
100
AcDb2dVertex
 10
164.0727519265244
 20
80.67662264470987
 30
0.0
  0
VERTEX
  5
3F5
330
3EA
100
AcDbEntity
  8
Visible (ANSI)
100
AcDbVertex
100
AcDb2dVertex
 10
164.0797205719124
 20
80.67396310861317
 30
0.0
  0
VERTEX
  5
3F6
330
3EA
100
AcDbEntity
  8
Visible (ANSI)
100
AcDbVertex
100
AcDb2dVertex
 10
164.0867818698459
 20
80.67156238827053
 30
0.0
  0
VERTEX
  5
3F7
330
3EA
100
AcDbEntity
  8
Visible (ANSI)
100
AcDbVertex
100
AcDb2dVertex
 10
164.0939019493584
 20
80.66943035188421
 30
0.0
  0
VERTEX
  5
3F8
330
3EA
100
AcDbEntity
  8
Visible (ANSI)
100
AcDbVertex
100
AcDb2dVertex
 10
164.1010543234788
 20
80.66757133507081
 30
0.0
  0
VERTEX
  5
3F9
330
3EA
100
AcDbEntity
  8
Visible (ANSI)
100
AcDbVertex
100
AcDb2dVertex
 10
164.1082071953965
 20
80.66597677409557
 30
0.0
  0
VERTEX
  5
3FA
330
3EA
100
AcDbEntity
  8
Visible (ANSI)
100
AcDbVertex
100
AcDb2dVertex
 10
164.1153277561132
 20
80.66465716766488
 30
0.0
  0
VERTEX
  5
3FB
330
3EA
100
AcDbEntity
  8
Visible (ANSI)
100
AcDbVertex
100
AcDb2dVertex
 10
164.1223886350671
 20
80.66359916239196
 30
0.0
  0
VERTEX
  5
3FC
330
3EA
100
AcDbEntity
  8
Visible (ANSI)
100
AcDbVertex
100
AcDb2dVertex
 10
164.1293573530506
 20
80.66280608938027
 30
0.0
  0
VERTEX
  5
3FD
330
3EA
100
AcDbEntity
  8
Visible (ANSI)
100
AcDbVertex
100
AcDb2dVertex
 10
164.1362048946963
 20
80.6622783820535
 30
0.0
  0
VERTEX
  5
3FE
330
3EA
100
AcDbEntity
  8
Visible (ANSI)
100
AcDbVertex
100
AcDb2dVertex
 10
164.1429015290531
 20
80.66200132776693
 30
0.0
  0
VERTEX
  5
3FF
330
3EA
100
AcDbEntity
  8
Visible (ANSI)
100
AcDbVertex
100
AcDb2dVertex
 10
164.1494190247846
 20
80.66197827658157
 30
0.0
  0
VERTEX
  5
400
330
3EA
100
AcDbEntity
  8
Visible (ANSI)
100
AcDbVertex
100
AcDb2dVertex
 10
164.1557286081628
 20
80.66219262089438
 30
0.0
  0
VERTEX
  5
401
330
3EA
100
AcDbEntity
  8
Visible (ANSI)
100
AcDbVertex
100
AcDb2dVertex
 10
164.1618052977942
 20
80.66263977858087
 30
0.0
  0
VERTEX
  5
402
330
3EA
100
AcDbEntity
  8
Visible (ANSI)
100
AcDbVertex
100
AcDb2dVertex
 10
164.1676216207058
 20
80.66331617889764
 30
0.0
  0
VERTEX
  5
403
330
3EA
100
AcDbEntity
  8
Visible (ANSI)
100
AcDbVertex
100
AcDb2dVertex
 10
164.1731540754145
 20
80.6642009117664
 30
0.0
  0
VERTEX
  5
404
330
3EA
100
AcDbEntity
  8
Visible (ANSI)
100
AcDbVertex
100
AcDb2dVertex
 10
164.1783768519018
 20
80.66529382921954
 30
0.0
  0
SEQEND
  5
3ED
330
3EA
100
AcDbEntity
  8
Visible (ANSI)
  0
POLYLINE
  5
405
330
6C
100
AcDbEntity
  8
Visible (ANSI)
100
AcDb2dPolyline
 66
     1
 10
0.0
 20
0.0
 30
0.0
 70
   128
  0
VERTEX
  5
406
330
405
100
AcDbEntity
  8
Visible (ANSI)
100
AcDbVertex
100
AcDb2dVertex
 10
164.1783768519017
 20
31.87414741913099
 30
0.0
  0
VERTEX
  5
407
330
405
100
AcDbEntity
  8
Visible (ANSI)
100
AcDbVertex
100
AcDb2dVertex
 10
164.1731540754144
 20
31.86960385084426
 30
0.0
  0
VERTEX
  5
409
330
405
100
AcDbEntity
  8
Visible (ANSI)
100
AcDbVertex
100
AcDb2dVertex
 10
164.1676216207057
 20
31.8652635558115
 30
0.0
  0
VERTEX
  5
40A
330
405
100
AcDbEntity
  8
Visible (ANSI)
100
AcDbVertex
100
AcDb2dVertex
 10
164.1618052977941
 20
31.86113651425354
 30
0.0
  0
VERTEX
  5
40B
330
405
100
AcDbEntity
  8
Visible (ANSI)
100
AcDbVertex
100
AcDb2dVertex
 10
164.1557286081627
 20
31.85723379440307
 30
0.0
  0
VERTEX
  5
40C
330
405
100
AcDbEntity
  8
Visible (ANSI)
100
AcDbVertex
100
AcDb2dVertex
 10
164.1494190247845
 20
31.85356388792629
 30
0.0
  0
VERTEX
  5
40D
330
405
100
AcDbEntity
  8
Visible (ANSI)
100
AcDbVertex
100
AcDb2dVertex
 10
164.142901529053
 20
31.85013629787047
 30
0.0
  0
VERTEX
  5
40E
330
405
100
AcDbEntity
  8
Visible (ANSI)
100
AcDbVertex
100
AcDb2dVertex
 10
164.1362048946962
 20
31.84695778999306
 30
0.0
  0
VERTEX
  5
40F
330
405
100
AcDbEntity
  8
Visible (ANSI)
100
AcDbVertex
100
AcDb2dVertex
 10
164.1293573530505
 20
31.84403484648621
 30
0.0
  0
VERTEX
  5
410
330
405
100
AcDbEntity
  8
Visible (ANSI)
100
AcDbVertex
100
AcDb2dVertex
 10
164.122388635067
 20
31.84137236692636
 30
0.0
  0
VERTEX
  5
411
330
405
100
AcDbEntity
  8
Visible (ANSI)
100
AcDbVertex
100
AcDb2dVertex
 10
164.1153277561131
 20
31.8389748100353
 30
0.0
  0
VERTEX
  5
412
330
405
100
AcDbEntity
  8
Visible (ANSI)
100
AcDbVertex
100
AcDb2dVertex
 10
164.1082071953964
 20
31.83684376563235
 30
0.0
  0
VERTEX
  5
413
330
405
100
AcDbEntity
  8
Visible (ANSI)
100
AcDbVertex
100
AcDb2dVertex
 10
164.1010543234786
 20
31.83498277403605
 30
0.0
  0
VERTEX
  5
414
330
405
100
AcDbEntity
  8
Visible (ANSI)
100
AcDbVertex
100
AcDb2dVertex
 10
164.0939019493583
 20
31.83339114001585
 30
0.0
  0
VERTEX
  5
415
330
405
100
AcDbEntity
  8
Visible (ANSI)
100
AcDbVertex
100
AcDb2dVertex
 10
164.0867818698457
 20
31.83206762383063
 30
0.0
  0
VERTEX
  5
416
330
405
100
AcDbEntity
  8
Visible (ANSI)
100
AcDbVertex
100
AcDb2dVertex
 10
164.0797205719123
 20
31.83101278200928
 30
0.0
  0
VERTEX
  5
417
330
405
100
AcDbEntity
  8
Visible (ANSI)
100
AcDbVertex
100
AcDb2dVertex
 10
164.0727519265243
 20
31.83022166727237
 30
0.0
  0
VERTEX
  5
418
330
405
100
AcDbEntity
  8
Visible (ANSI)
100
AcDbVertex
100
AcDb2dVertex
 10
164.0659043537663
 20
31.82969108575921
 30
0.0
  0
VERTEX
  5
419
330
405
100
AcDbEntity
  8
Visible (ANSI)
100
AcDbVertex
100
AcDb2dVertex
 10
164.0592071904997
 20
31.82941589658211
 30
0.0
  0
VERTEX
  5
41A
330
405
100
AcDbEntity
  8
Visible (ANSI)
100
AcDbVertex
100
AcDb2dVertex
 10
164.0526906156934
 20
31.82938902638163
 30
0.0
  0
VERTEX
  5
41B
330
405
100
AcDbEntity
  8
Visible (ANSI)
100
AcDbVertex
100
AcDb2dVertex
 10
164.0463792578749
 20
31.8296050978846
 30
0.0
  0
VERTEX
  5
41C
330
405
100
AcDbEntity
  8
Visible (ANSI)
100
AcDbVertex
100
AcDb2dVertex
 10
164.0403027608807
 20
31.83005425460569
 30
0.0
  0
VERTEX
  5
41D
330
405
100
AcDbEntity
  8
Visible (ANSI)
100
AcDbVertex
100
AcDb2dVertex
 10
164.034487292262
 20
31.8307271131637
 30
0.0
  0
VERTEX
  5
41E
330
405
100
AcDbEntity
  8
Visible (ANSI)
100
AcDbVertex
100
AcDb2dVertex
 10
164.0289554893568
 20
31.83161470344917
 30
0.0
  0
VERTEX
  5
41F
330
405
100
AcDbEntity
  8
Visible (ANSI)
100
AcDbVertex
100
AcDb2dVertex
 10
164.0237328476897
 20
31.83270478012283
 30
0.0
  0
SEQEND
  5
408
330
405
100
AcDbEntity
  8
Visible (ANSI)
  0
LINE
  5
420
330
6C
100
AcDbEntity
  8
Visible (ANSI)
100
AcDbLine
 10
164.1135387139533
 20
80.70430405156988
 30
0.0
 11
164.653481642799
 21
81.01523650501004
 31
0.0
  0
LINE
  5
421
330
6C
100
AcDbEntity
  8
Visible (ANSI)
100
AcDbLine
 10
164.7197729035351
 20
32.18591696143198
 30
0.0
 11
164.1783765965197
 21
31.87414756316684
 31
0.0
  0
LINE
  5
422
330
6C
100
AcDbEntity
  8
Visible (ANSI)
100
AcDbLine
 10
164.1239619765654
 20
80.6966278041823
 30
0.0
 11
164.1783765965198
 21
80.66529250857689
 31
0.0
  0
POLYLINE
  5
423
330
6C
100
AcDbEntity
  8
Visible (ANSI)
100
AcDb2dPolyline
 66
     1
 10
0.0
 20
0.0
 30
0.0
 70
   128
  0
VERTEX
  5
424
330
423
100
AcDbEntity
  8
Visible (ANSI)
100
AcDbVertex
100
AcDb2dVertex
 10
164.0900241074304
 20
80.7449100896985
 30
0.0
  0
VERTEX
  5
425
330
423
100
AcDbEntity
  8
Visible (ANSI)
100
AcDbVertex
100
AcDb2dVertex
 10
164.0905567578995
 20
80.74337002911839
 30
0.0
  0
VERTEX
  5
427
330
423
100
AcDbEntity
  8
Visible (ANSI)
100
AcDbVertex
100
AcDb2dVertex
 10
164.0911118295223
 20
80.74185023753875
 30
0.0
  0
VERTEX
  5
428
330
423
100
AcDbEntity
  8
Visible (ANSI)
100
AcDbVertex
100
AcDb2dVertex
 10
164.0916913641928
 20
80.74033962196104
 30
0.0
  0
VERTEX
  5
429
330
423
100
AcDbEntity
  8
Visible (ANSI)
100
AcDbVertex
100
AcDb2dVertex
 10
164.092290977499
 20
80.73885037260376
 30
0.0
  0
VERTEX
  5
42A
330
423
100
AcDbEntity
  8
Visible (ANSI)
100
AcDbVertex
100
AcDb2dVertex
 10
164.0929083547758
 20
80.7373737800658
 30
0.0
  0
VERTEX
  5
42B
330
423
100
AcDbEntity
  8
Visible (ANSI)
100
AcDbVertex
100
AcDb2dVertex
 10
164.0935453754436
 20
80.73591339177719
 30
0.0
  0
VERTEX
  5
42C
330
423
100
AcDbEntity
  8
Visible (ANSI)
100
AcDbVertex
100
AcDb2dVertex
 10
164.0941996178929
 20
80.73447517074257
 30
0.0
  0
VERTEX
  5
42D
330
423
100
AcDbEntity
  8
Visible (ANSI)
100
AcDbVertex
100
AcDb2dVertex
 10
164.0948686078502
 20
80.73305031564832
 30
0.0
  0
VERTEX
  5
42E
330
423
100
AcDbEntity
  8
Visible (ANSI)
100
AcDbVertex
100
AcDb2dVertex
 10
164.0955498193823
 20
80.73164964075342
 30
0.0
  0
VERTEX
  5
42F
330
423
100
AcDbEntity
  8
Visible (ANSI)
100
AcDbVertex
100
AcDb2dVertex
 10
164.0962449235461
 20
80.73026183950828
 30
0.0
  0
VERTEX
  5
430
330
423
100
AcDbEntity
  8
Visible (ANSI)
100
AcDbVertex
100
AcDb2dVertex
 10
164.096951293423
 20
80.72889766801834
 30
0.0
  0
VERTEX
  5
431
330
423
100
AcDbEntity
  8
Visible (ANSI)
100
AcDbVertex
100
AcDb2dVertex
 10
164.0976662538056
 20
80.72754820925977
 30
0.0
  0
VERTEX
  5
432
330
423
100
AcDbEntity
  8
Visible (ANSI)
100
AcDbVertex
100
AcDb2dVertex
 10
164.0983870813271
 20
80.72622416379713
 30
0.0
  0
VERTEX
  5
433
330
423
100
AcDbEntity
  8
Visible (ANSI)
100
AcDbVertex
100
AcDb2dVertex
 10
164.0991152549904
 20
80.7249141144843
 30
0.0
  0
VERTEX
  5
434
330
423
100
AcDbEntity
  8
Visible (ANSI)
100
AcDbVertex
100
AcDb2dVertex
 10
164.0998479606844
 20
80.72362379829931
 30
0.0
  0
VERTEX
  5
435
330
423
100
AcDbEntity
  8
Visible (ANSI)
100
AcDbVertex
100
AcDb2dVertex
 10
164.1005844649358
 20
80.72235770419332
 30
0.0
  0
VERTEX
  5
436
330
423
100
AcDbEntity
  8
Visible (ANSI)
100
AcDbVertex
100
AcDb2dVertex
 10
164.1013197456944
 20
80.72110800987214
 30
0.0
  0
VERTEX
  5
437
330
423
100
AcDbEntity
  8
Visible (ANSI)
100
AcDbVertex
100
AcDb2dVertex
 10
164.1020551114934
 20
80.71988284534418
 30
0.0
  0
VERTEX
  5
438
330
423
100
AcDbEntity
  8
Visible (ANSI)
100
AcDbVertex
100
AcDb2dVertex
 10
164.1027897101139
 20
80.71867189718851
 30
0.0
  0
VERTEX
  5
439
330
423
100
AcDbEntity
  8
Visible (ANSI)
100
AcDbVertex
100
AcDb2dVertex
 10
164.1035184046496
 20
80.71748692229105
 30
0.0
  0
VERTEX
  5
43A
330
423
100
AcDbEntity
  8
Visible (ANSI)
100
AcDbVertex
100
AcDb2dVertex
 10
164.1042423960368
 20
80.71631634337789
 30
0.0
  0
VERTEX
  5
43B
330
423
100
AcDbEntity
  8
Visible (ANSI)
100
AcDbVertex
100
AcDb2dVertex
 10
164.1049607291265
 20
80.7151645217457
 30
0.0
  0
VERTEX
  5
43C
330
423
100
AcDbEntity
  8
Visible (ANSI)
100
AcDbVertex
100
AcDb2dVertex
 10
164.1056681708235
 20
80.71403824755853
 30
0.0
  0
VERTEX
  5
43D
330
423
100
AcDbEntity
  8
Visible (ANSI)
100
AcDbVertex
100
AcDb2dVertex
 10
164.1063658328753
 20
80.71292589218206
 30
0.0
  0
SEQEND
  5
426
330
423
100
AcDbEntity
  8
Visible (ANSI)
  0
LINE
  5
43E
330
6C
100
AcDbEntity
  8
Visible (ANSI)
100
AcDbLine
 10
164.0900236042106
 20
80.74490960121449
 30
0.0
 11
164.0782353854334
 21
80.73812121749787
 31
0.0
  0
LINE
  5
43F
330
6C
100
AcDbEntity
  8
Visible (ANSI)
100
AcDbLine
 10
164.0782353854334
 20
80.73812121749787
 30
0.0
 11
164.0237323434743
 21
80.70673500304645
 31
0.0
  0
LINE
  5
440
330
6C
100
AcDbEntity
  8
Visible (ANSI)
100
AcDbLine
 10
164.1783765965198
 20
80.66529250857689
 30
0.0
 11
164.7197729035353
 21
80.97706190684203
 31
0.0
  0
LINE
  5
441
330
6C
100
AcDbEntity
  8
Visible (ANSI)
100
AcDbLine
 10
164.653481642799
 20
81.01523650501004
 30
0.0
 11
164.7197729035353
 21
80.97706190684203
 31
0.0
  0
POLYLINE
  5
442
330
6C
100
AcDbEntity
  8
Visible (ANSI)
100
AcDb2dPolyline
 66
     1
 10
0.0
 20
0.0
 30
0.0
 70
   128
  0
VERTEX
  5
443
330
442
100
AcDbEntity
  8
Visible (ANSI)
100
AcDbVertex
100
AcDb2dVertex
 10
145.7936002872137
 20
91.20477063756428
 30
0.0
  0
VERTEX
  5
444
330
442
100
AcDbEntity
  8
Visible (ANSI)
100
AcDbVertex
100
AcDb2dVertex
 10
145.7952593464663
 20
91.20985040078005
 30
0.0
  0
VERTEX
  5
446
330
442
100
AcDbEntity
  8
Visible (ANSI)
100
AcDbVertex
100
AcDb2dVertex
 10
145.797248798017
 20
91.21510078850059
 30
0.0
  0
VERTEX
  5
447
330
442
100
AcDbEntity
  8
Visible (ANSI)
100
AcDbVertex
100
AcDb2dVertex
 10
145.7995665262269
 20
91.22048618398704
 30
0.0
  0
VERTEX
  5
448
330
442
100
AcDbEntity
  8
Visible (ANSI)
100
AcDbVertex
100
AcDb2dVertex
 10
145.8022090008826
 20
91.22598491855866
 30
0.0
  0
VERTEX
  5
449
330
442
100
AcDbEntity
  8
Visible (ANSI)
100
AcDbVertex
100
AcDb2dVertex
 10
145.8051712854929
 20
91.23156960238283
 30
0.0
  0
VERTEX
  5
44A
330
442
100
AcDbEntity
  8
Visible (ANSI)
100
AcDbVertex
100
AcDb2dVertex
 10
145.8084471161069
 20
91.23721205252758
 30
0.0
  0
VERTEX
  5
44B
330
442
100
AcDbEntity
  8
Visible (ANSI)
100
AcDbVertex
100
AcDb2dVertex
 10
145.8120288473859
 20
91.24288331923859
 30
0.0
  0
VERTEX
  5
44C
330
442
100
AcDbEntity
  8
Visible (ANSI)
100
AcDbVertex
100
AcDb2dVertex
 10
145.8159075314211
 20
91.24855370266161
 30
0.0
  0
VERTEX
  5
44D
330
442
100
AcDbEntity
  8
Visible (ANSI)
100
AcDbVertex
100
AcDb2dVertex
 10
145.8200729633655
 20
91.25420257311404
 30
0.0
  0
VERTEX
  5
44E
330
442
100
AcDbEntity
  8
Visible (ANSI)
100
AcDbVertex
100
AcDb2dVertex
 10
145.8245137063231
 20
91.25979388609883
 30
0.0
  0
VERTEX
  5
44F
330
442
100
AcDbEntity
  8
Visible (ANSI)
100
AcDbVertex
100
AcDb2dVertex
 10
145.8292171203878
 20
91.26530563834242
 30
0.0
  0
VERTEX
  5
450
330
442
100
AcDbEntity
  8
Visible (ANSI)
100
AcDbVertex
100
AcDb2dVertex
 10
145.8341694787957
 20
91.27070534936446
 30
0.0
  0
VERTEX
  5
451
330
442
100
AcDbEntity
  8
Visible (ANSI)
100
AcDbVertex
100
AcDb2dVertex
 10
145.8393559596283
 20
91.27596976890968
 30
0.0
  0
VERTEX
  5
452
330
442
100
AcDbEntity
  8
Visible (ANSI)
100
AcDbVertex
100
AcDb2dVertex
 10
145.8447607619659
 20
91.28107504473151
 30
0.0
  0
VERTEX
  5
453
330
442
100
AcDbEntity
  8
Visible (ANSI)
100
AcDbVertex
100
AcDb2dVertex
 10
145.8503671266285
 20
91.28599189009408
 30
0.0
  0
VERTEX
  5
454
330
442
100
AcDbEntity
  8
Visible (ANSI)
100
AcDbVertex
100
AcDb2dVertex
 10
145.8561574336616
 20
91.29069543390466
 30
0.0
  0
VERTEX
  5
455
330
442
100
AcDbEntity
  8
Visible (ANSI)
100
AcDbVertex
100
AcDb2dVertex
 10
145.8621133039693
 20
91.29516033924399
 30
0.0
  0
VERTEX
  5
456
330
442
100
AcDbEntity
  8
Visible (ANSI)
100
AcDbVertex
100
AcDb2dVertex
 10
145.8682156179824
 20
91.29937069410939
 30
0.0
  0
VERTEX
  5
457
330
442
100
AcDbEntity
  8
Visible (ANSI)
100
AcDbVertex
100
AcDb2dVertex
 10
145.8744446318105
 20
91.30329549298457
 30
0.0
  0
VERTEX
  5
458
330
442
100
AcDbEntity
  8
Visible (ANSI)
100
AcDbVertex
100
AcDb2dVertex
 10
145.8807800840614
 20
91.30692304899893
 30
0.0
  0
VERTEX
  5
459
330
442
100
AcDbEntity
  8
Visible (ANSI)
100
AcDbVertex
100
AcDb2dVertex
 10
145.8872012329165
 20
91.31023160462822
 30
0.0
  0
VERTEX
  5
45A
330
442
100
AcDbEntity
  8
Visible (ANSI)
100
AcDbVertex
100
AcDb2dVertex
 10
145.8936869689131
 20
91.31319919063601
 30
0.0
  0
VERTEX
  5
45B
330
442
100
AcDbEntity
  8
Visible (ANSI)
100
AcDbVertex
100
AcDb2dVertex
 10
145.9002159310972
 20
91.31580857562571
 30
0.0
  0
VERTEX
  5
45C
330
442
100
AcDbEntity
  8
Visible (ANSI)
100
AcDbVertex
100
AcDb2dVertex
 10
145.9067665490248
 20
91.31805225889065
 30
0.0
  0
SEQEND
  5
445
330
442
100
AcDbEntity
  8
Visible (ANSI)
  0
POLYLINE
  5
45D
330
6C
100
AcDbEntity
  8
Visible (ANSI)
100
AcDb2dPolyline
 66
     1
 10
0.0
 20
0.0
 30
0.0
 70
   128
  0
VERTEX
  5
45E
330
45D
100
AcDbEntity
  8
Visible (ANSI)
100
AcDbVertex
100
AcDb2dVertex
 10
164.0652093113736
 20
80.86130052252306
 30
0.0
  0
VERTEX
  5
45F
330
45D
100
AcDbEntity
  8
Visible (ANSI)
100
AcDbVertex
100
AcDb2dVertex
 10
164.0616474525825
 20
80.85733572733788
 30
0.0
  0
VERTEX
  5
461
330
45D
100
AcDbEntity
  8
Visible (ANSI)
100
AcDbVertex
100
AcDb2dVertex
 10
164.0581051255994
 20
80.85300645352116
 30
0.0
  0
VERTEX
  5
462
330
45D
100
AcDbEntity
  8
Visible (ANSI)
100
AcDbVertex
100
AcDb2dVertex
 10
164.054606016507
 20
80.84831898346406
 30
0.0
  0
VERTEX
  5
463
330
45D
100
AcDbEntity
  8
Visible (ANSI)
100
AcDbVertex
100
AcDb2dVertex
 10
164.0511715028528
 20
80.84329053900773
 30
0.0
  0
VERTEX
  5
464
330
45D
100
AcDbEntity
  8
Visible (ANSI)
100
AcDbVertex
100
AcDb2dVertex
 10
164.0478226858028
 20
80.83794309416639
 30
0.0
  0
VERTEX
  5
465
330
45D
100
AcDbEntity
  8
Visible (ANSI)
100
AcDbVertex
100
AcDb2dVertex
 10
164.0445824228147
 20
80.83229718814866
 30
0.0
  0
VERTEX
  5
466
330
45D
100
AcDbEntity
  8
Visible (ANSI)
100
AcDbVertex
100
AcDb2dVertex
 10
164.0414667440026
 20
80.82636694445625
 30
0.0
  0
VERTEX
  5
467
330
45D
100
AcDbEntity
  8
Visible (ANSI)
100
AcDbVertex
100
AcDb2dVertex
 10
164.0384975088958
 20
80.82018215028988
 30
0.0
  0
VERTEX
  5
468
330
45D
100
AcDbEntity
  8
Visible (ANSI)
100
AcDbVertex
100
AcDb2dVertex
 10
164.035693828767
 20
80.81375872242999
 30
0.0
  0
VERTEX
  5
469
330
45D
100
AcDbEntity
  8
Visible (ANSI)
100
AcDbVertex
100
AcDb2dVertex
 10
164.0330740993053
 20
80.8071219882404
 30
0.0
  0
VERTEX
  5
46A
330
45D
100
AcDbEntity
  8
Visible (ANSI)
100
AcDbVertex
100
AcDb2dVertex
 10
164.0306559321686
 20
80.80029682359155
 30
0.0
  0
VERTEX
  5
46B
330
45D
100
AcDbEntity
  8
Visible (ANSI)
100
AcDbVertex
100
AcDb2dVertex
 10
164.0284582021759
 20
80.79331129690382
 30
0.0
  0
VERTEX
  5
46C
330
45D
100
AcDbEntity
  8
Visible (ANSI)
100
AcDbVertex
100
AcDb2dVertex
 10
164.026492478969
 20
80.78619169705474
 30
0.0
  0
VERTEX
  5
46D
330
45D
100
AcDbEntity
  8
Visible (ANSI)
100
AcDbVertex
100
AcDb2dVertex
 10
164.0247756918086
 20
80.77896006076185
 30
0.0
  0
VERTEX
  5
46E
330
45D
100
AcDbEntity
  8
Visible (ANSI)
100
AcDbVertex
100
AcDb2dVertex
 10
164.0233215840519
 20
80.77164885895006
 30
0.0
  0
VERTEX
  5
46F
330
45D
100
AcDbEntity
  8
Visible (ANSI)
100
AcDbVertex
100
AcDb2dVertex
 10
164.0221427873084
 20
80.76428009967058
 30
0.0
  0
VERTEX
  5
470
330
45D
100
AcDbEntity
  8
Visible (ANSI)
100
AcDbVertex
100
AcDb2dVertex
 10
164.0212528541131
 20
80.75688860910506
 30
0.0
  0
VERTEX
  5
471
330
45D
100
AcDbEntity
  8
Visible (ANSI)
100
AcDbVertex
100
AcDb2dVertex
 10
164.020657758035
 20
80.749497453567
 30
0.0
  0
VERTEX
  5
472
330
45D
100
AcDbEntity
  8
Visible (ANSI)
100
AcDbVertex
100
AcDb2dVertex
 10
164.020368562622
 20
80.74213511459525
 30
0.0
  0
VERTEX
  5
473
330
45D
100
AcDbEntity
  8
Visible (ANSI)
100
AcDbVertex
100
AcDb2dVertex
 10
164.020392904916
 20
80.73483054672175
 30
0.0
  0
VERTEX
  5
474
330
45D
100
AcDbEntity
  8
Visible (ANSI)
100
AcDbVertex
100
AcDb2dVertex
 10
164.0207370654612
 20
80.72761192332313
 30
0.0
  0
VERTEX
  5
475
330
45D
100
AcDbEntity
  8
Visible (ANSI)
100
AcDbVertex
100
AcDb2dVertex
 10
164.0214059724522
 20
80.72050663900965
 30
0.0
  0
VERTEX
  5
476
330
45D
100
AcDbEntity
  8
Visible (ANSI)
100
AcDbVertex
100
AcDb2dVertex
 10
164.0224052717414
 20
80.71353514414658
 30
0.0
  0
VERTEX
  5
477
330
45D
100
AcDbEntity
  8
Visible (ANSI)
100
AcDbVertex
100
AcDb2dVertex
 10
164.0237328476898
 20
80.70673549210379
 30
0.0
  0
SEQEND
  5
460
330
45D
100
AcDbEntity
  8
Visible (ANSI)
  0
LINE
  5
478
330
6C
100
AcDbEntity
  8
Visible (ANSI)
100
AcDbLine
 10
164.066653618761
 20
80.7854879849861
 30
0.0
 11
164.606606642799
 21
81.09642625186076
 31
0.0
  0
LINE
  5
479
330
6C
100
AcDbEntity
  8
Visible (ANSI)
100
AcDbLine
 10
164.606606642799
 20
81.17307129481474
 30
0.0
 11
164.0652103357836
 21
80.86130189654971
 31
0.0
  0
LINE
  5
47A
330
6C
100
AcDbEntity
  8
Visible (ANSI)
100
AcDbLine
 10
164.0652103357836
 20
80.79828622984372
 30
0.0
 11
164.0652103357836
 21
80.86130189654971
 31
0.0
  0
LINE
  5
47B
330
6C
100
AcDbEntity
  8
Visible (ANSI)
100
AcDbLine
 10
164.606606642799
 20
81.09642625186076
 30
0.0
 11
164.606606642799
 21
81.17307129481474
 31
0.0
  0
POLYLINE
  5
47C
330
6C
100
AcDbEntity
  8
Visible (ANSI)
100
AcDb2dPolyline
 66
     1
 10
0.0
 20
0.0
 30
0.0
 70
   128
  0
VERTEX
  5
47D
330
47C
100
AcDbEntity
  8
Visible (ANSI)
100
AcDbVertex
100
AcDb2dVertex
 10
164.0900241074304
 20
80.7449100896985
 30
0.0
  0
VERTEX
  5
47E
330
47C
100
AcDbEntity
  8
Visible (ANSI)
100
AcDbVertex
100
AcDb2dVertex
 10
164.0889595620187
 20
80.7461364575858
 30
0.0
  0
VERTEX
  5
480
330
47C
100
AcDbEntity
  8
Visible (ANSI)
100
AcDbVertex
100
AcDb2dVertex
 10
164.0879174452349
 20
80.74738309877767
 30
0.0
  0
VERTEX
  5
481
330
47C
100
AcDbEntity
  8
Visible (ANSI)
100
AcDbVertex
100
AcDb2dVertex
 10
164.08690192285
 20
80.74863278581823
 30
0.0
  0
VERTEX
  5
482
330
47C
100
AcDbEntity
  8
Visible (ANSI)
100
AcDbVertex
100
AcDb2dVertex
 10
164.0859107343207
 20
80.74989648579427
 30
0.0
  0
VERTEX
  5
483
330
47C
100
AcDbEntity
  8
Visible (ANSI)
100
AcDbVertex
100
AcDb2dVertex
 10
164.0849436887881
 20
80.7511691774671
 30
0.0
  0
VERTEX
  5
484
330
47C
100
AcDbEntity
  8
Visible (ANSI)
100
AcDbVertex
100
AcDb2dVertex
 10
164.0840005415992
 20
80.75245071995039
 30
0.0
  0
VERTEX
  5
485
330
47C
100
AcDbEntity
  8
Visible (ANSI)
100
AcDbVertex
100
AcDb2dVertex
 10
164.0830788709014
 20
80.75373234211772
 30
0.0
  0
VERTEX
  5
486
330
47C
100
AcDbEntity
  8
Visible (ANSI)
100
AcDbVertex
100
AcDb2dVertex
 10
164.0821825741958
 20
80.75502121867851
 30
0.0
  0
VERTEX
  5
487
330
47C
100
AcDbEntity
  8
Visible (ANSI)
100
AcDbVertex
100
AcDb2dVertex
 10
164.0813091250954
 20
80.75631342963946
 30
0.0
  0
VERTEX
  5
488
330
47C
100
AcDbEntity
  8
Visible (ANSI)
100
AcDbVertex
100
AcDb2dVertex
 10
164.0804580704623
 20
80.75760871405563
 30
0.0
  0
VERTEX
  5
489
330
47C
100
AcDbEntity
  8
Visible (ANSI)
100
AcDbVertex
100
AcDb2dVertex
 10
164.0796289073134
 20
80.7589018709481
 30
0.0
  0
VERTEX
  5
48A
330
47C
100
AcDbEntity
  8
Visible (ANSI)
100
AcDbVertex
100
AcDb2dVertex
 10
164.0788189596636
 20
80.76019380550588
 30
0.0
  0
VERTEX
  5
48B
330
47C
100
AcDbEntity
  8
Visible (ANSI)
100
AcDbVertex
100
AcDb2dVertex
 10
164.0780318759532
 20
80.76147681502281
 30
0.0
  0
VERTEX
  5
48C
330
47C
100
AcDbEntity
  8
Visible (ANSI)
100
AcDbVertex
100
AcDb2dVertex
 10
164.0772648866655
 20
80.7627615734874
 30
0.0
  0
VERTEX
  5
48D
330
47C
100
AcDbEntity
  8
Visible (ANSI)
100
AcDbVertex
100
AcDb2dVertex
 10
164.0765173014953
 20
80.76403786071871
 30
0.0
  0
VERTEX
  5
48E
330
47C
100
AcDbEntity
  8
Visible (ANSI)
100
AcDbVertex
100
AcDb2dVertex
 10
164.0757862623856
 20
80.7653064770575
 30
0.0
  0
VERTEX
  5
48F
330
47C
100
AcDbEntity
  8
Visible (ANSI)
100
AcDbVertex
100
AcDb2dVertex
 10
164.0750752425104
 20
80.7665645301988
 30
0.0
  0
VERTEX
  5
490
330
47C
100
AcDbEntity
  8
Visible (ANSI)
100
AcDbVertex
100
AcDb2dVertex
 10
164.0743813025314
 20
80.76781277367681
 30
0.0
  0
VERTEX
  5
491
330
47C
100
AcDbEntity
  8
Visible (ANSI)
100
AcDbVertex
100
AcDb2dVertex
 10
164.0737035891929
 20
80.76905071613406
 30
0.0
  0
VERTEX
  5
492
330
47C
100
AcDbEntity
  8
Visible (ANSI)
100
AcDbVertex
100
AcDb2dVertex
 10
164.0730412132004
 20
80.77027293412967
 30
0.0
  0
VERTEX
  5
493
330
47C
100
AcDbEntity
  8
Visible (ANSI)
100
AcDbVertex
100
AcDb2dVertex
 10
164.0723911271003
 20
80.7714850302686
 30
0.0
  0
VERTEX
  5
494
330
47C
100
AcDbEntity
  8
Visible (ANSI)
100
AcDbVertex
100
AcDb2dVertex
 10
164.0717566230966
 20
80.77267418537148
 30
0.0
  0
VERTEX
  5
495
330
47C
100
AcDbEntity
  8
Visible (ANSI)
100
AcDbVertex
100
AcDb2dVertex
 10
164.0711345915111
 20
80.77385087754082
 30
0.0
  0
VERTEX
  5
496
330
47C
100
AcDbEntity
  8
Visible (ANSI)
100
AcDbVertex
100
AcDb2dVertex
 10
164.0705240191185
 20
80.77500961196871
 30
0.0
  0
SEQEND
  5
47F
330
47C
100
AcDbEntity
  8
Visible (ANSI)
  0
LINE
  5
497
330
6C
100
AcDbEntity
  8
Visible (ANSI)
100
AcDbLine
 10
145.9067665464032
 20
91.31805422434551
 30
0.0
 11
146.4481628534185
 21
91.62982362261054
 31
0.0
  0
POLYLINE
  5
498
330
6C
100
AcDbEntity
  8
Visible (ANSI)
100
AcDb2dPolyline
 66
     1
 10
0.0
 20
0.0
 30
0.0
 70
   128
  0
VERTEX
  5
499
330
498
100
AcDbEntity
  8
Visible (ANSI)
100
AcDbVertex
100
AcDb2dVertex
 10
145.7936002872136
 20
42.33073992558331
 30
0.0
  0
VERTEX
  5
49A
330
498
100
AcDbEntity
  8
Visible (ANSI)
100
AcDbVertex
100
AcDb2dVertex
 10
145.791111781301
 20
42.33308402929319
 30
0.0
  0
VERTEX
  5
49C
330
498
100
AcDbEntity
  8
Visible (ANSI)
100
AcDbVertex
100
AcDb2dVertex
 10
145.7887087306127
 20
42.33547422832838
 30
0.0
  0
VERTEX
  5
49D
330
498
100
AcDbEntity
  8
Visible (ANSI)
100
AcDbVertex
100
AcDb2dVertex
 10
145.7863937236954
 20
42.33790887912038
 30
0.0
  0
VERTEX
  5
49E
330
498
100
AcDbEntity
  8
Visible (ANSI)
100
AcDbVertex
100
AcDb2dVertex
 10
145.7841692246462
 20
42.34038631910091
 30
0.0
  0
VERTEX
  5
49F
330
498
100
AcDbEntity
  8
Visible (ANSI)
100
AcDbVertex
100
AcDb2dVertex
 10
145.7820376270412
 20
42.34290480198072
 30
0.0
  0
VERTEX
  5
4A0
330
498
100
AcDbEntity
  8
Visible (ANSI)
100
AcDbVertex
100
AcDb2dVertex
 10
145.7800012083036
 20
42.34546256717446
 30
0.0
  0
VERTEX
  5
4A1
330
498
100
AcDbEntity
  8
Visible (ANSI)
100
AcDbVertex
100
AcDb2dVertex
 10
145.7780621545937
 20
42.3480577919866
 30
0.0
  0
VERTEX
  5
4A2
330
498
100
AcDbEntity
  8
Visible (ANSI)
100
AcDbVertex
100
AcDb2dVertex
 10
145.776222535919
 20
42.35068862505534
 30
0.0
  0
VERTEX
  5
4A3
330
498
100
AcDbEntity
  8
Visible (ANSI)
100
AcDbVertex
100
AcDb2dVertex
 10
145.7744843227278
 20
42.35335316242707
 30
0.0
  0
VERTEX
  5
4A4
330
498
100
AcDbEntity
  8
Visible (ANSI)
100
AcDbVertex
100
AcDb2dVertex
 10
145.7728493776121
 20
42.35604949548156
 30
0.0
  0
VERTEX
  5
4A5
330
498
100
AcDbEntity
  8
Visible (ANSI)
100
AcDbVertex
100
AcDb2dVertex
 10
145.7713194511594
 20
42.35877565576617
 30
0.0
  0
VERTEX
  5
4A6
330
498
100
AcDbEntity
  8
Visible (ANSI)
100
AcDbVertex
100
AcDb2dVertex
 10
145.7698961861014
 20
42.36152964142129
 30
0.0
  0
VERTEX
  5
4A7
330
498
100
AcDbEntity
  8
Visible (ANSI)
100
AcDbVertex
100
AcDb2dVertex
 10
145.7685810965718
 20
42.36430943386536
 30
0.0
  0
VERTEX
  5
4A8
330
498
100
AcDbEntity
  8
Visible (ANSI)
100
AcDbVertex
100
AcDb2dVertex
 10
145.7673756012932
 20
42.36711297868399
 30
0.0
  0
VERTEX
  5
4A9
330
498
100
AcDbEntity
  8
Visible (ANSI)
100
AcDbVertex
100
AcDb2dVertex
 10
145.7662809862423
 20
42.36993818798184
 30
0.0
  0
VERTEX
  5
4AA
330
498
100
AcDbEntity
  8
Visible (ANSI)
100
AcDbVertex
100
AcDb2dVertex
 10
145.7652984253915
 20
42.3727829811412
 30
0.0
  0
VERTEX
  5
4AB
330
498
100
AcDbEntity
  8
Visible (ANSI)
100
AcDbVertex
100
AcDb2dVertex
 10
145.7644289641152
 20
42.37564522726734
 30
0.0
  0
VERTEX
  5
4AC
330
498
100
AcDbEntity
  8
Visible (ANSI)
100
AcDbVertex
100
AcDb2dVertex
 10
145.763673539932
 20
42.37852278116942
 30
0.0
  0
VERTEX
  5
4AD
330
498
100
AcDbEntity
  8
Visible (ANSI)
100
AcDbVertex
100
AcDb2dVertex
 10
145.7630329638369
 20
42.38141349407333
 30
0.0
  0
VERTEX
  5
4AE
330
498
100
AcDbEntity
  8
Visible (ANSI)
100
AcDbVertex
100
AcDb2dVertex
 10
145.762507918227
 20
42.38431519092761
 30
0.0
  0
VERTEX
  5
4AF
330
498
100
AcDbEntity
  8
Visible (ANSI)
100
AcDbVertex
100
AcDb2dVertex
 10
145.7620989610505
 20
42.38722567753286
 30
0.0
  0
VERTEX
  5
4B0
330
498
100
AcDbEntity
  8
Visible (ANSI)
100
AcDbVertex
100
AcDb2dVertex
 10
145.7618065403249
 20
42.39014278488379
 30
0.0
  0
VERTEX
  5
4B1
330
498
100
AcDbEntity
  8
Visible (ANSI)
100
AcDbVertex
100
AcDb2dVertex
 10
145.7616309609513
 20
42.39306430205908
 30
0.0
  0
VERTEX
  5
4B2
330
498
100
AcDbEntity
  8
Visible (ANSI)
100
AcDbVertex
100
AcDb2dVertex
 10
145.7615724096035
 20
42.39598802414653
 30
0.0
  0
SEQEND
  5
49B
330
498
100
AcDbEntity
  8
Visible (ANSI)
  0
POLYLINE
  5
4B3
330
6C
100
AcDbEntity
  8
Visible (ANSI)
100
AcDb2dPolyline
 66
     1
 10
0.0
 20
0.0
 30
0.0
 70
   128
  0
VERTEX
  5
4B4
330
4B3
100
AcDbEntity
  8
Visible (ANSI)
100
AcDbVertex
100
AcDb2dVertex
 10
145.7936002861766
 20
91.25238253458995
 30
0.0
  0
VERTEX
  5
4B5
330
4B3
100
AcDbEntity
  8
Visible (ANSI)
100
AcDbVertex
100
AcDb2dVertex
 10
145.788708729284
 20
91.25109888045761
 30
0.0
  0
VERTEX
  5
4B7
330
4B3
100
AcDbEntity
  8
Visible (ANSI)
100
AcDbVertex
100
AcDb2dVertex
 10
145.7841692244519
 20
91.2496423457839
 30
0.0
  0
VERTEX
  5
4B8
330
4B3
100
AcDbEntity
  8
Visible (ANSI)
100
AcDbVertex
100
AcDb2dVertex
 10
145.7800012099889
 20
91.24801674776014
 30
0.0
  0
VERTEX
  5
4B9
330
4B3
100
AcDbEntity
  8
Visible (ANSI)
100
AcDbVertex
100
AcDb2dVertex
 10
145.7762225341042
 20
91.24624625196858
 30
0.0
  0
VERTEX
  5
4BA
330
4B3
100
AcDbEntity
  8
Visible (ANSI)
100
AcDbVertex
100
AcDb2dVertex
 10
145.7728493781307
 20
91.24434093157573
 30
0.0
  0
VERTEX
  5
4BB
330
4B3
100
AcDbEntity
  8
Visible (ANSI)
100
AcDbVertex
100
AcDb2dVertex
 10
145.769896185583
 20
91.24231143706685
 30
0.0
  0
VERTEX
  5
4BC
330
4B3
100
AcDbEntity
  8
Visible (ANSI)
100
AcDbVertex
100
AcDb2dVertex
 10
145.7673756023304
 20
91.24018366346117
 30
0.0
  0
VERTEX
  5
4BD
330
4B3
100
AcDbEntity
  8
Visible (ANSI)
100
AcDbVertex
100
AcDb2dVertex
 10
145.7652984222804
 20
91.23796430224512
 30
0.0
  0
VERTEX
  5
4BE
330
4B3
100
AcDbEntity
  8
Visible (ANSI)
100
AcDbVertex
100
AcDb2dVertex
 10
145.7636735430433
 20
91.23568006318647
 30
0.0
  0
VERTEX
  5
4BF
330
4B3
100
AcDbEntity
  8
Visible (ANSI)
100
AcDbVertex
100
AcDb2dVertex
 10
145.7625079171901
 20
91.23334321798109
 30
0.0
  0
VERTEX
  5
4C0
330
4B3
100
AcDbEntity
  8
Visible (ANSI)
100
AcDbVertex
100
AcDb2dVertex
 10
145.7618065382509
 20
91.23096626347445
 30
0.0
  0
VERTEX
  5
4C1
330
4B3
100
AcDbEntity
  8
Visible (ANSI)
100
AcDbVertex
100
AcDb2dVertex
 10
145.7615724096036
 20
91.22857658518128
 30
0.0
  0
VERTEX
  5
4C2
330
4B3
100
AcDbEntity
  8
Visible (ANSI)
100
AcDbVertex
100
AcDb2dVertex
 10
145.7618065403251
 20
91.22618199675217
 30
0.0
  0
VERTEX
  5
4C3
330
4B3
100
AcDbEntity
  8
Visible (ANSI)
100
AcDbVertex
100
AcDb2dVertex
 10
145.7625079182272
 20
91.22380995536753
 30
0.0
  0
VERTEX
  5
4C4
330
4B3
100
AcDbEntity
  8
Visible (ANSI)
100
AcDbVertex
100
AcDb2dVertex
 10
145.7636735399321
 20
91.2214731077733
 30
0.0
  0
VERTEX
  5
4C5
330
4B3
100
AcDbEntity
  8
Visible (ANSI)
100
AcDbVertex
100
AcDb2dVertex
 10
145.7652984253916
 20
91.21918395857873
 30
0.0
  0
VERTEX
  5
4C6
330
4B3
100
AcDbEntity
  8
Visible (ANSI)
100
AcDbVertex
100
AcDb2dVertex
 10
145.7673756012933
 20
91.21696950869305
 30
0.0
  0
VERTEX
  5
4C7
330
4B3
100
AcDbEntity
  8
Visible (ANSI)
100
AcDbVertex
100
AcDb2dVertex
 10
145.7698961861015
 20
91.21483682226395
 30
0.0
  0
VERTEX
  5
4C8
330
4B3
100
AcDbEntity
  8
Visible (ANSI)
100
AcDbVertex
100
AcDb2dVertex
 10
145.7728493776122
 20
91.21281223848823
 30
0.0
  0
VERTEX
  5
4C9
330
4B3
100
AcDbEntity
  8
Visible (ANSI)
100
AcDbVertex
100
AcDb2dVertex
 10
145.7762225359191
 20
91.21090200930316
 30
0.0
  0
VERTEX
  5
4CA
330
4B3
100
AcDbEntity
  8
Visible (ANSI)
100
AcDbVertex
100
AcDb2dVertex
 10
145.7800012083037
 20
91.2091315135863
 30
0.0
  0
VERTEX
  5
4CB
330
4B3
100
AcDbEntity
  8
Visible (ANSI)
100
AcDbVertex
100
AcDb2dVertex
 10
145.7841692246464
 20
91.20751082767672
 30
0.0
  0
VERTEX
  5
4CC
330
4B3
100
AcDbEntity
  8
Visible (ANSI)
100
AcDbVertex
100
AcDb2dVertex
 10
145.7887087306128
 20
91.20604937814535
 30
0.0
  0
VERTEX
  5
4CD
330
4B3
100
AcDbEntity
  8
Visible (ANSI)
100
AcDbVertex
100
AcDb2dVertex
 10
145.7936002872137
 20
91.20477063756428
 30
0.0
  0
SEQEND
  5
4B6
330
4B3
100
AcDbEntity
  8
Visible (ANSI)
  0
LINE
  5
4CE
330
6C
100
AcDbEntity
  8
Visible (ANSI)
100
AcDbLine
 10
146.2396944856339
 20
42.64177549022281
 30
0.0
 11
146.4012878534184
 21
42.7348309218632
 31
0.0
  0
LINE
  5
4CF
330
6C
100
AcDbEntity
  8
Visible (ANSI)
100
AcDbLine
 10
145.8471614208141
 20
91.28322487356868
 30
0.0
 11
145.7936002856669
 21
91.25238106717612
 31
0.0
  0
LINE
  5
4D0
330
6C
100
AcDbEntity
  8
Visible (ANSI)
100
AcDbLine
 10
145.8115003929893
 20
91.24207308092561
 30
0.0
 11
145.7936002856669
 21
91.25238106717612
 31
0.0
  0
POLYLINE
  5
4D1
330
6C
100
AcDbEntity
  8
Visible (ANSI)
100
AcDb2dPolyline
 66
     1
 10
0.0
 20
0.0
 30
0.0
 70
   128
  0
VERTEX
  5
4D2
330
4D1
100
AcDbEntity
  8
Visible (ANSI)
100
AcDbVertex
100
AcDb2dVertex
 10
164.0237328476897
 20
31.83270478012283
 30
0.0
  0
VERTEX
  5
4D3
330
4D1
100
AcDbEntity
  8
Visible (ANSI)
100
AcDbVertex
100
AcDb2dVertex
 10
164.0224052717413
 20
31.82781299104729
 30
0.0
  0
VERTEX
  5
4D5
330
4D1
100
AcDbEntity
  8
Visible (ANSI)
100
AcDbVertex
100
AcDb2dVertex
 10
164.0214059724521
 20
31.82313772159121
 30
0.0
  0
VERTEX
  5
4D6
330
4D1
100
AcDbEntity
  8
Visible (ANSI)
100
AcDbVertex
100
AcDb2dVertex
 10
164.0207370654611
 20
31.81870023804675
 30
0.0
  0
VERTEX
  5
4D7
330
4D1
100
AcDbEntity
  8
Visible (ANSI)
100
AcDbVertex
100
AcDb2dVertex
 10
164.0203929049159
 20
31.81452445029728
 30
0.0
  0
VERTEX
  5
4D8
330
4D1
100
AcDbEntity
  8
Visible (ANSI)
100
AcDbVertex
100
AcDb2dVertex
 10
164.0203685626218
 20
31.81063191396463
 30
0.0
  0
VERTEX
  5
4D9
330
4D1
100
AcDbEntity
  8
Visible (ANSI)
100
AcDbVertex
100
AcDb2dVertex
 10
164.0206577580349
 20
31.80704298383681
 30
0.0
  0
VERTEX
  5
4DA
330
4D1
100
AcDbEntity
  8
Visible (ANSI)
100
AcDbVertex
100
AcDb2dVertex
 10
164.021252854113
 20
31.80377670596228
 30
0.0
  0
VERTEX
  5
4DB
330
4D1
100
AcDbEntity
  8
Visible (ANSI)
100
AcDbVertex
100
AcDb2dVertex
 10
164.0221427873083
 20
31.80085198067008
 30
0.0
  0
VERTEX
  5
4DC
330
4D1
100
AcDbEntity
  8
Visible (ANSI)
100
AcDbVertex
100
AcDb2dVertex
 10
164.0233215840517
 20
31.79828256223568
 30
0.0
  0
VERTEX
  5
4DD
330
4D1
100
AcDbEntity
  8
Visible (ANSI)
100
AcDbVertex
100
AcDb2dVertex
 10
164.0247756918085
 20
31.79608436849637
 30
0.0
  0
VERTEX
  5
4DE
330
4D1
100
AcDbEntity
  8
Visible (ANSI)
100
AcDbVertex
100
AcDb2dVertex
 10
164.0264924789689
 20
31.79427048774843
 30
0.0
  0
VERTEX
  5
4DF
330
4D1
100
AcDbEntity
  8
Visible (ANSI)
100
AcDbVertex
100
AcDb2dVertex
 10
164.0284582021758
 20
31.79285236806324
 30
0.0
  0
VERTEX
  5
4E0
330
4D1
100
AcDbEntity
  8
Visible (ANSI)
100
AcDbVertex
100
AcDb2dVertex
 10
164.0306559321685
 20
31.79184099470525
 30
0.0
  0
VERTEX
  5
4E1
330
4D1
100
AcDbEntity
  8
Visible (ANSI)
100
AcDbVertex
100
AcDb2dVertex
 10
164.0330740993052
 20
31.79124193409816
 30
0.0
  0
VERTEX
  5
4E2
330
4D1
100
AcDbEntity
  8
Visible (ANSI)
100
AcDbVertex
100
AcDb2dVertex
 10
164.0356938287669
 20
31.79106265781961
 30
0.0
  0
VERTEX
  5
4E3
330
4D1
100
AcDbEntity
  8
Visible (ANSI)
100
AcDbVertex
100
AcDb2dVertex
 10
164.0384975088957
 20
31.79130761289567
 30
0.0
  0
VERTEX
  5
4E4
330
4D1
100
AcDbEntity
  8
Visible (ANSI)
100
AcDbVertex
100
AcDb2dVertex
 10
164.0414667440024
 20
31.79197943632941
 30
0.0
  0
VERTEX
  5
4E5
330
4D1
100
AcDbEntity
  8
Visible (ANSI)
100
AcDbVertex
100
AcDb2dVertex
 10
164.0445824228146
 20
31.79307893156658
 30
0.0
  0
VERTEX
  5
4E6
330
4D1
100
AcDbEntity
  8
Visible (ANSI)
100
AcDbVertex
100
AcDb2dVertex
 10
164.0478226858027
 20
31.79460629498232
 30
0.0
  0
VERTEX
  5
4E7
330
4D1
100
AcDbEntity
  8
Visible (ANSI)
100
AcDbVertex
100
AcDb2dVertex
 10
164.0511715028527
 20
31.79655622722249
 30
0.0
  0
VERTEX
  5
4E8
330
4D1
100
AcDbEntity
  8
Visible (ANSI)
100
AcDbVertex
100
AcDb2dVertex
 10
164.0546060165069
 20
31.79892528415913
 30
0.0
  0
VERTEX
  5
4E9
330
4D1
100
AcDbEntity
  8
Visible (ANSI)
100
AcDbVertex
100
AcDb2dVertex
 10
164.0581051255993
 20
31.80170700268209
 30
0.0
  0
VERTEX
  5
4EA
330
4D1
100
AcDbEntity
  8
Visible (ANSI)
100
AcDbVertex
100
AcDb2dVertex
 10
164.0616474525824
 20
31.80489315285297
 30
0.0
  0
VERTEX
  5
4EB
330
4D1
100
AcDbEntity
  8
Visible (ANSI)
100
AcDbVertex
100
AcDb2dVertex
 10
164.0652093113734
 20
31.808474996503
 30
0.0
  0
SEQEND
  5
4D4
330
4D1
100
AcDbEntity
  8
Visible (ANSI)
  0
POLYLINE
  5
4EC
330
6C
100
AcDbEntity
  8
Visible (ANSI)
100
AcDb2dPolyline
 66
     1
 10
0.0
 20
0.0
 30
0.0
 70
   128
  0
VERTEX
  5
4ED
330
4EC
100
AcDbEntity
  8
Visible (ANSI)
100
AcDbVertex
100
AcDb2dVertex
 10
145.8343194278244
 20
42.27015983574351
 30
0.0
  0
VERTEX
  5
4EE
330
4EC
100
AcDbEntity
  8
Visible (ANSI)
100
AcDbVertex
100
AcDb2dVertex
 10
145.8318034186041
 20
42.27167660471381
 30
0.0
  0
VERTEX
  5
4F0
330
4EC
100
AcDbEntity
  8
Visible (ANSI)
100
AcDbVertex
100
AcDb2dVertex
 10
145.8293480245168
 20
42.27329417965798
 30
0.0
  0
VERTEX
  5
4F1
330
4EC
100
AcDbEntity
  8
Visible (ANSI)
100
AcDbVertex
100
AcDb2dVertex
 10
145.8269550998578
 20
42.27501128071758
 30
0.0
  0
VERTEX
  5
4F2
330
4EC
100
AcDbEntity
  8
Visible (ANSI)
100
AcDbVertex
100
AcDb2dVertex
 10
145.8246264076596
 20
42.27682652500797
 30
0.0
  0
VERTEX
  5
4F3
330
4EC
100
AcDbEntity
  8
Visible (ANSI)
100
AcDbVertex
100
AcDb2dVertex
 10
145.822363632137
 20
42.27873842670162
 30
0.0
  0
VERTEX
  5
4F4
330
4EC
100
AcDbEntity
  8
Visible (ANSI)
100
AcDbVertex
100
AcDb2dVertex
 10
145.8201684284662
 20
42.28074538503761
 30
0.0
  0
VERTEX
  5
4F5
330
4EC
100
AcDbEntity
  8
Visible (ANSI)
100
AcDbVertex
100
AcDb2dVertex
 10
145.8180423315227
 20
42.28284571064523
 30
0.0
  0
VERTEX
  5
4F6
330
4EC
100
AcDbEntity
  8
Visible (ANSI)
100
AcDbVertex
100
AcDb2dVertex
 10
145.8159868429955
 20
42.28503760166473
 30
0.0
  0
VERTEX
  5
4F7
330
4EC
100
AcDbEntity
  8
Visible (ANSI)
100
AcDbVertex
100
AcDb2dVertex
 10
145.8140033525689
 20
42.28731917480246
 30
0.0
  0
VERTEX
  5
4F8
330
4EC
100
AcDbEntity
  8
Visible (ANSI)
100
AcDbVertex
100
AcDb2dVertex
 10
145.8120932042959
 20
42.28968842231291
 30
0.0
  0
VERTEX
  5
4F9
330
4EC
100
AcDbEntity
  8
Visible (ANSI)
100
AcDbVertex
100
AcDb2dVertex
 10
145.810257638522
 20
42.29214326222953
 30
0.0
  0
VERTEX
  5
4FA
330
4EC
100
AcDbEntity
  8
Visible (ANSI)
100
AcDbVertex
100
AcDb2dVertex
 10
145.8084978209226
 20
42.29468153121657
 30
0.0
  0
VERTEX
  5
4FB
330
4EC
100
AcDbEntity
  8
Visible (ANSI)
100
AcDbVertex
100
AcDb2dVertex
 10
145.8068148508005
 20
42.29730094629198
 30
0.0
  0
VERTEX
  5
4FC
330
4EC
100
AcDbEntity
  8
Visible (ANSI)
100
AcDbVertex
100
AcDb2dVertex
 10
145.8052097196021
 20
42.29999916221539
 30
0.0
  0
VERTEX
  5
4FD
330
4EC
100
AcDbEntity
  8
Visible (ANSI)
100
AcDbVertex
100
AcDb2dVertex
 10
145.8036833689943
 20
42.30277372848876
 30
0.0
  0
VERTEX
  5
4FE
330
4EC
100
AcDbEntity
  8
Visible (ANSI)
100
AcDbVertex
100
AcDb2dVertex
 10
145.8022366161945
 20
42.30562213718896
 30
0.0
  0
VERTEX
  5
4FF
330
4EC
100
AcDbEntity
  8
Visible (ANSI)
100
AcDbVertex
100
AcDb2dVertex
 10
145.8008702286404
 20
42.30854177513523
 30
0.0
  0
VERTEX
  5
500
330
4EC
100
AcDbEntity
  8
Visible (ANSI)
100
AcDbVertex
100
AcDb2dVertex
 10
145.7995848617652
 20
42.31152996453665
 30
0.0
  0
VERTEX
  5
501
330
4EC
100
AcDbEntity
  8
Visible (ANSI)
100
AcDbVertex
100
AcDb2dVertex
 10
145.7983810880361
 20
42.31458396543652
 30
0.0
  0
VERTEX
  5
502
330
4EC
100
AcDbEntity
  8
Visible (ANSI)
100
AcDbVertex
100
AcDb2dVertex
 10
145.7972594135469
 20
42.31770094700921
 30
0.0
  0
VERTEX
  5
503
330
4EC
100
AcDbEntity
  8
Visible (ANSI)
100
AcDbVertex
100
AcDb2dVertex
 10
145.7962202199426
 20
42.32087802100395
 30
0.0
  0
VERTEX
  5
504
330
4EC
100
AcDbEntity
  8
Visible (ANSI)
100
AcDbVertex
100
AcDb2dVertex
 10
145.7952638390879
 20
42.32411222268967
 30
0.0
  0
VERTEX
  5
505
330
4EC
100
AcDbEntity
  8
Visible (ANSI)
100
AcDbVertex
100
AcDb2dVertex
 10
145.7943904783985
 20
42.32740055389131
 30
0.0
  0
VERTEX
  5
506
330
4EC
100
AcDbEntity
  8
Visible (ANSI)
100
AcDbVertex
100
AcDb2dVertex
 10
145.7936002872136
 20
42.33073992558331
 30
0.0
  0
SEQEND
  5
4EF
330
4EC
100
AcDbEntity
  8
Visible (ANSI)
  0
LINE
  5
507
330
6C
100
AcDbEntity
  8
Visible (ANSI)
100
AcDbLine
 10
146.2868248356497
 20
42.56073278966646
 30
0.0
 11
146.4481628534184
 21
42.65364117501241
 31
0.0
  0
LINE
  5
508
330
6C
100
AcDbEntity
  8
Visible (ANSI)
100
AcDbLine
 10
164.0652103357835
 20
31.82965076101067
 30
0.0
 11
164.0652103357835
 21
31.80847440599748
 31
0.0
  0
LINE
  5
509
330
6C
100
AcDbEntity
  8
Visible (ANSI)
100
AcDbLine
 10
164.0652103357835
 20
31.80847440599748
 30
0.0
 11
164.1222594641376
 21
31.84132681409121
 31
0.0
  0
LINE
  5
50A
330
6C
100
AcDbEntity
  8
Visible (ANSI)
100
AcDbLine
 10
164.1768302039345
 20
31.87275201313469
 30
0.0
 11
164.6066066427989
 21
32.12024380426262
 31
0.0
  0
LINE
  5
50B
330
6C
100
AcDbEntity
  8
Visible (ANSI)
100
AcDbLine
 10
164.6066066427989
 20
32.12074884603022
 30
0.0
 11
164.6066066427989
 21
32.12024380426262
 31
0.0
  0
POLYLINE
  5
50C
330
6C
100
AcDbEntity
  8
Visible (ANSI)
100
AcDb2dPolyline
 66
     1
 10
0.0
 20
0.0
 30
0.0
 70
   128
  0
VERTEX
  5
50D
330
50C
100
AcDbEntity
  8
Visible (ANSI)
100
AcDbVertex
100
AcDb2dVertex
 10
164.1063658328753
 20
80.71292589218206
 30
0.0
  0
VERTEX
  5
50E
330
50C
100
AcDbEntity
  8
Visible (ANSI)
100
AcDbVertex
100
AcDb2dVertex
 10
164.1099784784113
 20
80.70803817518431
 30
0.0
  0
VERTEX
  5
510
330
50C
100
AcDbEntity
  8
Visible (ANSI)
100
AcDbVertex
100
AcDb2dVertex
 10
164.1142496383801
 20
80.70364953456246
 30
0.0
  0
VERTEX
  5
511
330
50C
100
AcDbEntity
  8
Visible (ANSI)
100
AcDbVertex
100
AcDb2dVertex
 10
164.1189952392208
 20
80.69982762968088
 30
0.0
  0
VERTEX
  5
512
330
50C
100
AcDbEntity
  8
Visible (ANSI)
100
AcDbVertex
100
AcDb2dVertex
 10
164.1239616199598
 20
80.69662947724516
 30
0.0
  0
SEQEND
  5
50F
330
50C
100
AcDbEntity
  8
Visible (ANSI)
  0
POLYLINE
  5
513
330
6C
100
AcDbEntity
  8
Visible (ANSI)
100
AcDb2dPolyline
 66
     1
 10
0.0
 20
0.0
 30
0.0
 70
   128
  0
VERTEX
  5
514
330
513
100
AcDbEntity
  8
Visible (ANSI)
100
AcDbVertex
100
AcDb2dVertex
 10
164.0652093113736
 20
80.79828815394252
 30
0.0
  0
VERTEX
  5
515
330
513
100
AcDbEntity
  8
Visible (ANSI)
100
AcDbVertex
100
AcDb2dVertex
 10
164.0655035563193
 20
80.79240571750679
 30
0.0
  0
VERTEX
  5
517
330
513
100
AcDbEntity
  8
Visible (ANSI)
100
AcDbVertex
100
AcDb2dVertex
 10
164.0664416690456
 20
80.78642501833781
 30
0.0
  0
VERTEX
  5
518
330
513
100
AcDbEntity
  8
Visible (ANSI)
100
AcDbVertex
100
AcDb2dVertex
 10
164.0681061309558
 20
80.78054582451562
 30
0.0
  0
VERTEX
  5
519
330
513
100
AcDbEntity
  8
Visible (ANSI)
100
AcDbVertex
100
AcDb2dVertex
 10
164.0705240191185
 20
80.77500961196871
 30
0.0
  0
SEQEND
  5
516
330
513
100
AcDbEntity
  8
Visible (ANSI)
  0
LINE
  5
51A
330
6C
100
AcDbEntity
  8
Visible (ANSI)
100
AcDbLine
 10
164.7197729035353
 20
80.97706190684203
 30
0.0
 11
164.7197729035351
 21
32.18591696143199
 31
0.0
  0
LINE
  5
51B
330
6C
100
AcDbEntity
  8
Visible (ANSI)
100
AcDbLine
 10
146.4481628534185
 20
91.62982362261054
 30
0.0
 11
164.606606642799
 21
81.17307129481474
 31
0.0
  0
LINE
  5
51C
330
6C
100
AcDbEntity
  8
Visible (ANSI)
100
AcDbLine
 10
146.4012878534184
 20
42.7348309218632
 30
0.0
 11
146.4012878534184
 21
42.82375257574821
 31
0.0
  0
LINE
  5
51D
330
6C
100
AcDbEntity
  8
Visible (ANSI)
100
AcDbLine
 10
146.4012878534185
 20
66.26402057612461
 30
0.0
 11
146.4012878534185
 21
66.63481258678711
 31
0.0
  0
LINE
  5
51E
330
6C
100
AcDbEntity
  8
Visible (ANSI)
100
AcDbLine
 10
146.4012878534186
 20
90.0750805871635
 30
0.0
 11
146.4012878534186
 21
90.445872597826
 31
0.0
  0
LINE
  5
51F
330
6C
100
AcDbEntity
  8
Visible (ANSI)
100
AcDbLine
 10
163.6708500340053
 20
32.73575523966458
 30
0.0
 11
163.3495881600817
 21
32.92075764884391
 31
0.0
  0
LINE
  5
520
330
6C
100
AcDbEntity
  8
Visible (ANSI)
100
AcDbLine
 10
146.523510590229
 20
42.61025129912733
 30
0.0
 11
146.4481628534184
 21
42.65364117501241
 31
0.0
  0
SPLINE
  5
521
330
6C
100
AcDbEntity
  8
Visible (ANSI)
100
AcDbSpline
210
0.0
220
0.0
230
1.0
 70
     8
 71
     3
 72
    11
 73
     7
 74
     0
 42
0.0000000001
 43
0.0000000001
 40
0.0
 40
0.0
 40
0.0
 40
0.0
 40
1.084645898259285
 40
1.084645898259285
 40
1.084645898259285
 40
1.570796326794838
 40
1.570796326794838
 40
1.570796326794838
 40
1.570796326794838
 10
63.44936236185078
 20
114.4053876181288
 30
0.0
 10
63.48889770484234
 20
114.4053876181288
 30
0.0
 10
63.52757092232333
 20
114.428691776194
 30
0.0
 10
63.54604285481884
 20
114.4636464762405
 30
0.0
 10
63.55432218165997
 20
114.4793135639363
 30
0.0
 10
63.55871236185079
 20
114.4970174350087
 30
0.0
 10
63.55871236185079
 20
114.5147376181288
 30
0.0
  0
LINE
  5
522
330
6C
100
AcDbEntity
  8
Visible (ANSI)
100
AcDbLine
 10
63.46496236185079
 20
114.5147376181288
 30
0.0
 11
63.46496236185083
 21
115.2803876181288
 31
0.0
  0
LINE
  5
523
330
6C
100
AcDbEntity
  8
Visible (ANSI)
100
AcDbLine
 10
63.46496236185079
 20
114.5147376181288
 30
0.0
 11
63.55871236185079
 21
114.5147376181288
 31
0.0
  0
SPLINE
  5
524
330
6C
100
AcDbEntity
  8
Visible (ANSI)
100
AcDbSpline
210
0.0
220
0.0
230
1.0
 70
     8
 71
     3
 72
     8
 73
     4
 74
     0
 42
0.0000000001
 43
0.0000000001
 40
0.0
 40
0.0
 40
0.0
 40
0.0
 40
1.570796326794838
 40
1.570796326794838
 40
1.570796326794838
 40
1.570796326794838
 10
63.44936236185078
 20
114.4991376181288
 30
0.0
 10
63.45753050275012
 20
114.4991376181288
 30
0.0
 10
63.46496236185079
 20
114.5065694772295
 30
0.0
 10
63.46496236185079
 20
114.5147376181288
 30
0.0
  0
LINE
  5
525
330
6C
100
AcDbEntity
  8
Visible (ANSI)
100
AcDbLine
 10
63.44936236185078
 20
114.4991376181288
 30
0.0
 11
63.44936236185078
 21
114.4824665592579
 31
0.0
  0
LINE
  5
526
330
6C
100
AcDbEntity
  8
Visible (ANSI)
100
AcDbLine
 10
63.44936236185078
 20
114.4824665592579
 30
0.0
 11
63.44936236185078
 21
114.4053876181288
 31
0.0
  0
LINE
  5
527
330
6C
100
AcDbEntity
  8
Visible (ANSI)
100
AcDbLine
 10
63.55871236185079
 20
114.5147376181288
 30
0.0
 11
63.55871236185084
 21
115.2803876181288
 31
0.0
  0
LINE
  5
528
330
6C
100
AcDbEntity
  8
Visible (ANSI)
100
AcDbLine
 10
63.46496236185083
 20
115.2803876181288
 30
0.0
 11
63.55871236185084
 21
115.2803876181288
 31
0.0
  0
SPLINE
  5
529
330
6C
100
AcDbEntity
  8
Visible (ANSI)
100
AcDbSpline
210
0.0
220
0.0
230
1.0
 70
     8
 71
     3
 72
    11
 73
     7
 74
     0
 42
0.0000000001
 43
0.0000000001
 40
0.0
 40
0.0
 40
0.0
 40
0.0
 40
1.08464589825963
 40
1.08464589825963
 40
1.08464589825963
 40
1.570796326794961
 40
1.570796326794961
 40
1.570796326794961
 40
1.570796326794961
 10
37.66806236185078
 20
114.4053876181288
 30
0.0
 10
37.67972991906306
 20
114.4053876181289
 30
0.0
 10
37.69139747627535
 20
114.4286917761941
 30
0.0
 10
37.70306503348763
 20
114.4636464762406
 30
0.0
 10
37.70829456318743
 20
114.4793135639364
 30
0.0
 10
37.71352409288722
 20
114.4970174350088
 30
0.0
 10
37.71875362258703
 20
114.5147376181289
 30
0.0
  0
SPLINE
  5
52A
330
6C
100
AcDbEntity
  8
Visible (ANSI)
100
AcDbSpline
210
0.0
220
0.0
230
1.0
 70
     8
 71
     3
 72
    11
 73
     7
 74
     0
 42
0.0000000001
 43
0.0000000001
 40
0.0
 40
0.0
 40
0.0
 40
0.0
 40
1.084645898259006
 40
1.084645898259006
 40
1.084645898259006
 40
1.570796326794961
 40
1.570796326794961
 40
1.570796326794961
 40
1.570796326794961
 10
63.39867110111455
 20
114.5147376181289
 30
0.0
 10
63.41033865832682
 20
114.4752022751374
 30
0.0
 10
63.4220062155391
 20
114.4365290576564
 30
0.0
 10
63.43367377275137
 20
114.4180571251608
 30
0.0
 10
63.43890330245118
 20
114.4097777983197
 30
0.0
 10
63.44413283215098
 20
114.4053876181289
 30
0.0
 10
63.44936236185078
 20
114.4053876181288
 30
0.0
  0
LINE
  5
52B
330
6C
100
AcDbEntity
  8
Visible (ANSI)
100
AcDbLine
 10
63.39867110111455
 20
115.2803876181289
 30
0.0
 11
63.39867110111455
 21
114.5147376181289
 31
0.0
  0
SPLINE
  5
52C
330
6C
100
AcDbEntity
  8
Visible (ANSI)
100
AcDbSpline
210
0.0
220
0.0
230
1.0
 70
     8
 71
     3
 72
     8
 73
     4
 74
     0
 42
0.0000000001
 43
0.0000000001
 40
0.0
 40
0.0
 40
0.0
 40
0.0
 40
1.570796326794961
 40
1.570796326794961
 40
1.570796326794961
 40
1.570796326794961
 10
63.44936236185078
 20
114.4991376181288
 30
0.0
 10
63.43246527493871
 20
114.4991376181288
 30
0.0
 10
63.41556818802662
 20
114.5065694772295
 30
0.0
 10
63.39867110111455
 20
114.5147376181288
 30
0.0
  0
SPLINE
  5
52D
330
6C
100
AcDbEntity
  8
Visible (ANSI)
100
AcDbSpline
210
0.0
220
0.0
230
1.0
 70
     8
 71
     3
 72
     8
 73
     4
 74
     0
 42
0.0000000001
 43
0.0000000001
 40
0.0
 40
0.0
 40
0.0
 40
0.0
 40
1.570796326794961
 40
1.570796326794961
 40
1.570796326794961
 40
1.570796326794961
 10
37.66806236185078
 20
114.4991376181288
 30
0.0
 10
37.68495944876286
 20
114.4991376181288
 30
0.0
 10
37.70185653567494
 20
114.5065694772295
 30
0.0
 10
37.71875362258703
 20
114.5147376181288
 30
0.0
  0
LINE
  5
52E
330
6C
100
AcDbEntity
  8
Visible (ANSI)
100
AcDbLine
 10
37.66806236185078
 20
114.4991376181288
 30
0.0
 11
37.66806236185078
 21
114.4824665592579
 31
0.0
  0
LINE
  5
52F
330
6C
100
AcDbEntity
  8
Visible (ANSI)
100
AcDbLine
 10
37.66806236185078
 20
114.4824665592579
 30
0.0
 11
37.66806236185078
 21
114.4053876181288
 31
0.0
  0
LINE
  5
530
330
6C
100
AcDbEntity
  8
Visible (ANSI)
100
AcDbLine
 10
37.71875362258703
 20
114.5147376181289
 30
0.0
 11
37.71875362258703
 21
115.2803876181289
 31
0.0
  0
SPLINE
  5
531
330
6C
100
AcDbEntity
  8
Visible (ANSI)
100
AcDbSpline
210
0.0
220
0.0
230
1.0
 70
     8
 71
     3
 72
    11
 73
     7
 74
     0
 42
0.0000000001
 43
0.0000000001
 40
0.0
 40
0.0
 40
0.0
 40
0.0
 40
1.084645898258922
 40
1.084645898258922
 40
1.084645898258922
 40
1.570796326794871
 40
1.570796326794871
 40
1.570796326794871
 40
1.570796326794871
 10
37.55871236185078
 20
114.5147376181288
 30
0.0
 10
37.55871236185078
 20
114.4752022751373
 30
0.0
 10
37.58201651991595
 20
114.4365290576563
 30
0.0
 10
37.61697121996242
 20
114.4180571251608
 30
0.0
 10
37.63263830765825
 20
114.4097777983197
 30
0.0
 10
37.65034217873065
 20
114.4053876181288
 30
0.0
 10
37.66806236185078
 20
114.4053876181288
 30
0.0
  0
LINE
  5
532
330
6C
100
AcDbEntity
  8
Visible (ANSI)
100
AcDbLine
 10
37.65246236185078
 20
114.5147376181288
 30
0.0
 11
37.65246236185078
 21
115.2803876181288
 31
0.0
  0
LINE
  5
533
330
6C
100
AcDbEntity
  8
Visible (ANSI)
100
AcDbLine
 10
37.55871236185078
 20
115.2803876181288
 30
0.0
 11
37.55871236185078
 21
114.5147376181288
 31
0.0
  0
LINE
  5
534
330
6C
100
AcDbEntity
  8
Visible (ANSI)
100
AcDbLine
 10
37.65246236185078
 20
114.5147376181288
 30
0.0
 11
37.55871236185078
 21
114.5147376181288
 31
0.0
  0
LINE
  5
535
330
6C
100
AcDbEntity
  8
Visible (ANSI)
100
AcDbLine
 10
37.65246236185078
 20
115.2803876181288
 30
0.0
 11
37.55871236185078
 21
115.2803876181288
 31
0.0
  0
SPLINE
  5
536
330
6C
100
AcDbEntity
  8
Visible (ANSI)
100
AcDbSpline
210
0.0
220
0.0
230
1.0
 70
     8
 71
     3
 72
     8
 73
     4
 74
     0
 42
0.0000000001
 43
0.0000000001
 40
0.0
 40
0.0
 40
0.0
 40
0.0
 40
1.570796326794871
 40
1.570796326794871
 40
1.570796326794871
 40
1.570796326794871
 10
37.66806236185078
 20
114.4991376181288
 30
0.0
 10
37.65989422095144
 20
114.4991376181288
 30
0.0
 10
37.65246236185078
 20
114.5065694772295
 30
0.0
 10
37.65246236185078
 20
114.5147376181288
 30
0.0
  0
LINE
  5
537
330
6C
100
AcDbEntity
  8
Visible (ANSI)
100
AcDbLine
 10
63.44936236185078
 20
114.4053876181288
 30
0.0
 11
37.66806236185078
 21
114.4053876181288
 31
0.0
  0
LINE
  5
538
330
6C
100
AcDbEntity
  8
Hidden (ANSI)
 48
1.039400935173034
100
AcDbLine
 10
37.66806236185078
 20
114.4991376181288
 30
0.0
 11
63.44936236185078
 21
114.4991376181288
 31
0.0
  0
LINE
  5
539
330
6C
100
AcDbEntity
  8
Visible (ANSI)
100
AcDbLine
 10
37.71875362258703
 20
115.2803876181289
 30
0.0
 11
63.39867110111455
 21
115.2803876181289
 31
0.0
  0
LINE
  5
53A
330
6C
100
AcDbEntity
  8
Hidden (ANSI)
 48
0.0147804422304034
100
AcDbLine
 10
62.96521236185078
 20
114.4991376181286
 30
0.0
 11
62.96521236185078
 21
114.4053876181286
 31
0.0
  0
LINE
  5
53B
330
6C
100
AcDbEntity
  8
Hidden (ANSI)
 48
0.0147804422304034
100
AcDbLine
 10
62.40221236185078
 20
114.4991376181286
 30
0.0
 11
62.40221236185078
 21
114.4053876181286
 31
0.0
  0
LINE
  5
53C
330
6C
100
AcDbEntity
  8
Hidden (ANSI)
 48
0.0147804422304034
100
AcDbLine
 10
38.71521236185078
 20
114.4991376181286
 30
0.0
 11
38.71521236185078
 21
114.4053876181286
 31
0.0
  0
LINE
  5
53D
330
6C
100
AcDbEntity
  8
Hidden (ANSI)
 48
0.0147804422304034
100
AcDbLine
 10
38.15221236185078
 20
114.4991376181286
 30
0.0
 11
38.15221236185078
 21
114.4053876181286
 31
0.0
  0
MTEXT
  5
53E
330
6C
100
AcDbEntity
  8
Symbol (ANSI)
100
AcDbMText
 10
45.89214566557785
 20
108.6019134350459
 30
0.0
 40
1.440000017796914
 41
0.0
 46
0.0
 71
     7
 72
     1
  1
TOP VIEW
  7
Text Style153
 73
     1
 44
1.0
  0
LINE
  5
53F
330
6C
100
AcDbEntity
  8
Symbol (ANSI)
370
    30
100
AcDbLine
 10
45.89329766854122
 20
108.3082537865472
 30
0.0
 11
54.97906739695399
 21
108.3082537865472
 31
0.0
  0
LINE
  5
540
330
6C
100
AcDbEntity
  8
Center Mark (ANSI)
  6
CHAIN
 48
0.1648447215557098
100
AcDbLine
 10
38.43371236183502
 20
92.60335939342679
 30
0.0
 11
38.43371236183502
 21
89.04035939342682
 31
0.0
  0
LINE
  5
541
330
6C
100
AcDbEntity
  8
Center Mark (ANSI)
  6
CHAIN
 48
0.1648447215557098
100
AcDbLine
 10
62.68371236183503
 20
92.60335939342679
 30
0.0
 11
62.68371236183503
 21
89.04035939342682
 31
0.0
  0
LINE
  5
542
330
6C
100
AcDbEntity
  8
Centerline (ANSI)
  6
CHAIN
 48
0.9524481296539306
100
AcDbLine
 10
36.65221236183503
 20
90.8218593934268
 30
0.0
 11
64.46521236183503
 21
90.8218593934268
 31
0.0
  0
LINE
  5
543
330
6C
100
AcDbEntity
  8
Center Mark (ANSI)
  6
CHAIN
 48
0.1648447215557098
100
AcDbLine
 10
64.46521236183503
 20
90.8218593934268
 30
0.0
 11
60.90221236183503
 21
90.8218593934268
 31
0.0
  0
LINE
  5
544
330
6C
100
AcDbEntity
  8
Center Mark (ANSI)
  6
CHAIN
 48
0.1648447215557098
100
AcDbLine
 10
64.46521236183503
 20
32.57185939342682
 30
0.0
 11
60.90221236183503
 21
32.57185939342682
 31
0.0
  0
LINE
  5
545
330
6C
100
AcDbEntity
  8
Centerline (ANSI)
  6
CHAIN
 48
0.9524481296539306
100
AcDbLine
 10
62.68371236183503
 20
92.60335939342679
 30
0.0
 11
62.68371236183503
 21
30.79035939342681
 31
0.0
  0
LINE
  5
546
330
6C
100
AcDbEntity
  8
Center Mark (ANSI)
  6
CHAIN
 48
0.1648447215557098
100
AcDbLine
 10
62.68371236183503
 20
30.79035939342681
 30
0.0
 11
62.68371236183503
 21
34.35335939342682
 31
0.0
  0
LINE
  5
547
330
6C
100
AcDbEntity
  8
Center Mark (ANSI)
  6
CHAIN
 48
0.1648447215557098
100
AcDbLine
 10
38.43371236183502
 20
30.79035939342681
 30
0.0
 11
38.43371236183502
 21
34.35335939342682
 31
0.0
  0
LINE
  5
548
330
6C
100
AcDbEntity
  8
Centerline (ANSI)
  6
CHAIN
 48
0.9524481296539306
100
AcDbLine
 10
64.46521236183503
 20
32.57185939342682
 30
0.0
 11
36.65221236183502
 21
32.57185939342682
 31
0.0
  0
LINE
  5
549
330
6C
100
AcDbEntity
  8
Center Mark (ANSI)
  6
CHAIN
 48
0.1648447215557098
100
AcDbLine
 10
36.65221236183502
 20
32.57185939342682
 30
0.0
 11
40.21521236183501
 21
32.57185939342682
 31
0.0
  0
LINE
  5
54A
330
6C
100
AcDbEntity
  8
Center Mark (ANSI)
  6
CHAIN
 48
0.1648447215557098
100
AcDbLine
 10
36.65221236183503
 20
90.8218593934268
 30
0.0
 11
40.21521236183501
 21
90.8218593934268
 31
0.0
  0
LINE
  5
54B
330
6C
100
AcDbEntity
  8
Centerline (ANSI)
  6
CHAIN
 48
0.9524481296539306
100
AcDbLine
 10
38.43371236183502
 20
30.79035939342681
 30
0.0
 11
38.43371236183502
 21
92.60335939342679
 31
0.0
  0
LINE
  5
54C
330
6C
100
AcDbEntity
  8
Center Mark (ANSI)
  6
CHAIN
 48
0.1648447215557098
100
AcDbLine
 10
38.43371236183503
 20
63.47835939342681
 30
0.0
 11
38.43371236183503
 21
59.91535939342682
 31
0.0
  0
LINE
  5
54D
330
6C
100
AcDbEntity
  8
Center Mark (ANSI)
  6
CHAIN
 48
0.1648447215557098
100
AcDbLine
 10
62.68371236183504
 20
63.47835939342682
 30
0.0
 11
62.68371236183504
 21
59.91535939342682
 31
0.0
  0
LINE
  5
54E
330
6C
100
AcDbEntity
  8
Centerline (ANSI)
  6
CHAIN
 48
0.9524481296539306
100
AcDbLine
 10
36.65221236183504
 20
61.69685939342681
 30
0.0
 11
64.46521236183503
 21
61.69685939342682
 31
0.0
  0
DIMENSION
  5
54F
330
6C
100
AcDbEntity
  8
Dimension (ANSI)
100
AcDbDimension
280
     0
  2
*D4
 10
63.55871236183503
 20
101.9305189200921
 30
0.0
 11
50.55871236183502
 21
101.9305189200921
 31
0.0
 70
   160
  1
<>
 42
26.00000000000001
 73
     0
 74
     0
 75
     0
  3
Default (ANSI)
100
AcDbAlignedDimension
 13
37.55871236183502
 23
91.53681813269056
 33
0.0
 14
63.55871236183503
 24
91.53681813269056
 34
0.0
100
AcDbRotatedDimension
1001
ACAD
1000
DSTYLE
1002
{
1070
   289
1070
     1
1070
    73
1070
     0
1070
    74
1070
     0
1070
   271
1070
     2
1070
   272
1070
     2
1070
    48
1040
0.0
1070
    47
1040
0.0
1002
}
  0
DIMENSION
  5
63B
330
6C
100
AcDbEntity
  8
Dimension (ANSI)
100
AcDbDimension
280
     0
  2
*D5
 10
38.43371236183502
 20
97.3277688422457
 30
0.0
 11
32.36258490019885
 21
97.3277688422457
 31
0.0
 70
   160
  1
<>
 42
0.875
 73
     0
 74
     0
 75
     0
  3
Default (ANSI)
100
AcDbAlignedDimension
 13
37.55871236183502
 23
91.53681813269056
 33
0.0
 14
38.43371236183502
 24
92.60335939342679
 34
0.0
100
AcDbRotatedDimension
1001
ACAD
1000
DSTYLE
1002
{
1070
   289
1070
     1
1070
    73
1070
     0
1070
    74
1070
     0
1070
   271
1070
     2
1070
   272
1070
     2
1070
    48
1040
0.0
1070
    47
1040
0.0
1002
}
  0
DIMENSION
  5
725
330
6C
100
AcDbEntity
  8
Dimension (ANSI)
100
AcDbDimension
280
     0
  2
*D6
 10
62.68371236183503
 20
97.3277688422457
 30
0.0
 11
50.55871236183502
 21
97.3277688422457
 31
0.0
 70
   160
  1
<>
 42
24.25000000000001
 73
     0
 74
     0
 75
     0
  3
Default (ANSI)
100
AcDbAlignedDimension
 13
38.43371236183502
 23
92.60335939342679
 33
0.0
 14
62.68371236183503
 24
92.60335939342679
 34
0.0
 50
180.0
100
AcDbRotatedDimension
1001
ACAD
1000
DSTYLE
1002
{
1070
   289
1070
     1
1070
    73
1070
     0
1070
    74
1070
     0
1070
   271
1070
     2
1070
   272
1070
     2
1070
    48
1040
0.0
1070
    47
1040
0.0
1002
}
  0
DIMENSION
  5
80F
330
6C
100
AcDbEntity
  8
Dimension (ANSI)
100
AcDbDimension
280
     0
  2
*D7
 10
35.33255316317167
 20
32.57185939342682
 30
0.0
 11
31.92780291301612
 21
28.25288740284113
 31
0.0
 70
   160
  1
<>
 42
0.8749999999999964
 73
     0
 74
     0
 75
     0
  3
Default (ANSI)
100
AcDbAlignedDimension
 13
37.71875362257128
 23
31.69685939342682
 33
0.0
 14
36.65221236183502
 24
32.57185939342682
 34
0.0
 50
90.0
100
AcDbRotatedDimension
1001
ACAD
1000
DSTYLE
1002
{
1070
   289
1070
     1
1070
   271
1070
     2
1070
   272
1070
     2
1070
    48
1040
0.0
1070
    47
1040
0.0
1002
}
  0
DIMENSION
  5
90F
330
6C
100
AcDbEntity
  8
Dimension (ANSI)
100
AcDbDimension
280
     0
  2
*D8
 10
31.92780291301613
 20
61.69685939342681
 30
0.0
 11
31.92780291301612
 21
47.13435939342681
 31
0.0
 70
   160
  1
<>
 42
29.125
 73
     0
 74
     0
 75
     0
  3
Default (ANSI)
100
AcDbAlignedDimension
 13
36.65221236183502
 23
32.57185939342682
 33
0.0
 14
36.65221236183504
 24
61.69685939342681
 34
0.0
 50
90.0
100
AcDbRotatedDimension
1001
ACAD
1000
DSTYLE
1002
{
1070
   289
1070
     1
1070
   271
1070
     2
1070
   272
1070
     2
1070
    48
1040
0.0
1070
    47
1040
0.0
1002
}
  0
DIMENSION
  5
9F9
330
6C
100
AcDbEntity
  8
Dimension (ANSI)
100
AcDbDimension
280
     0
  2
*D9
 10
23.42386590514213
 20
90.82185939342682
 30
0.0
 11
23.42386590514211
 21
61.6968593934268
 31
0.0
 70
   160
  1
<>
 42
58.25
 73
     0
 74
     0
 75
     0
  3
Default (ANSI)
100
AcDbAlignedDimension
 13
36.65221236183502
 23
32.57185939342682
 33
0.0
 14
36.65221236183503
 24
90.8218593934268
 34
0.0
 50
90.0
100
AcDbRotatedDimension
1001
ACAD
1000
DSTYLE
1002
{
1070
   289
1070
     1
1070
   271
1070
     2
1070
   272
1070
     2
1070
    48
1040
0.0
1070
    47
1040
0.0
1002
}
  0
DIMENSION
  5
AE3
330
6C
100
AcDbEntity
  8
Dimension (ANSI)
100
AcDbDimension
280
     0
  2
*D10
 10
15.98647015800437
 20
91.69685939342683
 30
0.0
 11
15.98647015800435
 21
61.69685939342682
 31
0.0
 70
   160
  1
<>
 42
60.0
 73
     0
 74
     0
 75
     0
  3
Default (ANSI)
100
AcDbAlignedDimension
 13
37.71875362257128
 23
31.69685939342682
 33
0.0
 14
37.71875362257127
 24
91.69685939342681
 34
0.0
 50
90.0
100
AcDbRotatedDimension
1001
ACAD
1000
DSTYLE
1002
{
1070
   289
1070
     1
1070
   271
1070
     2
1070
   272
1070
     2
1070
    48
1040
0.0
1070
    47
1040
0.0
1002
}
  0
DIMENSION
  5
BCD
330
6C
100
AcDbEntity
  8
Dimension (ANSI)
100
AcDbDimension
280
     0
  2
*D11
 10
62.51170248502202
 20
32.79469308091319
 30
0.0
 11
70.05290387664697
 21
29.58453902327852
 31
0.0
 70
   163
  1
<>{\P(6 PL.)}
 71
     4
 42
0.5629999999999999
 73
     0
 74
     0
 75
     0
  3
Default (ANSI)
100
AcDbDiametricDimension
 15
62.85572223864803
 25
32.34902570594043
 35
0.0
 40
0.0
1001
ACAD
1000
DSTYLE
1002
{
1070
   144
1040
0.9999999999999957
1070
   271
1070
     3
1070
   272
1070
     3
1070
    48
1040
0.0
1070
    47
1040
0.0
1002
}
1001
ACAD_DSTYLE_DIMRADIAL_EXTENSION
1070
   387
1070
     1
1070
   388
1040
0.0
1070
   390
1040
0.0
  0
DIMENSION
  5
C87
330
6C
100
AcDbEntity
  8
Dimension (ANSI)
100
AcDbDimension
280
     0
  2
*D12
 10
56.85724678697121
 20
114.4053876181288
 30
0.0
 11
60.31857192148073
 21
120.3443596287361
 31
0.0
 70
   160
  1
<>{\PTYP.}
 71
     5
 42
0.875000000000071
 73
     0
 74
     0
 75
     0
  3
Default (ANSI)
100
AcDbAlignedDimension
 13
60.31857192148073
 23
115.2803876181289
 33
0.0
 14
60.32233375130468
 24
114.4053876181288
 34
0.0
 50
270.0
100
AcDbRotatedDimension
1001
ACAD
1000
DSTYLE
1002
{
1070
   289
1070
     1
1070
   271
1070
     2
1070
    76
1070
     1
1070
    75
1070
     1
1070
   272
1070
     2
1070
    48
1040
0.0
1070
    47
1040
0.0
1002
}
  0
DIMENSION
  5
D90
330
6C
100
AcDbEntity
  8
Dimension (ANSI)
100
AcDbDimension
280
     0
  2
*D13
 10
100.9722701818748
 20
88.7221895747014
 30
0.0
 11
107.1545483850881
 21
88.7221895747014
 31
0.0
 70
   160
  1
<>{\PTYP.}
 71
     4
 42
0.8750000000000284
 73
     0
 74
     0
 75
     0
  3
Default (ANSI)
100
AcDbAlignedDimension
 13
101.8472701818748
 23
88.7221895747014
 33
0.0
 14
100.9722701818748
 24
88.72836705371753
 34
0.0
 50
180.0
100
AcDbRotatedDimension
1001
ACAD
1000
DSTYLE
1002
{
1070
   289
1070
     1
1070
    73
1070
     0
1070
    74
1070
     0
1070
   271
1070
     2
1070
    76
1070
     1
1070
    75
1070
     1
1070
   272
1070
     2
1070
    48
1040
0.0
1070
    47
1040
0.0
1002
}
  0
MTEXT
  5
E7F
102
{ACAD_XDICTIONARY
360
E86
102
}
330
6C
100
AcDbEntity
  8
Symbol (ANSI)
100
AcDbMText
 10
109.3270706990829
 20
12.56803966623702
 30
0.0
 40
1.200000038297157
 41
88.60064529058506
 46
0.0
 71
     4
 72
     1
  3
{\fRomanS|b0|i0|c0|p2;\H2x;PART#: WA72P30F1G\P(DATA SUBJECT TO CHANGE WITHOUT NOTICE)\H1.6157x; \H0.61894x;\P \H1.352x; \H0.73963x;\P\H0.6x;THIS DRAWING IS PROPERTY OF HUBBELL INC. WIEGMANN\H1.5633x; \H0.63966x;\PALL INFORMATION IS PROPRIETARY AND NO
  1
T TO BE DUPLICATED\H1.234x; \H0.81039x;\P\H1.2571x; }
  7
Note Text (ANSI)
 73
     1
 44
0.8026435375213623
  0
ENDSEC
  0
SECTION
  2
OBJECTS
  0
DICTIONARY
  5
C
330
0
100
AcDbDictionary
281
     1
  3
ACAD_CIP_PREVIOUS_PRODUCT_INFO
350
E81
  3
ACAD_COLOR
350
63
  3
ACAD_GROUP
350
D
  3
ACAD_LAYOUT
350
62
  3
ACAD_MATERIAL
350
10
  3
ACAD_MLEADERSTYLE
350
66
  3
ACAD_MLINESTYLE
350
5F
  3
ACAD_PLOTSETTINGS
350
61
  3
ACAD_PLOTSTYLENAME
350
E
  3
ACAD_SCALELIST
350
42
  3
ACAD_TABLESTYLE
350
64
  3
ACAD_VISUALSTYLE
350
29
  3
ACDB_RECOMPOSE_DATA
350
E88
  3
AcDbVariableDictionary
350
76
  0
DICTIONARY
  5
E86
330
E7F
100
AcDbDictionary
280
     1
281
     1
  3
ACAD_MTEXT_2008_RT
360
E87
  0
XRECORD
  5
E81
102
{ACAD_REACTORS
330
C
102
}
330
C
100
AcDbXrecord
280
     1
300
INVNTOR
300
2012
300
PDSP_F_S
  0
DICTIONARY
  5
63
102
{ACAD_REACTORS
330
C
102
}
330
C
100
AcDbDictionary
281
     1
  0
DICTIONARY
  5
D
102
{ACAD_REACTORS
330
C
102
}
330
C
100
AcDbDictionary
281
     1
  0
DICTIONARY
  5
62
102
{ACAD_REACTORS
330
C
102
}
330
C
100
AcDbDictionary
281
     1
  3
Layout1
350
6B
  3
Layout2
350
73
  3
Model
350
6F
  0
DICTIONARY
  5
10
102
{ACAD_REACTORS
330
C
102
}
330
C
100
AcDbDictionary
281
     1
  3
ByBlock
350
19
  3
ByLayer
350
11
  3
Global
350
21
  0
DICTIONARY
  5
66
102
{ACAD_REACTORS
330
C
102
}
330
C
100
AcDbDictionary
281
     1
  3
Standard
350
67
  0
DICTIONARY
  5
5F
102
{ACAD_REACTORS
330
C
102
}
330
C
100
AcDbDictionary
281
     1
  3
Standard
350
60
  0
DICTIONARY
  5
61
102
{ACAD_REACTORS
330
C
102
}
330
C
100
AcDbDictionary
281
     1
  0
ACDBDICTIONARYWDFLT
  5
E
102
{ACAD_REACTORS
330
C
102
}
330
C
100
AcDbDictionary
281
     1
  3
Normal
350
F
100
AcDbDictionaryWithDefault
340
F
  0
DICTIONARY
  5
42
102
{ACAD_REACTORS
330
C
102
}
330
C
100
AcDbDictionary
281
     1
  3
A0
350
43
  3
A1
350
44
  3
A2
350
45
  3
A3
350
46
  3
A4
350
47
  3
A5
350
48
  3
A6
350
49
  3
A7
350
4A
  3
A8
350
4B
  3
A9
350
4C
  3
B0
350
4D
  3
B1
350
4E
  3
B2
350
4F
  3
B3
350
50
  3
B4
350
51
  3
B5
350
52
  3
B6
350
53
  0
DICTIONARY
  5
64
102
{ACAD_REACTORS
330
C
102
}
330
C
100
AcDbDictionary
281
     1
  3
Standard
350
65
  0
DICTIONARY
  5
29
102
{ACAD_REACTORS
330
C
102
}
330
C
100
AcDbDictionary
281
     1
  3
2dWireframe
350
2F
  3
Basic
350
2E
  3
Brighten
350
35
  3
ColorChange
350
39
  3
Conceptual
350
32
  3
Dim
350
34
  3
EdgeColorOff
350
41
  3
Facepattern
350
38
  3
Flat
350
2A
  3
FlatWithEdges
350
2B
  3
Gouraud
350
2C
  3
GouraudWithEdges
350
2D
  3
Hidden
350
31
  3
JitterOff
350
3F
  3
Linepattern
350
37
  3
OverhangOff
350
40
  3
Realistic
350
33
  3
Shaded
350
3E
  3
Shaded with edges
350
3D
  3
Shades of Gray
350
3A
  3
Sketchy
350
3B
  3
Thicken
350
36
  3
Wireframe
350
30
  3
X-Ray
350
3C
  0
XRECORD
  5
E88
102
{ACAD_REACTORS
330
C
102
}
330
C
100
AcDbXrecord
280
     1
 90
        1
330
65
330
E7F
  0
DICTIONARY
  5
76
102
{ACAD_REACTORS
330
C
102
}
330
C
100
AcDbDictionary
281
     1
  3
CANNOSCALE
350
79
  3
CMLEADERSTYLE
350
78
  3
CTABLESTYLE
350
77
  0
XRECORD
  5
E87
102
{ACAD_REACTORS
330
E86
102
}
330
E86
100
AcDbXrecord
280
     1
 40
3108948.0
  1
\pxsm0.94;{\fRomanS|b0|i0;\H2.4000;PART#: WA72P30F1G\P(DATA SUBJECT TO CHANGE WITHOUT NOTICE)\P \P\fRomanS|b0|i0;\H1.4400;THIS DRAWING IS PROPERTY OF HUBBELL INC. WIEGMANN\PALL INFORMATION IS PROPRIETARY AND NOT TO BE DUPLICATED\P}
  0
LAYOUT
  5
6B
102
{ACAD_REACTORS
330
62
102
}
330
62
100
AcDbPlotSettings
  1

  2

  4

  6

 40
0.0
 41
0.0
 42
0.0
 43
0.0
 44
0.0
 45
0.0
 46
0.0
 47
0.0
 48
0.0
 49
0.0
140
0.0
141
0.0
142
1.0
143
1.0
 70
   688
 72
     0
 73
     0
 74
     5
  7

 75
    16
147
1.0
 76
     0
 77
     2
 78
   300
148
0.0
149
0.0
100
AcDbLayout
  1
Layout1
 70
     1
 71
     1
 10
0.0
 20
0.0
 11
12.0
 21
9.0
 12
0.0
 22
0.0
 32
0.0
 14
0.0
 24
0.0
 34
0.0
 15
0.0
 25
0.0
 35
0.0
146
0.0
 13
0.0
 23
0.0
 33
0.0
 16
1.0
 26
0.0
 36
0.0
 17
0.0
 27
1.0
 37
0.0
 76
     0
330
68
  0
LAYOUT
  5
73
102
{ACAD_REACTORS
330
62
102
}
330
62
100
AcDbPlotSettings
  1

  2

  4

  6

 40
0.0
 41
0.0
 42
0.0
 43
0.0
 44
0.0
 45
0.0
 46
0.0
 47
0.0
 48
0.0
 49
0.0
140
0.0
141
0.0
142
1.0
143
1.0
 70
   688
 72
     0
 73
     0
 74
     5
  7

 75
    16
147
1.0
 76
     0
 77
     2
 78
   300
148
0.0
149
0.0
100
AcDbLayout
  1
Layout2
 70
     1
 71
     2
 10
0.0
 20
0.0
 11
12.0
 21
9.0
 12
0.0
 22
0.0
 32
0.0
 14
0.0
 24
0.0
 34
0.0
 15
0.0
 25
0.0
 35
0.0
146
0.0
 13
0.0
 23
0.0
 33
0.0
 16
1.0
 26
0.0
 36
0.0
 17
0.0
 27
1.0
 37
0.0
 76
     0
330
70
  0
LAYOUT
  5
6F
102
{ACAD_REACTORS
330
62
102
}
330
62
100
AcDbPlotSettings
  1

  2

  4

  6

 40
0.0
 41
0.0
 42
0.0
 43
0.0
 44
0.0
 45
0.0
 46
0.0
 47
0.0
 48
0.0
 49
0.0
140
0.0
141
0.0
142
1.0
143
1.0
 70
  1712
 72
     0
 73
     0
 74
     0
  7

 75
     0
147
1.0
 76
     0
 77
     2
 78
   300
148
0.0
149
0.0
100
AcDbLayout
  1
Model
 70
     1
 71
     0
 10
0.0
 20
0.0
 11
12.0
 21
9.0
 12
0.0
 22
0.0
 32
0.0
 14
0.0
 24
0.0
 34
0.0
 15
0.0
 25
0.0
 35
0.0
146
0.0
 13
0.0
 23
0.0
 33
0.0
 16
1.0
 26
0.0
 36
0.0
 17
0.0
 27
1.0
 37
0.0
 76
     0
330
6C
  0
MATERIAL
  5
19
102
{ACAD_XDICTIONARY
360
1A
102
}
102
{ACAD_REACTORS
330
10
102
}
330
10
100
AcDbMaterial
  1
ByBlock
 72
     0
 43
0.0208333333333333
 43
0.0
 43
0.0
 43
0.0
 43
0.0
 43
0.0208333333333333
 43
0.0
 43
0.0
 43
0.0
 43
0.0
 43
1.0
 43
0.0
 43
0.0
 43
0.0
 43
0.0
 43
1.0
 77
     0
 47
0.0208333333333333
 47
0.0
 47
0.0
 47
0.0
 47
0.0
 47
0.0208333333333333
 47
0.0
 47
0.0
 47
0.0
 47
0.0
 47
1.0
 47
0.0
 47
0.0
 47
0.0
 47
0.0
 47
1.0
171
     0
 49
0.0208333333333333
 49
0.0
 49
0.0
 49
0.0
 49
0.0
 49
0.0208333333333333
 49
0.0
 49
0.0
 49
0.0
 49
0.0
 49
1.0
 49
0.0
 49
0.0
 49
0.0
 49
0.0
 49
1.0
175
     0
142
0.0208333333333333
142
0.0
142
0.0
142
0.0
142
0.0
142
0.0208333333333333
142
0.0
142
0.0
142
0.0
142
0.0
142
1.0
142
0.0
142
0.0
142
0.0
142
0.0
142
1.0
179
     0
144
0.0208333333333333
144
0.0
144
0.0
144
0.0
144
0.0
144
0.0208333333333333
144
0.0
144
0.0
144
0.0
144
0.0
144
1.0
144
0.0
144
0.0
144
0.0
144
0.0
144
1.0
147
0.0208333333333333
147
0.0
147
0.0
147
0.0
147
0.0
147
0.0208333333333333
147
0.0
147
0.0
147
0.0
147
0.0
147
1.0
147
0.0
147
0.0
147
0.0
147
0.0
147
1.0
  0
MATERIAL
  5
11
102
{ACAD_XDICTIONARY
360
12
102
}
102
{ACAD_REACTORS
330
10
102
}
330
10
100
AcDbMaterial
  1
ByLayer
 72
     0
 43
0.0208333333333333
 43
0.0
 43
0.0
 43
0.0
 43
0.0
 43
0.0208333333333333
 43
0.0
 43
0.0
 43
0.0
 43
0.0
 43
1.0
 43
0.0
 43
0.0
 43
0.0
 43
0.0
 43
1.0
 77
     0
 47
0.0208333333333333
 47
0.0
 47
0.0
 47
0.0
 47
0.0
 47
0.0208333333333333
 47
0.0
 47
0.0
 47
0.0
 47
0.0
 47
1.0
 47
0.0
 47
0.0
 47
0.0
 47
0.0
 47
1.0
171
     0
 49
0.0208333333333333
 49
0.0
 49
0.0
 49
0.0
 49
0.0
 49
0.0208333333333333
 49
0.0
 49
0.0
 49
0.0
 49
0.0
 49
1.0
 49
0.0
 49
0.0
 49
0.0
 49
0.0
 49
1.0
175
     0
142
0.0208333333333333
142
0.0
142
0.0
142
0.0
142
0.0
142
0.0208333333333333
142
0.0
142
0.0
142
0.0
142
0.0
142
1.0
142
0.0
142
0.0
142
0.0
142
0.0
142
1.0
179
     0
144
0.0208333333333333
144
0.0
144
0.0
144
0.0
144
0.0
144
0.0208333333333333
144
0.0
144
0.0
144
0.0
144
0.0
144
1.0
144
0.0
144
0.0
144
0.0
144
0.0
144
1.0
147
0.0208333333333333
147
0.0
147
0.0
147
0.0
147
0.0
147
0.0208333333333333
147
0.0
147
0.0
147
0.0
147
0.0
147
1.0
147
0.0
147
0.0
147
0.0
147
0.0
147
1.0
  0
MATERIAL
  5
21
102
{ACAD_XDICTIONARY
360
22
102
}
102
{ACAD_REACTORS
330
10
102
}
330
10
100
AcDbMaterial
  1
Global
 72
     0
 43
0.0208333333333333
 43
0.0
 43
0.0
 43
0.0
 43
0.0
 43
0.0208333333333333
 43
0.0
 43
0.0
 43
0.0
 43
0.0
 43
1.0
 43
0.0
 43
0.0
 43
0.0
 43
0.0
 43
1.0
 77
     0
 47
0.0208333333333333
 47
0.0
 47
0.0
 47
0.0
 47
0.0
 47
0.0208333333333333
 47
0.0
 47
0.0
 47
0.0
 47
0.0
 47
1.0
 47
0.0
 47
0.0
 47
0.0
 47
0.0
 47
1.0
171
     0
 49
0.0208333333333333
 49
0.0
 49
0.0
 49
0.0
 49
0.0
 49
0.0208333333333333
 49
0.0
 49
0.0
 49
0.0
 49
0.0
 49
1.0
 49
0.0
 49
0.0
 49
0.0
 49
0.0
 49
1.0
175
     0
142
0.0208333333333333
142
0.0
142
0.0
142
0.0
142
0.0
142
0.0208333333333333
142
0.0
142
0.0
142
0.0
142
0.0
142
1.0
142
0.0
142
0.0
142
0.0
142
0.0
142
1.0
179
     0
144
0.0208333333333333
144
0.0
144
0.0
144
0.0
144
0.0
144
0.0208333333333333
144
0.0
144
0.0
144
0.0
144
0.0
144
1.0
144
0.0
144
0.0
144
0.0
144
0.0
144
1.0
147
0.0208333333333333
147
0.0
147
0.0
147
0.0
147
0.0
147
0.0208333333333333
147
0.0
147
0.0
147
0.0
147
0.0
147
1.0
147
0.0
147
0.0
147
0.0
147
0.0
147
1.0
  0
MLEADERSTYLE
  5
67
102
{ACAD_XDICTIONARY
360
E84
102
}
102
{ACAD_REACTORS
330
66
102
}
330
66
100
AcDbMLeaderStyle
179
     2
170
     2
171
     1
172
     0
 90
        2
 40
0.0
 41
0.0
173
     1
 91
-1056964608
340
5B
 92
       -2
290
     1
 42
0.09
291
     1
 43
0.36
  3
Standard
 44
0.18
300

342
55
174
     1
178
     6
175
     1
176
     0
 93
-1056964608
 45
0.18
292
     0
297
     0
 46
0.18
 94
-1056964608
 47
1.0
 49
1.0
140
1.0
293
     1
141
0.0
294
     1
177
     0
142
1.0
295
     0
296
     0
143
0.125
271
     0
272
     9
273
     9
  0
MLINESTYLE
  5
60
102
{ACAD_REACTORS
330
5F
102
}
330
5F
100
AcDbMlineStyle
  2
STANDARD
 70
     0
  3

 62
   256
 51
90.0
 52
90.0
 71
     2
 49
0.5
 62
   256
  6
BYLAYER
 49
-0.5
 62
   256
  6
BYLAYER
  0
ACDBPLACEHOLDER
  5
F
102
{ACAD_REACTORS
330
E
102
}
330
E
  0
SCALE
  5
43
102
{ACAD_REACTORS
330
42
102
}
330
42
100
AcDbScale
 70
     0
300
1:1
140
1.0
141
1.0
290
     1
  0
SCALE
  5
44
102
{ACAD_REACTORS
330
42
102
}
330
42
100
AcDbScale
 70
     0
300
1/128" = 1'-0"
140
0.0078125
141
12.0
290
     0
  0
SCALE
  5
45
102
{ACAD_REACTORS
330
42
102
}
330
42
100
AcDbScale
 70
     0
300
1/64" = 1'-0"
140
0.015625
141
12.0
290
     0
  0
SCALE
  5
46
102
{ACAD_REACTORS
330
42
102
}
330
42
100
AcDbScale
 70
     0
300
1/32" = 1'-0"
140
0.03125
141
12.0
290
     0
  0
SCALE
  5
47
102
{ACAD_REACTORS
330
42
102
}
330
42
100
AcDbScale
 70
     0
300
1/16" = 1'-0"
140
0.0625
141
12.0
290
     0
  0
SCALE
  5
48
102
{ACAD_REACTORS
330
42
102
}
330
42
100
AcDbScale
 70
     0
300
3/32" = 1'-0"
140
0.09375
141
12.0
290
     0
  0
SCALE
  5
49
102
{ACAD_REACTORS
330
42
102
}
330
42
100
AcDbScale
 70
     0
300
1/8" = 1'-0"
140
0.125
141
12.0
290
     0
  0
SCALE
  5
4A
102
{ACAD_REACTORS
330
42
102
}
330
42
100
AcDbScale
 70
     0
300
3/16" = 1'-0"
140
0.1875
141
12.0
290
     0
  0
SCALE
  5
4B
102
{ACAD_REACTORS
330
42
102
}
330
42
100
AcDbScale
 70
     0
300
1/4" = 1'-0"
140
0.25
141
12.0
290
     0
  0
SCALE
  5
4C
102
{ACAD_REACTORS
330
42
102
}
330
42
100
AcDbScale
 70
     0
300
3/8" = 1'-0"
140
0.375
141
12.0
290
     0
  0
SCALE
  5
4D
102
{ACAD_REACTORS
330
42
102
}
330
42
100
AcDbScale
 70
     0
300
1/2" = 1'-0"
140
0.5
141
12.0
290
     0
  0
SCALE
  5
4E
102
{ACAD_REACTORS
330
42
102
}
330
42
100
AcDbScale
 70
     0
300
3/4" = 1'-0"
140
0.75
141
12.0
290
     0
  0
SCALE
  5
4F
102
{ACAD_REACTORS
330
42
102
}
330
42
100
AcDbScale
 70
     0
300
1" = 1'-0"
140
1.0
141
12.0
290
     0
  0
SCALE
  5
50
102
{ACAD_REACTORS
330
42
102
}
330
42
100
AcDbScale
 70
     0
300
1-1/2" = 1'-0"
140
1.5
141
12.0
290
     0
  0
SCALE
  5
51
102
{ACAD_REACTORS
330
42
102
}
330
42
100
AcDbScale
 70
     0
300
3" = 1'-0"
140
3.0
141
12.0
290
     0
  0
SCALE
  5
52
102
{ACAD_REACTORS
330
42
102
}
330
42
100
AcDbScale
 70
     0
300
6" = 1'-0"
140
6.0
141
12.0
290
     0
  0
SCALE
  5
53
102
{ACAD_REACTORS
330
42
102
}
330
42
100
AcDbScale
 70
     0
300
1'-0" = 1'-0"
140
12.0
141
12.0
290
     0
  0
TABLESTYLE
  5
65
102
{ACAD_XDICTIONARY
360
E82
102
}
102
{ACAD_REACTORS
330
64
102
}
330
64
100
AcDbTableStyle
280
     0
  3
Standard
 70
     0
 71
     0
 40
0.06
 41
0.06
280
     0
281
     0
  7
Standard
140
0.18
170
     2
 62
     0
 63
     7
283
     0
 90
      512
 91
        0
  1

274
    -2
284
     1
 64
     0
275
    -2
285
     1
 65
     0
276
    -2
286
     1
 66
     0
277
    -2
287
     1
 67
     0
278
    -2
288
     1
 68
     0
279
    -2
289
     1
 69
     0
  7
Standard
140
0.25
170
     5
 62
     0
 63
     7
283
     0
 90
      512
 91
        0
  1

274
    -2
284
     1
 64
     0
275
    -2
285
     1
 65
     0
276
    -2
286
     1
 66
     0
277
    -2
287
     1
 67
     0
278
    -2
288
     1
 68
     0
279
    -2
289
     1
 69
     0
  7
Standard
140
0.18
170
     5
 62
     0
 63
     7
283
     0
 90
      512
 91
        0
  1

274
    -2
284
     1
 64
     0
275
    -2
285
     1
 65
     0
276
    -2
286
     1
 66
     0
277
    -2
287
     1
 67
     0
278
    -2
288
     1
 68
     0
279
    -2
289
     1
 69
     0
  0
VISUALSTYLE
  5
2F
102
{ACAD_REACTORS
330
29
102
}
330
29
100
AcDbVisualStyle
  2
2dWireframe
 70
     4
177
     2
291
     0
 71
     0
176
     1
 72
     2
176
     1
 73
     0
176
     1
 90
        0
176
     1
 40
0.6
176
     1
 41
30.0
176
     1
 63
     7
421
 16777215
176
     1
 74
     1
176
     1
 91
        4
176
     1
 64
     7
176
     1
 65
   257
176
     1
 75
     1
176
     1
175
     1
176
     1
 42
1.0
176
     1
 92
        0
176
     1
 66
   257
176
     1
 43
1.0
176
     1
 76
     1
176
     1
 77
     6
176
     1
 78
     2
176
     1
 67
     7
176
     1
 79
     5
176
     1
170
     0
176
     1
171
     0
176
     1
290
     0
176
     1
 93
        1
176
     1
 44
0.0
176
     1
173
     0
176
     1
  0
VISUALSTYLE
  5
2E
102
{ACAD_REACTORS
330
29
102
}
330
29
100
AcDbVisualStyle
  2
Basic
 70
     7
177
     2
291
     1
 71
     1
176
     1
 72
     0
176
     1
 73
     1
176
     1
 90
        0
176
     1
 40
0.6
176
     1
 41
30.0
176
     1
 63
     7
421
 16777215
176
     1
 74
     0
176
     1
 91
        4
176
     1
 64
     7
176
     1
 65
   257
176
     1
 75
     1
176
     1
175
     1
176
     1
 42
1.0
176
     1
 92
        8
176
     1
 66
     7
176
     1
 43
1.0
176
     1
 76
     1
176
     1
 77
     6
176
     1
 78
     2
176
     1
 67
     7
176
     1
 79
     5
176
     1
170
     0
176
     1
171
     0
176
     1
290
     0
176
     1
 93
        1
176
     1
 44
0.0
176
     1
173
     0
176
     1
  0
VISUALSTYLE
  5
35
102
{ACAD_REACTORS
330
29
102
}
330
29
100
AcDbVisualStyle
  2
Brighten
 70
    12
177
     2
291
     1
 71
     2
176
     1
 72
     2
176
     1
 73
     0
176
     1
 90
        0
176
     1
 40
0.6
176
     1
 41
30.0
176
     1
 63
     7
421
 16777215
176
     1
 74
     1
176
     1
 91
        4
176
     1
 64
     7
176
     1
 65
   257
176
     1
 75
     1
176
     1
175
     1
176
     1
 42
1.0
176
     1
 92
        8
176
     1
 66
     7
176
     1
 43
1.0
176
     1
 76
     1
176
     1
 77
     6
176
     1
 78
     2
176
     1
 67
     7
176
     1
 79
     5
176
     1
170
     0
176
     1
171
     0
176
     1
290
     0
176
     1
 93
        1
176
     1
 44
50.0
176
     1
173
     0
176
     1
  0
VISUALSTYLE
  5
39
102
{ACAD_REACTORS
330
29
102
}
330
29
100
AcDbVisualStyle
  2
ColorChange
 70
    16
177
     2
291
     1
 71
     2
176
     1
 72
     2
176
     1
 73
     3
176
     1
 90
        0
176
     1
 40
0.6
176
     1
 41
30.0
176
     1
 63
     8
421
  8421504
176
     1
 74
     1
176
     1
 91
        4
176
     1
 64
     7
176
     1
 65
   257
176
     1
 75
     1
176
     1
175
     1
176
     1
 42
1.0
176
     1
 92
        8
176
     1
 66
     8
424
  8421504
176
     1
 43
1.0
176
     1
 76
     1
176
     1
 77
     6
176
     1
 78
     2
176
     1
 67
     7
176
     1
 79
     5
176
     1
170
     0
176
     1
171
     0
176
     1
290
     0
176
     1
 93
        1
176
     1
 44
0.0
176
     1
173
     0
176
     1
  0
VISUALSTYLE
  5
32
102
{ACAD_REACTORS
330
29
102
}
330
29
100
AcDbVisualStyle
  2
Conceptual
 70
     9
177
     2
291
     0
 71
     3
176
     1
 72
     2
176
     1
 73
     0
176
     1
 90
        0
176
     1
 40
0.6
176
     1
 41
30.0
176
     1
 63
     7
421
 16777215
176
     1
 74
     2
176
     1
 91
        2
176
     1
 64
     7
176
     1
 65
   257
176
     1
 75
     1
176
     1
175
     1
176
     1
 42
179.0
176
     1
 92
        8
176
     1
 66
     7
176
     1
 43
1.0
176
     1
 76
     1
176
     1
 77
     6
176
     1
 78
     2
176
     1
 67
     7
176
     1
 79
     3
176
     1
170
     0
176
     1
171
     0
176
     1
290
     0
176
     1
 93
        1
176
     1
 44
0.0
176
     1
173
     0
176
     1
  0
VISUALSTYLE
  5
34
102
{ACAD_REACTORS
330
29
102
}
330
29
100
AcDbVisualStyle
  2
Dim
 70
    11
177
     2
291
     1
 71
     2
176
     1
 72
     2
176
     1
 73
     0
176
     1
 90
        0
176
     1
 40
0.6
176
     1
 41
30.0
176
     1
 63
     7
421
 16777215
176
     1
 74
     1
176
     1
 91
        4
176
     1
 64
     7
176
     1
 65
   257
176
     1
 75
     1
176
     1
175
     1
176
     1
 42
1.0
176
     1
 92
        8
176
     1
 66
     7
176
     1
 43
1.0
176
     1
 76
     1
176
     1
 77
     6
176
     1
 78
     2
176
     1
 67
     7
176
     1
 79
     5
176
     1
170
     0
176
     1
171
     0
176
     1
290
     0
176
     1
 93
        1
176
     1
 44
-50.0
176
     1
173
     0
176
     1
  0
VISUALSTYLE
  5
41
102
{ACAD_REACTORS
330
29
102
}
330
29
100
AcDbVisualStyle
  2
EdgeColorOff
 70
    22
177
     2
291
     1
 71
     2
176
     0
 72
     2
176
     0
 73
     0
176
     0
 90
        0
176
     0
 40
0.6
176
     0
 41
30.0
176
     0
 63
     7
421
 16777215
176
     0
 74
     1
176
     0
 91
        4
176
     0
 64
     7
176
     0
 65
   257
176
     0
 75
     1
176
     0
175
     1
176
     0
 42
1.0
176
     0
 92
        8
176
     2
 66
     7
176
     0
 43
1.0
176
     0
 76
     1
176
     0
 77
     6
176
     0
 78
     2
176
     0
 67
     7
176
     0
 79
     5
176
     0
170
     0
176
     0
171
     0
176
     0
290
     0
176
     0
 93
        1
176
     0
 44
0.0
176
     0
173
     0
176
     0
  0
VISUALSTYLE
  5
38
102
{ACAD_REACTORS
330
29
102
}
330
29
100
AcDbVisualStyle
  2
Facepattern
 70
    15
177
     2
291
     1
 71
     2
176
     1
 72
     2
176
     1
 73
     0
176
     1
 90
        0
176
     1
 40
0.6
176
     1
 41
30.0
176
     1
 63
     7
421
 16777215
176
     1
 74
     1
176
     1
 91
        4
176
     1
 64
     7
176
     1
 65
   257
176
     1
 75
     1
176
     1
175
     1
176
     1
 42
1.0
176
     1
 92
        8
176
     1
 66
     7
176
     1
 43
1.0
176
     1
 76
     1
176
     1
 77
     6
176
     1
 78
     2
176
     1
 67
     7
176
     1
 79
     5
176
     1
170
     0
176
     1
171
     0
176
     1
290
     0
176
     1
 93
        1
176
     1
 44
0.0
176
     1
173
     0
176
     1
  0
VISUALSTYLE
  5
2A
102
{ACAD_REACTORS
330
29
102
}
330
29
100
AcDbVisualStyle
  2
Flat
 70
     0
177
     2
291
     1
 71
     2
176
     1
 72
     1
176
     1
 73
     1
176
     1
 90
        2
176
     1
 40
0.6
176
     1
 41
30.0
176
     1
 63
     7
421
 16777215
176
     1
 74
     0
176
     1
 91
        0
176
     1
 64
     7
176
     1
 65
   257
176
     1
 75
     1
176
     1
175
     1
176
     1
 42
1.0
176
     1
 92
        8
176
     1
 66
     7
176
     1
 43
1.0
176
     1
 76
     1
176
     1
 77
     6
176
     1
 78
     2
176
     1
 67
     7
176
     1
 79
     5
176
     1
170
     0
176
     1
171
     0
176
     1
290
     0
176
     1
 93
       13
176
     1
 44
0.0
176
     1
173
     0
176
     1
  0
VISUALSTYLE
  5
2B
102
{ACAD_REACTORS
330
29
102
}
330
29
100
AcDbVisualStyle
  2
FlatWithEdges
 70
     1
177
     2
291
     1
 71
     2
176
     1
 72
     1
176
     1
 73
     1
176
     1
 90
        2
176
     1
 40
0.6
176
     1
 41
30.0
176
     1
 63
     7
421
 16777215
176
     1
 74
     1
176
     1
 91
        0
176
     1
 64
     7
176
     1
 65
   257
176
     1
 75
     1
176
     1
175
     1
176
     1
 42
1.0
176
     1
 92
        0
176
     1
 66
   257
176
     1
 43
1.0
176
     1
 76
     1
176
     1
 77
     6
176
     1
 78
     2
176
     1
 67
     7
176
     1
 79
     5
176
     1
170
     0
176
     1
171
     0
176
     1
290
     0
176
     1
 93
       13
176
     1
 44
0.0
176
     1
173
     0
176
     1
  0
VISUALSTYLE
  5
2C
102
{ACAD_REACTORS
330
29
102
}
330
29
100
AcDbVisualStyle
  2
Gouraud
 70
     2
177
     2
291
     1
 71
     2
176
     1
 72
     2
176
     1
 73
     1
176
     1
 90
        2
176
     1
 40
0.6
176
     1
 41
30.0
176
     1
 63
     7
421
 16777215
176
     1
 74
     0
176
     1
 91
        0
176
     1
 64
     7
176
     1
 65
   257
176
     1
 75
     1
176
     1
175
     1
176
     1
 42
1.0
176
     1
 92
        0
176
     1
 66
     7
176
     1
 43
1.0
176
     1
 76
     1
176
     1
 77
     6
176
     1
 78
     2
176
     1
 67
     7
176
     1
 79
     5
176
     1
170
     0
176
     1
171
     0
176
     1
290
     0
176
     1
 93
       13
176
     1
 44
0.0
176
     1
173
     0
176
     1
  0
VISUALSTYLE
  5
2D
102
{ACAD_REACTORS
330
29
102
}
330
29
100
AcDbVisualStyle
  2
GouraudWithEdges
 70
     3
177
     2
291
     1
 71
     2
176
     1
 72
     2
176
     1
 73
     1
176
     1
 90
        2
176
     1
 40
0.6
176
     1
 41
30.0
176
     1
 63
     7
421
 16777215
176
     1
 74
     1
176
     1
 91
        0
176
     1
 64
     7
176
     1
 65
   257
176
     1
 75
     1
176
     1
175
     1
176
     1
 42
1.0
176
     1
 92
        0
176
     1
 66
   257
176
     1
 43
1.0
176
     1
 76
     1
176
     1
 77
     6
176
     1
 78
     2
176
     1
 67
     7
176
     1
 79
     5
176
     1
170
     0
176
     1
171
     0
176
     1
290
     0
176
     1
 93
       13
176
     1
 44
0.0
176
     1
173
     0
176
     1
  0
VISUALSTYLE
  5
31
102
{ACAD_REACTORS
330
29
102
}
330
29
100
AcDbVisualStyle
  2
Hidden
 70
     6
177
     2
291
     0
 71
     1
176
     1
 72
     2
176
     1
 73
     2
176
     1
 90
        0
176
     1
 40
0.6
176
     1
 41
30.0
176
     1
 63
     7
421
 16777215
176
     1
 74
     2
176
     1
 91
        2
176
     1
 64
     7
176
     1
 65
   257
176
     1
 75
     2
176
     1
175
     1
176
     1
 42
40.0
176
     1
 92
        0
176
     1
 66
   257
176
     1
 43
1.0
176
     1
 76
     1
176
     1
 77
     6
176
     1
 78
     2
176
     1
 67
     7
176
     1
 79
     3
176
     1
170
     0
176
     1
171
     0
176
     1
290
     0
176
     1
 93
        1
176
     1
 44
0.0
176
     1
173
     0
176
     1
  0
VISUALSTYLE
  5
3F
102
{ACAD_REACTORS
330
29
102
}
330
29
100
AcDbVisualStyle
  2
JitterOff
 70
    20
177
     2
291
     1
 71
     2
176
     0
 72
     2
176
     0
 73
     0
176
     0
 90
        0
176
     0
 40
0.6
176
     0
 41
30.0
176
     0
 63
     7
421
 16777215
176
     0
 74
     1
176
     0
 91
        4
176
     0
 64
     7
176
     0
 65
   257
176
     0
 75
     1
176
     0
175
     1
176
     0
 42
1.0
176
     0
 92
       10
176
     2
 66
     7
176
     0
 43
1.0
176
     0
 76
     1
176
     0
 77
     6
176
     0
 78
     2
176
     0
 67
     7
176
     0
 79
     5
176
     0
170
     0
176
     0
171
     0
176
     0
290
     0
176
     0
 93
        1
176
     0
 44
0.0
176
     0
173
     0
176
     0
  0
VISUALSTYLE
  5
37
102
{ACAD_REACTORS
330
29
102
}
330
29
100
AcDbVisualStyle
  2
Linepattern
 70
    14
177
     2
291
     1
 71
     2
176
     1
 72
     2
176
     1
 73
     0
176
     1
 90
        0
176
     1
 40
0.6
176
     1
 41
30.0
176
     1
 63
     7
421
 16777215
176
     1
 74
     1
176
     1
 91
        4
176
     1
 64
     7
176
     1
 65
   257
176
     1
 75
     7
176
     1
175
     7
176
     1
 42
1.0
176
     1
 92
        8
176
     1
 66
     7
176
     1
 43
1.0
176
     1
 76
     1
176
     1
 77
     6
176
     1
 78
     2
176
     1
 67
     7
176
     1
 79
     5
176
     1
170
     0
176
     1
171
     0
176
     1
290
     0
176
     1
 93
        1
176
     1
 44
0.0
176
     1
173
     0
176
     1
  0
VISUALSTYLE
  5
40
102
{ACAD_REACTORS
330
29
102
}
330
29
100
AcDbVisualStyle
  2
OverhangOff
 70
    21
177
     2
291
     1
 71
     2
176
     0
 72
     2
176
     0
 73
     0
176
     0
 90
        0
176
     0
 40
0.6
176
     0
 41
30.0
176
     0
 63
     7
421
 16777215
176
     0
 74
     1
176
     0
 91
        4
176
     0
 64
     7
176
     0
 65
   257
176
     0
 75
     1
176
     0
175
     1
176
     0
 42
1.0
176
     0
 92
        9
176
     2
 66
     7
176
     0
 43
1.0
176
     0
 76
     1
176
     0
 77
     6
176
     0
 78
     2
176
     0
 67
     7
176
     0
 79
     5
176
     0
170
     0
176
     0
171
     0
176
     0
290
     0
176
     0
 93
        1
176
     0
 44
0.0
176
     0
173
     0
176
     0
  0
VISUALSTYLE
  5
33
102
{ACAD_REACTORS
330
29
102
}
330
29
100
AcDbVisualStyle
  2
Realistic
 70
     8
177
     2
291
     0
 71
     2
176
     1
 72
     3
176
     1
 73
     0
176
     1
 90
        2
176
     1
 40
0.6
176
     1
 41
30.0
176
     1
 63
     7
421
 16777215
176
     1
 74
     0
176
     1
 91
        0
176
     1
 64
     7
176
     1
 65
   257
176
     1
 75
     1
176
     1
175
     1
176
     1
 42
1.0
176
     1
 92
        8
176
     1
 66
   257
176
     1
 43
1.0
176
     1
 76
     1
176
     1
 77
     6
176
     1
 78
     2
176
     1
 67
     7
176
     1
 79
     3
176
     1
170
     0
176
     1
171
     0
176
     1
290
     0
176
     1
 93
       13
176
     1
 44
0.0
176
     1
173
     0
176
     1
  0
VISUALSTYLE
  5
3E
102
{ACAD_REACTORS
330
29
102
}
330
29
100
AcDbVisualStyle
  2
Shaded
 70
    27
177
     2
291
     0
 71
     2
176
     1
 72
     2
176
     1
 73
     1
176
     1
 90
        2
176
     1
 40
0.6
176
     1
 41
30.0
176
     1
 63
     7
421
 16777215
176
     1
 74
     0
176
     1
 91
        4
176
     1
 64
     7
176
     1
 65
   257
176
     1
 75
     1
176
     1
175
     1
176
     1
 42
1.0
176
     1
 92
        8
176
     1
 66
   257
176
     1
 43
1.0
176
     1
 76
     1
176
     1
 77
     6
176
     1
 78
     2
176
     1
 67
     8
425
  7895160
176
     1
 79
     3
176
     1
170
     0
176
     1
171
     0
176
     1
290
     0
176
     1
 93
        5
176
     1
 44
0.0
176
     1
173
     0
176
     1
  0
VISUALSTYLE
  5
3D
102
{ACAD_REACTORS
330
29
102
}
330
29
100
AcDbVisualStyle
  2
Shaded with edges
 70
    26
177
     2
291
     0
 71
     2
176
     1
 72
     2
176
     1
 73
     1
176
     1
 90
        2
176
     1
 40
0.6
176
     1
 41
30.0
176
     1
 63
     7
421
 16777215
176
     1
 74
     1
176
     1
 91
       10
176
     1
 64
     7
176
     1
 65
   257
176
     1
 75
     2
176
     1
175
     1
176
     1
 42
1.0
176
     1
 92
        8
176
     1
 66
   257
176
     1
 43
1.0
176
     1
 76
     1
176
     1
 77
     6
176
     1
 78
     2
176
     1
 67
     7
176
     1
 79
     3
176
     1
170
     0
176
     1
171
     0
176
     1
290
     0
176
     1
 93
        5
176
     1
 44
0.0
176
     1
173
     0
176
     1
  0
VISUALSTYLE
  5
3A
102
{ACAD_REACTORS
330
29
102
}
330
29
100
AcDbVisualStyle
  2
Shades of Gray
 70
    23
177
     2
291
     0
 71
     2
176
     1
 72
     2
176
     1
 73
     3
176
     1
 90
        0
176
     1
 40
0.6
176
     1
 41
30.0
176
     1
 63
     7
421
 16777215
176
     1
 74
     2
176
     1
 91
        2
176
     1
 64
     7
176
     1
 65
     7
176
     1
 75
     1
176
     1
175
     1
176
     1
 42
40.0
176
     1
 92
        8
176
     1
 66
     7
176
     1
 43
1.0
176
     1
 76
     1
176
     1
 77
     6
176
     1
 78
     2
176
     1
 67
     7
176
     1
 79
     3
176
     1
170
     0
176
     1
171
     0
176
     1
290
     0
176
     1
 93
        1
176
     1
 44
0.0
176
     1
173
     0
176
     1
  0
VISUALSTYLE
  5
3B
102
{ACAD_REACTORS
330
29
102
}
330
29
100
AcDbVisualStyle
  2
Sketchy
 70
    24
177
     2
291
     0
 71
     1
176
     1
 72
     2
176
     1
 73
     2
176
     1
 90
        0
176
     1
 40
0.6
176
     1
 41
30.0
176
     1
 63
     7
421
 16777215
176
     1
 74
     2
176
     1
 91
        2
176
     1
 64
     7
176
     1
 65
     7
176
     1
 75
     1
176
     1
175
     1
176
     1
 42
40.0
176
     1
 92
       11
176
     1
 66
     7
176
     1
 43
1.0
176
     1
 76
     1
176
     1
 77
     6
176
     1
 78
     2
176
     1
 67
     7
176
     1
 79
     6
176
     1
170
     0
176
     1
171
     0
176
     1
290
     0
176
     1
 93
        1
176
     1
 44
0.0
176
     1
173
     0
176
     1
  0
VISUALSTYLE
  5
36
102
{ACAD_REACTORS
330
29
102
}
330
29
100
AcDbVisualStyle
  2
Thicken
 70
    13
177
     2
291
     1
 71
     2
176
     1
 72
     2
176
     1
 73
     0
176
     1
 90
        0
176
     1
 40
0.6
176
     1
 41
30.0
176
     1
 63
     7
421
 16777215
176
     1
 74
     1
176
     1
 91
        4
176
     1
 64
     7
176
     1
 65
   257
176
     1
 75
     1
176
     1
175
     1
176
     1
 42
1.0
176
     1
 92
       12
176
     1
 66
     7
176
     1
 43
1.0
176
     1
 76
     1
176
     1
 77
     6
176
     1
 78
     2
176
     1
 67
     7
176
     1
 79
     5
176
     1
170
     0
176
     1
171
     0
176
     1
290
     0
176
     1
 93
        1
176
     1
 44
0.0
176
     1
173
     0
176
     1
  0
VISUALSTYLE
  5
30
102
{ACAD_REACTORS
330
29
102
}
330
29
100
AcDbVisualStyle
  2
Wireframe
 70
     5
177
     2
291
     0
 71
     0
176
     1
 72
     2
176
     1
 73
     0
176
     1
 90
        0
176
     1
 40
0.6
176
     1
 41
30.0
176
     1
 63
     7
421
 16777215
176
     1
 74
     1
176
     1
 91
        4
176
     1
 64
     7
176
     1
 65
   257
176
     1
 75
     1
176
     1
175
     1
176
     1
 42
1.0
176
     1
 92
        0
176
     1
 66
   257
176
     1
 43
1.0
176
     1
 76
     1
176
     1
 77
     6
176
     1
 78
     2
176
     1
 67
     7
176
     1
 79
     3
176
     1
170
     0
176
     1
171
     0
176
     1
290
     0
176
     1
 93
        1
176
     1
 44
0.0
176
     1
173
     0
176
     1
  0
VISUALSTYLE
  5
3C
102
{ACAD_REACTORS
330
29
102
}
330
29
100
AcDbVisualStyle
  2
X-Ray
 70
    25
177
     2
291
     0
 71
     2
176
     1
 72
     2
176
     1
 73
     1
176
     1
 90
        1
176
     1
 40
0.5
176
     1
 41
30.0
176
     1
 63
     7
421
 16777215
176
     1
 74
     1
176
     1
 91
        0
176
     1
 64
     7
176
     1
 65
   257
176
     1
 75
     1
176
     1
175
     1
176
     1
 42
1.0
176
     1
 92
        8
176
     1
 66
     7
176
     1
 43
1.0
176
     1
 76
     1
176
     1
 77
     6
176
     1
 78
     2
176
     1
 67
     7
176
     1
 79
     3
176
     1
170
     0
176
     1
171
     0
176
     1
290
     0
176
     1
 93
       13
176
     1
 44
0.0
176
     1
173
     0
176
     1
  0
DICTIONARYVAR
  5
79
102
{ACAD_REACTORS
330
76
102
}
330
76
100
DictionaryVariables
280
     0
  1
1:1
  0
DICTIONARYVAR
  5
78
102
{ACAD_REACTORS
330
76
102
}
330
76
100
DictionaryVariables
280
     0
  1
STANDARD
  0
DICTIONARYVAR
  5
77
102
{ACAD_REACTORS
330
76
102
}
330
76
100
DictionaryVariables
280
     0
  1
STANDARD
  0
DICTIONARY
  5
1A
330
19
100
AcDbDictionary
280
     1
281
     1
  3
BUMPTILE
360
1C
  3
DIFFUSETILE
360
1B
  3
OPACITYTILE
360
1F
  3
REFLECTIONTILE
360
1E
  3
REFRACTIONTILE
360
20
  3
SPECULARTILE
360
1D
  0
DICTIONARY
  5
12
330
11
100
AcDbDictionary
280
     1
281
     1
  3
BUMPTILE
360
14
  3
DIFFUSETILE
360
13
  3
FBXASSET
360
109
  3
OPACITYTILE
360
17
  3
REFLECTIONTILE
360
16
  3
REFRACTIONTILE
360
18
  3
SPECULARTILE
360
15
  0
DICTIONARY
  5
22
330
21
100
AcDbDictionary
280
     1
281
     1
  3
BUMPTILE
360
24
  3
DIFFUSETILE
360
23
  3
FBXASSET
360
BA
  3
OPACITYTILE
360
27
  3
REFLECTIONTILE
360
26
  3
REFRACTIONTILE
360
28
  3
SPECULARTILE
360
25
  0
DICTIONARY
  5
E84
330
67
100
AcDbDictionary
280
     1
281
     1
  3
ACAD_XREC_ROUNDTRIP
360
E85
  0
DICTIONARY
  5
E82
330
65
100
AcDbDictionary
280
     1
281
     1
  3
ACAD_ROUNDTRIP_2008_TABLESTYLE_CELLSTYLEMAP
360
E83
  0
XRECORD
  5
1C
102
{ACAD_REACTORS
330
1A
102
}
330
1A
100
AcDbXrecord
280
     1
270
     1
271
     1
  0
XRECORD
  5
1B
102
{ACAD_REACTORS
330
1A
102
}
330
1A
100
AcDbXrecord
280
     1
270
     1
271
     1
  0
XRECORD
  5
1F
102
{ACAD_REACTORS
330
1A
102
}
330
1A
100
AcDbXrecord
280
     1
270
     1
271
     1
  0
XRECORD
  5
1E
102
{ACAD_REACTORS
330
1A
102
}
330
1A
100
AcDbXrecord
280
     1
270
     1
271
     1
  0
XRECORD
  5
20
102
{ACAD_REACTORS
330
1A
102
}
330
1A
100
AcDbXrecord
280
     1
270
     1
271
     1
  0
XRECORD
  5
1D
102
{ACAD_REACTORS
330
1A
102
}
330
1A
100
AcDbXrecord
280
     1
270
     1
271
     1
  0
XRECORD
  5
14
102
{ACAD_REACTORS
330
12
102
}
330
12
100
AcDbXrecord
280
     1
270
     1
271
     1
  0
XRECORD
  5
13
102
{ACAD_REACTORS
330
12
102
}
330
12
100
AcDbXrecord
280
     1
270
     1
271
     1
  0
XRECORD
  5
109
102
{ACAD_REACTORS
330
12
102
}
330
12
100
AcDbXrecord
280
     1
 70
     1
 90
1959938040
 71
     1
  1
53327DA0-E9AE-4FF0-B8A7-CDFFA641308A
311
504B03040A00000800002A99D5423DEE336E79000000790000001B0000006175746F6465736B2D64657369676E2D7061636B6167652E786D6C3C3F786D6C2076657273696F6E3D22312E302220656E636F64696E673D227574662D3822203F3E3C666F726D6174733E3C666F726D61743E687474703A2F2F736368656D612E
311
6175746F6465736B2E636F6D2F64657369676E2D7061636B6167652F323030393C2F666F726D61743E3C2F666F726D6174733E504B03041400060808002A99D542D486FD9CA0000000F4000000130000005B436F6E74656E745F54797065735D2E786D6C7D8EC10E82300C865F65E91D8A1E8C310C0EEA1BF002731658846E
311
D98AC1B77784ABF1D8FE5FBFBF75BBCE937A534CCEB38643598122B6FEE978D0B0485F9C41B54DDD7D022595594E1A469170414C76A4D9A4D207E29CF43ECE46F218070CC6BECC4078ACAA135ACF422C856C0E68EA1BF5669944DDD7BCDE7B1F8E415D77AECB980613C2E4AC91FC167A2B244592486606FC29C8FD7F045B9A
311
EF7053A7E60B504B03041400060808002A99D5427FC868A2EC0000007C01000008000000636F72652E786D6C8D90416EC3201045AF82D856D880EBC4B6305189DD13F40208888B128365A0EAF18B13476A775DCDE8CF7F33A3CF4EDFF30D7C993558EF7A480A0C8171CA6BEBA61EA678410D0427CE56EFE32F1B044ECEA687
311
9B0C399B569F965D52DE45E362569DD7661765082642A06EB9E961509F6696854C313BC2B558A4BACAC914E4D9653825ABC1E388D5799FBD58B3423E1EA9104741513D0C04BDBEE306897333A2C3995031D6E20DB7032B3798B368E7E77DB51A198D869C6252217C40947C90B6C36D47C90BAEBB0AB372B3FF81D2A2FF0925
311
EB6245F7771F58809CE447EE03CECA2D8B5CEE41E5BAE5C67F00504B03041400060808002A99D54255019EA25F0000007C00000007000000636E782E786D6C4DCB3B0E80201045D1AD90E915ED2CF8AC45050C11660C8261F98AB1B07AC9C97D42D718D865D3E909258CFD00CCE24AC6E326A164D74DC0B4128928FF326038
311
472BA13128B1252AC747C6BAB984FC68F0B87FE8960A5C09FE86CFB69FBA01504B03041400060808002A99D542A9BD3EFC67010000020300000C0000006662782F636F72652E786D6C8D52ED8E8320107C15C2DF8B02F6BB419AB3ED3DC1BD0055EA912A1804D3C7BFF5A3E9F5D2348D0992999DDDD951BEBBD615EA946BB5
311
35296631C54899DC16DA94290EFE1CAD31DA09EEACF57FCA3032B25629EE612C78E96C682628B7C62BE30135B6501328DB56798CF20A2E296EF31F55CB58060F15ED256E647E91A58A590C34D409DE7A0706D038A43FB1389FAE9C8CB8E021E862627501D3F4592B87C5719564D92A4BA2C5E1C0A2F9175D47D97E7D8C967B
311
9664C745F64937074E7AB1E05ED73777B953D2AB028B84B259449751C2BED9664B37DB847DD0C5764639E9CB1F44A129DE14056DFC2C99EC8EB2160B064606E2DFB6109147ADECC00F119CF421C26B48F83168080442F6F254DDF6B800D4A9DC5B3707A6B0E14E75B20A0AA652343C9C8C2C741E1AC0664FFB242FFABCEE01
311
1F509A12AC490FD753F0FD743E4E9DA268948B3A7F45C6BA5A567773A3C5FB791FF4549EDBCABA77D4645A954C6192FEEF15BF504B03041400060808002A99D5423A8BE7797D0000009D0000000B0000006662782F636E782E786D6C4DCCD10AC2201886E15B91FFDC9638A7823A9A7521A3B921390DD3E8F2DB62071D7DF0
311
F0F1AAFEB306F476F9E553D4404E67402EDED3E4E3A2A196190B40BD5139A5F2770314C7D569D8198C5A72AACF8326378F35944D838F8F0307D9B53742AF985B21713B108AC585724C3B69ADE08C3129A131AAF995B6DDC3E60B504B03041400060808002A99D54256D1EF602A01000013020000310000006662782F423936
311
34453133442D374338392D344231332D384133372D3336394343383735353539392F636F72652E786D6C8D515B6EC32010BC8AC557AACA36D8C63111266AD2DEA01720405294182C1E558E5FA81DA9FDCB0F8B6667660796EEEFD3ADF856CE6B6B46802A080A658495DA5C4610C3B91C40B167D4591BFED04061F8A4469061
311
C0E8C5D938AF90B0262813126AAC542BC8BD570114E2962E23F0E24B4DBCE2312486BF563317577E5115AA523BF118F5C1A500C532249F801D48DF7DA0F6BDDC1E07527607D496C35BBB2DDB9E1C8FC316634C08AD1721A3316AB9CAB54C71F4592BF7AC4916331AF4F4882F9CE24149C01A98C6C2BE6CD027223B48760D7A
311
8578D7425A67FA3F519CE593A2A84D689B35EE22F380215A2F0D46A58DA7DB238CBACFD68522CFDB78255E00831544080FB8A1F5C24CEF4F967DB75AFA605DFADFCDF594C8082FBE7DC7689D5794CAEFFE52CDEB643F504B03041400060808002A99D5425B0EBB534E01000033030000300000006662782F42393634453133
311
442D374338392D344231332D384133372D3336394343383735353539392F636E782E786D6CD593CD6E022114855F85B06DE607B5A61A06932EFA045D748B70552A03137E9AFAF6BD285A372EBAEC864CCE3D9C73F385E19BEFD1922F08D1783750D6F69480535E1BB71F684EBBE685928DE0C1FB7467A3C4C911065A642AF8
311
3EF83C5549C34E669B50B5C61DAB1820FA1C144494CB4D62BD921603C035194518B7A035687233E2D70E02AE82E2F644D201C8DBEB07F1DB4F5029F2AEA408DE950EC1CB599BEE4C94282B631C68540718652B73F21AE2B1D532C996B5D7AE073BFD269172E15A998321A57CA0E5A4A26ED42247DEE150F09802D2ABA6749A
311
800A394DD62899107277365E3C8267E3D27251BD06C10774B3E57CB1C0B0F34CF06446A80E154026D054CC7A366FFA653363EF6CB5EE57EB197BEA9FD7F39E77C52EF8D67B5B2F610C043F11E55D0297A860BC2BE347F8AA8F681390B50FA73F804400B5F542E796F19FF974E7F78DB802FE05E207504B0304140006080800
311
2A99D542F7D484DAA405000081100000340000006662782F42393634453133442D374338392D344231332D384133372D3336394343383735353539392F6F626A656374732E786D6CAD575D6FDB3614FD2B82F6B23DC8B26C274D06458363D785D1A52D6AB4D88301839228850BF501924A9DFDFA1D4A942CB976EA0D7D9144
311
8ABCBCF7DC733FE8FFB1CFB8F54C8564457E677BA3B16DD13C2A6296A77776A512E7C6B6FE087C5114AAB7CCB67292D13B5B4FDB819F8AA22ACD544C1352717534BBBAFFCB9211CDA96D459C487967CBE8916664442A55C4543E8D62A2C8284DF6236FD42C1C8A4D05291F8F849644D05C4153CCE79062354A79C3E1D87603
311
DFD5FF035F3FCDAAE9F9556E6DCFF07C964B45F2E8BBC38EC44CBDD9F2EDE4EAD6B99ACDA6CEEC7AE239F7ABFBA5E3BD998E17D78BC5EDFCED2D0E964A4092D144D0C40EDE011BC122DF6D7E057EC572359D9825C641AEA0CF4C7BCA0E2696E7BBCD9ACE3A63E429F5A322CF69546305346AFB8CE89896348FE173462534EB
311
21341E0E3D8D63EFF7548FCD91FDE9CB10E8EFE8096A756FDF7D4D8BF06F98202F6190905433B0C1D218DA70757C40382C0A6EFE3169654451C108B7380B05112F7680A57A49E00FC468260B1D0DDA023B80179ADF43BA208C7ECCF3535A2615E79AC6765047C10EB14295AC3563FF5071D0BE8F0C7482AF341B6E8C41EAA5
311
A47670DB50E4E6884D0D9056C2490A97C34CBD733A393274A1E374BDB483F7AB70BFD1B17BFAF0521425154AD307D46A1DD7BE354A4627EF22CFE90DF6912A07503E03F90F08F5832AF09B60FBD97E664E5182E432294406DF5863CB19E331B6BCFAA9BF7B5FBEDB6D1E7AEF1C9E70B686EA27E039B4A1EFCB1E9C81FF0CC2
311
17626A4CDB4484236D3CB01C00699258BCC014F27012EEED608D2C87AC8C5D84071E4C86BACFF8F45D230689A23EA9F7CE81E5515ABC204103B69A9150A321BF51F0E0A7EFD2597DB059760EDEAB9F42D7F972F37E53898444F4C1C4F492262C670A25EEC09BBE4203CC07163DD1976F858861E8F7786FFA7867E62809B435
311
E61AF8B4CDE97A7038797040847D69A1D38DFF831360842EAC3DF90F4C46947392D3A26ACF7DB57EA06C3410EB60D74CEE0ACCA1B08034CD9FA31844918E042B35885DB5EA92E6E88C755FD61FC0483BB87FF993BCF4B35778C8BD51C10BB10B5F764D5A3A09F5D721B70D06AE9602BAD741D2C6BF017D17B324A92492E009
311
5CBFAE177DDFE9B48014D14A6DA26506FB115C4418D2B67251AD0541252DF21D43DD44DC9D3CA02F1F901A06D402CF692C294F768CF32ADB258CA31AED32529E81E3FFEB1F5659B9235951E5EA8CEC81EAA80E43DD07EC95DF888A1EED6053BF9D7BE4DE98C667C8A06BC909AC06AEBD9A4E276F96F3B1F3169D92335BADC6
311
CEFDCDFC8DB358AE56F3EB99371DDFCC5B3F359A047E5B6AFA110D2FA1B4F99560C67D5FD6881F9304ECE08128B97DD78467FBFEB21EA117F65DEC41BDEC36CEE367F47D34FEB180C3CA9382D659C969467345740C3DE80FFE99A0CF1828D3CCAF3392D20BA47C7CB73932063317ECFBA4E39D7E3BDA6B66173A204F0A518F
311
5516E684F1A38D6983E4A8CC53835FEB93EEDD149A76A847C631E84C65C1598C3C185B292D32AA900D2F284222A312D4EBF7F4B1B97B5CB0FBB9E9101509396D3579246892B94458805A55A486F3D62F68EA745F7567A3DC8E9EF03099C2B6C0993B1B4DBA621195A310055AB742B57070A9DFC9A3F12779CAD16B379BBA71
311
B74B633328C9DD924BFA27635793C28D01482325FA063444F04EAD4CE0D7BA99FFD17F32BC55C7220A9F61A53A5B0E139D31F53108D1C628735B4013F3648EDE23505F37CB1BD56B06885C74CB7A95048D54471191D63705AD9F5169BEFCE4A243B1D61FAD9257297C79B924475090B9D2010E16811546664914A8BAF87DFB
311
4914B8C966D68A8102D6AFFB9BEBDFB68B22CB8ABC99DACECD7DD8DA3CE2761B6F911CA8BE96C8ED64EC4DB6F575C0DC50762191744462F984097856B00EE881FBC1CBE6CEE8619171BFF184AB5D71C4D0F5D232856D7658DFCFAD1A1C341E39B51043FA4AA923A6BFA07CF546E0D64BA1AA402F1FFC0B504B030414000608
311
00002A99D542000000000000000000000000350000006662782F42393634453133442D374338392D344231332D384133372D3336394343383735353539392F76657274696365732E62696E504B03041400060808002A99D542F270F1330600000004000000360000006662782F42393634453133442D374338392D34423133
311
2D384133372D3336394343383735353539392F747269616E676C65732E62696E636660600000504B03041400060800002A99D542000000000000000000000000370000006662782F42393634453133442D374338392D344231332D384133372D3336394343383735353539392F617474726962757465732E62696E504B0304
311
1400060808002A99D542D5987DFC8F00000041010000360000006662782F42393634453133442D374338392D344231332D384133372D3336394343383735353539392F6469726563746F72792E786D6C858F410EC2201045AF4266AF15DDB800BA74E7C21B903225242D6328188F2FA5C4183471359997F9FF81E89FF3C41E
311
1816475E02DF1F80A11FC8386F25A438EECEC07A250251FC3803E6F58C12560C4AD840E95E91C151A72936F496F35732D860FE635F62C8F2DA16B505C545B74125BAA2FA9E05D7CC053D063734D5C7665FD55B6B8D15D5E9BFEAFD8490FFA45E504B03041400060808002A99D54217223593FE000000A00100003B00000066
311
62782F42393634453133442D374338392D344231332D384133372D3336394343383735353539392F7265736F75726365732F636F72652E786D6C8D504B6E833010BD0A9A6D65B0A12401194725A427E8052C332156828DFCA97AFC9A844AEDAE9B99D1FB689E1E3F7ECDF7EC139DD7D674C0720A191A65476DA60E62B89003
311
6447C19DB5E1970C322367EC608541F0C9D9B86C90B226A009093576C40D94DE63804CDDD3D18157579C652E63480A7FCB17A96E72C29CE5894E3AC17D702940F67CB24E100EBD8D4EA1E7C593153C463D6E1A3DA69FFAA2D18138EFCBBEDFF78CD4C3C0C8EB3B3D90FE743893DD8995FDB9EEDF6833F062350B1EF4FC9351
311
3994014710256515A13B52B20FD6B4B4694BF642EBB6A2BC58E57F4C7119FF698ADA84AADCE23E6D1E044B411E84E0C5DA575A8F32D35EBB15DF504B010214000A00000800002A99D5423DEE336E79000000790000001B00000000000000000000000000000000006175746F6465736B2D64657369676E2D7061636B616765
311
2E786D6C504B010214001400060808002A99D542D486FD9CA0000000F40000001300000000000000000000000000B20000005B436F6E74656E745F54797065735D2E786D6C504B010214001400060808002A99D5427FC868A2EC0000007C010000080000000000000000000000000083010000636F72652E786D6C504B0102
311
14001400060808002A99D54255019EA25F0000007C000000070000000000000000000000000095020000636E782E786D6C504B010214001400060808002A99D542A9BD3EFC67010000020300000C00000000000000000000000000190300006662782F636F72652E786D6C504B010214001400060808002A99D5423A8BE779
311
7D0000009D0000000B00000000000000000000000000AA0400006662782F636E782E786D6C504B010214001400060808002A99D54256D1EF602A010000130200003100000000000000000000000000500500006662782F42393634453133442D374338392D344231332D384133372D3336394343383735353539392F636F72
311
652E786D6C504B010214001400060808002A99D5425B0EBB534E010000330300003000000000000000000000000000C90600006662782F42393634453133442D374338392D344231332D384133372D3336394343383735353539392F636E782E786D6C504B010214001400060808002A99D542F7D484DAA405000081100000
311
3400000000000000000000000000650800006662782F42393634453133442D374338392D344231332D384133372D3336394343383735353539392F6F626A656374732E786D6C504B010214001400060800002A99D54200000000000000000000000035000000000000000000000000005B0E00006662782F42393634453133
311
442D374338392D344231332D384133372D3336394343383735353539392F76657274696365732E62696E504B010214001400060808002A99D542F270F13306000000040000003600000000000000000000000000AE0E00006662782F42393634453133442D374338392D344231332D384133372D3336394343383735353539
311
392F747269616E676C65732E62696E504B010214001400060800002A99D5420000000000000000000000003700000000000000000000000000080F00006662782F42393634453133442D374338392D344231332D384133372D3336394343383735353539392F617474726962757465732E62696E504B010214001400060808
311
002A99D542D5987DFC8F0000004101000036000000000000000000000000005D0F00006662782F42393634453133442D374338392D344231332D384133372D3336394343383735353539392F6469726563746F72792E786D6C504B010214001400060808002A99D54217223593FE000000A00100003B000000000000000000
311
00000000401000006662782F42393634453133442D374338392D344231332D384133372D3336394343383735353539392F7265736F75726365732F636F72652E786D6C504B0506000000000E000E0080040000971100000000
310
504B03040A00000800002A99D5423DEE336E79000000790000001B0000006175746F6465736B2D64657369676E2D7061636B6167652E786D6C3C3F786D6C2076657273696F6E3D22312E302220656E636F64696E673D227574662D3822203F3E3C666F726D6174733E3C666F726D61743E687474703A2F2F736368656D612E
310
6175746F6465736B2E636F6D2F64657369676E2D7061636B6167652F323030393C2F666F726D61743E3C2F666F726D6174733E504B03041400060808002A99D542D486FD9CA0000000F4000000130000005B436F6E74656E745F54797065735D2E786D6C7D8EC10E82300C865F65E91D8A1E8C310C0EEA1BF002731658846E
310
D98AC1B77784ABF1D8FE5FBFBF75BBCE937A534CCEB38643598122B6FEE978D0B0485F9C41B54DDD7D022595594E1A469170414C76A4D9A4D207E29CF43ECE46F218070CC6BECC4078ACAA135ACF422C856C0E68EA1BF5669944DDD7BCDE7B1F8E415D77AECB980613C2E4AC91FC167A2B244592486606FC29C8FD7F045B9A
310
EF7053A7E60B504B03041400060808002A99D542B8635137EB0000007C01000008000000636F72652E786D6C8D90D18E832010457F85CCEB06056D8D1AA431D57EC1FE00016A492B1881CD7EFE626B93DDB77D9AC99D7B6626979DBEE707FAD2AB37CE76403302485BE994B15307315C710DE8C4D9EA5CF8650364C5AC3BD8
310
64E06C5A5D5C76493A1BB40D49B54EE95D14DEEB00483E52D38197373D8B4CC4901CFE9E2D42DEC5A433FAEE121CA351E875C4A8B4CF5C8D5E8197653D1C9AFE8C2F0329F161EC2FB8A6FD808B6A240DA9C6635D9F59BEC19C0533BFEFCB558BA015F082D012930A17F493362D69DA827E90635B12966FF63F505CD43FA168
310
6C288BFDDD17E681D3F4C873C059BE6591CA33A854B7DCF80F504B03041400060808002A99D54255019EA25F0000007C00000007000000636E782E786D6C4DCB3B0E80201045D1AD90E915ED2CF8AC45050C11660C8261F98AB1B07AC9C97D42D718D865D3E909258CFD00CCE24AC6E326A164D74DC0B4128928FF32603847
310
2BA13128B1252AC747C6BAB984FC68F0B87FE8960A5C09FE86CFB69FBA01504B03041400060808002A99D54248D23D2067010000020300000C0000006662782F636F72652E786D6C8D52ED8A8330107C9590BF474CD4B6688929A51F4F702F906AEA49359198481FFFD68FE2F528A50831CCECECCE8EF2DDBDA951AF6C5719
310
9DE1306018299D9BA2D26586BDBB9204A39DE0D618F7A70C232D1B95E101C68297D6F8768672A39DD20E506D0A3583B2EB94C328AFE192E12EFF518D0CA47750D1DD8256E63759AA200C80863AC13B67C1009A860C2716D7CB9DD30917DCFBAA98D9AA8069D5B552168B384E8EAB747F20E7238BC9EAB43F9324DC1F49B439
310
B1946D4EEB2439703A88057755F370975B259D2AB088581813B62151F81DA65B966EA3F08BADB731E374287F12F9B6F850E42BEDE268B63BC93A2C42303212FFB685881CEA640F7EA8E07408115E63C2CF41432010B29397FAB1C70DA05EE5CED8153085F10BD5CBDA2B98CAD0F8703AB1D0796C009BBDEC13BDE9F3BE077C
310
40A94BB0261D5C2FDE0DD3F934758EA25596F4EE8EB4B18DAC177393C5E55C06BD94E7A636F613359D57A5739874F87BC52F504B03041400060808002A99D542F8B036A97E0000009D0000000B0000006662782F636E782E786D6C4DCCD10A83201886E15B91FFDCB5EC9F25A8B185BB8F581692E9703976F9ABD1C18E3E78
310
F87865FB593C79DBF4723128284F6720363CE2E0C2A420AF236D80B45AA618D7BF1B90D02F56C1CEA0E594627E1E34D8B1CF7EDDD4BB301FD8A1286F35325A73448ADC70DA6075A1D7DA88AEBA2363C240A165F12B6DBB87F517504B03041400060808002A99D542D65CAEA12B01000014020000310000006662782F433439
310
31423734322D373634342D343645362D383433352D4137453943334634323239452F636F72652E786D6C8D515B6EC32010BC0AE22B5585CD2B4E1C61A2364A4FD00B109BA42831583CAA1CBF503B52FB971F16CDCECC8E76C5FE3EDEC0B7F6C138DB41526108B4EDDD60ECA583299ED11682BD14DEB9F887068155A3EE6081
310
A11417EFD2B440BDB351DB9851EB06BD802A041D21E86FF9D3C1D07FE951552AC5CC08D76A52FD555D7445AADCCE3C2942F4390098879417CA036FC9FB8653B4693847BC393668CBD91ABD6D8EED817D704ADBA3A867A114299961919B21C73167A3FDB326452C4534E3237EEFB58A7A809262C2106E10259FA4DDE17647C9
310
2B5EEF181675A1FF13A5697852948C8D8C2E7167598092887A6E4831B874BA3DC2E8FBE47C0465DE2AE8FE054A5C6142B6A46999A8676A5E40F66CF8E219A2F379C1ABEB29B3D962DC7029EA72A35C7E0F986BB9A7FC01504B03041400060808002A99D5423DA974445701000033030000300000006662782F433439314237
310
34322D373634342D343645362D383433352D4137453943334634323239452F636E782E786D6CBD93CD6EC32010845F0571ADFC839D46498489D4439FA0875E316C121A1B2CC055F3F65D1292E69243A5AA1764CD0E33AB4F986FBFC6817C820FC6D98EB2B2A604AC72DAD87D47E7B82B56946C05F7CEC53B1B25568ED0D124
310
53C1F7DECD539634ECE43C445407638F59F410DCEC150494D34D323825070C005BCC28C2D883D6A0C9CD885F3BF0B80A8AFD89C40390D79777E2FA0F5031F02AA5085EA50EC1D3999BEE4C94A84186D0D1A00E30CA52CED16908C752CB284B565EBB1EECF49344D2856BE5EC0D49E51D4D271579A31239F20A878287E8915E
310
36C5D30454C8691A8C9211215767E3C523F86C6C5C2EB2D720788FEEB659AE5618769E091ECD08D9A13CC8089A8AA6666D512F8B86BDB1F5A65E6F1AF6543F6FDA9A57C92E78EFDC902F610C783711E56C041BA960BC4AE347F8B28F68E391B5F3A75F804400B9F542E796F1977CD8B25D2CFE914F757EDF88CBE35F20BE01
310
504B03041400060808002A99D542EDABE049630700009A1B0000340000006662782F43343931423734322D373634342D343645362D383433352D4137453943334634323239452F6F626A656374732E786D6CED59DD73A33610FF5718FAD23E189BD8C9251DC28D635F6E3CD75C6FEA5EA70F9E616490891A211849E4E2FEF5
310
5D7D80819804B7E9DB3DD8809056BBBFFDD412BC7FCAA8F388B92039BB767D6FE23A98C57942587AED967237BA749DF761C0F35C36A6B90E4319BE76D5B01B0629CFCBC20E2578874A2A3BA3B7377F3A22C60CBB4E4C9110D7AE88EF71863C54CA3CC1E2C14B90445EBA7BF27CCF4C6C934D392AEE3B440BC43193C0298C33
310
A0E218A6FCF6E3C41D87C158BD0F03F56F674D07CD9AF5CF1A6BA9DB5C12262462F133963A64A683589AFAB3E587B3F3ABD1F96C361DCD2ECEFCD1CDEDCD72E4BF9B4E16178BC5D5FCC315B0B7CD736A654A70815902FADBBBA11F8CD59B5A748BC031AEE39C311C6B20012A2D569720C102B66AC037693FFA4AA2C66B2D61
310
E379A6DE5B161AC3D33695BE59C38068D10541EC7695C4D5B5295FBEFD0B0417438C920B2C815B213968D7C2C3C12BDC70128CCD68186C0FBA20C2C990C49C20EA50B2E588835260AA9A1206668125A39C8303294749A035675EB76D0B3CF375D739C6E5AEA45479861B6AC78AC0FDB0149A33F237E607EE9BC8004F206D49
310
98BCB45CCA7D81DDF02A18EBC1305097E9997D6980747614A5422362DE76045D28D75F2DDDF0D3EDF669ADC2C1F1CD0B9E17984B65744A8F9A2F30647B5528D96DFD419A530B401803AA5D7900E53740FE33448F032BA0374E9E664F333B5772C4C42EE719E8C69938A309FC4D1C5FFFABFBC65D30AE17B7B5D78727B8A982
310
EAF2BFE3D996416365F96FC019068F60F0399FDA57EB1851B0E73BC2002065240ECD610842FB6EFBE4862B089C10E86115A2A10F2203BB8F701B8C2D9983562AF7B25EC70051BBC774889200366D91C0468F9E3E42F6E0243EA8A929621FBCE76F62AEF3E5FAD3BAE43B14E33BEBD34BBC238C48C89AC7196A61DE92E801EF
310
BFE53C01419FE3BD6EE29DD9AD04A0AD3057C0A71508EAE1B0736B8318D6A5B90A37C12B3B80102A5737E8DF1111634A11C37959ED5B473765A8B5C7DB9AC10DCF0CC4D3B38E0973FC485455014E7398D16214F27ECC49A14074C38F46B23A687A3DD27D5D7D068BACE7F7CC5A3108BD0CD1DF75D03A8243CBB22BA42D10B5
310
C0DB43388F739AF368BB8F4CA473A1960036DADEF2478B28C47AA32445053C48FB5D155252236D9490DDAE1410578FB0F8C76AD134878937F5CF9DE67FC71967106DC17711B77ED7D92322194A71B44349DF76CDDD6ADA4293EC21CDF18E825CE491C87D84643449707A0A342711BF7A53EA29CD85200C0BC85747C16FA231
310
F12090186D562C2BAD76802622CAB044F4140414991E7075DAD1356E0CA5C3EB3CD6D6FB92C69A44FF278BE0086AC99C45044A51C821AF32EE7BE71043DAE81A943BF882B555B4B518B4841222DE47DF3049EFE529A81BF23DB8C77024296594172806B31E40F699AF28A57678DFA2F841E58F282EE95B1988C07417114ACB
310
2C821F6170F218E2DA75607A1185067113FB24CEA02843B2E44336B9389F3CDBC7D40CDD10D8D868472884ED2843450FEAAD80A8EB11A706DF52EF51EAB6CC8A086579C906198A37ED7A9325DF55AB223B905F552A42D95811B604C380305967D52A6683A9EBC00A6EA403D53E12282BA83985BD9278FCDA9B34E5DE0DB8F5
310
D3B7DD2083C2AF477BCD883AAB60B03CB60A03F10DC9F8DE0DD7FA3ABA81FA3BC1C921D557B566B30204C454242F39B12AFABA82F2C6D6686E7887A4D87C3459B7BA7E5D79D0FD08C6B0066A977AE14A019D612691AA4CEED40DFD0D41086ED130E32B95534FA1324F125D35227A4BFAD4D92A235A9B66C42BEE31CB33F8B1
310
0D61312D13BC41897888EE248DD644B16EA5F4325261FCA280BF7E5C77E0819101227D51051EFED6596B4717AA5C3A4A44DE97D996210241B0255A6A74E3152CB51AA9B45C5FD59902EA2E3030ABE2D9F79345B31DF1FD64915AC3F84F278B9BFD2F68DFEC8B34D279ACECFAA463409D9F1495B73806E8B6434DB5CE222699
310
5BF9AD33451014AB283FB81AAB828621D8C7F1BFCEDA7D59D06CD7E1FFB4ACED3FAB384ECA2AADC9AA4B75A4725D3573D8F9747AF66E399F8C3E402B7634BBBD9D8C6E2EE7EF468BE5EDEDFC62E64F2797F31A4DEDA8615007339DBBE0D904B56A583D590CA02B2B724A1238CD274E8A21E64B38D30F689FF30C0B489ECD66
310
77629BF203563F9A3EA7445B8A2B4EEE113488A980B40E1895B16C8F3B3F406B52C241FBDA85A691F7007FD62A5D0732CFB50BAD0249622CBC2DB49954434F138794AB73BF2506F82096AA946816D5CFF52A854D2BFCD75386A4012B57AB8701855B01DDAF568742F366798A4F12BC62C741126EB7A5846ACDC87218A885D1
310
DB1CD46F64A3843DD8AD9FC0755F16CBF7F49C1622833E19BC680486EA48229EEA7EB762CCB2345F7E19439FCD59FDEA14B44C4197C3298D3806632E5541055604566169164882A92E7EDE7CE1397CE2C91C5D15393F3E5D5EFCB459E459963333B499C3A92C810F45CEFA1E3EFB241B281EB06AAE8BCDD9C43FDBE8A6B6ED
310
B3475B24B0A7AA2218A88A092548C7E4C02E9F35A86CFB72AC54D199BE5A3A36884233C0D8D1B31EAFF9C8E5800FA9CF29CA63B49F57D2BED8D71EEBA960131C3AD2E13F504B03041400060800002A99D542000000000000000000000000350000006662782F43343931423734322D373634342D343645362D383433352D41
310
37453943334634323239452F76657274696365732E62696E504B03041400060808002A99D542F270F1330600000004000000360000006662782F43343931423734322D373634342D343645362D383433352D4137453943334634323239452F747269616E676C65732E62696E636660600000504B03041400060800002A99D5
310
42000000000000000000000000370000006662782F43343931423734322D373634342D343645362D383433352D4137453943334634323239452F617474726962757465732E62696E504B03041400060808002A99D542D5987DFC8F00000041010000360000006662782F43343931423734322D373634342D343645362D3834
310
33352D4137453943334634323239452F6469726563746F72792E786D6C858F410EC2201045AF4266AF15DDB800BA74E7C21B903225242D6328188F2FA5C4183471359997F9FF81E89FF3C41E1816475E02DF1F80A11FC8386F25A438EECEC07A250251FC3803E6F58C12560C4AD840E95E91C151A72936F496F35732D860FE
310
635F62C8F2DA16B505C545B74125BAA2FA9E05D7CC053D063734D5C7665FD55B6B8D15D5E9BFEAFD8490FFA45E504B03041400060808002A99D542ABC87FAFFE000000A00100003B0000006662782F43343931423734322D373634342D343645362D383433352D4137453943334634323239452F7265736F75726365732F63
310
6F72652E786D6C8D504B6E833010BD0A9A6D65B02189001947B42427E8052C33A156828DFCA97AFC9A40A576D7CDCCE87D344F8F9FBFE647F689CE6B6B3A6039850C8DB2A336530731DC480DD95970676DF82583CCC8193B5861107C72362E3BA4AC096842428D1D7107A5F71820538F7474E0D507CE3297312485BFE78B54
310
773961CEF244279DE03EB81420DB9EAC1384436FA353E879B1B182C7A8C75DA3C7F453DF343A1055550F87A67F25D78156E470E9AFA466FD40CAD38536F47439D6F51B2F56B3E041CF3F199543197004515256117A22257B674D4B9BB6642FF4D8569417ABFC8F292EE33F4D519B50957BDCCDE641B014E449085EAC7DA5F5
310
2C33EDB55BF10D504B010214000A00000800002A99D5423DEE336E79000000790000001B00000000000000000000000000000000006175746F6465736B2D64657369676E2D7061636B6167652E786D6C504B010214001400060808002A99D542D486FD9CA0000000F40000001300000000000000000000000000B20000005B
310
436F6E74656E745F54797065735D2E786D6C504B010214001400060808002A99D542B8635137EB0000007C010000080000000000000000000000000083010000636F72652E786D6C504B010214001400060808002A99D54255019EA25F0000007C000000070000000000000000000000000094020000636E782E786D6C504B
310
010214001400060808002A99D54248D23D2067010000020300000C00000000000000000000000000180300006662782F636F72652E786D6C504B010214001400060808002A99D542F8B036A97E0000009D0000000B00000000000000000000000000A90400006662782F636E782E786D6C504B010214001400060808002A99
310
D542D65CAEA12B010000140200003100000000000000000000000000500500006662782F43343931423734322D373634342D343645362D383433352D4137453943334634323239452F636F72652E786D6C504B010214001400060808002A99D5423DA9744457010000330300003000000000000000000000000000CA060000
310
6662782F43343931423734322D373634342D343645362D383433352D4137453943334634323239452F636E782E786D6C504B010214001400060808002A99D542EDABE049630700009A1B000034000000000000000000000000006F0800006662782F43343931423734322D373634342D343645362D383433352D4137453943
310
334634323239452F6F626A656374732E786D6C504B010214001400060800002A99D5420000000000000000000000003500000000000000000000000000241000006662782F43343931423734322D373634342D343645362D383433352D4137453943334634323239452F76657274696365732E62696E504B01021400140006
310
0808002A99D542F270F13306000000040000003600000000000000000000000000771000006662782F43343931423734322D373634342D343645362D383433352D4137453943334634323239452F747269616E676C65732E62696E504B010214001400060800002A99D5420000000000000000000000003700000000000000
310
000000000000D11000006662782F43343931423734322D373634342D343645362D383433352D4137453943334634323239452F617474726962757465732E62696E504B010214001400060808002A99D542D5987DFC8F000000410100003600000000000000000000000000261100006662782F43343931423734322D373634
310
342D343645362D383433352D4137453943334634323239452F6469726563746F72792E786D6C504B010214001400060808002A99D542ABC87FAFFE000000A00100003B00000000000000000000000000091200006662782F43343931423734322D373634342D343645362D383433352D4137453943334634323239452F7265
310
736F75726365732F636F72652E786D6C504B0506000000000E000E0080040000601300000000
  0
XRECORD
  5
17
102
{ACAD_REACTORS
330
12
102
}
330
12
100
AcDbXrecord
280
     1
270
     1
271
     1
  0
XRECORD
  5
16
102
{ACAD_REACTORS
330
12
102
}
330
12
100
AcDbXrecord
280
     1
270
     1
271
     1
  0
XRECORD
  5
18
102
{ACAD_REACTORS
330
12
102
}
330
12
100
AcDbXrecord
280
     1
270
     1
271
     1
  0
XRECORD
  5
15
102
{ACAD_REACTORS
330
12
102
}
330
12
100
AcDbXrecord
280
     1
270
     1
271
     1
  0
XRECORD
  5
24
102
{ACAD_REACTORS
330
22
102
}
330
22
100
AcDbXrecord
280
     1
270
     1
271
     1
  0
XRECORD
  5
23
102
{ACAD_REACTORS
330
22
102
}
330
22
100
AcDbXrecord
280
     1
270
     1
271
     1
  0
XRECORD
  5
BA
102
{ACAD_REACTORS
330
22
102
}
330
22
100
AcDbXrecord
280
     1
 70
     1
 90
1959938040
 71
     1
  1
01933DE1-E265-447C-992D-289BF3653846
311
504B03040A00000800002999D5423DEE336E79000000790000001B0000006175746F6465736B2D64657369676E2D7061636B6167652E786D6C3C3F786D6C2076657273696F6E3D22312E302220656E636F64696E673D227574662D3822203F3E3C666F726D6174733E3C666F726D61743E687474703A2F2F736368656D612E
311
6175746F6465736B2E636F6D2F64657369676E2D7061636B6167652F323030393C2F666F726D61743E3C2F666F726D6174733E504B03041400060808002999D542D486FD9CA0000000F4000000130000005B436F6E74656E745F54797065735D2E786D6C7D8EC10E82300C865F65E91D8A1E8C310C0EEA1BF002731658846E
311
D98AC1B77784ABF1D8FE5FBFBF75BBCE937A534CCEB38643598122B6FEE978D0B0485F9C41B54DDD7D022595594E1A469170414C76A4D9A4D207E29CF43ECE46F218070CC6BECC4078ACAA135ACF422C856C0E68EA1BF5669944DDD7BCDE7B1F8E415D77AECB980613C2E4AC91FC167A2B244592486606FC29C8FD7F045B9A
311
EF7053A7E60B504B03041400060808002999D542AAE0C4A6EA0000007C01000008000000636F72652E786D6C8D904D6EC3201085AF82665B6103B6F36361A258CE0D7A0104C44189C13250F5F8C58923B5BB6E98D1E37D33A3C74FDFD3037D992558EF3AA00501649CF2DABAB18314AFF800E824F8E27DFC6503E4E4643A58
311
65107C5C7C9A374979178D8B59755E9B4D94219808483D72D341503733C942A6981DE15ECC52DDE5680AFAEE329C92D5E8B5C4EA3CCF5EAD5940D4CD7EA8CE648FEB810DB8EEAB33EEFB03CB4F73B9909ED56C57F37285058F767AEF578B91D168108CD00A931D66F4931E5B726CE9E183346D4578B9DAFF4069D6FF849275
311
B162DBB92F2C80A0F990E787E0E59A452ECFA0725D73133F504B03041400060808002999D54255019EA25F0000007C00000007000000636E782E786D6C4DCB3B0E80201045D1AD90E915ED2CF8AC45050C11660C8261F98AB1B07AC9C97D42D718D865D3E909258CFD00CCE24AC6E326A164D74DC0B4128928FF326038472B
311
A13128B1252AC747C6BAB984FC68F0B87FE8960A5C09FE86CFB69FBA01504B03041400060808002999D5424C78F05F65010000020300000C0000006662782F636F72652E786D6C8D52ED8E8320107C15C2DF8B821FFD0CD2D4B46F702F40957AA40A06C1F4F16FFD68BC5E9AA6314132B3B33B3BCA0EF7A646BDB49D323AC3
311
51483192BA30A5D25586BDBB065B8C0E9C5963DC9F328CB46864860718735659E3DB192A8C76523B40B529E50C8AAE930EA3A2864B86BBE247362214DE4145770B5B51DC4425C328041AEA38EB9C0503681A329C985F2F7746269C33EF5539B3AA8469EAAAA4C53C5D6D4EC9916E82F4149F82344F8E419E6F633856E733CD
311
E3345EA78C0C62CE9C6A1EEE0A2B859325E6318D9280AE8338FA8E767BBADB47DB2FBADA279491A1FC49E4DBF2439157DA25F16C7792759847606424FE6D0B1139D4891EFC10CEC81022BCC6849F8386402064272EF5638F1B40BD2C9CB12930A5F10BD58BDA4B984AD1F83032B1D0796C009BBDEC13BFE9F3BE077C40A12B
311
B0261C5C2FDE0DD3D934758EA29536E8DD1D69631B512FE6268BCBB90C7A292F4C6DEC276A32AF4AE630C9F0F7F25F504B03041400060808002999D5425CA019767E0000009D0000000B0000006662782F636E782E786D6C4DCCD10A83201886E15B91FFDC35CD9903352AD97DC4B290990EA76397BF1A1DECE883878F57B6
311
9FD5A3B74D2F178302723A03B2E11E2717160525CF58006AB54C31E6BF1BA030AE56C1CEA0E59262791E34D9792C3E6FEA5D781CC8EA8E194E1ADC35C66026EA1E5F2925F876A19C0EDC0CBDA0506959FD4ADBEE61FD05504B03041400060808002999D5420BDE10D02C01000014020000310000006662782F343341344436
311
31372D413744442D343833422D393232312D4635323632433644434238322F636F72652E786D6C8D515B6EC32010BC0AE22B55651BF03311264A62F504BD8003244589C1E251E5F885DA91DABFFCB068766676B44BF78FE90EBEA575CAE81EE21C4120353742E96B0F83BF641D047B46AD31FE0F0D023D4EB28709868C5EAD
311
09F30A71A3BDD43EA2DA08B982A373D243C0EFF1D343C7BFE434E663F091E16EF93CF2DB789539CE633BF21875DEC6006019925EC8AAF2500D0D6EB3433B0C59D595C76C4B08CE3E6AD29053339C8E1DA1C5226434042556B912318EBA28695F35496246BD9A9EF1B995A3970232827099A12623F8136F7768BBC3DD3BAA77
311
25A245A2FF138559BC280A4AFB92AC711799830CD36269302A4C38DF9F61E46336D683346FE3247F830CE508E312D76D4D8B851A17103D9B6AF574DED8B8E0CDED1CD938B2927153315AA41BC5F27BC058D33DD90F504B03041400060808002999D542556266814E01000033030000300000006662782F3433413444363137
311
2D413744442D343833422D393232312D4635323632433644434238322F636E782E786D6CD593CD6E022114855F85B06DE607B5460D8349177D822EBA45B8562A03137E9AFAF6BD285A372EBAEC864CCE3D9C73F385E1DBEFD1922F08D1783750D6F69480535E1BF731D09CF6CD8A92ADE0C1FB7467A3C4C911065A642AF847
311
F079AA9286BDCC36A16A8D3B563140F439288828979BC47A252D06806B328A30EE406BD0E466C4AF3D045C05C5DD89A40390D79777E2779FA052E45D4911BC2B1D8297B336DD99285156C638D0A80E30CA56E6E435C463AB65922D6BAF5D0F76FA4D22E5C2B53207434AF940CB4945DDA8458EBCC3A1E03105A4574DE93401
311
15729AAC513221E4EE6CBC7804CFC6A5E5A27A0D820FE866CBF9628161E799E0C98C501D2A804CA0A998F56CDEF4CB66C6DED87AD3AF376CF5D43F6FE63DEF8A5DF09DF7B65EC218087E22CABB042E51C17857C68FF0551FD126206B1F4E7F0089006AEB85CE2DE33FF3E9CEEF1B7105FC0BC40F504B030414000608080029
311
99D5421162B0A9A505000080100000340000006662782F34334134443631372D413744442D343833422D393232312D4635323632433644434238322F6F626A656374732E786D6CAD57DB6EDB3810FD1541FBB2FBE08B6C278D178A8AC44E0AA3485BD468B10F060C4AA2146EA80B482A71F6EBF750A464C9B553EFA22F9645
311
0D873367CE5CE8BFDF65DC79A642B222BF76BDE1D875681E1531CBD36BB752C9E0CA75DE07BE280AD511739D9C64F4DAD5CB6EE0A7A2A84ABB14D384545C1DACDEDFFEE5C888E6D475224EA4BC7665F448333224952A622A9F863151649826BBA13734827DB5A920E5E381D292089A2B588AF51C5A1C6394D77F1DBBA3C01F
311
E9EF81AF7FADD4F4B4D4A8F6A77F3ECBA52279F4C361076AA6DE6C7937B9980F2E66B3E9607639F106B7F7B7CB81F76E3A5E5C2E16F39BBB390E964A4093B544D0C40D3E001BC1227F643E057EC572359D58111BA091A0CF4C47CA0D268EE78F8C4CEB9D75F298F95191E734AAB1021AB57F56754C4B9AC78839A312967510
311
1AF75F3D8D63E7F354BFDB23BBCBE721D0DDD151D4D8DE3CBB9616E1DF70419EC32021A966A0C1D23A6AB83ADE231C1605B7DF987432A2A860843B9C858288573780A81609FC9E1ACD64A1B3417BE0068882F9DCA70BD2E8E73C3F66655271AE69EC0675166C912B54C9DA32F60F157BEBBBC8C026C44AB3E1CA3AA45E4BEA
311
06734391AB033619209D84931421879B7AE77472E0E842E7E96AE9061FEFC3DD5AE7EEF1C34B519454284D1F50AB095CF3D428599BBCB322A737B807A6EC41F90AE43F21D5F7A6206E82ED66BB993D450992CBA4101962E38C9DC1183F63C7AB7FF5FFCE3F7FD46EEE47EF149E08B686EA17E0D9F7A11BCB0E9C81FF0CC217
311
626A5D5B4784A36C3CB01C00699238BCC012EA7012EEDC60852A87AA8C5D84071E5C86B9CFF8EB8FAC1A148AFAA4CE3307960765F18C020DD86A46C20C437E6BE03E4E3F94B3FA602B760ADE8B5F42D79BE5FAE3BA120989E883CDE9254D58CE145ADC9E375D837A98F73C7AA2AF2F8588E1E88F78AFBB7867F62809B435E6
311
1AF8B4A9E9FA657F72EF8008FBD242971BFF2727C009DD583BFA1F988C28E724A745D59CFB66FF40DB3010EB64D74C6E1BCCBEB18034E6CB410EA2494782951AC4B65BB5457378C2BB6FAB4F6024E4791112BE170AF7A5372A7821B6E1EBD654A5A3487FEF53DB4230D25AC0F63A479AF4B7986F63962495440D3C02EBF7D5
311
A21B3A5D1550211AAD265966701FB94584E56CA317CD5A1034D222DF32B44DA4DDD103BAFA81A82540ADF094C592F264CB38AFB26DC2389AD13623E50938FEBFFD6195955B921555AE4EE8EE998EE6D0B7BD475EF94254F4E806EBFA39B845E98D69BC0F734F58B7922358F5423BF6E6D3E9F2CE1BDC4D2E2F06B3D9BBC560
311
3E9F2C0793ABF9EDFDF4F2627A35BB6CE26494077ED369BA098D28A1B3F99560367CDF56481F5B03DCE08128B9F960B2B3797E5B0D310AFB23EC41BB6C37DEC4CF18FB68FC73057BC9A38A5659C969467345740A3DE83FFC2BC198D133C6ACAF3292D233B47CFEB03E70062B67ECFBA2D39DBE1CECB5AB0B9D904795A8C72A
311
0B73C2F8C1C6D420392CF3D4E2D7C4A47D9A3ED3BCEA371B180CA6B2E02C46198C9D94161955288667F420915109EA7547FAD85E3DCED8FD6C064445424E1B4B1E0966642E9116A05615A9FEBAF31B663A3D565DBBE8B6C327FCD84AE13AE0CCB58B195DB188CA6188FEAC27A15A39B8D41DE431F7933CE518B5CDA6F6BDDD
311
A5B1E975E456E49CF1C9FA652AB8750065A4C4D8807908D1A98D09FCDA36FB3DFA4F8E37E63844E16F58A9D697FD42EB4C7D0C52D438652F0B98619EECD13B24EADB6E79C35AA687C85997AC374960B40E1411697D51D0F659936E965F4618509CD567A7E4558A589EAF692028C85CE904078BC00AABB3240A545DFCB9F922
311
0A5C6433E79E8102CEEFBBABCB3F368B22CB8ADC2C6D6EEC75D8593FE2721B6F501CA8BE95C8CD64EC4D36F56DC05E50B62191744862F984054456B016E85EF8C14B7365441F321F5AB9910EC50143574BC736B619945ABA746BAB060773474E1DE490BE51EA8CE90A946F5E0846B5284C1018E5837F01504B030414000608
311
00002999D542000000000000000000000000350000006662782F34334134443631372D413744442D343833422D393232312D4635323632433644434238322F76657274696365732E62696E504B03041400060808002999D542F270F1330600000004000000360000006662782F34334134443631372D413744442D34383342
311
2D393232312D4635323632433644434238322F747269616E676C65732E62696E636660600000504B03041400060800002999D542000000000000000000000000370000006662782F34334134443631372D413744442D343833422D393232312D4635323632433644434238322F617474726962757465732E62696E504B0304
311
1400060808002999D542D5987DFC8F00000041010000360000006662782F34334134443631372D413744442D343833422D393232312D4635323632433644434238322F6469726563746F72792E786D6C858F410EC2201045AF4266AF15DDB800BA74E7C21B903225242D6328188F2FA5C4183471359997F9FF81E89FF3C41E
311
1816475E02DF1F80A11FC8386F25A438EECEC07A250251FC3803E6F58C12560C4AD840E95E91C151A72936F496F35732D860FE635F62C8F2DA16B505C545B74125BAA2FA9E05D7CC053D063734D5C7665FD55B6B8D15D5E9BFEAFD8490FFA45E504B03041400060808002999D542B94BEA3EFC000000A00100003B00000066
311
62782F34334134443631372D413744442D343833422D393232312D4635323632433644434238322F7265736F75726365732F636F72652E786D6C8D504B6E833010BD0A9A6D05D806D204194741E406BD806526C44AB0913F558F5F13A8D4EEBA9919BD8FE6E9F1F3D7FCCC3ED1796D4D07B42090A15176D466EA20865B7E84
311
EC2CB8B336FC924166E48C1DAC30083E391B971D52D6043421A1C68EB883D27B0C90A9673A3AF0EA8EB32C640C49E11FC522D5434E58D022D14927B80F2E05C8B627EB04E1D0DBE8147A5E6EACE031EA71D7E831FDD4378D0E44DDBC0FD5851CF27A60435EF7D525EFFB234BA3B95E49CF6A76A879B99A050F7AFEC9A81CCA
311
802308466895273BA31FF4D492534B8F6FA4692BC2CB55FEC71497F19FA6A84DA8D81E77B379103405791182976B5F69BDCA4C7BED567C03504B010214000A00000800002999D5423DEE336E79000000790000001B00000000000000000000000000000000006175746F6465736B2D64657369676E2D7061636B6167652E78
311
6D6C504B010214001400060808002999D542D486FD9CA0000000F40000001300000000000000000000000000B20000005B436F6E74656E745F54797065735D2E786D6C504B010214001400060808002999D542AAE0C4A6EA0000007C010000080000000000000000000000000083010000636F72652E786D6C504B01021400
311
1400060808002999D54255019EA25F0000007C000000070000000000000000000000000093020000636E782E786D6C504B010214001400060808002999D5424C78F05F65010000020300000C00000000000000000000000000170300006662782F636F72652E786D6C504B010214001400060808002999D5425CA019767E00
311
00009D0000000B00000000000000000000000000A60400006662782F636E782E786D6C504B010214001400060808002999D5420BDE10D02C0100001402000031000000000000000000000000004D0500006662782F34334134443631372D413744442D343833422D393232312D4635323632433644434238322F636F72652E
311
786D6C504B010214001400060808002999D542556266814E010000330300003000000000000000000000000000C80600006662782F34334134443631372D413744442D343833422D393232312D4635323632433644434238322F636E782E786D6C504B010214001400060808002999D5421162B0A9A5050000801000003400
311
000000000000000000000000640800006662782F34334134443631372D413744442D343833422D393232312D4635323632433644434238322F6F626A656374732E786D6C504B010214001400060800002999D54200000000000000000000000035000000000000000000000000005B0E00006662782F34334134443631372D
311
413744442D343833422D393232312D4635323632433644434238322F76657274696365732E62696E504B010214001400060808002999D542F270F13306000000040000003600000000000000000000000000AE0E00006662782F34334134443631372D413744442D343833422D393232312D4635323632433644434238322F
311
747269616E676C65732E62696E504B010214001400060800002999D5420000000000000000000000003700000000000000000000000000080F00006662782F34334134443631372D413744442D343833422D393232312D4635323632433644434238322F617474726962757465732E62696E504B0102140014000608080029
311
99D542D5987DFC8F0000004101000036000000000000000000000000005D0F00006662782F34334134443631372D413744442D343833422D393232312D4635323632433644434238322F6469726563746F72792E786D6C504B010214001400060808002999D542B94BEA3EFC000000A00100003B0000000000000000000000
311
0000401000006662782F34334134443631372D413744442D343833422D393232312D4635323632433644434238322F7265736F75726365732F636F72652E786D6C504B0506000000000E000E0080040000951100000000
310
504B03040A00000800002999D5423DEE336E79000000790000001B0000006175746F6465736B2D64657369676E2D7061636B6167652E786D6C3C3F786D6C2076657273696F6E3D22312E302220656E636F64696E673D227574662D3822203F3E3C666F726D6174733E3C666F726D61743E687474703A2F2F736368656D612E
310
6175746F6465736B2E636F6D2F64657369676E2D7061636B6167652F323030393C2F666F726D61743E3C2F666F726D6174733E504B03041400060808002999D542D486FD9CA0000000F4000000130000005B436F6E74656E745F54797065735D2E786D6C7D8EC10E82300C865F65E91D8A1E8C310C0EEA1BF002731658846E
310
D98AC1B77784ABF1D8FE5FBFBF75BBCE937A534CCEB38643598122B6FEE978D0B0485F9C41B54DDD7D022595594E1A469170414C76A4D9A4D207E29CF43ECE46F218070CC6BECC4078ACAA135ACF422C856C0E68EA1BF5669944DDD7BCDE7B1F8E415D77AECB980613C2E4AC91FC167A2B244592486606FC29C8FD7F045B9A
310
EF7053A7E60B504B03041400060808002999D542FBD7ED19EA0000007C01000008000000636F72652E786D6C8D90D18E832010457F85CCEB06056D376A904663FD82FD0102D425AD600436FDFC626B93DDB77D9AC99D7B6626979DEEF30DFDE8D51B675BA01901A4AD74CAD8A985182EB80274E26C752EFCB201B262D62D6C
310
327036AD2E2EBB249D0DDA86A45AA7F42E0AEF7500246FA969C1CB6F3D8B4CC4901CFE9A2D425EC5A433FAEE121CA351E875C4A8B4CF5C8C5E817755DF1D475A60F2497A7C385703AEFAA1C37D5F90733D8C8772AC59BEC19C0533BFEFCB558BA015F082D032B1B8A05FB46E48DDD0EA831C9B92B07CB3FF81E2A2FE094563
310
4359ECEFBE300F9CA6479E03CEF22D8B549E41A5BAE5C61F504B03041400060808002999D54255019EA25F0000007C00000007000000636E782E786D6C4DCB3B0E80201045D1AD90E915ED2CF8AC45050C11660C8261F98AB1B07AC9C97D42D718D865D3E909258CFD00CCE24AC6E326A164D74DC0B4128928FF326038472B
310
A13128B1252AC747C6BAB984FC68F0B87FE8960A5C09FE86CFB69FBA01504B03041400060808002999D5421EEDBD5F67010000020300000C0000006662782F636F72652E786D6C8D52ED8A8330107C9590BF87266A7B68892995B64F702F906AEA856A2231913EFEAD1FC5EB51CA21C430B3B33B3BCAF6F7B64183B4BD323A
310
C751483192BA3495D2758EBDBB0629467BCEAC31EE5719465AB432C7238C39ABADF1DD0295463BA91DA0DA54720145DF4B8751D9C025C77DF92D5B110AEFA0A2BF859D286FA2966114020D759CF5CE8201340F194FCCAF973B2333CE99F7AA5A5855C1347555D2627E488BC3F61CC501FDA445B039A5C7202D8E87A028627A
310
CA8EE74D72CE1819C59C39D53EDC95560A272BCC631A25A00DE2E82BCA7634DB45E907DDEE12CAC858FE24F25DF54F9157DA25F1627796F59847606422FE6C0B1139D48B01FC10CEC81822BCA6849F8386402064272ECD638F1B40832C9DB11B602AE3576A108D973095A2E9616466A1F3D400367BD9277ED3E77D0FF88042
310
D7604D38B85EBC1BA7B379EA1245276D30B83BD2C6B6A259CDCD16D7731DF4525E9AC6D8FFA8C9B22A59C224E3DFCB7F00504B03041400060808002999D5426FBDEE917D0000009D0000000B0000006662782F636E782E786D6C4DCCD10A83201886E15B91FFDC95B4367F50C3B1BC8F581632D3703A76F9ABD1C18E3E78F8
310
7845F7593C79DBF472314860A71A880D8F38BA304B2879A21C48A7448A31FFDD808461B112760625E614CB7AD068A7A1F8BCA977E179A0E90D37786DE885B5777AD69A536CEA96F6C8F1C6191AD4062A25AA5F69DB3DACBE504B03041400060808002999D5421E5A3E4F2B01000014020000310000006662782F4645463846
310
3937332D363135442D344141382D393330352D4539383942383139463941462F636F72652E786D6C8D515B6EC32010BC0AE22B55850D76E242848952353E412FE000715162B07854397E71ED48ED5F7E58343B333BDAE587FB7803DFDA07E36C0B498121D0563A65ECD0C2142F88427010DC3B17FFD020B0FDA85B38C350F0
310
C1BB34AD9074366A1B336A9DD22BD887A02304F2963F2D0CF24B8F7DD1A79819E15A4CBDBCF6832E4891DB992778883E0700CB90F985A23B75B4636F356AC8EE036D8F478A588D77E8C4287BA78475ECD8F172110A9E9251ABDCA81CC75C8CF6CF9ACC62C1A3191FF1A5D77DD40A8A0A931AE10655E493B03D667B425FF16E
310
5F635ECEF47FA234A92745C9D858576BDC4516A020BC5C1A822B97CEB747187D9F9C8F609EB7095ABE40810B4CAAA6C10DE5E542CD0BC89ECD76F50CD1F9BCE0CDF59CD9F56ADC6C052FE71BE5F27BC05CE77B8A1F504B03041400060808002999D54233C5A9965601000033030000300000006662782F4645463846393733
310
2D363135442D344141382D393330352D4539383942383139463941462F636E782E786D6CBD93CD6EC23010845FC5F2B5CA1FA11120C7483DF4097AE8D5B1177049ECC83F5579FBAEC1502E1C2A55BD58D1EC7866F5C961DBAF69249FE0BCB6A6A74D595302465AA5CDBEA731EC8A15255BCE9CB5E1CE46891113F434C994B3
310
BDB371CE92829D88634075D4E6984507DE4627C1A39C6E92D14A3162009822A208D3004A812237237EEDC0E12A280E27120E405E5FDE891D3E4006CFAA94C259953A384B676EBA33512247E17D4FBD3CC0244A118355E08FA51241944D79ED7AB0D34F124917AE95D16992CA7B9A4ECAF346257264150E39F3C121BD6C0AA7
310
192817F33C6A290242AECEC68B87B3A84DE896D9AB11BC4377BBE8562B0C3BCF380B7A82EC900E440045F9A26EDAA2EE8A45F3D6AC37F57AD3AC9EEAE74D5BB32AD9391BAC1DF3258C01676722AD096002E50DABD2F811BEEC234A3B646DDDE9172011406EBDD0B965FC259FA66B97CB7FE4539DDF37E272F817F06F504B03
310
041400060808002999D54237DACF8762070000991B0000340000006662782F46454638463937332D363135442D344141382D393330352D4539383942383139463941462F6F626A656374732E786D6CED595B73A33614FE2B0C7D691F8C8DED64E30EA193D89B1DCF4EDA9D7577A70F9E616490891A211849E4D25FDFA30B18
310
8849709BBEF5C106847474CE77AE3A04BF3C65D479C05C909C5DBABE37711DCCE23C212CBD744BB91F5DB8CE2F61C0F35C36A6B90E4319BE74D5B01B0629CFCBC20E25788F4A2A3BA337D77F3822C60CBB4E4C911097AE88EF70863C54CA3CC1E2DE4B90445EBA7FF27CCF4C6C934D392AEE3A440BC43193C0298C33A0E218
310
A6FCF6E3C41D87C158BD0F03F56F67CD06CD9AF7CF1A6BA9DB5C12262462F10B963A646683589AF9F3D5C7E9D96274369FCF46F3F3A93FBABEB95E8DFC0FB3C9F27CB95C5C7D5C007BBB3CA756A604179825A0BF6737F483B17A538B6E1138C6759C3386630D2440A5C5EA122458C0560DF826ED475F49D478AD256C3CCFD5
310
7BCB426378D6A6D2376B18102DBA2088DDAE92B8BA36E5CB777F82E0628851728125702B2407ED5A783878851B4E82B1190D83DD4117443819929813441D4A761C71500A4C5553C2C02CB06494737020E52809B4E6CCEBB66D8167BEED3AC7B8DC97942ACF7043ED5811B81F96427346FEC2FCC07D1319E009A42D09931796
310
4BF95C60375C04633D1806EA329BDA970648674F512A3422E66D47D0A572FDF5CA0D3FDFEC9E362A1C1CDFBCE07981B95446A7F4A8F90243B6578592DDD61FA439B5008431A0DA950750BE02F2BF42F438B0027AE3E469FE34B77325474CEC739E816E9C89339AC0DFC4F1F5BFBA6FDC05E37A715B7B7D78829B2AA82EFE3D
310
9E6D19345696FF069C61F000069FF3997DB58911057BBE250C005246E2D01C8620B4EF774F6EB886C009811E56211AFA2032B0FB00B7C1D8923968A5722FEB750C10B57BCC86280960D316096CF4E8E913640F4EE2839A9A22F6C17BF62EE67AB5DA7CDE947C8F627C6B7D7A85F784110959F338432DCC5B12DDE3E7C79C27
310
20E84BBC374DBC33BB9500B415E60AF8B402413D1C766E6D10C3BA3457E1267863071042E5EA06FD5B22624C2962382FAB7DEBE8A60CB5F6785B33B8E1D4403C9B764C98E307A2AA0A709AC38C16A390F7634E0A05A21B7E3292D541D3EB91EEDBFA57B0C87A7ECFAC3583D0CB10FD5D07AD2338B42CBB42DA02510BBC3B84
310
F338A7398F76CF9189742ED412C046DB5BBEB78842AC374A5254C083B4DF55212535D24609D9EF4B0171F5088BDFD7CBA6394CBC997FE634FF3BCE3887680BBE8BB8F5BBCE1E11C9508AA33D4AFAB66BEE56D3169A640F698EF714E4220F443E4748469304A7A7407312F1C5BB524F692E04615840BE3A0A7E138D890781C4
310
68B3625969B5033411518625A2A720A0C8F480ABD38EAE7163281DDEE6B1B6DED734D624FA1F590447504BE62C22508A420E799371DF3B8318D246D7A0DCC117ACADA2ADC5A0259410F173F488497A274F41DD90EFC13D86234929A3BC403198F500B22F7C4529B5C3FB0EC5F72A7F447149DFCB4004A6FB88505A6611FC08
310
8393C710D7AE03D3AB2834889BD8277106451992251FB2C9F9D9E4C53EA666E886C0C6467B42216C47192A7A506F05445D8F3835F8967A8F527765564428CB4B36C850BC59D79B2CF9AE5A15D981FCAA5211CAC68AB025180684C93AAB56311B4C5D075670231DA89E2381B2829A53D81B89C7AFBD4953EEDD805B3F7DDF0D
310
3228FC7AB4D78CA8F30A06CB63AB30108F48C6776EB8D1D7D135D4DF094E0EA9BEAA359B152020A62279C98955D1B7359437B64673C35B24C5F693C9BAD5F5DBDA83EE4730863550BBD40BD70AE80C3389546572AB6EE8570421B845C38CAF554E3D85CA5592E8AA11D11BD2A7CE5619D1DA34235E7187599EC18F6D098B69
310
99E02D4AC47D742B69B4218A752BA597910AE35705FCEDD3A6030F8C0C10E98B2AF0F06367AD1D5DAA72E928117957663B860804C19668A9D18D57B0D46AA4D2727D55670AA8BBC0C0AC8AE7FF9F2C9AED88FF4F16A9358C7F77B2A0F90ED143B46964F35899F549A7803A3D292AEF710AD05D879A6A9D444C2EB7E25B5F8A
310
202656417E703156C50C43B08FE37F9CB4FB92A0D9AEC3FF6949DB7F51709C94545A935593EA48E1BA6EA6B089BF98CD561FFDD1C7E9F9D9683EFFB01C2D16D3D5687AB1B8BE999D9FCD2EE6E7359ADA4FC3A08E653A75C1B38969D5B07AB218405356E4942470984F9C1443C89770A41FD03DE71916903B9BBDEEC4F6E407
310
AC7E306D4E897614579CDC21E80F5301591D302A63D91E777E80CEA48473F6A50B3D23EF1EFEAC55BA0E249E4B173A0592C458783BE832A97E9E260E1957A77E4B0CF0412C5519D12CAA9FEB550A9B56F4AFA70CC90256AE560B03EAB6029A5FAD0685E6CDF2149F2478C58E8324DCEE4A09C59A91E530500BA3B739A8DFC8
310
4609BBB75B3F81EBBE2E96EFE9392D44067D3178D5080CD591443CD5ED6EC59865E96AF5650C6D3667FD9B53D032055D0EA734E2188CB954F51458115885A5592009A6BAFC79FB85E7F08527737451E4FCF87471FED376996759CECCD0F60A0E65097C27723677F0D527D942ED80556F5D6CA7137FBAD53D6DDB668F764860
310
4F15453050D5124A908EC9815DBEE84FD9EEE558A9A2337DBD726C10855E80B1A3172D5EF38DCB011F525F5394C7683FAFA47DB5AD3DD653C1263834A4C3BF01504B03041400060800002999D542000000000000000000000000350000006662782F46454638463937332D363135442D344141382D393330352D4539383942
310
383139463941462F76657274696365732E62696E504B03041400060808002999D542F270F1330600000004000000360000006662782F46454638463937332D363135442D344141382D393330352D4539383942383139463941462F747269616E676C65732E62696E636660600000504B03041400060800002999D542000000
310
000000000000000000370000006662782F46454638463937332D363135442D344141382D393330352D4539383942383139463941462F617474726962757465732E62696E504B03041400060808002999D542D5987DFC8F00000041010000360000006662782F46454638463937332D363135442D344141382D393330352D45
310
39383942383139463941462F6469726563746F72792E786D6C858F410EC2201045AF4266AF15DDB800BA74E7C21B903225242D6328188F2FA5C4183471359997F9FF81E89FF3C41E1816475E02DF1F80A11FC8386F25A438EECEC07A250251FC3803E6F58C12560C4AD840E95E91C151A72936F496F35732D860FE635F62C8
310
F2DA16B505C545B74125BAA2FA9E05D7CC053D063734D5C7665FD55B6B8D15D5E9BFEAFD8490FFA45E504B03041400060808002999D542933DB028FD000000A00100003B0000006662782F46454638463937332D363135442D344141382D393330352D4539383942383139463941462F7265736F75726365732F636F72652E
310
786D6C8D504B6E833010BD0A9A6D05D89054808C2310E104BD806526C44AB0913F558F5F13A8D4EEBA9919BD8FE6E9B1CBD7F24C3ED13A65740B342390A09666527A6E21F85B5A4172E1CC1AE37FC920D162C1163618389BAD09EB0149A33D6A1F516D263C40E11C7A48E4331E2D3879C7456422F8A8708F6C15F22166CC68
310
16E9A8E3CC791B0324FB936D02B7E84CB0121DCB7796B310D47468D4147FAA9B420BBCABFAEE3C529A9277D2A7A76B35A4553F7469DF17E45A0FE3A91C6B966F66CEBC5A7E324A8BC2E304BC20B48CDEB4A01FB46E48DDD0EA8D9C9B92B07C93FF318575FAA72928EDCBE288BBDB1C701A83BC08CEF2ADAFB85E65C6BD75CB
310
BF01504B010214000A00000800002999D5423DEE336E79000000790000001B00000000000000000000000000000000006175746F6465736B2D64657369676E2D7061636B6167652E786D6C504B010214001400060808002999D542D486FD9CA0000000F40000001300000000000000000000000000B20000005B436F6E7465
310
6E745F54797065735D2E786D6C504B010214001400060808002999D542FBD7ED19EA0000007C010000080000000000000000000000000083010000636F72652E786D6C504B010214001400060808002999D54255019EA25F0000007C000000070000000000000000000000000093020000636E782E786D6C504B0102140014
310
00060808002999D5421EEDBD5F67010000020300000C00000000000000000000000000170300006662782F636F72652E786D6C504B010214001400060808002999D5426FBDEE917D0000009D0000000B00000000000000000000000000A80400006662782F636E782E786D6C504B010214001400060808002999D5421E5A3E
310
4F2B0100001402000031000000000000000000000000004E0500006662782F46454638463937332D363135442D344141382D393330352D4539383942383139463941462F636F72652E786D6C504B010214001400060808002999D54233C5A99656010000330300003000000000000000000000000000C80600006662782F46
310
454638463937332D363135442D344141382D393330352D4539383942383139463941462F636E782E786D6C504B010214001400060808002999D54237DACF8762070000991B000034000000000000000000000000006C0800006662782F46454638463937332D363135442D344141382D393330352D45393839423831394639
310
41462F6F626A656374732E786D6C504B010214001400060800002999D5420000000000000000000000003500000000000000000000000000201000006662782F46454638463937332D363135442D344141382D393330352D4539383942383139463941462F76657274696365732E62696E504B010214001400060808002999
310
D542F270F13306000000040000003600000000000000000000000000731000006662782F46454638463937332D363135442D344141382D393330352D4539383942383139463941462F747269616E676C65732E62696E504B010214001400060800002999D54200000000000000000000000037000000000000000000000000
310
00CD1000006662782F46454638463937332D363135442D344141382D393330352D4539383942383139463941462F617474726962757465732E62696E504B010214001400060808002999D542D5987DFC8F000000410100003600000000000000000000000000221100006662782F46454638463937332D363135442D344141
310
382D393330352D4539383942383139463941462F6469726563746F72792E786D6C504B010214001400060808002999D542933DB028FD000000A00100003B00000000000000000000000000051200006662782F46454638463937332D363135442D344141382D393330352D4539383942383139463941462F7265736F757263
310
65732F636F72652E786D6C504B0506000000000E000E00800400005B1300000000
  0
XRECORD
  5
27
102
{ACAD_REACTORS
330
22
102
}
330
22
100
AcDbXrecord
280
     1
270
     1
271
     1
  0
XRECORD
  5
26
102
{ACAD_REACTORS
330
22
102
}
330
22
100
AcDbXrecord
280
     1
270
     1
271
     1
  0
XRECORD
  5
28
102
{ACAD_REACTORS
330
22
102
}
330
22
100
AcDbXrecord
280
     1
270
     1
271
     1
  0
XRECORD
  5
25
102
{ACAD_REACTORS
330
22
102
}
330
22
100
AcDbXrecord
280
     1
270
     1
271
     1
  0
XRECORD
  5
E85
102
{ACAD_REACTORS
330
E84
102
}
330
E84
100
AcDbXrecord
280
     1
102
ACAD_ROUNDTRIP_2012_MLEADER_STYLE
298
     1
  0
CELLSTYLEMAP
  5
E83
102
{ACAD_REACTORS
330
E82
102
}
330
E82
100
AcDbCellStyleMap
 90
        3
300
CELLSTYLE
  1
TABLEFORMAT_BEGIN
 90
        5
170
     1
 91
        0
 92
    32768
 62
   257
 93
        1
300
CONTENTFORMAT
  1
CONTENTFORMAT_BEGIN
 90
        0
 91
        0
 92
      512
 93
        0
300

 40
0.0
140
1.0
 94
        5
 62
     0
340
55
144
0.25
309
CONTENTFORMAT_END
171
     0
 94
        0
309
TABLEFORMAT_END
  1
CELLSTYLE_BEGIN
 90
        1
 91
        1
300
_TITLE
309
CELLSTYLE_END
300
CELLSTYLE
  1
TABLEFORMAT_BEGIN
 90
        5
170
     1
 91
        0
 92
        0
 62
   257
 93
        1
300
CONTENTFORMAT
  1
CONTENTFORMAT_BEGIN
 90
        0
 91
        0
 92
      512
 93
        0
300

 40
0.0
140
1.0
 94
        5
 62
     0
340
55
144
0.18
309
CONTENTFORMAT_END
171
     0
 94
        0
309
TABLEFORMAT_END
  1
CELLSTYLE_BEGIN
 90
        2
 91
        1
300
_HEADER
309
CELLSTYLE_END
300
CELLSTYLE
  1
TABLEFORMAT_BEGIN
 90
        5
170
     1
 91
        0
 92
        0
 62
   257
 93
        1
300
CONTENTFORMAT
  1
CONTENTFORMAT_BEGIN
 90
        0
 91
        0
 92
      512
 93
        0
300

 40
0.0
140
1.0
 94
        2
 62
     0
340
55
144
0.18
309
CONTENTFORMAT_END
171
     0
 94
        0
309
TABLEFORMAT_END
  1
CELLSTYLE_BEGIN
 90
        3
 91
        2
300
_DATA
309
CELLSTYLE_END
  0
ENDSEC
  0
EOF