0
SECTION
  2
HEADER
  9
$ACADVER
  1
AC1024
  9
$ACADMAINTVER
 70
    63
  9
$DWGCODEPAGE
  3
ANSI_1252
  9
$AUTHOR
  1
PR
  9
$REVISIONNUMBER
  1
-
  9
$CUSTOMPROPERTYTAG
  1
Manager
  9
$CUSTOMPROPERTY
  1

  9
$CUSTOMPROPERTYTAG
  1
Company
  9
$CUSTOMPROPERTY
  1

  9
$CUSTOMPROPERTYTAG
  1
Category
  9
$CUSTOMPROPERTY
  1

  9
$CUSTOMPROPERTYTAG
  1
Part Number
  9
$CUSTOMPROPERTY
  1
WA60SMP14G-S
  9
$CUSTOMPROPERTYTAG
  1
Description
  9
$CUSTOMPROPERTY
  1
N1P PANEL MASTER VIEW
  9
$CUSTOMPROPERTYTAG
  1
Project
  9
$CUSTOMPROPERTY
  1

  9
$CUSTOMPROPERTYTAG
  1
Designer
  9
$CUSTOMPROPERTY
  1
PR
  9
$CUSTOMPROPERTYTAG
  1
Engineer
  9
$CUSTOMPROPERTY
  1

  9
$CUSTOMPROPERTYTAG
  1
Authority
  9
$CUSTOMPROPERTY
  1

  9
$CUSTOMPROPERTYTAG
  1
Cost Center
  9
$CUSTOMPROPERTY
  1

  9
$CUSTOMPROPERTYTAG
  1
Vendor
  9
$CUSTOMPROPERTY
  1

  9
$CUSTOMPROPERTYTAG
  1
User Status
  9
$CUSTOMPROPERTY
  1

  9
$CUSTOMPROPERTYTAG
  1
Design Status
  9
$CUSTOMPROPERTY
  1
WorkInProgress
  9
$CUSTOMPROPERTYTAG
  1
Checked by
  9
$CUSTOMPROPERTY
  1
NJ
  9
$CUSTOMPROPERTYTAG
  1
Engr Approved by
  9
$CUSTOMPROPERTY
  1

  9
$CUSTOMPROPERTYTAG
  1
Date Eng Approved
  9
$CUSTOMPROPERTY
  1
06/24/2013
  9
$CUSTOMPROPERTYTAG
  1
Mfg Approved by
  9
$CUSTOMPROPERTY
  1

  9
$CUSTOMPROPERTYTAG
  1
DWG. NO
  9
$CUSTOMPROPERTY
  1

  9
$CUSTOMPROPERTYTAG
  1
NUMBER OF SHEETS
  9
$CUSTOMPROPERTY
  1
1
  9
$CUSTOMPROPERTYTAG
  1
DRAWING #
  9
$CUSTOMPROPERTY
  1
1
  9
$INSBASE
 10
0.0
 20
0.0
 30
0.0
  9
$EXTMIN
 10
0.0
 20
0.0
 30
0.0
  9
$EXTMAX
 10
170.0
 20
110.0
 30
0.0
  9
$LIMMIN
 10
0.0
 20
0.0
  9
$LIMMAX
 10
170.0
 20
110.0
  9
$ORTHOMODE
 70
     0
  9
$REGENMODE
 70
     1
  9
$FILLMODE
 70
     1
  9
$QTEXTMODE
 70
     0
  9
$MIRRTEXT
 70
     0
  9
$LTSCALE
 40
10.0
  9
$ATTMODE
 70
     1
  9
$TEXTSIZE
 40
0.2
  9
$TRACEWID
 40
0.05
  9
$TEXTSTYLE
  7
Standard
  9
$CLAYER
  8
0
  9
$CELTYPE
  6
ByLayer
  9
$CECOLOR
 62
   256
  9
$CELTSCALE
 40
1.0
  9
$DISPSILH
 70
     0
  9
$DIMSCALE
 40
1.0
  9
$DIMASZ
 40
0.0708661417322835
  9
$DIMEXO
 40
0.0625
  9
$DIMDLI
 40
0.38
  9
$DIMRND
 40
0.0
  9
$DIMDLE
 40
0.0
  9
$DIMEXE
 40
0.18
  9
$DIMTP
 40
0.0
  9
$DIMTM
 40
0.0
  9
$DIMTXT
 40
0.0708661417322835
  9
$DIMCEN
 40
0.09
  9
$DIMTSZ
 40
0.0
  9
$DIMTOL
 70
     0
  9
$DIMLIM
 70
     0
  9
$DIMTIH
 70
     1
  9
$DIMTOH
 70
     1
  9
$DIMSE1
 70
     0
  9
$DIMSE2
 70
     0
  9
$DIMTAD
 70
     0
  9
$DIMZIN
 70
     0
  9
$DIMBLK
  1

  9
$DIMASO
 70
     1
  9
$DIMSHO
 70
     1
  9
$DIMPOST
  1

  9
$DIMAPOST
  1

  9
$DIMALT
 70
     0
  9
$DIMALTD
 70
     2
  9
$DIMALTF
 40
25.4
  9
$DIMLFAC
 40
1.0
  9
$DIMTOFL
 70
     0
  9
$DIMTVP
 40
0.0
  9
$DIMTIX
 70
     0
  9
$DIMSOXD
 70
     0
  9
$DIMSAH
 70
     0
  9
$DIMBLK1
  1

  9
$DIMBLK2
  1

  9
$DIMSTYLE
  2
STANDARD
  9
$DIMCLRD
 70
     0
  9
$DIMCLRE
 70
     0
  9
$DIMCLRT
 70
     0
  9
$DIMTFAC
 40
1.0
  9
$DIMGAP
 40
0.09
  9
$DIMJUST
 70
     0
  9
$DIMSD1
 70
     0
  9
$DIMSD2
 70
     0
  9
$DIMTOLJ
 70
     1
  9
$DIMTZIN
 70
     0
  9
$DIMALTZ
 70
     0
  9
$DIMALTTZ
 70
     0
  9
$DIMUPT
 70
     0
  9
$DIMDEC
 70
     4
  9
$DIMTDEC
 70
     4
  9
$DIMALTU
 70
     2
  9
$DIMALTTD
 70
     2
  9
$DIMTXSTY
  7
Standard
  9
$DIMAUNIT
 70
     0
  9
$DIMADEC
 70
     0
  9
$DIMALTRND
 40
0.0
  9
$DIMAZIN
 70
     0
  9
$DIMDSEP
 70
    46
  9
$DIMATFIT
 70
     3
  9
$DIMFRAC
 70
     0
  9
$DIMLDRBLK
  1

  9
$DIMLUNIT
 70
     2
  9
$DIMLWD
 70
    -2
  9
$DIMLWE
 70
    -2
  9
$DIMTMOVE
 70
     0
  9
$DIMFXL
 40
1.0
  9
$DIMFXLON
 70
     0
  9
$DIMJOGANG
 40
0.7853981633974483
  9
$DIMTFILL
 70
     0
  9
$DIMTFILLCLR
 70
     0
  9
$DIMARCSYM
 70
     0
  9
$DIMLTYPE
  6

  9
$DIMLTEX1
  6

  9
$DIMLTEX2
  6

  9
$DIMTXTDIRECTION
 70
     0
  9
$LUNITS
 70
     2
  9
$LUPREC
 70
     4
  9
$SKETCHINC
 40
0.1
  9
$FILLETRAD
 40
0.0
  9
$AUNITS
 70
     0
  9
$AUPREC
 70
     0
  9
$MENU
  1
.
  9
$ELEVATION
 40
0.0
  9
$PELEVATION
 40
0.0
  9
$THICKNESS
 40
0.0
  9
$LIMCHECK
 70
     0
  9
$CHAMFERA
 40
0.0
  9
$CHAMFERB
 40
0.0
  9
$CHAMFERC
 40
0.0
  9
$CHAMFERD
 40
0.0
  9
$SKPOLY
 70
     0
  9
$TDCREATE
 40
2456471.305729155
  9
$TDUCREATE
 40
2456471.076562489
  9
$TDUPDATE
 40
2456471.305729155
  9
$TDUUPDATE
 40
2456471.076562489
  9
$TDINDWG
 40
0.0000489815
  9
$TDUSRTIMER
 40
0.0000489815
  9
$USRTIMER
 70
     1
  9
$ANGBASE
 50
0.0
  9
$ANGDIR
 70
     0
  9
$PDMODE
 70
     0
  9
$PDSIZE
 40
0.0
  9
$PLINEWID
 40
0.0
  9
$SPLFRAME
 70
     0
  9
$SPLINETYPE
 70
     6
  9
$SPLINESEGS
 70
     8
  9
$HANDSEED
  5
B16
  9
$SURFTAB1
 70
     6
  9
$SURFTAB2
 70
     6
  9
$SURFTYPE
 70
     6
  9
$SURFU
 70
     6
  9
$SURFV
 70
     6
  9
$UCSBASE
  2

  9
$UCSNAME
  2

  9
$UCSORG
 10
0.0
 20
0.0
 30
0.0
  9
$UCSXDIR
 10
1.0
 20
0.0
 30
0.0
  9
$UCSYDIR
 10
0.0
 20
1.0
 30
0.0
  9
$UCSORTHOREF
  2

  9
$UCSORTHOVIEW
 70
     0
  9
$UCSORGTOP
 10
0.0
 20
0.0
 30
0.0
  9
$UCSORGBOTTOM
 10
0.0
 20
0.0
 30
0.0
  9
$UCSORGLEFT
 10
0.0
 20
0.0
 30
0.0
  9
$UCSORGRIGHT
 10
0.0
 20
0.0
 30
0.0
  9
$UCSORGFRONT
 10
0.0
 20
0.0
 30
0.0
  9
$UCSORGBACK
 10
0.0
 20
0.0
 30
0.0
  9
$PUCSBASE
  2

  9
$PUCSNAME
  2

  9
$PUCSORG
 10
0.0
 20
0.0
 30
0.0
  9
$PUCSXDIR
 10
1.0
 20
0.0
 30
0.0
  9
$PUCSYDIR
 10
0.0
 20
1.0
 30
0.0
  9
$PUCSORTHOREF
  2

  9
$PUCSORTHOVIEW
 70
     0
  9
$PUCSORGTOP
 10
0.0
 20
0.0
 30
0.0
  9
$PUCSORGBOTTOM
 10
0.0
 20
0.0
 30
0.0
  9
$PUCSORGLEFT
 10
0.0
 20
0.0
 30
0.0
  9
$PUCSORGRIGHT
 10
0.0
 20
0.0
 30
0.0
  9
$PUCSORGFRONT
 10
0.0
 20
0.0
 30
0.0
  9
$PUCSORGBACK
 10
0.0
 20
0.0
 30
0.0
  9
$USERI1
 70
     0
  9
$USERI2
 70
     0
  9
$USERI3
 70
     0
  9
$USERI4
 70
     0
  9
$USERI5
 70
     0
  9
$USERR1
 40
0.0
  9
$USERR2
 40
0.0
  9
$USERR3
 40
0.0
  9
$USERR4
 40
0.0
  9
$USERR5
 40
0.0
  9
$WORLDVIEW
 70
     1
  9
$SHADEDGE
 70
     3
  9
$SHADEDIF
 70
    70
  9
$TILEMODE
 70
     1
  9
$MAXACTVP
 70
    64
  9
$PINSBASE
 10
0.0
 20
0.0
 30
0.0
  9
$PLIMCHECK
 70
     0
  9
$PEXTMIN
 10
0.0
 20
0.0
 30
0.0
  9
$PEXTMAX
 10
170.0
 20
110.0
 30
0.0
  9
$PLIMMIN
 10
0.0
 20
0.0
  9
$PLIMMAX
 10
170.0
 20
110.0
  9
$UNITMODE
 70
     0
  9
$VISRETAIN
 70
     1
  9
$PLINEGEN
 70
     0
  9
$PSLTSCALE
 70
     1
  9
$TREEDEPTH
 70
  3020
  9
$CMLSTYLE
  2
Standard
  9
$CMLJUST
 70
     0
  9
$CMLSCALE
 40
1.0
  9
$PROXYGRAPHICS
 70
     1
  9
$MEASUREMENT
 70
     0
  9
$CELWEIGHT
370
    -1
  9
$ENDCAPS
280
     0
  9
$JOINSTYLE
280
     0
  9
$LWDISPLAY
290
     0
  9
$INSUNITS
 70
     1
  9
$HYPERLINKBASE
  1

  9
$STYLESHEET
  1

  9
$XEDIT
290
     1
  9
$CEPSNTYPE
380
     0
  9
$PSTYLEMODE
290
     1
  9
$FINGERPRINTGUID
  2
{DDD12F9C-4E7F-49C6-8F3B-05CAE898DA51}
  9
$VERSIONGUID
  2
{A9D484FF-C66A-440E-BF7B-E3967C51D244}
  9
$EXTNAMES
290
     1
  9
$PSVPSCALE
 40
0.0
  9
$OLESTARTUP
290
     0
  9
$SORTENTS
280
   127
  9
$INDEXCTL
280
     0
  9
$HIDETEXT
280
     1
  9
$XCLIPFRAME
280
     2
  9
$HALOGAP
280
     0
  9
$OBSCOLOR
 70
   257
  9
$OBSLTYPE
280
     0
  9
$INTERSECTIONDISPLAY
280
     0
  9
$INTERSECTIONCOLOR
 70
   257
  9
$DIMASSOC
280
     1
  9
$PROJECTNAME
  1

  9
$CAMERADISPLAY
290
     0
  9
$LENSLENGTH
 40
50.0
  9
$CAMERAHEIGHT
 40
0.0
  9
$STEPSPERSEC
 40
2.0
  9
$STEPSIZE
 40
6.0
  9
$3DDWFPREC
 40
2.0
  9
$PSOLWIDTH
 40
0.25
  9
$PSOLHEIGHT
 40
4.0
  9
$LOFTANG1
 40
1.570796326794896
  9
$LOFTANG2
 40
1.570796326794896
  9
$LOFTMAG1
 40
0.0
  9
$LOFTMAG2
 40
0.0
  9
$LOFTPARAM
 70
     7
  9
$LOFTNORMALS
280
     1
  9
$LATITUDE
 40
37.795
  9
$LONGITUDE
 40
-122.394
  9
$NORTHDIRECTION
 40
0.0
  9
$TIMEZONE
 70
 -8000
  9
$LIGHTGLYPHDISPLAY
280
     1
  9
$TILEMODELIGHTSYNCH
280
     1
  9
$CMATERIAL
347
11
  9
$SOLIDHIST
280
     0
  9
$SHOWHIST
280
     1
  9
$DWFFRAME
280
     2
  9
$DGNFRAME
280
     0
  9
$REALWORLDSCALE
290
     1
  9
$INTERFERECOLOR
 62
     1
  9
$INTERFEREOBJVS
345
33
  9
$INTERFEREVPVS
346
30
  9
$CSHADOW
280
     0
  9
$SHADOWPLANELOCATION
 40
0.0
  0
ENDSEC
  0
SECTION
  2
CLASSES
  0
CLASS
  1
ACDBDICTIONARYWDFLT
  2
AcDbDictionaryWithDefault
  3
ObjectDBX Classes
 90
        0
 91
        1
280
     0
281
     0
  0
CLASS
  1
MATERIAL
  2
AcDbMaterial
  3
ObjectDBX Classes
 90
     1153
 91
        3
280
     0
281
     0
  0
CLASS
  1
VISUALSTYLE
  2
AcDbVisualStyle
  3
ObjectDBX Classes
 90
     4095
 91
       24
280
     0
281
     0
  0
CLASS
  1
SCALE
  2
AcDbScale
  3
ObjectDBX Classes
 90
     1153
 91
       17
280
     0
281
     0
  0
CLASS
  1
TABLESTYLE
  2
AcDbTableStyle
  3
ObjectDBX Classes
 90
     4095
 91
        1
280
     0
281
     0
  0
CLASS
  1
MLEADERSTYLE
  2
AcDbMLeaderStyle
  3
ACDB_MLEADERSTYLE_CLASS
 90
     4095
 91
        1
280
     0
281
     0
  0
CLASS
  1
DICTIONARYVAR
  2
AcDbDictionaryVar
  3
ObjectDBX Classes
 90
        0
 91
        3
280
     0
281
     0
  0
CLASS
  1
CELLSTYLEMAP
  2
AcDbCellStyleMap
  3
ObjectDBX Classes
 90
     1152
 91
        1
280
     0
281
     0
  0
ENDSEC
  0
SECTION
  2
TABLES
  0
TABLE
  2
VPORT
  5
8
330
0
100
AcDbSymbolTable
 70
     1
  0
VPORT
  5
57
330
8
100
AcDbSymbolTableRecord
100
AcDbViewportTableRecord
  2
*Active
 70
     0
 10
0.0
 20
0.0
 11
1.0
 21
1.0
 12
85.0
 22
55.0
 13
0.0
 23
0.0
 14
1.0
 24
1.0
 15
0.0
 25
0.0
 16
0.0
 26
0.0
 36
1.0
 17
0.0
 27
0.0
 37
0.0
 40
110.0
 41
1.545454545454545
 42
50.0
 43
0.0
 44
0.0
 50
0.0
 51
0.0
 71
     0
 72
   100
 73
     1
 74
     1
 75
     0
 76
     0
 77
     0
 78
     0
281
     0
 65
     1
110
0.0
120
0.0
130
0.0
111
1.0
121
0.0
131
0.0
112
0.0
122
1.0
132
0.0
 79
     0
146
0.0
 60
     3
 61
     5
292
     1
282
     1
141
0.0
142
0.0
 63
   250
421
  3355443
  0
ENDTAB
  0
TABLE
  2
LTYPE
  5
5
330
0
100
AcDbSymbolTable
 70
    59
  0
LTYPE
  5
5B
330
5
100
AcDbSymbolTableRecord
100
AcDbLinetypeTableRecord
  2
ByBlock
 70
     0
  3

 72
    65
 73
     0
 40
0.0
  0
LTYPE
  5
5C
330
5
100
AcDbSymbolTableRecord
100
AcDbLinetypeTableRecord
  2
ByLayer
 70
     0
  3

 72
    65
 73
     0
 40
0.0
  0
LTYPE
  5
5D
330
5
100
AcDbSymbolTableRecord
100
AcDbLinetypeTableRecord
  2
Continuous
 70
     0
  3
Solid line
 72
    65
 73
     0
 40
0.0
  0
LTYPE
  5
7C
330
5
100
AcDbSymbolTableRecord
100
AcDbLinetypeTableRecord
  2
BY_STANDARD
 70
     0
  3
By Standard ____________    ____    ____   _
 72
    65
 73
     6
 40
1.240299999999999
 49
0.6614
 74
     0
 49
-0.0827
 74
     0
 49
0.1654
 74
     0
 49
-0.0827
 74
     0
 49
0.1654
 74
     0
 49
-0.0827
 74
     0
  0
LTYPE
  5
7D
330
5
100
AcDbSymbolTableRecord
100
AcDbLinetypeTableRecord
  2
CHAIN
 70
     0
  3
Chain ____ _ ____ _ ____ _ ____ _ ____ _ ____
 72
    65
 73
     4
 40
0.7087
 49
0.4724000000000001
 74
     0
 49
-0.0591
 74
     0
 49
0.1181
 74
     0
 49
-0.0591
 74
     0
  0
LTYPE
  5
7E
330
5
100
AcDbSymbolTableRecord
100
AcDbLinetypeTableRecord
  2
DASH_DOT
 70
     0
  3
Dash dot __ . __ . __ . __ . __ . __ . __ . __
 72
    65
 73
     4
 40
0.37
 49
0.24
 74
     0
 49
-0.06
 74
     0
 49
0.01
 74
     0
 49
-0.06
 74
     0
  0
LTYPE
  5
7F
330
5
100
AcDbSymbolTableRecord
100
AcDbLinetypeTableRecord
  2
DOUBLE_DASH_DOT
 70
     0
  3
Double-Dash Dot __ __ . __ __ . __ __ . __ _
 72
    65
 73
     6
 40
0.4398
 49
0.24
 74
     0
 49
-0.06
 74
     0
 49
0.0098
 74
     0
 49
-0.06
 74
     0
 49
0.01
 74
     0
 49
-0.06
 74
     0
  0
LTYPE
  5
80
330
5
100
AcDbSymbolTableRecord
100
AcDbLinetypeTableRecord
  2
DASH_TRIPLE_DOT
 70
     0
  3
Dash Triple-Dot _ . . . _ . . . _ . . . _
 72
    65
 73
     8
 40
0.51
 49
0.24
 74
     0
 49
-0.06
 74
     0
 49
0.01
 74
     0
 49
-0.06
 74
     0
 49
0.01
 74
     0
 49
-0.06
 74
     0
 49
0.01
 74
     0
 49
-0.06
 74
     0
  0
LTYPE
  5
81
330
5
100
AcDbSymbolTableRecord
100
AcDbLinetypeTableRecord
  2
DASHED
 70
     0
  3
Dashed __ __ __ __ __ __ __ __ __ __ __ __ __ _
 72
    65
 73
     2
 40
0.2067
 49
0.1654
 74
     0
 49
-0.0413
 74
     0
  0
LTYPE
  5
82
330
5
100
AcDbSymbolTableRecord
100
AcDbLinetypeTableRecord
  2
DASH_DOUBLE_DOT
 70
     0
  3
Dash Double-Dot __ . . __ . . __ . . __ . .
 72
    65
 73
     6
 40
0.4398
 49
0.24
 74
     0
 49
-0.06
 74
     0
 49
0.0098
 74
     0
 49
-0.06
 74
     0
 49
0.01
 74
     0
 49
-0.06
 74
     0
  0
LTYPE
  5
83
330
5
100
AcDbSymbolTableRecord
100
AcDbLinetypeTableRecord
  2
DASHED_SPACE
 70
     0
  3
Dashed Space __ __ __ __ __ __ __ __ __ __ __ _
 72
    65
 73
     2
 40
0.2067
 49
0.1654
 74
     0
 49
-0.0413
 74
     0
  0
LTYPE
  5
84
330
5
100
AcDbSymbolTableRecord
100
AcDbLinetypeTableRecord
  2
DOTTED
 70
     0
  3
Dotted . . . . . . . . . . . . . . . . . . . . 
 72
    65
 73
     2
 40
0.0482
 49
0.0069
 74
     0
 49
-0.0413
 74
     0
  0
LTYPE
  5
85
330
5
100
AcDbSymbolTableRecord
100
AcDbLinetypeTableRecord
  2
DOUBLE_DASH_CHAIN
 70
     0
  3
Double-Dash Chain ______  __  __  ______  __  _
 72
    65
 73
     6
 40
1.240299999999999
 49
0.6614
 74
     0
 49
-0.0827
 74
     0
 49
0.1654
 74
     0
 49
-0.0827
 74
     0
 49
0.1654
 74
     0
 49
-0.0827
 74
     0
  0
LTYPE
  5
87
330
5
100
AcDbSymbolTableRecord
100
AcDbLinetypeTableRecord
  2
DOUBLE_DASH_DOUBLE_DOT
 70
     0
  3
Double-Dash Double-dot _ _ . . _ _ . . _
 72
    65
 73
     8
 40
0.7400000000000001
 49
0.24
 74
     0
 49
-0.06
 74
     0
 49
0.24
 74
     0
 49
-0.06
 74
     0
 49
0.01
 74
     0
 49
-0.06
 74
     0
 49
0.01
 74
     0
 49
-0.06
 74
     0
  0
LTYPE
  5
88
330
5
100
AcDbSymbolTableRecord
100
AcDbLinetypeTableRecord
  2
DOUBLE_DASH_TRIPLE_DOT
 70
     0
  3
Double Dash Triple Dot __ __ . . . __ __ . .
 72
    65
 73
    10
 40
0.8100000000000001
 49
0.24
 74
     0
 49
-0.06
 74
     0
 49
0.24
 74
     0
 49
-0.06
 74
     0
 49
0.01
 74
     0
 49
-0.06
 74
     0
 49
0.01
 74
     0
 49
-0.06
 74
     0
 49
0.01
 74
     0
 49
-0.06
 74
     0
  0
LTYPE
  5
89
330
5
100
AcDbSymbolTableRecord
100
AcDbLinetypeTableRecord
  2
LONG_DASH_DOTTED
 70
     0
  3
Long Dash Dotted ____ . ____ . ____ . ____ . _
 72
    65
 73
     4
 40
0.3543
 49
0.2362
 74
     0
 49
-0.0295
 74
     0
 49
0.0591
 74
     0
 49
-0.0295
 74
     0
  0
LTYPE
  5
8A
330
5
100
AcDbSymbolTableRecord
100
AcDbLinetypeTableRecord
  2
LONG_DASH_DOUBLE_DOT
 70
     0
  3
Long Dash Double Dot ________  .  .  ________  
 72
    65
 73
     6
 40
0.6799999999999999
 49
0.48
 74
     0
 49
-0.06
 74
     0
 49
0.01
 74
     0
 49
-0.06
 74
     0
 49
0.01
 74
     0
 49
-0.06
 74
     0
  0
LTYPE
  5
8B
330
5
100
AcDbSymbolTableRecord
100
AcDbLinetypeTableRecord
  2
LONG_DASH_TRIPLE_DOT
 70
     0
  3
Long Dash Triple Dot ____ ... ____ ... ____
 72
    65
 73
     8
 40
0.3689
 49
0.2362
 74
     0
 49
-0.0295
 74
     0
 49
0.0049
 74
     0
 49
-0.0295
 74
     0
 49
0.0049
 74
     0
 49
-0.0295
 74
     0
 49
0.0049
 74
     0
 49
-0.0295
 74
     0
  0
LTYPE
  5
8C
330
5
100
AcDbSymbolTableRecord
100
AcDbLinetypeTableRecord
  2
BORDER
 70
     0
  3
Border __ __ . __ __ . __ __ . __ __ . __ __ .
 72
    65
 73
     6
 40
1.75
 49
0.5
 74
     0
 49
-0.25
 74
     0
 49
0.5
 74
     0
 49
-0.25
 74
     0
 49
0.0
 74
     0
 49
-0.25
 74
     0
  0
LTYPE
  5
8D
330
5
100
AcDbSymbolTableRecord
100
AcDbLinetypeTableRecord
  2
BORDER2
 70
     0
  3
Border (.5x) __.__.__.__.__.__.__.__.__.__.__.
 72
    65
 73
     6
 40
0.875
 49
0.25
 74
     0
 49
-0.125
 74
     0
 49
0.25
 74
     0
 49
-0.125
 74
     0
 49
0.0
 74
     0
 49
-0.125
 74
     0
  0
LTYPE
  5
8E
330
5
100
AcDbSymbolTableRecord
100
AcDbLinetypeTableRecord
  2
BORDERX2
 70
     0
  3
Border (2x) ____  ____  .  ____  ____  .  ___
 72
    65
 73
     6
 40
3.5
 49
1.0
 74
     0
 49
-0.5
 74
     0
 49
1.0
 74
     0
 49
-0.5
 74
     0
 49
0.0
 74
     0
 49
-0.5
 74
     0
  0
LTYPE
  5
8F
330
5
100
AcDbSymbolTableRecord
100
AcDbLinetypeTableRecord
  2
CENTER
 70
     0
  3
Center ____ _ ____ _ ____ _ ____ _ ____ _ ____
 72
    65
 73
     4
 40
2.0
 49
1.25
 74
     0
 49
-0.25
 74
     0
 49
0.25
 74
     0
 49
-0.25
 74
     0
  0
LTYPE
  5
90
330
5
100
AcDbSymbolTableRecord
100
AcDbLinetypeTableRecord
  2
CENTER2
 70
     0
  3
Center (.5x) ___ _ ___ _ ___ _ ___ _ ___ _ ___
 72
    65
 73
     4
 40
1.125
 49
0.75
 74
     0
 49
-0.125
 74
     0
 49
0.125
 74
     0
 49
-0.125
 74
     0
  0
LTYPE
  5
91
330
5
100
AcDbSymbolTableRecord
100
AcDbLinetypeTableRecord
  2
CENTERX2
 70
     0
  3
Center (2x) ________  __  ________  __  _____
 72
    65
 73
     4
 40
4.0
 49
2.5
 74
     0
 49
-0.5
 74
     0
 49
0.5
 74
     0
 49
-0.5
 74
     0
  0
LTYPE
  5
92
330
5
100
AcDbSymbolTableRecord
100
AcDbLinetypeTableRecord
  2
DASHDOT2
 70
     0
  3
Dash dot (.5x) _._._._._._._._._._._._._._._.
 72
    65
 73
     4
 40
0.5
 49
0.25
 74
     0
 49
-0.125
 74
     0
 49
0.0
 74
     0
 49
-0.125
 74
     0
  0
LTYPE
  5
93
330
5
100
AcDbSymbolTableRecord
100
AcDbLinetypeTableRecord
  2
DASHDOTX2
 70
     0
  3
Dash dot (2x) ____  .  ____  .  ____  .  ___
 72
    65
 73
     4
 40
2.0
 49
1.0
 74
     0
 49
-0.5
 74
     0
 49
0.0
 74
     0
 49
-0.5
 74
     0
  0
LTYPE
  5
95
330
5
100
AcDbSymbolTableRecord
100
AcDbLinetypeTableRecord
  2
DASHED2
 70
     0
  3
Dashed (.5x) _ _ _ _ _ _ _ _ _ _ _ _ _ _ _ _ _
 72
    65
 73
     2
 40
0.375
 49
0.25
 74
     0
 49
-0.125
 74
     0
  0
LTYPE
  5
96
330
5
100
AcDbSymbolTableRecord
100
AcDbLinetypeTableRecord
  2
DASHEDX2
 70
     0
  3
Dashed (2x) ____  ____  ____  ____  ____  ___
 72
    65
 73
     2
 40
1.5
 49
1.0
 74
     0
 49
-0.5
 74
     0
  0
LTYPE
  5
97
330
5
100
AcDbSymbolTableRecord
100
AcDbLinetypeTableRecord
  2
DIVIDE
 70
     0
  3
Divide ____ . . ____ . . ____ . . ____ . . ____
 72
    65
 73
     6
 40
1.25
 49
0.5
 74
     0
 49
-0.25
 74
     0
 49
0.0
 74
     0
 49
-0.25
 74
     0
 49
0.0
 74
     0
 49
-0.25
 74
     0
  0
LTYPE
  5
98
330
5
100
AcDbSymbolTableRecord
100
AcDbLinetypeTableRecord
  2
DIVIDE2
 70
     0
  3
Divide (.5x) __..__..__..__..__..__..__..__.._
 72
    65
 73
     6
 40
0.625
 49
0.25
 74
     0
 49
-0.125
 74
     0
 49
0.0
 74
     0
 49
-0.125
 74
     0
 49
0.0
 74
     0
 49
-0.125
 74
     0
  0
LTYPE
  5
99
330
5
100
AcDbSymbolTableRecord
100
AcDbLinetypeTableRecord
  2
DIVIDEX2
 70
     0
  3
Divide (2x) ________  .  .  ________  .  .  _
 72
    65
 73
     6
 40
2.5
 49
1.0
 74
     0
 49
-0.5
 74
     0
 49
0.0
 74
     0
 49
-0.5
 74
     0
 49
0.0
 74
     0
 49
-0.5
 74
     0
  0
LTYPE
  5
9A
330
5
100
AcDbSymbolTableRecord
100
AcDbLinetypeTableRecord
  2
DOT
 70
     0
  3
Dot . . . . . . . . . . . . . . . . . . . . . .
 72
    65
 73
     2
 40
0.25
 49
0.0
 74
     0
 49
-0.25
 74
     0
  0
LTYPE
  5
9B
330
5
100
AcDbSymbolTableRecord
100
AcDbLinetypeTableRecord
  2
DOT2
 70
     0
  3
Dot (.5x) .....................................
 72
    65
 73
     2
 40
0.125
 49
0.0
 74
     0
 49
-0.125
 74
     0
  0
LTYPE
  5
9C
330
5
100
AcDbSymbolTableRecord
100
AcDbLinetypeTableRecord
  2
DOTX2
 70
     0
  3
Dot (2x) .  .  .  .  .  .  .  .  .  .  .  .  . 
 72
    65
 73
     2
 40
0.5
 49
0.0
 74
     0
 49
-0.5
 74
     0
  0
LTYPE
  5
9D
330
5
100
AcDbSymbolTableRecord
100
AcDbLinetypeTableRecord
  2
HIDDEN
 70
     0
  3
Hidden __ __ __ __ __ __ __ __ __ __ __ __ __ _
 72
    65
 73
     2
 40
0.375
 49
0.25
 74
     0
 49
-0.125
 74
     0
  0
LTYPE
  5
9E
330
5
100
AcDbSymbolTableRecord
100
AcDbLinetypeTableRecord
  2
HIDDEN2
 70
     0
  3
Hidden (.5x) _ _ _ _ _ _ _ _ _ _ _ _ _ _ _ _ _
 72
    65
 73
     2
 40
0.1875
 49
0.125
 74
     0
 49
-0.0625
 74
     0
  0
LTYPE
  5
9F
330
5
100
AcDbSymbolTableRecord
100
AcDbLinetypeTableRecord
  2
HIDDENX2
 70
     0
  3
Hidden (2x) ____ ____ ____ ____ ____ ____ ____
 72
    65
 73
     2
 40
0.75
 49
0.5
 74
     0
 49
-0.25
 74
     0
  0
LTYPE
  5
A0
330
5
100
AcDbSymbolTableRecord
100
AcDbLinetypeTableRecord
  2
PHANTOM
 70
     0
  3
Phantom ______  __  __  ______  __  __  ______
 72
    65
 73
     6
 40
2.5
 49
1.25
 74
     0
 49
-0.25
 74
     0
 49
0.25
 74
     0
 49
-0.25
 74
     0
 49
0.25
 74
     0
 49
-0.25
 74
     0
  0
LTYPE
  5
A1
330
5
100
AcDbSymbolTableRecord
100
AcDbLinetypeTableRecord
  2
PHANTOM2
 70
     0
  3
Phantom (.5x) ___ _ _ ___ _ _ ___ _ _ ___ _ _
 72
    65
 73
     6
 40
1.25
 49
0.625
 74
     0
 49
-0.125
 74
     0
 49
0.125
 74
     0
 49
-0.125
 74
     0
 49
0.125
 74
     0
 49
-0.125
 74
     0
  0
LTYPE
  5
A2
330
5
100
AcDbSymbolTableRecord
100
AcDbLinetypeTableRecord
  2
PHANTOMX2
 70
     0
  3
Phantom (2x) ____________    ____    ____   _
 72
    65
 73
     6
 40
5.0
 49
2.5
 74
     0
 49
-0.5
 74
     0
 49
0.5
 74
     0
 49
-0.5
 74
     0
 49
0.5
 74
     0
 49
-0.5
 74
     0
  0
LTYPE
  5
A3
330
5
100
AcDbSymbolTableRecord
100
AcDbLinetypeTableRecord
  2
ACAD_ISO02W100
 70
     0
  3
ISO dash __ __ __ __ __ __ __ __ __ __ __ __ __
 72
    65
 73
     2
 40
0.59
 49
0.47
 74
     0
 49
-0.12
 74
     0
  0
LTYPE
  5
A4
330
5
100
AcDbSymbolTableRecord
100
AcDbLinetypeTableRecord
  2
ACAD_ISO03W100
 70
     0
  3
ISO dash space __    __    __    __    __    __
 72
    65
 73
     2
 40
1.179999999999999
 49
0.47
 74
     0
 49
-0.71
 74
     0
  0
LTYPE
  5
A5
330
5
100
AcDbSymbolTableRecord
100
AcDbLinetypeTableRecord
  2
ACAD_ISO04W100
 70
     0
  3
ISO long-dash dot ____ . ____ . ____ . ____ . _
 72
    65
 73
     4
 40
1.179999999999999
 49
0.9399999999999998
 74
     0
 49
-0.12
 74
     0
 49
0.0
 74
     0
 49
-0.12
 74
     0
  0
LTYPE
  5
A6
330
5
100
AcDbSymbolTableRecord
100
AcDbLinetypeTableRecord
  2
ACAD_ISO05W100
 70
     0
  3
ISO long-dash double-dot ____ .. ____ .. ____ .
 72
    65
 73
     6
 40
1.299999999999999
 49
0.9399999999999998
 74
     0
 49
-0.12
 74
     0
 49
0.0
 74
     0
 49
-0.12
 74
     0
 49
0.0
 74
     0
 49
-0.12
 74
     0
  0
LTYPE
  5
A7
330
5
100
AcDbSymbolTableRecord
100
AcDbLinetypeTableRecord
  2
ACAD_ISO06W100
 70
     0
  3
ISO long-dash triple-dot ____ ... ____ ... ____
 72
    65
 73
     8
 40
1.419999999999999
 49
0.9399999999999998
 74
     0
 49
-0.12
 74
     0
 49
0.0
 74
     0
 49
-0.12
 74
     0
 49
0.0
 74
     0
 49
-0.12
 74
     0
 49
0.0
 74
     0
 49
-0.12
 74
     0
  0
LTYPE
  5
A8
330
5
100
AcDbSymbolTableRecord
100
AcDbLinetypeTableRecord
  2
ACAD_ISO07W100
 70
     0
  3
ISO dot . . . . . . . . . . . . . . . . . . . .
 72
    65
 73
     2
 40
0.12
 49
0.0
 74
     0
 49
-0.12
 74
     0
  0
LTYPE
  5
A9
330
5
100
AcDbSymbolTableRecord
100
AcDbLinetypeTableRecord
  2
ACAD_ISO08W100
 70
     0
  3
ISO long-dash short-dash ____ __ ____ __ ____ _
 72
    65
 73
     4
 40
0.95
 49
0.47
 74
     0
 49
-0.12
 74
     0
 49
0.24
 74
     0
 49
-0.12
 74
     0
  0
LTYPE
  5
AA
330
5
100
AcDbSymbolTableRecord
100
AcDbLinetypeTableRecord
  2
ACAD_ISO09W100
 70
     0
  3
ISO long-dash double-short-dash ____ __ __ ____
 72
    65
 73
     6
 40
1.31
 49
0.47
 74
     0
 49
-0.12
 74
     0
 49
0.24
 74
     0
 49
-0.12
 74
     0
 49
0.24
 74
     0
 49
-0.12
 74
     0
  0
LTYPE
  5
AB
330
5
100
AcDbSymbolTableRecord
100
AcDbLinetypeTableRecord
  2
ACAD_ISO10W100
 70
     0
  3
ISO dash dot __ . __ . __ . __ . __ . __ . __ .
 72
    65
 73
     4
 40
0.71
 49
0.47
 74
     0
 49
-0.12
 74
     0
 49
0.0
 74
     0
 49
-0.12
 74
     0
  0
LTYPE
  5
AC
330
5
100
AcDbSymbolTableRecord
100
AcDbLinetypeTableRecord
  2
ACAD_ISO11W100
 70
     0
  3
ISO double-dash dot __ __ . __ __ . __ __ . __ 
 72
    65
 73
     6
 40
1.299999999999999
 49
0.47
 74
     0
 49
-0.12
 74
     0
 49
0.47
 74
     0
 49
-0.12
 74
     0
 49
0.0
 74
     0
 49
-0.12
 74
     0
  0
LTYPE
  5
AD
330
5
100
AcDbSymbolTableRecord
100
AcDbLinetypeTableRecord
  2
ACAD_ISO12W100
 70
     0
  3
ISO dash double-dot __ . . __ . . __ . . __ . .
 72
    65
 73
     6
 40
0.8299999999999998
 49
0.47
 74
     0
 49
-0.12
 74
     0
 49
0.0
 74
     0
 49
-0.12
 74
     0
 49
0.0
 74
     0
 49
-0.12
 74
     0
  0
LTYPE
  5
AE
330
5
100
AcDbSymbolTableRecord
100
AcDbLinetypeTableRecord
  2
ACAD_ISO13W100
 70
     0
  3
ISO double-dash double-dot __ __ . . __ __ . . 
 72
    65
 73
     8
 40
1.419999999999999
 49
0.47
 74
     0
 49
-0.12
 74
     0
 49
0.47
 74
     0
 49
-0.12
 74
     0
 49
0.0
 74
     0
 49
-0.12
 74
     0
 49
0.0
 74
     0
 49
-0.12
 74
     0
  0
LTYPE
  5
AF
330
5
100
AcDbSymbolTableRecord
100
AcDbLinetypeTableRecord
  2
ACAD_ISO14W100
 70
     0
  3
ISO dash triple-dot __ . . . __ . . . __ . . . 
 72
    65
 73
     8
 40
0.95
 49
0.47
 74
     0
 49
-0.12
 74
     0
 49
0.0
 74
     0
 49
-0.12
 74
     0
 49
0.0
 74
     0
 49
-0.12
 74
     0
 49
0.0
 74
     0
 49
-0.12
 74
     0
  0
LTYPE
  5
B0
330
5
100
AcDbSymbolTableRecord
100
AcDbLinetypeTableRecord
  2
ACAD_ISO15W100
 70
     0
  3
ISO double-dash triple-dot __ __ . . . __ __ . 
 72
    65
 73
    10
 40
1.539999999999999
 49
0.47
 74
     0
 49
-0.12
 74
     0
 49
0.47
 74
     0
 49
-0.12
 74
     0
 49
0.0
 74
     0
 49
-0.12
 74
     0
 49
0.0
 74
     0
 49
-0.12
 74
     0
 49
0.0
 74
     0
 49
-0.12
 74
     0
  0
LTYPE
  5
B3
330
5
100
AcDbSymbolTableRecord
100
AcDbLinetypeTableRecord
  2
FENCELINE1
 70
     0
  3
Fenceline circle ----0-----0----0-----0----0---
 72
    65
 73
     4
 40
1.45
 49
0.25
 74
     0
 49
-0.1
 74
     4
 75
   133
340
B2
 46
0.1
 50
0.0
 44
-0.1
 45
0.0
 49
-0.1
 74
     0
 49
1.0
 74
     0
  0
LTYPE
  5
B4
330
5
100
AcDbSymbolTableRecord
100
AcDbLinetypeTableRecord
  2
FENCELINE2
 70
     0
  3
Fenceline square ----[]-----[]----[]-----[]----
 72
    65
 73
     4
 40
1.45
 49
0.25
 74
     0
 49
-0.1
 74
     4
 75
   132
340
B2
 46
0.1
 50
0.0
 44
-0.1
 45
0.0
 49
-0.1
 74
     0
 49
1.0
 74
     0
  0
LTYPE
  5
B5
330
5
100
AcDbSymbolTableRecord
100
AcDbLinetypeTableRecord
  2
TRACKS
 70
     0
  3
Tracks -|-|-|-|-|-|-|-|-|-|-|-|-|-|-|-|-|-|-|-|
 72
    65
 73
     2
 40
0.3
 49
0.15
 74
     4
 75
   130
340
B2
 46
0.25
 50
0.0
 44
0.0
 45
0.0
 49
0.15
 74
     0
  0
LTYPE
  5
B6
330
5
100
AcDbSymbolTableRecord
100
AcDbLinetypeTableRecord
  2
BATTING
 70
     0
  3
Batting SSSSSSSSSSSSSSSSSSSSSSSSSSSSSSSSSSSSSSS
 72
    65
 73
     4
 40
0.4001000000000001
 49
0.0001
 74
     0
 49
-0.1
 74
     4
 75
   134
340
B2
 46
0.1
 50
0.0
 44
-0.1
 45
0.0
 49
-0.2
 74
     4
 75
   134
340
B2
 46
0.1
 50
180.0
 44
0.1
 45
0.0
 49
-0.1
 74
     0
  0
LTYPE
  5
B7
330
5
100
AcDbSymbolTableRecord
100
AcDbLinetypeTableRecord
  2
HOT_WATER_SUPPLY
 70
     0
  3
Hot water supply ---- HW ---- HW ---- HW ----
 72
    65
 73
     3
 40
0.9
 49
0.5
 74
     0
 49
-0.2
 74
     2
 75
     0
340
55
 46
0.1
 50
0.0
 44
-0.1
 45
-0.05
  9
HW
 49
-0.2
 74
     0
  0
LTYPE
  5
B8
330
5
100
AcDbSymbolTableRecord
100
AcDbLinetypeTableRecord
  2
GAS_LINE
 70
     0
  3
Gas line ----GAS----GAS----GAS----GAS----GAS---
 72
    65
 73
     3
 40
0.95
 49
0.5
 74
     0
 49
-0.2
 74
     2
 75
     0
340
55
 46
0.1
 50
0.0
 44
-0.1
 45
-0.05
  9
GAS
 49
-0.25
 74
     0
  0
LTYPE
  5
B9
330
5
100
AcDbSymbolTableRecord
100
AcDbLinetypeTableRecord
  2
ZIGZAG
 70
     0
  3
Zig zag /\/\/\/\/\/\/\/\/\/\/\/\/\/\/\/\/\/\/\/
 72
    65
 73
     4
 40
0.8001000000000001
 49
0.0001
 74
     0
 49
-0.2
 74
     4
 75
   131
340
B2
 46
0.2
 50
0.0
 44
-0.2
 45
0.0
 49
-0.4
 74
     4
 75
   131
340
B2
 46
0.2
 50
180.0
 44
0.2
 45
0.0
 49
-0.2
 74
     0
  0
ENDTAB
  0
TABLE
  2
LAYER
  5
2
330
0
100
AcDbSymbolTable
 70
    27
  0
LAYER
  5
54
330
2
100
AcDbSymbolTableRecord
100
AcDbLayerTableRecord
  2
0
 70
     0
 62
     7
  6
Continuous
370
    18
390
F
347
21
  0
LAYER
  5
C0
330
2
100
AcDbSymbolTableRecord
100
AcDbLayerTableRecord
  2
Center Mark (ANSI)
 70
     0
 62
     7
  6
Continuous
370
    15
390
F
347
21
  0
LAYER
  5
C1
330
2
100
AcDbSymbolTableRecord
100
AcDbLayerTableRecord
  2
Centerline (ANSI)
 70
     0
 62
     7
  6
Continuous
370
    15
390
F
347
21
  0
LAYER
  5
C3
330
2
100
AcDbSymbolTableRecord
100
AcDbLayerTableRecord
  2
Dimension (ANSI)
 70
     0
 62
     7
  6
Continuous
370
    13
390
F
347
21
  0
LAYER
  5
C5
330
2
100
AcDbSymbolTableRecord
100
AcDbLayerTableRecord
  2
Hidden (ANSI)
 70
     0
 62
     7
  6
DASHED
370
    15
390
F
347
21
  0
LAYER
  5
CC
330
2
100
AcDbSymbolTableRecord
100
AcDbLayerTableRecord
  2
Symbol (ANSI)
 70
     0
 62
     7
  6
Continuous
370
    18
390
F
347
21
  0
LAYER
  5
CF
330
2
100
AcDbSymbolTableRecord
100
AcDbLayerTableRecord
  2
Visible (ANSI)
 70
     0
 62
     7
  6
Continuous
370
    13
390
F
347
21
  0
LAYER
  5
D0
330
2
100
AcDbSymbolTableRecord
100
AcDbLayerTableRecord
  2
Visible Narrow (ANSI)
 70
     0
 62
     7
  6
Continuous
370
    18
390
F
347
21
  0
LAYER
  5
1D0
330
2
100
AcDbSymbolTableRecord
100
AcDbLayerTableRecord
  2
Defpoints
 70
     0
 62
     7
  6
Continuous
290
     0
370
    -3
390
F
347
21
  0
ENDTAB
  0
TABLE
  2
STYLE
  5
3
330
0
100
AcDbSymbolTable
 70
    18
  0
STYLE
  5
55
330
3
100
AcDbSymbolTableRecord
100
AcDbTextStyleTableRecord
  2
Standard
 70
     0
 40
0.0
 41
1.0
 50
0.0
 71
     0
 42
0.2
  3
txt
  4

  0
STYLE
  5
5A
330
3
100
AcDbSymbolTableRecord
100
AcDbTextStyleTableRecord
  2
Annotative
 70
     0
 40
0.0
 41
1.0
 50
0.0
 71
     0
 42
0.2
  3
txt
  4

1001
AcadAnnotative
1000
AnnotativeData
1002
{
1070
     1
1070
     1
1002
}
  0
STYLE
  5
B2
330
3
100
AcDbSymbolTableRecord
100
AcDbTextStyleTableRecord
  2

 70
     1
 40
0.0
 41
1.0
 50
0.0
 71
     0
 42
0.2
  3
ltypeshp.shx
  4

  0
STYLE
  5
D4
330
3
100
AcDbSymbolTableRecord
100
AcDbTextStyleTableRecord
  2
ITALICC_120
 70
     0
 40
0.0
 41
1.0
 50
0.0
 71
     0
 42
0.2
  3
italicc.shx
  4

  0
STYLE
  5
D5
330
3
100
AcDbSymbolTableRecord
100
AcDbTextStyleTableRecord
  2
Label Text (ANSI)
 70
     0
 40
0.0
 41
1.0
 50
0.0
 71
     0
 42
0.2
  3
tahoma.ttf
  4

1001
ACAD
1000
Tahoma
1071
      256
  0
STYLE
  5
D6
330
3
100
AcDbSymbolTableRecord
100
AcDbTextStyleTableRecord
  2
Note Text (ANSI)
 70
     0
 40
0.0
 41
1.0
 50
0.0
 71
     0
 42
0.2
  3
tahoma.ttf
  4

1001
ACAD
1000
Tahoma
1071
      256
  0
STYLE
  5
D7
330
3
100
AcDbSymbolTableRecord
100
AcDbTextStyleTableRecord
  2
ROMANS
 70
     0
 40
0.0
 41
1.0
 50
0.0
 71
     0
 42
0.2
  3
romans.shx
  4

  0
STYLE
  5
D8
330
3
100
AcDbSymbolTableRecord
100
AcDbTextStyleTableRecord
  2
SANSSERIF_114
 70
     0
 40
0.0
 41
1.0
 50
0.0
 71
     0
 42
0.2
  3
tahoma.ttf
  4

1001
ACAD
1000
Tahoma
1071
      256
  0
STYLE
  5
D9
330
3
100
AcDbSymbolTableRecord
100
AcDbTextStyleTableRecord
  2
SANSSERIF_117
 70
     0
 40
0.0
 41
1.0
 50
0.0
 71
     0
 42
0.2
  3
tahoma.ttf
  4

1001
ACAD
1000
Tahoma
1071
      256
  0
STYLE
  5
DA
330
3
100
AcDbSymbolTableRecord
100
AcDbTextStyleTableRecord
  2
STANDARDAM_ANSI
 70
     0
 40
0.0
 41
1.0
 50
0.0
 71
     0
 42
0.2
  3
txt.shx
  4

  0
STYLE
  5
DB
330
3
100
AcDbSymbolTableRecord
100
AcDbTextStyleTableRecord
  2
StandardAM_ANSI$0
 70
     0
 40
0.0
 41
1.0
 50
0.0
 71
     0
 42
0.2
  3
txt.shx
  4

  0
STYLE
  5
DC
330
3
100
AcDbSymbolTableRecord
100
AcDbTextStyleTableRecord
  2
STANDARDAM_ANSI$3
 70
     0
 40
0.0
 41
1.0
 50
0.0
 71
     0
 42
0.2
  3
txt.shx
  4

  0
STYLE
  5
DD
330
3
100
AcDbSymbolTableRecord
100
AcDbTextStyleTableRecord
  2
STANDARDAM_ANSI$4
 70
     0
 40
0.0
 41
1.0
 50
0.0
 71
     0
 42
0.2
  3
txt.shx
  4

  0
STYLE
  5
DE
330
3
100
AcDbSymbolTableRecord
100
AcDbTextStyleTableRecord
  2
STANDARDAM_ANSI$7
 70
     0
 40
0.0
 41
1.0
 50
0.0
 71
     0
 42
0.2
  3
txt.shx
  4

  0
STYLE
  5
DF
330
3
100
AcDbSymbolTableRecord
100
AcDbTextStyleTableRecord
  2
STANDARDAM_ANSI$SF
 70
     0
 40
0.0
 41
1.0
 50
0.0
 71
     0
 42
0.2
  3
txt.shx
  4

  0
STYLE
  5
E0
330
3
100
AcDbSymbolTableRecord
100
AcDbTextStyleTableRecord
  2
STANDARDAM_ANSI$SH
 70
     0
 40
0.0
 41
1.0
 50
0.0
 71
     0
 42
0.2
  3
txt.shx
  4

  0
STYLE
  5
E1
330
3
100
AcDbSymbolTableRecord
100
AcDbTextStyleTableRecord
  2
STANDARDSTANDARD
 70
     0
 40
0.0
 41
1.0
 50
0.0
 71
     0
 42
0.2
  3
txt.shx
  4

  0
STYLE
  5
143
330
3
100
AcDbSymbolTableRecord
100
AcDbTextStyleTableRecord
  2
Text Style153
 70
     0
 40
0.0
 41
1.0
 50
0.0
 71
     0
 42
0.2
  3
tahoma.ttf
  4

1001
ACAD
1000
Tahoma
1071
      256
  0
ENDTAB
  0
TABLE
  2
VIEW
  5
6
330
0
100
AcDbSymbolTable
 70
     0
  0
ENDTAB
  0
TABLE
  2
UCS
  5
7
330
0
100
AcDbSymbolTable
 70
     0
  0
ENDTAB
  0
TABLE
  2
APPID
  5
9
330
0
100
AcDbSymbolTable
 70
     3
  0
APPID
  5
56
330
9
100
AcDbSymbolTableRecord
100
AcDbRegAppTableRecord
  2
ACAD
 70
     0
  0
APPID
  5
5E
330
9
100
AcDbSymbolTableRecord
100
AcDbRegAppTableRecord
  2
AcadAnnotative
 70
     0
  0
APPID
  5
734
330
9
100
AcDbSymbolTableRecord
100
AcDbRegAppTableRecord
  2
ACAD_DSTYLE_DIMRADIAL_EXTENSION
 70
     0
  0
ENDTAB
  0
TABLE
  2
DIMSTYLE
  5
A
330
0
100
AcDbSymbolTable
 70
    27
100
AcDbDimStyleTable
 71
     2
340
F6
340
58
  0
DIMSTYLE
105
58
330
A
100
AcDbSymbolTableRecord
100
AcDbDimStyleTableRecord
  2
STANDARD
 70
     0
 41
0.1800000071525573
 42
0.0625
140
0.1800000071525574
144
1.0
147
0.0900000035762787
176
   256
177
   256
178
   256
274
     3
340
55
371
    -1
372
    -1
  0
DIMSTYLE
105
59
330
A
100
AcDbSymbolTableRecord
100
AcDbDimStyleTableRecord
  2
Annotative
 70
     0
340
55
1001
AcadAnnotative
1000
AnnotativeData
1002
{
1070
     1
1070
     1
1002
}
  0
DIMSTYLE
105
E2
330
A
100
AcDbSymbolTableRecord
100
AcDbDimStyleTableRecord
  2
AM_ANSI
 70
     0
  4
 mm
 40
10.0
 41
0.119999997317791
 42
0.05
 43
0.5
 44
0.1
 45
0.00000001
 78
     4
 79
     2
140
0.1200000047683716
146
0.7099999189376831
147
0.0599999986588955
176
   256
177
   256
178
     2
284
     4
340
DA
371
    -1
372
    -1
  0
DIMSTYLE
105
E3
330
A
100
AcDbSymbolTableRecord
100
AcDbDimStyleTableRecord
  2
AM_ANSI$7
 70
     0
  4
 mm
 40
10.0
 41
0.119999997317791
 42
0.05
 43
0.5
 44
0.1
 45
0.00000001
 78
     4
 79
     2
140
0.1200000047683716
146
0.7099999189376831
147
0.0599999986588955
176
   256
177
   256
178
     2
284
     4
340
DA
371
    -1
372
    -1
  0
DIMSTYLE
105
E4
330
A
100
AcDbSymbolTableRecord
100
AcDbDimStyleTableRecord
  2
AM_ANSI$0
 70
     0
  4
 mm
 40
10.0
 41
0.119999997317791
 42
0.05
 43
0.5
 44
0.1
 45
0.00000001
 78
     4
 79
     2
140
0.1200000047683716
146
0.7099999189376831
147
0.0599999986588955
176
   256
177
   256
178
     2
284
     4
340
DB
371
    -1
372
    -1
  0
DIMSTYLE
105
E5
330
A
100
AcDbSymbolTableRecord
100
AcDbDimStyleTableRecord
  2
AM_ANSI$0$7
 70
     0
  4
 mm
 40
10.0
 41
0.119999997317791
 42
0.05
 43
0.5
 44
0.1
 45
0.00000001
 78
     4
 79
     2
140
0.1200000047683716
146
0.7099999189376831
147
0.0599999986588955
176
   256
177
   256
178
     2
284
     4
340
DB
371
    -1
372
    -1
  0
DIMSTYLE
105
E6
330
A
100
AcDbSymbolTableRecord
100
AcDbDimStyleTableRecord
  2
AM_ANSI$3
 70
     0
  4
 mm
 40
10.0
 41
0.119999997317791
 42
0.05
 43
0.5
 44
0.1
 45
0.00000001
 78
     4
 79
     2
140
0.1200000047683716
146
0.7099999189376831
147
0.0599999986588955
176
   256
177
   256
178
     2
284
     4
340
DC
371
    -1
372
    -1
  0
DIMSTYLE
105
E7
330
A
100
AcDbSymbolTableRecord
100
AcDbDimStyleTableRecord
  2
AM_ANSI$3$7
 70
     0
  4
 mm
 40
10.0
 41
0.119999997317791
 42
0.05
 43
0.5
 44
0.1
 45
0.00000001
 78
     4
 79
     2
140
0.1200000047683716
146
0.7099999189376831
147
0.0599999986588955
176
   256
177
   256
178
     2
284
     4
340
DC
371
    -1
372
    -1
  0
DIMSTYLE
105
E8
330
A
100
AcDbSymbolTableRecord
100
AcDbDimStyleTableRecord
  2
AM_ANSI$4
 70
     0
  4
 mm
 40
10.0
 41
0.119999997317791
 42
0.05
 43
0.5
 44
0.1
 45
0.00000001
 78
     4
 79
     2
140
0.1200000047683716
146
0.7099999189376831
147
0.0599999986588955
176
   256
177
   256
178
     2
284
     4
340
DD
371
    -1
372
    -1
  0
DIMSTYLE
105
E9
330
A
100
AcDbSymbolTableRecord
100
AcDbDimStyleTableRecord
  2
AM_ANSI$4$7
 70
     0
  4
 mm
 40
10.0
 41
0.119999997317791
 42
0.05
 43
0.5
 44
0.1
 45
0.00000001
 78
     4
 79
     2
140
0.1200000047683716
146
0.7099999189376831
147
0.0599999986588955
176
   256
177
   256
178
     2
284
     4
340
DD
371
    -1
372
    -1
  0
DIMSTYLE
105
EA
330
A
100
AcDbSymbolTableRecord
100
AcDbDimStyleTableRecord
  2
AM_ANSI$SF
 70
     0
  4
 mm
 40
10.0
 41
0.119999997317791
 42
0.05
 43
0.5
 44
0.1
 45
0.00000001
 75
     1
 76
     1
 78
     4
 79
     2
140
0.1200000047683716
146
0.7099999189376831
147
0.0599999986588955
176
   256
177
   256
178
     2
284
     4
340
DF
371
    -1
372
    -1
  0
DIMSTYLE
105
EB
330
A
100
AcDbSymbolTableRecord
100
AcDbDimStyleTableRecord
  2
AM_ANSI$SF$7
 70
     0
  4
 mm
 40
10.0
 41
0.119999997317791
 42
0.05
 43
0.5
 44
0.1
 45
0.00000001
 75
     1
 76
     1
 78
     4
 79
     2
140
0.1200000047683716
146
0.7099999189376831
147
0.0599999986588955
176
   256
177
   256
178
     2
284
     4
340
DF
371
    -1
372
    -1
  0
DIMSTYLE
105
EC
330
A
100
AcDbSymbolTableRecord
100
AcDbDimStyleTableRecord
  2
AM_ANSI$SH
 70
     0
  4
 mm
 40
10.0
 41
0.119999997317791
 42
0.05
 43
0.5
 44
0.1
 45
0.00000001
 75
     1
 76
     1
 78
     4
 79
     2
140
0.1200000047683716
146
0.7099999189376831
147
0.0599999986588955
176
   256
177
   256
178
     2
284
     4
340
E0
371
    -1
372
    -1
  0
DIMSTYLE
105
ED
330
A
100
AcDbSymbolTableRecord
100
AcDbDimStyleTableRecord
  2
AM_ANSI$SH$7
 70
     0
  4
 mm
 40
10.0
 41
0.119999997317791
 42
0.05
 43
0.5
 44
0.1
 45
0.00000001
 75
     1
 76
     1
 78
     4
 79
     2
140
0.1200000047683716
146
0.7099999189376831
147
0.0599999986588955
176
   256
177
   256
178
     2
284
     4
340
E0
371
    -1
372
    -1
  0
DIMSTYLE
105
EE
330
A
100
AcDbSymbolTableRecord
100
AcDbDimStyleTableRecord
  2
Architectural (ANSI)
 70
     0
 40
10.0
 41
0.0984251946210861
 43
0.2362204724409449
 44
0.125
 45
0.00000001
 46
0.3937007874015748
 78
     3
 79
     3
140
0.1200000047683716
147
0.031496062992126
171
     1
176
   256
177
   256
178
   256
272
     2
274
     1
276
     2
277
     4
284
    12
285
     4
286
    12
340
D6
371
    -1
372
    -1
  0
DIMSTYLE
105
EF
330
A
100
AcDbSymbolTableRecord
100
AcDbDimStyleTableRecord
  2
Architectural (ANSI)$7
 70
     0
 40
10.0
 41
0.0984251946210861
 43
0.2362204724409449
 44
0.125
 45
0.00000001
 46
0.3937007874015748
 78
     3
 79
     3
140
0.1200000047683716
147
0.031496062992126
171
     1
176
   256
177
   256
178
   256
272
     2
274
     1
276
     2
277
     4
284
    12
285
     4
286
    12
340
D6
371
    -1
372
    -1
  0
DIMSTYLE
105
F0
330
A
100
AcDbSymbolTableRecord
100
AcDbDimStyleTableRecord
  2
Default - Fraction (ANSI)
 70
     0
 40
10.0
 41
0.0984251946210861
 43
0.2362204724409449
 44
0.125
 45
0.00000001
 46
0.3937007874015748
 79
     3
140
0.1200000047683716
147
0.031496062992126
171
     1
176
   256
177
   256
178
   256
272
     2
274
     1
276
     2
277
     5
284
    12
285
     4
286
    12
340
D6
371
    -1
372
    -1
  0
DIMSTYLE
105
F1
330
A
100
AcDbSymbolTableRecord
100
AcDbDimStyleTableRecord
  2
Default - Fraction (ANSI)$7
 70
     0
 40
10.0
 41
0.0984251946210861
 43
0.2362204724409449
 44
0.125
 45
0.00000001
 46
0.3937007874015748
 79
     3
140
0.1200000047683716
147
0.031496062992126
171
     1
176
   256
177
   256
178
   256
272
     2
274
     1
276
     2
277
     5
284
    12
285
     4
286
    12
340
D6
371
    -1
372
    -1
  0
DIMSTYLE
105
F2
330
A
100
AcDbSymbolTableRecord
100
AcDbDimStyleTableRecord
  2
Default - mm (ANSI)
 70
     0
 40
10.0
 41
0.0984251946210861
 42
0.063
 43
0.2362204724409449
 44
0.125
 45
0.00000001
 46
0.3937007874015748
 73
     0
 78
     4
 79
     1
140
0.1200000047683716
143
1.0
144
25.4
147
0.031496062992126
171
     1
176
   256
177
   256
178
   256
179
     1
271
     2
272
     2
274
     1
284
     4
285
     4
340
D6
371
    -1
372
    -1
  0
DIMSTYLE
105
F3
330
A
100
AcDbSymbolTableRecord
100
AcDbDimStyleTableRecord
  2
Default - mm (ANSI)$7
 70
     0
 40
10.0
 41
0.0984251946210861
 42
0.063
 43
0.2362204724409449
 44
0.125
 45
0.00000001
 46
0.3937007874015748
 73
     0
 78
     4
 79
     1
140
0.1200000047683716
143
1.0
144
25.4
147
0.031496062992126
171
     1
176
   256
177
   256
178
   256
179
     1
271
     2
272
     2
274
     1
284
     4
285
     4
340
D6
371
    -1
372
    -1
  0
DIMSTYLE
105
F4
330
A
100
AcDbSymbolTableRecord
100
AcDbDimStyleTableRecord
  2
Default - mm [in] (ANSI)
 70
     0
  4
 in
 40
10.0
 41
0.0984251946210861
 42
0.063
 43
0.25
 44
0.125
 45
0.00000001
 46
0.3937007874015748
 73
     0
 78
     4
 79
     1
140
0.1200000047683716
143
0.03937
144
25.4
147
0.031496062992126
170
     1
171
     3
176
   256
177
   256
178
   256
179
     1
271
     2
272
     2
274
     3
284
     4
285
     4
286
     4
340
D6
371
    -1
372
    -1
  0
DIMSTYLE
105
F5
330
A
100
AcDbSymbolTableRecord
100
AcDbDimStyleTableRecord
  2
Default - mm [in] (ANSI)$7
 70
     0
  4
 in
 40
10.0
 41
0.0984251946210861
 42
0.063
 43
0.25
 44
0.125
 45
0.00000001
 46
0.3937007874015748
 73
     0
 78
     4
 79
     1
140
0.1200000047683716
143
0.03937
144
25.4
147
0.031496062992126
170
     1
171
     3
176
   256
177
   256
178
   256
179
     1
271
     2
272
     2
274
     3
284
     4
285
     4
286
     4
340
D6
371
    -1
372
    -1
  0
DIMSTYLE
105
F6
102
{ACAD_REACTORS
330
1CE
330
2DC
330
3C6
330
4B0
330
5B0
330
69A
330
755
330
83F
330
929
330
A15
102
}
330
A
100
AcDbSymbolTableRecord
100
AcDbDimStyleTableRecord
  2
Default (ANSI)
 70
     0
 40
10.0
 41
0.0984251946210861
 43
0.2362204724409449
 44
0.125
 45
0.00000001
 46
0.3937007874015748
 79
     1
140
0.1200000047683716
147
0.031496062992126
171
     1
176
   256
177
   256
178
   256
271
     2
272
     2
274
     1
284
     4
285
     4
340
D6
371
    -1
372
    -1
  0
DIMSTYLE
105
F7
330
A
100
AcDbSymbolTableRecord
100
AcDbDimStyleTableRecord
  2
Default (ANSI)$7
 70
     0
 40
10.0
 41
0.0984251946210861
 43
0.2362204724409449
 44
0.125
 45
0.00000001
 46
0.3937007874015748
 79
     1
140
0.1200000047683716
147
0.031496062992126
171
     1
176
   256
177
   256
178
   256
271
     2
272
     2
274
     1
284
     4
285
     4
340
D6
371
    -1
372
    -1
  0
DIMSTYLE
105
F8
330
A
100
AcDbSymbolTableRecord
100
AcDbDimStyleTableRecord
  2
Alternate (ANSI)
 70
     0
 40
10.0
 41
0.0979999974370003
340
55
342
F9
  0
DIMSTYLE
105
10B
330
A
100
AcDbSymbolTableRecord
100
AcDbDimStyleTableRecord
  2
Datum (ANSI)
 70
     0
 40
10.0
 41
0.0979999974370003
340
55
342
F9
  0
DIMSTYLE
105
11A
330
A
100
AcDbSymbolTableRecord
100
AcDbDimStyleTableRecord
  2
Large (ANSI)
 70
     0
 40
10.0
 41
0.1959999948740005
340
55
342
F9
  0
ENDTAB
  0
TABLE
  2
BLOCK_RECORD
  5
1
330
0
100
AcDbSymbolTable
 70
    14
  0
BLOCK_RECORD
  5
6C
330
1
100
AcDbSymbolTableRecord
100
AcDbBlockTableRecord
  2
*Model_Space
340
6F
 70
     0
280
     1
281
     0
  0
BLOCK_RECORD
  5
68
330
1
100
AcDbSymbolTableRecord
100
AcDbBlockTableRecord
  2
*Paper_Space
340
6B
 70
     0
280
     1
281
     0
  0
BLOCK_RECORD
  5
70
330
1
100
AcDbSymbolTableRecord
100
AcDbBlockTableRecord
  2
*Paper_Space0
340
73
 70
     0
280
     1
281
     0
  0
BLOCK_RECORD
  5
F9
330
1
100
AcDbSymbolTableRecord
100
AcDbBlockTableRecord
  2
_Closed
340
0
 70
     0
280
     1
281
     0
  0
BLOCK_RECORD
  5
100
330
1
100
AcDbSymbolTableRecord
100
AcDbBlockTableRecord
  2
DatumFilled45
340
0
 70
     0
280
     1
281
     0
  0
BLOCK_RECORD
  5
10C
330
1
100
AcDbSymbolTableRecord
100
AcDbBlockTableRecord
  2
Filled-1
340
0
 70
     0
280
     1
281
     0
  0
BLOCK_RECORD
  5
1D1
330
1
100
AcDbSymbolTableRecord
100
AcDbBlockTableRecord
  2
*D4
340
0
 70
     0
280
     1
281
     0
  0
BLOCK_RECORD
  5
2DD
330
1
100
AcDbSymbolTableRecord
100
AcDbBlockTableRecord
  2
*D5
340
0
 70
     0
280
     1
281
     0
  0
BLOCK_RECORD
  5
3C7
330
1
100
AcDbSymbolTableRecord
100
AcDbBlockTableRecord
  2
*D6
340
0
 70
     0
280
     1
281
     0
  0
BLOCK_RECORD
  5
4B1
330
1
100
AcDbSymbolTableRecord
100
AcDbBlockTableRecord
  2
*D7
340
0
 70
     0
280
     1
281
     0
  0
BLOCK_RECORD
  5
5B1
330
1
100
AcDbSymbolTableRecord
100
AcDbBlockTableRecord
  2
*D8
340
0
 70
     0
280
     1
281
     0
  0
BLOCK_RECORD
  5
69B
330
1
100
AcDbSymbolTableRecord
100
AcDbBlockTableRecord
  2
*D9
340
0
 70
     0
280
     1
281
     0
  0
BLOCK_RECORD
  5
756
330
1
100
AcDbSymbolTableRecord
100
AcDbBlockTableRecord
  2
*D10
340
0
 70
     0
280
     1
281
     0
  0
BLOCK_RECORD
  5
840
330
1
100
AcDbSymbolTableRecord
100
AcDbBlockTableRecord
  2
*D11
340
0
 70
     0
280
     1
281
     0
  0
BLOCK_RECORD
  5
92A
330
1
100
AcDbSymbolTableRecord
100
AcDbBlockTableRecord
  2
*D12
340
0
 70
     0
280
     1
281
     0
  0
BLOCK_RECORD
  5
A16
330
1
100
AcDbSymbolTableRecord
100
AcDbBlockTableRecord
  2
*D13
340
0
 70
     0
280
     1
281
     0
  0
ENDTAB
  0
ENDSEC
  0
SECTION
  2
BLOCKS
  0
BLOCK
  5
6D
330
6C
100
AcDbEntity
  8
0
100
AcDbBlockBegin
  2
*Model_Space
 70
     0
 10
0.0
 20
0.0
 30
0.0
  3
*Model_Space
  1

  0
ENDBLK
  5
6E
330
6C
100
AcDbEntity
  8
0
100
AcDbBlockEnd
  0
BLOCK
  5
69
330
68
100
AcDbEntity
 67
     1
  8
0
100
AcDbBlockBegin
  2
*Paper_Space
 70
     0
 10
0.0
 20
0.0
 30
0.0
  3
*Paper_Space
  1

  0
ENDBLK
  5
6A
330
68
100
AcDbEntity
 67
     1
  8
0
100
AcDbBlockEnd
  0
BLOCK
  5
71
330
70
100
AcDbEntity
 67
     1
  8
0
100
AcDbBlockBegin
  2
*Paper_Space0
 70
     0
 10
0.0
 20
0.0
 30
0.0
  3
*Paper_Space0
  1

  0
ENDBLK
  5
72
330
70
100
AcDbEntity
 67
     1
  8
0
100
AcDbBlockEnd
  0
BLOCK
  5
FE
330
F9
100
AcDbEntity
  8
0
100
AcDbBlockBegin
  2
_Closed
 70
     0
 10
0.0
 20
0.0
 30
0.0
  3
_Closed
  1

  0
LINE
  5
FA
330
F9
100
AcDbEntity
  8
0
  6
ByBlock
 62
     0
370
    -2
100
AcDbLine
 10
-1.0
 20
0.1666666666666666
 30
0.0
 11
0.0
 21
0.0
 31
0.0
  0
LINE
  5
FB
330
F9
100
AcDbEntity
  8
0
  6
ByBlock
 62
     0
370
    -2
100
AcDbLine
 10
0.0
 20
0.0
 30
0.0
 11
-1.0
 21
-0.1666666666666666
 31
0.0
  0
LINE
  5
FC
330
F9
100
AcDbEntity
  8
0
  6
ByBlock
 62
     0
370
    -2
100
AcDbLine
 10
-1.0
 20
0.1666666666666666
 30
0.0
 11
-1.0
 21
-0.1666666666666666
 31
0.0
  0
LINE
  5
FD
330
F9
100
AcDbEntity
  8
0
  6
ByBlock
 62
     0
370
    -2
100
AcDbLine
 10
0.0
 20
0.0
 30
0.0
 11
-1.0
 21
0.0
 31
0.0
  0
ENDBLK
  5
FF
330
F9
100
AcDbEntity
  8
0
100
AcDbBlockEnd
  0
BLOCK
  5
101
330
100
100
AcDbEntity
  8
0
100
AcDbBlockBegin
  2
DatumFilled45
 70
     0
 10
0.0
 20
0.0
 30
0.0
  3
DatumFilled45
  1

  0
POLYLINE
  5
103
330
100
100
AcDbEntity
  8
0
 62
     0
100
AcDb2dPolyline
 66
     1
 10
0.0
 20
0.0
 30
0.0
 70
   128
  0
VERTEX
  5
104
330
103
100
AcDbEntity
  8
0
 62
     0
100
AcDbVertex
100
AcDb2dVertex
 10
0.0
 20
0.9999999999999998
 30
0.0
  0
VERTEX
  5
105
330
103
100
AcDbEntity
  8
0
 62
     0
100
AcDbVertex
100
AcDb2dVertex
 10
0.0
 20
-0.9999999999999998
 30
0.0
  0
VERTEX
  5
107
330
103
100
AcDbEntity
  8
0
 62
     0
100
AcDbVertex
100
AcDb2dVertex
 10
-0.9999999999999998
 20
0.0
 30
0.0
  0
VERTEX
  5
108
330
103
100
AcDbEntity
  8
0
 62
     0
100
AcDbVertex
100
AcDb2dVertex
 10
0.0
 20
0.9999999999999998
 30
0.0
  0
SEQEND
  5
106
330
103
100
AcDbEntity
  8
0
 62
     0
  0
SOLID
  5
10A
330
100
100
AcDbEntity
  8
0
 62
     0
100
AcDbTrace
 10
0.0
 20
0.9999999999999998
 30
0.0
 11
0.0
 21
-0.9999999999999998
 31
0.0
 12
-0.9999999999999998
 22
0.0
 32
0.0
 13
0.0
 23
0.9999999999999998
 33
0.0
  0
ENDBLK
  5
102
330
100
100
AcDbEntity
  8
0
100
AcDbBlockEnd
  0
BLOCK
  5
10D
330
10C
100
AcDbEntity
  8
0
100
AcDbBlockBegin
  2
Filled-1
 70
     0
 10
0.0
 20
0.0
 30
0.0
  3
Filled-1
  1

  0
LINE
  5
10F
330
10C
100
AcDbEntity
  8
0
 62
     0
100
AcDbLine
 10
-0.9999999999999998
 20
0.0
 30
0.0
 11
0.0
 21
0.0
 31
0.0
  0
POLYLINE
  5
110
330
10C
100
AcDbEntity
  8
0
 62
     0
100
AcDb2dPolyline
 66
     1
 10
0.0
 20
0.0
 30
0.0
 70
   128
  0
VERTEX
  5
111
330
110
100
AcDbEntity
  8
0
 62
     0
100
AcDbVertex
100
AcDb2dVertex
 10
-0.9999999999999998
 20
-0.0994897959183674
 30
0.0
  0
VERTEX
  5
112
330
110
100
AcDbEntity
  8
0
 62
     0
100
AcDbVertex
100
AcDb2dVertex
 10
0.0
 20
0.0
 30
0.0
  0
VERTEX
  5
114
330
110
100
AcDbEntity
  8
0
 62
     0
100
AcDbVertex
100
AcDb2dVertex
 10
-0.9999999999999998
 20
0.0994897959183674
 30
0.0
  0
VERTEX
  5
115
330
110
100
AcDbEntity
  8
0
 62
     0
100
AcDbVertex
100
AcDb2dVertex
 10
-0.9999999999999998
 20
-0.0994897959183674
 30
0.0
  0
SEQEND
  5
113
330
110
100
AcDbEntity
  8
0
 62
     0
  0
SOLID
  5
116
330
10C
100
AcDbEntity
  8
0
 62
     0
100
AcDbTrace
 10
-0.9999999999999998
 20
-0.0994897959183674
 30
0.0
 11
0.0
 21
0.0
 31
0.0
 12
-0.9999999999999998
 22
0.0994897959183674
 32
0.0
 13
-0.9999999999999998
 23
-0.0994897959183674
 33
0.0
  0
LINE
  5
117
330
10C
100
AcDbEntity
  8
0
 62
     0
100
AcDbLine
 10
-0.9999999999999998
 20
-0.0994897959183674
 30
0.0
 11
0.0
 21
0.0
 31
0.0
  0
LINE
  5
118
330
10C
100
AcDbEntity
  8
0
 62
     0
100
AcDbLine
 10
0.0
 20
0.0
 30
0.0
 11
-0.9999999999999998
 21
0.0994897959183674
 31
0.0
  0
LINE
  5
119
330
10C
100
AcDbEntity
  8
0
 62
     0
100
AcDbLine
 10
-0.9999999999999998
 20
0.0994897959183674
 30
0.0
 11
-0.9999999999999998
 21
-0.0994897959183674
 31
0.0
  0
ENDBLK
  5
10E
330
10C
100
AcDbEntity
  8
0
100
AcDbBlockEnd
  0
BLOCK
  5
1D2
330
1D1
100
AcDbEntity
  8
0
100
AcDbBlockBegin
  2
*D4
 70
     1
 10
0.0
 20
0.0
 30
0.0
  3
*D4
  1

  0
LINE
  5
2BE
330
1D1
100
AcDbEntity
  8
Dimension (ANSI)
440
 16777216
100
AcDbLine
 10
84.07059492107535
 20
57.848710608403
 30
0.0
 11
84.07059492107535
 21
67.78420632819844
 31
0.0
  0
LINE
  5
2BF
330
1D1
100
AcDbEntity
  8
Dimension (ANSI)
440
 16777216
100
AcDbLine
 10
83.08634297486449
 20
66.53420632819844
 30
0.0
 11
82.10209102865363
 21
66.53420632819844
 31
0.0
  0
LINE
  5
2C0
330
1D1
100
AcDbEntity
  8
Dimension (ANSI)
440
 16777216
100
AcDbLine
 10
85.92984686728623
 20
66.53420632819844
 30
0.0
 11
87.46814109120604
 21
66.53420632819844
 31
0.0
  0
SOLID
  5
2C1
330
1D1
100
AcDbEntity
  8
Dimension (ANSI)
440
 16777216
100
AcDbTrace
 10
83.08634297486449
 20
66.69824831923358
 30
0.0
 11
83.08634297486449
 21
66.37016433716329
 31
0.0
 12
84.07059492107535
 22
66.53420632819844
 32
0.0
 13
84.07059492107535
 23
66.53420632819844
 33
0.0
  0
SOLID
  5
2C2
330
1D1
100
AcDbEntity
  8
Dimension (ANSI)
440
 16777216
100
AcDbTrace
 10
85.92984686728623
 20
66.69824831923358
 30
0.0
 11
85.92984686728623
 21
66.37016433716329
 31
0.0
 12
84.94559492107537
 22
66.53420632819844
 32
0.0
 13
84.94559492107537
 23
66.53420632819844
 33
0.0
  0
MTEXT
  5
2C3
330
1D1
100
AcDbEntity
  8
Dimension (ANSI)
440
 16777216
100
AcDbMText
 10
87.7831017211273
 20
66.53420632819844
 30
0.0
 40
1.200000047683715
 41
0.0
 46
0.0
 71
     4
 72
     1
  1
\A1;0.88{\PTYP.}
  7
Note Text (ANSI)
 73
     1
 44
1.0
  0
POINT
  5
2C4
330
1D1
100
AcDbEntity
  8
Defpoints
 62
     0
440
 16777216
100
AcDbPoint
 10
84.94559492107537
 20
77.81498565225253
 30
0.0
  0
POINT
  5
2C5
330
1D1
100
AcDbEntity
  8
Defpoints
 62
     0
440
 16777216
100
AcDbPoint
 10
84.07059492107535
 20
57.223710608403
 30
0.0
  0
POINT
  5
2C6
330
1D1
100
AcDbEntity
  8
Defpoints
 62
     0
440
 16777216
100
AcDbPoint
 10
84.07059492107535
 20
66.53420632819844
 30
0.0
  0
ENDBLK
  5
1D3
330
1D1
100
AcDbEntity
  8
0
100
AcDbBlockEnd
  0
BLOCK
  5
2DE
330
2DD
100
AcDbEntity
  8
0
100
AcDbBlockBegin
  2
*D5
 70
     1
 10
0.0
 20
0.0
 30
0.0
  3
*D5
  1

  0
LINE
  5
3BC
330
2DD
100
AcDbEntity
  8
Dimension (ANSI)
440
 16777216
100
AcDbLine
 10
34.9366543995008
 20
80.22371060840299
 30
0.0
 11
18.56362290343781
 21
80.22371060840301
 31
0.0
  0
LINE
  5
3BD
330
2DD
100
AcDbEntity
  8
Dimension (ANSI)
440
 16777216
100
AcDbLine
 10
34.93685439950081
 20
32.223710608403
 30
0.0
 11
18.56362290343781
 21
32.223710608403
 31
0.0
  0
LINE
  5
3BE
330
2DD
100
AcDbEntity
  8
Dimension (ANSI)
440
 16777216
100
AcDbLine
 10
19.81362290343781
 20
79.23945866219215
 30
0.0
 11
19.81362290343781
 21
57.16607219942959
 31
0.0
  0
LINE
  5
3BF
330
2DD
100
AcDbEntity
  8
Dimension (ANSI)
440
 16777216
100
AcDbLine
 10
19.81362290343781
 20
33.20796255461386
 30
0.0
 11
19.81362290343781
 21
55.28134901737638
 31
0.0
  0
SOLID
  5
3C0
330
2DD
100
AcDbEntity
  8
Dimension (ANSI)
440
 16777216
100
AcDbTrace
 10
19.64958091240267
 20
79.23945866219215
 30
0.0
 11
19.97766489447296
 21
79.23945866219215
 31
0.0
 12
19.81362290343781
 22
80.22371060840301
 32
0.0
 13
19.81362290343781
 23
80.22371060840301
 33
0.0
  0
SOLID
  5
3C1
330
2DD
100
AcDbEntity
  8
Dimension (ANSI)
440
 16777216
100
AcDbTrace
 10
19.64958091240266
 20
33.20796255461386
 30
0.0
 11
19.97766489447295
 21
33.20796255461386
 31
0.0
 12
19.81362290343781
 22
32.223710608403
 32
0.0
 13
19.81362290343781
 23
32.223710608403
 33
0.0
  0
MTEXT
  5
3C2
330
2DD
100
AcDbEntity
  8
Dimension (ANSI)
440
 16777216
100
AcDbMText
 10
17.81133942512537
 20
56.85111156950834
 30
0.0
 40
1.200000047683715
 41
0.0
 46
0.0
 71
     1
 72
     1
  1
\A1;48.00
  7
Note Text (ANSI)
 73
     1
 44
1.0
  0
POINT
  5
3C3
330
2DD
100
AcDbEntity
  8
Defpoints
 62
     0
440
 16777216
100
AcDbPoint
 10
35.5616543995008
 20
80.22371060840299
 30
0.0
  0
POINT
  5
3C4
330
2DD
100
AcDbEntity
  8
Defpoints
 62
     0
440
 16777216
100
AcDbPoint
 10
35.56185439950081
 20
32.223710608403
 30
0.0
  0
POINT
  5
3C5
330
2DD
100
AcDbEntity
  8
Defpoints
 62
     0
440
 16777216
100
AcDbPoint
 10
19.81362290343781
 20
32.223710608403
 30
0.0
  0
ENDBLK
  5
2DF
330
2DD
100
AcDbEntity
  8
0
100
AcDbBlockEnd
  0
BLOCK
  5
3C8
330
3C7
100
AcDbEntity
  8
0
100
AcDbBlockBegin
  2
*D6
 70
     1
 10
0.0
 20
0.0
 30
0.0
  3
*D6
  1

  0
LINE
  5
4A6
330
3C7
100
AcDbEntity
  8
Dimension (ANSI)
440
 16777216
100
AcDbLine
 10
34.28040439950079
 20
33.09871060840301
 30
0.0
 11
30.0823726927601
 21
33.09871060840301
 31
0.0
  0
LINE
  5
4A7
330
3C7
100
AcDbEntity
  8
Dimension (ANSI)
440
 16777216
100
AcDbLine
 10
34.28040439950079
 20
56.223710608403
 30
0.0
 11
30.08237269276011
 21
56.223710608403
 31
0.0
  0
LINE
  5
4A8
330
3C7
100
AcDbEntity
  8
Dimension (ANSI)
440
 16777216
100
AcDbLine
 10
31.3323726927601
 20
34.08296255461387
 30
0.0
 11
31.3323726927601
 21
43.72126674747699
 31
0.0
  0
LINE
  5
4A9
330
3C7
100
AcDbEntity
  8
Dimension (ANSI)
440
 16777216
100
AcDbLine
 10
31.3323726927601
 20
55.23945866219214
 30
0.0
 11
31.3323726927601
 21
45.601154469329
 31
0.0
  0
SOLID
  5
4AA
330
3C7
100
AcDbEntity
  8
Dimension (ANSI)
440
 16777216
100
AcDbTrace
 10
31.16833070172495
 20
34.08296255461387
 30
0.0
 11
31.49641468379524
 21
34.08296255461387
 31
0.0
 12
31.3323726927601
 22
33.09871060840301
 32
0.0
 13
31.3323726927601
 23
33.09871060840301
 33
0.0
  0
SOLID
  5
4AB
330
3C7
100
AcDbEntity
  8
Dimension (ANSI)
440
 16777216
100
AcDbTrace
 10
31.16833070172496
 20
55.23945866219214
 30
0.0
 11
31.49641468379524
 21
55.23945866219214
 31
0.0
 12
31.33237269276011
 22
56.223710608403
 32
0.0
 13
31.33237269276011
 23
56.223710608403
 33
0.0
  0
MTEXT
  5
4AC
330
3C7
100
AcDbEntity
  8
Dimension (ANSI)
440
 16777216
100
AcDbMText
 10
29.37119062615784
 20
45.28619383940775
 30
0.0
 40
1.200000047683715
 41
0.0
 46
0.0
 71
     1
 72
     1
  1
\A1;23.13
  7
Note Text (ANSI)
 73
     1
 44
1.0
  0
POINT
  5
4AD
330
3C7
100
AcDbEntity
  8
Defpoints
 62
     0
440
 16777216
100
AcDbPoint
 10
34.90540439950079
 20
33.09871060840301
 30
0.0
  0
POINT
  5
4AE
330
3C7
100
AcDbEntity
  8
Defpoints
 62
     0
440
 16777216
100
AcDbPoint
 10
34.90540439950079
 20
56.223710608403
 30
0.0
  0
POINT
  5
4AF
330
3C7
100
AcDbEntity
  8
Defpoints
 62
     0
440
 16777216
100
AcDbPoint
 10
31.33237269276011
 20
56.223710608403
 30
0.0
  0
ENDBLK
  5
3C9
330
3C7
100
AcDbEntity
  8
0
100
AcDbBlockEnd
  0
BLOCK
  5
4B2
330
4B1
100
AcDbEntity
  8
0
100
AcDbBlockBegin
  2
*D7
 70
     1
 10
0.0
 20
0.0
 30
0.0
  3
*D7
  1

  0
LINE
  5
5A5
330
4B1
100
AcDbEntity
  8
Dimension (ANSI)
440
 16777216
100
AcDbLine
 10
34.28040439950079
 20
33.09871060840301
 30
0.0
 11
32.91966456788972
 21
33.09871060840301
 31
0.0
  0
LINE
  5
5A6
330
4B1
100
AcDbEntity
  8
Dimension (ANSI)
440
 16777216
100
AcDbLine
 10
34.93685439950081
 20
32.223710608403
 30
0.0
 11
32.91966456788972
 21
32.223710608403
 31
0.0
  0
LINE
  5
5A7
330
4B1
100
AcDbEntity
  8
Dimension (ANSI)
440
 16777216
100
AcDbLine
 10
34.16966456788972
 20
34.08296255461387
 30
0.0
 11
34.16966456788972
 21
35.06721450082473
 31
0.0
  0
LINE
  5
5A8
330
4B1
100
AcDbEntity
  8
Dimension (ANSI)
440
 16777216
100
AcDbLine
 10
34.16966456788972
 20
31.23945866219214
 30
0.0
 11
34.16966456788972
 21
28.42187120150941
 31
0.0
  0
LINE
  5
5A9
330
4B1
100
AcDbEntity
  8
Dimension (ANSI)
440
 16777216
100
AcDbLine
 10
34.16966456788972
 20
28.42187120150941
 30
0.0
 11
33.18541262167886
 21
28.42187120150941
 31
0.0
  0
SOLID
  5
5AA
330
4B1
100
AcDbEntity
  8
Dimension (ANSI)
440
 16777216
100
AcDbTrace
 10
34.00562257685458
 20
34.08296255461387
 30
0.0
 11
34.33370655892486
 21
34.08296255461387
 31
0.0
 12
34.16966456788972
 22
33.09871060840301
 32
0.0
 13
34.16966456788972
 23
33.09871060840301
 33
0.0
  0
SOLID
  5
5AB
330
4B1
100
AcDbEntity
  8
Dimension (ANSI)
440
 16777216
100
AcDbTrace
 10
34.00562257685458
 20
31.23945866219214
 30
0.0
 11
34.33370655892486
 21
31.23945866219214
 31
0.0
 12
34.16966456788972
 22
32.223710608403
 32
0.0
 13
34.16966456788972
 23
32.223710608403
 33
0.0
  0
MTEXT
  5
5AC
330
4B1
100
AcDbEntity
  8
Dimension (ANSI)
440
 16777216
100
AcDbMText
 10
31.33237269276009
 20
28.42187120150942
 30
0.0
 40
1.200000047683715
 41
0.0
 46
0.0
 71
     5
 72
     1
  1
\A1;0.88
  7
Note Text (ANSI)
 73
     1
 44
1.0
  0
POINT
  5
5AD
330
4B1
100
AcDbEntity
  8
Defpoints
 62
     0
440
 16777216
100
AcDbPoint
 10
34.90540439950079
 20
33.09871060840301
 30
0.0
  0
POINT
  5
5AE
330
4B1
100
AcDbEntity
  8
Defpoints
 62
     0
440
 16777216
100
AcDbPoint
 10
35.56185439950081
 20
32.223710608403
 30
0.0
  0
POINT
  5
5AF
330
4B1
100
AcDbEntity
  8
Defpoints
 62
     0
440
 16777216
100
AcDbPoint
 10
34.16966456788972
 20
32.223710608403
 30
0.0
  0
ENDBLK
  5
4B3
330
4B1
100
AcDbEntity
  8
0
100
AcDbBlockEnd
  0
BLOCK
  5
5B2
330
5B1
100
AcDbEntity
  8
0
100
AcDbBlockBegin
  2
*D8
 70
     1
 10
0.0
 20
0.0
 30
0.0
  3
*D8
  1

  0
LINE
  5
690
330
5B1
100
AcDbEntity
  8
Dimension (ANSI)
440
 16777216
100
AcDbLine
 10
35.45290439950083
 20
78.97371060840299
 30
0.0
 11
35.45290439950083
 21
88.26012793123764
 31
0.0
  0
LINE
  5
691
330
5B1
100
AcDbEntity
  8
Dimension (ANSI)
440
 16777216
100
AcDbLine
 10
49.4529043995008
 20
78.97371060840299
 30
0.0
 11
49.4529043995008
 21
88.26012793123764
 31
0.0
  0
LINE
  5
692
330
5B1
100
AcDbEntity
  8
Dimension (ANSI)
440
 16777216
100
AcDbLine
 10
36.43715634571169
 20
87.01012793123764
 30
0.0
 11
40.21060992438567
 21
87.01012793123764
 31
0.0
  0
LINE
  5
693
330
5B1
100
AcDbEntity
  8
Dimension (ANSI)
440
 16777216
100
AcDbLine
 10
48.46865245328994
 20
87.01012793123764
 30
0.0
 11
44.69519887461594
 21
87.01012793123764
 31
0.0
  0
SOLID
  5
694
330
5B1
100
AcDbEntity
  8
Dimension (ANSI)
440
 16777216
100
AcDbTrace
 10
36.43715634571169
 20
87.17416992227278
 30
0.0
 11
36.43715634571169
 21
86.84608594020248
 31
0.0
 12
35.45290439950083
 22
87.01012793123764
 32
0.0
 13
35.45290439950083
 23
87.01012793123764
 33
0.0
  0
SOLID
  5
695
330
5B1
100
AcDbEntity
  8
Dimension (ANSI)
440
 16777216
100
AcDbTrace
 10
48.46865245328994
 20
87.17416992227278
 30
0.0
 11
48.46865245328994
 21
86.84608594020248
 31
0.0
 12
49.4529043995008
 22
87.01012793123764
 32
0.0
 13
49.4529043995008
 23
87.01012793123764
 33
0.0
  0
MTEXT
  5
696
330
5B1
100
AcDbEntity
  8
Dimension (ANSI)
440
 16777216
100
AcDbMText
 10
40.52557055430693
 20
87.63470820722561
 30
0.0
 40
1.200000047683715
 41
0.0
 46
0.0
 71
     1
 72
     1
  1
\A1;14.00
  7
Note Text (ANSI)
 73
     1
 44
1.0
  0
POINT
  5
697
330
5B1
100
AcDbEntity
  8
Defpoints
 62
     0
440
 16777216
100
AcDbPoint
 10
35.45290439950083
 20
78.34871060840299
 30
0.0
  0
POINT
  5
698
330
5B1
100
AcDbEntity
  8
Defpoints
 62
     0
440
 16777216
100
AcDbPoint
 10
49.4529043995008
 20
78.34871060840299
 30
0.0
  0
POINT
  5
699
330
5B1
100
AcDbEntity
  8
Defpoints
 62
     0
440
 16777216
100
AcDbPoint
 10
49.4529043995008
 20
87.01012793123764
 30
0.0
  0
ENDBLK
  5
5B3
330
5B1
100
AcDbEntity
  8
0
100
AcDbBlockEnd
  0
BLOCK
  5
69C
330
69B
100
AcDbEntity
  8
0
100
AcDbBlockBegin
  2
*D9
 70
     1
 10
0.0
 20
0.0
 30
0.0
  3
*D9
  1

  0
LINE
  5
74D
330
69B
100
AcDbEntity
  8
Dimension (ANSI)
440
 16777216
100
AcDbLine
 10
55.2576883495255
 20
38.60616933430166
 30
0.0
 11
53.97641312540102
 21
38.60616933430166
 31
0.0
  0
LINE
  5
74E
330
69B
100
AcDbEntity
  8
Dimension (ANSI)
440
 16777216
100
AcDbLine
 10
53.97641312540102
 20
38.60616933430166
 30
0.0
 11
49.3637994072714
 21
33.99355561617336
 31
0.0
  0
MTEXT
  5
74F
330
69B
100
AcDbEntity
  8
Dimension (ANSI)
440
 16777216
100
AcDbMText
 10
58.19576135657015
 20
38.60616933430166
 30
0.0
 40
1.200000047683715
 41
0.0
 46
0.0
 71
     5
 72
     1
  1
\A1;∅0.563{\P(6 PL.)}
  7
Note Text (ANSI)
 73
     1
 44
1.0
  0
SOLID
  5
750
330
69B
100
AcDbEntity
  8
Dimension (ANSI)
440
 16777216
100
AcDbTrace
 10
49.24780420301113
 20
34.10955082043366
 30
0.0
 11
49.47979461153167
 21
33.87756041191305
 31
0.0
 12
48.66782818170954
 22
33.2975843906117
 32
0.0
 13
48.66782818170954
 23
33.2975843906117
 33
0.0
  0
LINE
  5
751
330
69B
100
AcDbEntity
  8
Dimension (ANSI)
440
 16777216
100
AcDbLine
 10
47.5689543995008
 20
33.09871060840301
 30
0.0
 11
49.3689543995008
 21
33.09871060840302
 31
0.0
  0
LINE
  5
752
330
69B
100
AcDbEntity
  8
Dimension (ANSI)
440
 16777216
100
AcDbLine
 10
48.46895439950081
 20
32.19871060840301
 30
0.0
 11
48.4689543995008
 21
33.99871060840302
 31
0.0
  0
POINT
  5
753
330
69B
100
AcDbEntity
  8
Defpoints
 62
     0
440
 16777216
100
AcDbPoint
 10
48.66782818170954
 20
33.2975843906117
 30
0.0
  0
POINT
  5
754
330
69B
100
AcDbEntity
  8
Defpoints
 62
     0
440
 16777216
100
AcDbPoint
 10
48.27008061729205
 20
32.89983682619432
 30
0.0
  0
ENDBLK
  5
69D
330
69B
100
AcDbEntity
  8
0
100
AcDbBlockEnd
  0
BLOCK
  5
757
330
756
100
AcDbEntity
  8
0
100
AcDbBlockBegin
  2
*D10
 70
     1
 10
0.0
 20
0.0
 30
0.0
  3
*D10
  1

  0
LINE
  5
835
330
756
100
AcDbEntity
  8
Dimension (ANSI)
440
 16777216
100
AcDbLine
 10
36.4366543995008
 20
81.504960608403
 30
0.0
 11
36.4366543995008
 21
85.27141254309313
 31
0.0
  0
LINE
  5
836
330
756
100
AcDbEntity
  8
Dimension (ANSI)
440
 16777216
100
AcDbLine
 10
48.46895439950079
 20
81.504960608403
 30
0.0
 11
48.46895439950079
 21
85.27141254309313
 31
0.0
  0
LINE
  5
837
330
756
100
AcDbEntity
  8
Dimension (ANSI)
440
 16777216
100
AcDbLine
 10
37.42090634571166
 20
84.02141254309313
 30
0.0
 11
40.22380743993895
 21
84.02141254309313
 31
0.0
  0
LINE
  5
838
330
756
100
AcDbEntity
  8
Dimension (ANSI)
440
 16777216
100
AcDbLine
 10
47.48470245328993
 20
84.02141254309313
 30
0.0
 11
44.68180135906264
 21
84.02141254309313
 31
0.0
  0
SOLID
  5
839
330
756
100
AcDbEntity
  8
Dimension (ANSI)
440
 16777216
100
AcDbTrace
 10
37.42090634571166
 20
84.18545453412829
 30
0.0
 11
37.42090634571166
 21
83.85737055205799
 31
0.0
 12
36.4366543995008
 22
84.02141254309313
 32
0.0
 13
36.4366543995008
 23
84.02141254309313
 33
0.0
  0
SOLID
  5
83A
330
756
100
AcDbEntity
  8
Dimension (ANSI)
440
 16777216
100
AcDbTrace
 10
47.48470245328993
 20
84.18545453412829
 30
0.0
 11
47.48470245328993
 21
83.85737055205799
 31
0.0
 12
48.46895439950079
 22
84.02141254309313
 32
0.0
 13
48.46895439950079
 23
84.02141254309313
 33
0.0
  0
MTEXT
  5
83B
330
756
100
AcDbEntity
  8
Dimension (ANSI)
440
 16777216
100
AcDbMText
 10
40.5387680698602
 20
84.64639577409789
 30
0.0
 40
1.200000047683715
 41
0.0
 46
0.0
 71
     1
 72
     1
  1
\A1;12.03
  7
Note Text (ANSI)
 73
     1
 44
1.0
  0
POINT
  5
83C
330
756
100
AcDbEntity
  8
Defpoints
 62
     0
440
 16777216
100
AcDbPoint
 10
36.4366543995008
 20
80.879960608403
 30
0.0
  0
POINT
  5
83D
330
756
100
AcDbEntity
  8
Defpoints
 62
     0
440
 16777216
100
AcDbPoint
 10
48.46895439950079
 20
80.879960608403
 30
0.0
  0
POINT
  5
83E
330
756
100
AcDbEntity
  8
Defpoints
 62
     0
440
 16777216
100
AcDbPoint
 10
48.46895439950079
 20
84.02141254309313
 30
0.0
  0
ENDBLK
  5
758
330
756
100
AcDbEntity
  8
0
100
AcDbBlockEnd
  0
BLOCK
  5
841
330
840
100
AcDbEntity
  8
0
100
AcDbBlockBegin
  2
*D11
 70
     1
 10
0.0
 20
0.0
 30
0.0
  3
*D11
  1

  0
LINE
  5
91F
330
840
100
AcDbEntity
  8
Dimension (ANSI)
440
 16777216
100
AcDbLine
 10
35.45290439950083
 20
78.97371060840299
 30
0.0
 11
35.45290439950083
 21
85.27141254309313
 31
0.0
  0
LINE
  5
920
330
840
100
AcDbEntity
  8
Dimension (ANSI)
440
 16777216
100
AcDbLine
 10
36.4366543995008
 20
81.504960608403
 30
0.0
 11
36.4366543995008
 21
85.27141254309313
 31
0.0
  0
LINE
  5
921
330
840
100
AcDbEntity
  8
Dimension (ANSI)
440
 16777216
100
AcDbLine
 10
37.42090634571166
 20
84.02141254309313
 30
0.0
 11
38.40515829192252
 21
84.02141254309313
 31
0.0
  0
LINE
  5
922
330
840
100
AcDbEntity
  8
Dimension (ANSI)
440
 16777216
100
AcDbLine
 10
34.46865245328996
 20
84.02141254309313
 30
0.0
 11
32.97583811038944
 21
84.02141254309313
 31
0.0
  0
SOLID
  5
923
330
840
100
AcDbEntity
  8
Dimension (ANSI)
440
 16777216
100
AcDbTrace
 10
37.42090634571166
 20
84.18545453412829
 30
0.0
 11
37.42090634571166
 21
83.85737055205799
 31
0.0
 12
36.4366543995008
 22
84.02141254309313
 32
0.0
 13
36.4366543995008
 23
84.02141254309313
 33
0.0
  0
SOLID
  5
924
330
840
100
AcDbEntity
  8
Dimension (ANSI)
440
 16777216
100
AcDbTrace
 10
34.46865245328996
 20
84.18545453412829
 30
0.0
 11
34.46865245328996
 21
83.85737055205799
 31
0.0
 12
35.45290439950083
 22
84.02141254309313
 32
0.0
 13
35.45290439950083
 23
84.02141254309313
 33
0.0
  0
MTEXT
  5
925
330
840
100
AcDbEntity
  8
Dimension (ANSI)
440
 16777216
100
AcDbMText
 10
29.58471888247319
 20
84.64881350419849
 30
0.0
 40
1.200000047683715
 41
0.0
 46
0.0
 71
     1
 72
     1
  1
\A1;0.98
  7
Note Text (ANSI)
 73
     1
 44
1.0
  0
POINT
  5
926
330
840
100
AcDbEntity
  8
Defpoints
 62
     0
440
 16777216
100
AcDbPoint
 10
35.45290439950083
 20
78.34871060840299
 30
0.0
  0
POINT
  5
927
330
840
100
AcDbEntity
  8
Defpoints
 62
     0
440
 16777216
100
AcDbPoint
 10
36.4366543995008
 20
80.879960608403
 30
0.0
  0
POINT
  5
928
330
840
100
AcDbEntity
  8
Defpoints
 62
     0
440
 16777216
100
AcDbPoint
 10
36.4366543995008
 20
84.02141254309313
 30
0.0
  0
ENDBLK
  5
842
330
840
100
AcDbEntity
  8
0
100
AcDbBlockEnd
  0
BLOCK
  5
92B
330
92A
100
AcDbEntity
  8
0
100
AcDbBlockBegin
  2
*D12
 70
     1
 10
0.0
 20
0.0
 30
0.0
  3
*D12
  1

  0
LINE
  5
A09
330
92A
100
AcDbEntity
  8
Dimension (ANSI)
440
 16777216
100
AcDbLine
 10
34.28040439950079
 20
79.348710608403
 30
0.0
 11
24.99398707666616
 21
79.34871060840301
 31
0.0
  0
LINE
  5
A0A
330
92A
100
AcDbEntity
  8
Dimension (ANSI)
440
 16777216
100
AcDbLine
 10
34.28040439950079
 20
33.09871060840301
 30
0.0
 11
24.99398707666615
 21
33.09871060840301
 31
0.0
  0
LINE
  5
A0B
330
92A
100
AcDbEntity
  8
Dimension (ANSI)
440
 16777216
100
AcDbLine
 10
26.24398707666616
 20
78.36445866219214
 30
0.0
 11
26.24398707666616
 21
57.163654469329
 31
0.0
  0
LINE
  5
A0C
330
92A
100
AcDbEntity
  8
Dimension (ANSI)
440
 16777216
100
AcDbLine
 10
26.24398707666615
 20
34.08296255461387
 30
0.0
 11
26.24398707666616
 21
55.28376674747698
 31
0.0
  0
SOLID
  5
A0D
330
92A
100
AcDbEntity
  8
Dimension (ANSI)
440
 16777216
100
AcDbTrace
 10
26.07994508563102
 20
78.36445866219214
 30
0.0
 11
26.40802906770131
 21
78.36445866219214
 31
0.0
 12
26.24398707666616
 22
79.34871060840301
 32
0.0
 13
26.24398707666616
 23
79.34871060840301
 33
0.0
  0
SOLID
  5
A0E
330
92A
100
AcDbEntity
  8
Dimension (ANSI)
440
 16777216
100
AcDbTrace
 10
26.07994508563101
 20
34.08296255461387
 30
0.0
 11
26.4080290677013
 21
34.08296255461387
 31
0.0
 12
26.24398707666615
 22
33.09871060840301
 32
0.0
 13
26.24398707666615
 23
33.09871060840301
 33
0.0
  0
MTEXT
  5
A0F
330
92A
100
AcDbEntity
  8
Dimension (ANSI)
440
 16777216
100
AcDbMText
 10
24.25137451875611
 20
56.84869383940775
 30
0.0
 40
1.200000047683715
 41
0.0
 46
0.0
 71
     1
 72
     1
  1
\A1;46.25
  7
Note Text (ANSI)
 73
     1
 44
1.0
  0
POINT
  5
A10
330
92A
100
AcDbEntity
  8
Defpoints
 62
     0
440
 16777216
100
AcDbPoint
 10
34.90540439950079
 20
79.348710608403
 30
0.0
  0
POINT
  5
A11
330
92A
100
AcDbEntity
  8
Defpoints
 62
     0
440
 16777216
100
AcDbPoint
 10
34.90540439950079
 20
33.09871060840301
 30
0.0
  0
POINT
  5
A12
330
92A
100
AcDbEntity
  8
Defpoints
 62
     0
440
 16777216
100
AcDbPoint
 10
26.24398707666615
 20
33.09871060840301
 30
0.0
  0
ENDBLK
  5
92C
330
92A
100
AcDbEntity
  8
0
100
AcDbBlockEnd
  0
BLOCK
  5
A17
330
A16
100
AcDbEntity
  8
0
100
AcDbBlockBegin
  2
*D13
 70
     1
 10
0.0
 20
0.0
 30
0.0
  3
*D13
  1

  0
LINE
  5
B06
330
A16
100
AcDbEntity
  8
Dimension (ANSI)
440
 16777216
100
AcDbLine
 10
83.08634297486449
 20
79.24664576140061
 30
0.0
 11
82.10209102865363
 21
79.24664576140061
 31
0.0
  0
LINE
  5
B07
330
A16
100
AcDbEntity
  8
Dimension (ANSI)
440
 16777216
100
AcDbLine
 10
85.1485968672862
 20
79.24664576140061
 30
0.0
 11
88.40129686651165
 21
79.24664576140061
 31
0.0
  0
SOLID
  5
B08
330
A16
100
AcDbEntity
  8
Dimension (ANSI)
440
 16777216
100
AcDbTrace
 10
83.08634297486449
 20
79.41068775243576
 30
0.0
 11
83.08634297486449
 21
79.08260377036547
 31
0.0
 12
84.07059492107535
 22
79.24664576140061
 32
0.0
 13
84.07059492107535
 23
79.24664576140061
 33
0.0
  0
SOLID
  5
B09
330
A16
100
AcDbEntity
  8
Dimension (ANSI)
440
 16777216
100
AcDbTrace
 10
85.1485968672862
 20
79.41068775243576
 30
0.0
 11
85.1485968672862
 21
79.08260377036547
 31
0.0
 12
84.16434492107534
 22
79.24664576140061
 32
0.0
 13
84.16434492107534
 23
79.24664576140061
 33
0.0
  0
MTEXT
  5
B0A
330
A16
100
AcDbEntity
  8
Dimension (ANSI)
440
 16777216
100
AcDbMText
 10
93.45903804377391
 20
79.24664576140061
 30
0.0
 40
1.200000047683715
 41
0.0
 46
0.0
 71
     5
 72
     1
  1
\A1;{12 GA. GALV.\P}(0.094)
  7
Note Text (ANSI)
 73
     1
 44
1.0
  0
POINT
  5
B0B
330
A16
100
AcDbEntity
  8
Defpoints
 62
     0
440
 16777216
100
AcDbPoint
 10
84.16434492107534
 20
79.24664576140061
 30
0.0
  0
POINT
  5
B0C
330
A16
100
AcDbEntity
  8
Defpoints
 62
     0
440
 16777216
100
AcDbPoint
 10
84.07059492107535
 20
79.28621060840299
 30
0.0
  0
POINT
  5
B0D
330
A16
100
AcDbEntity
  8
Defpoints
 62
     0
440
 16777216
100
AcDbPoint
 10
84.07059492107535
 20
79.24664576140061
 30
0.0
  0
ENDBLK
  5
A18
330
A16
100
AcDbEntity
  8
0
100
AcDbBlockEnd
  0
ENDSEC
  0
SECTION
  2
ENTITIES
  0
CIRCLE
  5
11B
330
6C
100
AcDbEntity
  8
Visible (ANSI)
100
AcDbCircle
 10
48.46895439950079
 20
56.223710608403
 30
0.0
 40
0.28125
  0
CIRCLE
  5
11C
330
6C
100
AcDbEntity
  8
Visible (ANSI)
100
AcDbCircle
 10
36.4366543995008
 20
56.223710608403
 30
0.0
 40
0.28125
  0
CIRCLE
  5
11D
330
6C
100
AcDbEntity
  8
Visible (ANSI)
100
AcDbCircle
 10
48.46895439950079
 20
33.09871060840301
 30
0.0
 40
0.28125
  0
CIRCLE
  5
11E
330
6C
100
AcDbEntity
  8
Visible (ANSI)
100
AcDbCircle
 10
36.43665439950079
 20
33.09871060840301
 30
0.0
 40
0.28125
  0
CIRCLE
  5
11F
330
6C
100
AcDbEntity
  8
Visible (ANSI)
100
AcDbCircle
 10
48.46895439950079
 20
79.348710608403
 30
0.0
 40
0.28125
  0
CIRCLE
  5
120
330
6C
100
AcDbEntity
  8
Visible (ANSI)
100
AcDbCircle
 10
36.4366543995008
 20
79.348710608403
 30
0.0
 40
0.28125
  0
LINE
  5
121
330
6C
100
AcDbEntity
  8
Visible (ANSI)
100
AcDbLine
 10
35.5616543995008
 20
57.22371060840299
 30
0.0
 11
35.45290439950083
 21
57.223710608403
 31
0.0
  0
LINE
  5
122
330
6C
100
AcDbEntity
  8
Visible (ANSI)
100
AcDbLine
 10
35.45290439950083
 20
55.22371060840299
 30
0.0
 11
35.5616543995008
 21
55.22371060840299
 31
0.0
  0
LINE
  5
123
330
6C
100
AcDbEntity
  8
Visible (ANSI)
100
AcDbLine
 10
35.5616543995008
 20
57.223710608403
 30
0.0
 11
35.5616543995008
 21
55.223710608403
 31
0.0
  0
LINE
  5
124
330
6C
100
AcDbEntity
  8
Hidden (ANSI)
 48
1.13556957244873
100
AcDbLine
 10
35.54665439950084
 20
34.09871060840301
 30
0.0
 11
35.54665439950117
 21
55.223710608403
 31
0.0
  0
LINE
  5
125
330
6C
100
AcDbEntity
  8
Hidden (ANSI)
 48
1.13556957244873
100
AcDbLine
 10
35.5466543995012
 20
57.223710608403
 30
0.0
 11
35.54665439950082
 21
78.34871060840299
 31
0.0
  0
LINE
  5
126
330
6C
100
AcDbEntity
  8
Visible (ANSI)
100
AcDbLine
 10
35.45290439950117
 20
55.223710608403
 30
0.0
 11
35.45290439950084
 21
34.09871060840301
 31
0.0
  0
LINE
  5
127
330
6C
100
AcDbEntity
  8
Visible (ANSI)
100
AcDbLine
 10
35.45290439950084
 20
34.09871060840301
 30
0.0
 11
35.5616543995008
 21
34.09871060840301
 31
0.0
  0
LINE
  5
128
330
6C
100
AcDbEntity
  8
Visible (ANSI)
100
AcDbLine
 10
35.45290439950083
 20
78.34871060840299
 30
0.0
 11
35.45290439950083
 21
57.223710608403
 31
0.0
  0
LINE
  5
129
330
6C
100
AcDbEntity
  8
Visible (ANSI)
100
AcDbLine
 10
35.45290439950083
 20
78.34871060840299
 30
0.0
 11
35.5616543995008
 21
78.34871060840299
 31
0.0
  0
LINE
  5
12A
330
6C
100
AcDbEntity
  8
Visible (ANSI)
100
AcDbLine
 10
35.56185439950081
 20
34.09871060840301
 30
0.0
 11
35.56185439950081
 21
32.223710608403
 31
0.0
  0
LINE
  5
12B
330
6C
100
AcDbEntity
  8
Visible (ANSI)
100
AcDbLine
 10
35.5618543995008
 20
78.348910608403
 30
0.0
 11
35.5618543995008
 21
78.34871060840299
 31
0.0
  0
LINE
  5
12C
330
6C
100
AcDbEntity
  8
Visible (ANSI)
100
AcDbLine
 10
35.5616543995008
 20
78.348910608403
 30
0.0
 11
35.5618543995008
 21
78.348910608403
 31
0.0
  0
LINE
  5
12D
330
6C
100
AcDbEntity
  8
Visible (ANSI)
100
AcDbLine
 10
49.34395439950082
 20
55.223710608403
 30
0.0
 11
49.34395439950082
 21
57.223710608403
 31
0.0
  0
LINE
  5
12E
330
6C
100
AcDbEntity
  8
Visible (ANSI)
100
AcDbLine
 10
49.3441543995008
 20
55.22371060840299
 30
0.0
 11
49.34395439950082
 21
55.223710608403
 31
0.0
  0
LINE
  5
12F
330
6C
100
AcDbEntity
  8
Visible (ANSI)
100
AcDbLine
 10
49.3441543995008
 20
55.223710608403
 30
0.0
 11
49.4529043995008
 21
55.223710608403
 31
0.0
  0
LINE
  5
130
330
6C
100
AcDbEntity
  8
Visible (ANSI)
100
AcDbLine
 10
49.45290439950081
 20
57.223710608403
 30
0.0
 11
49.34415439950081
 21
57.223710608403
 31
0.0
  0
LINE
  5
131
330
6C
100
AcDbEntity
  8
Visible (ANSI)
100
AcDbLine
 10
49.34395439950082
 20
57.223710608403
 30
0.0
 11
49.3441543995008
 21
57.223710608403
 31
0.0
  0
LINE
  5
132
330
6C
100
AcDbEntity
  8
Hidden (ANSI)
 48
1.13556957244873
100
AcDbLine
 10
49.3591543995008
 20
55.223710608403
 30
0.0
 11
49.35915439950081
 21
34.09871060840301
 31
0.0
  0
LINE
  5
133
330
6C
100
AcDbEntity
  8
Hidden (ANSI)
 48
1.13556957244873
100
AcDbLine
 10
49.3591543995008
 20
78.34871060840299
 30
0.0
 11
49.3591543995008
 21
57.223710608403
 31
0.0
  0
LINE
  5
134
330
6C
100
AcDbEntity
  8
Visible (ANSI)
100
AcDbLine
 10
49.45290439950081
 20
34.09871060840301
 30
0.0
 11
49.34415439950083
 21
34.09871060840301
 31
0.0
  0
LINE
  5
135
330
6C
100
AcDbEntity
  8
Visible (ANSI)
100
AcDbLine
 10
49.45290439950081
 20
34.09871060840301
 30
0.0
 11
49.4529043995008
 21
55.22371060840299
 31
0.0
  0
LINE
  5
136
330
6C
100
AcDbEntity
  8
Visible (ANSI)
100
AcDbLine
 10
49.45290439950082
 20
57.223710608403
 30
0.0
 11
49.4529043995008
 21
78.34871060840299
 31
0.0
  0
LINE
  5
137
330
6C
100
AcDbEntity
  8
Visible (ANSI)
100
AcDbLine
 10
49.4529043995008
 20
78.34871060840299
 30
0.0
 11
49.34415439950083
 21
78.34871060840299
 31
0.0
  0
LINE
  5
138
330
6C
100
AcDbEntity
  8
Visible (ANSI)
100
AcDbLine
 10
49.34415439950083
 20
34.09851060840301
 30
0.0
 11
49.34395439950083
 21
34.09851060840301
 31
0.0
  0
LINE
  5
139
330
6C
100
AcDbEntity
  8
Visible (ANSI)
100
AcDbLine
 10
49.34395439950082
 20
78.34871060840299
 30
0.0
 11
49.34395439950082
 21
80.22371060840299
 31
0.0
  0
LINE
  5
13A
330
6C
100
AcDbEntity
  8
Visible (ANSI)
100
AcDbLine
 10
49.34395439950083
 20
34.09851060840301
 30
0.0
 11
49.34395439950083
 21
34.09871060840301
 31
0.0
  0
LINE
  5
13B
330
6C
100
AcDbEntity
  8
Visible (ANSI)
100
AcDbLine
 10
49.34415439950083
 20
32.223710608403
 30
0.0
 11
49.34415439950083
 21
34.09851060840301
 31
0.0
  0
LINE
  5
13C
330
6C
100
AcDbEntity
  8
Visible (ANSI)
100
AcDbLine
 10
35.5616543995008
 20
80.22371060840299
 30
0.0
 11
35.5616543995008
 21
78.348910608403
 31
0.0
  0
LINE
  5
13D
330
6C
100
AcDbEntity
  8
Visible (ANSI)
100
AcDbLine
 10
35.5616543995008
 20
80.22371060840299
 30
0.0
 11
49.34395439950082
 21
80.22371060840299
 31
0.0
  0
LINE
  5
13E
330
6C
100
AcDbEntity
  8
Visible (ANSI)
100
AcDbLine
 10
49.34415439950083
 20
32.223710608403
 30
0.0
 11
35.56185439950081
 21
32.223710608403
 31
0.0
  0
LINE
  5
13F
330
6C
100
AcDbEntity
  8
Visible (ANSI)
100
AcDbLine
 10
35.5618543995008
 20
78.34871060840299
 30
0.0
 11
35.5616543995008
 21
78.34871060840299
 31
0.0
  0
LINE
  5
140
330
6C
100
AcDbEntity
  8
Visible (ANSI)
100
AcDbLine
 10
35.5616543995008
 20
34.09871060840301
 30
0.0
 11
35.56185439950081
 21
34.09871060840301
 31
0.0
  0
LINE
  5
141
330
6C
100
AcDbEntity
  8
Visible (ANSI)
100
AcDbLine
 10
49.34395439950083
 20
34.09871060840301
 30
0.0
 11
49.34415439950083
 21
34.09871060840301
 31
0.0
  0
LINE
  5
142
330
6C
100
AcDbEntity
  8
Visible (ANSI)
100
AcDbLine
 10
49.34415439950083
 20
78.34871060840299
 30
0.0
 11
49.34395439950082
 21
78.34871060840299
 31
0.0
  0
MTEXT
  5
144
330
6C
100
AcDbEntity
  8
Symbol (ANSI)
100
AcDbMText
 10
37.90019906282292
 20
21.77991654369576
 30
0.0
 40
1.200000014830761
 41
0.0
 46
0.0
 71
     7
 72
     1
  1
FRONT VIEW
  7
Text Style153
 73
     1
 44
1.0
  0
LINE
  5
146
330
6C
100
AcDbEntity
  8
Symbol (ANSI)
370
    30
100
AcDbLine
 10
37.78019875413906
 20
21.53520016994686
 30
0.0
 11
47.42784879699582
 21
21.53520016994686
 31
0.0
  0
LINE
  5
147
330
6C
100
AcDbEntity
  8
Visible (ANSI)
100
AcDbLine
 10
84.16434492107534
 20
57.223710608403
 30
0.0
 11
84.16434492107534
 21
55.22371060840299
 31
0.0
  0
LINE
  5
148
330
6C
100
AcDbEntity
  8
Visible (ANSI)
100
AcDbLine
 10
84.07059492107533
 20
55.223710608403
 30
0.0
 11
84.07059492107533
 21
57.223710608403
 31
0.0
  0
LINE
  5
149
330
6C
100
AcDbEntity
  8
Visible (ANSI)
100
AcDbLine
 10
84.07059492107533
 20
55.223710608403
 30
0.0
 11
84.17934492107539
 21
55.223710608403
 31
0.0
  0
LINE
  5
14A
330
6C
100
AcDbEntity
  8
Visible (ANSI)
100
AcDbLine
 10
84.94559492107528
 20
55.223710608403
 30
0.0
 11
84.17934492107539
 21
55.223710608403
 31
0.0
  0
LINE
  5
14B
330
6C
100
AcDbEntity
  8
Visible (ANSI)
100
AcDbLine
 10
84.17934492107539
 20
57.223710608403
 30
0.0
 11
84.94559492107528
 21
57.223710608403
 31
0.0
  0
LINE
  5
14C
330
6C
100
AcDbEntity
  8
Visible (ANSI)
100
AcDbLine
 10
84.17934492107537
 20
57.223710608403
 30
0.0
 11
84.07059492107533
 21
57.223710608403
 31
0.0
  0
LINE
  5
14D
330
6C
100
AcDbEntity
  8
Hidden (ANSI)
 48
1.13556957244873
100
AcDbLine
 10
84.16434492107534
 20
55.223710608403
 30
0.0
 11
84.16434492107534
 21
34.09871060840301
 31
0.0
  0
LINE
  5
14E
330
6C
100
AcDbEntity
  8
Hidden (ANSI)
 48
1.13556957244873
100
AcDbLine
 10
84.16434492107534
 20
78.34871060840299
 30
0.0
 11
84.16434492107534
 21
57.223710608403
 31
0.0
  0
LINE
  5
14F
330
6C
100
AcDbEntity
  8
Visible (ANSI)
100
AcDbLine
 10
84.16434492107534
 20
34.09871060840301
 30
0.0
 11
84.16434492107534
 21
34.09851060840301
 31
0.0
  0
LINE
  5
150
330
6C
100
AcDbEntity
  8
Visible (ANSI)
100
AcDbLine
 10
84.16434492107534
 20
80.22371060840299
 30
0.0
 11
84.16434492107534
 21
78.34871060840299
 31
0.0
  0
LINE
  5
151
330
6C
100
AcDbEntity
  8
Visible (ANSI)
100
AcDbLine
 10
84.07059492107533
 20
34.09871060840301
 30
0.0
 11
84.07059492107533
 21
55.22371060840299
 31
0.0
  0
LINE
  5
152
330
6C
100
AcDbEntity
  8
Visible (ANSI)
100
AcDbLine
 10
84.17934492107539
 20
34.09871060840301
 30
0.0
 11
84.07059492107533
 21
34.09871060840301
 31
0.0
  0
LINE
  5
153
330
6C
100
AcDbEntity
  8
Visible (ANSI)
100
AcDbLine
 10
84.17934492107539
 20
78.34871060840299
 30
0.0
 11
84.07059492107533
 21
78.34871060840299
 31
0.0
  0
LINE
  5
154
330
6C
100
AcDbEntity
  8
Visible (ANSI)
100
AcDbLine
 10
84.07059492107533
 20
57.223710608403
 30
0.0
 11
84.07059492107533
 21
78.34871060840299
 31
0.0
  0
LINE
  5
155
330
6C
100
AcDbEntity
  8
Visible (ANSI)
100
AcDbLine
 10
84.07059492107533
 20
80.22371060840299
 30
0.0
 11
84.16434492107534
 21
80.22371060840299
 31
0.0
  0
LINE
  5
156
330
6C
100
AcDbEntity
  8
Visible (ANSI)
100
AcDbLine
 10
84.07059492107533
 20
78.34871060840299
 30
0.0
 11
84.07059492107533
 21
80.22371060840299
 31
0.0
  0
LINE
  5
157
330
6C
100
AcDbEntity
  8
Visible (ANSI)
100
AcDbLine
 10
84.07059492107533
 20
34.09851060840301
 30
0.0
 11
84.07059492107533
 21
34.09871060840301
 31
0.0
  0
LINE
  5
158
330
6C
100
AcDbEntity
  8
Visible (ANSI)
100
AcDbLine
 10
84.16434492107534
 20
34.09851060840301
 30
0.0
 11
84.16434492107534
 21
32.223710608403
 31
0.0
  0
LINE
  5
159
330
6C
100
AcDbEntity
  8
Visible (ANSI)
100
AcDbLine
 10
84.07059492107533
 20
34.09851060840301
 30
0.0
 11
84.16434492107534
 21
34.09851060840301
 31
0.0
  0
LINE
  5
15A
330
6C
100
AcDbEntity
  8
Visible (ANSI)
100
AcDbLine
 10
84.07059492107533
 20
32.223710608403
 30
0.0
 11
84.07059492107533
 21
34.09851060840301
 31
0.0
  0
LINE
  5
15B
330
6C
100
AcDbEntity
  8
Visible (ANSI)
100
AcDbLine
 10
84.16434492107534
 20
32.223710608403
 30
0.0
 11
84.07059492107533
 21
32.223710608403
 31
0.0
  0
LINE
  5
15C
330
6C
100
AcDbEntity
  8
Visible (ANSI)
100
AcDbLine
 10
84.94559492107528
 20
55.223710608403
 30
0.0
 11
84.94559492107537
 21
34.09871060840301
 31
0.0
  0
LINE
  5
15D
330
6C
100
AcDbEntity
  8
Visible (ANSI)
100
AcDbLine
 10
84.17934492107539
 20
34.09871060840301
 30
0.0
 11
84.94559492107537
 21
34.09871060840301
 31
0.0
  0
LINE
  5
15E
330
6C
100
AcDbEntity
  8
Visible (ANSI)
100
AcDbLine
 10
84.94559492107537
 20
78.34871060840299
 30
0.0
 11
84.94559492107528
 21
57.223710608403
 31
0.0
  0
LINE
  5
15F
330
6C
100
AcDbEntity
  8
Visible (ANSI)
100
AcDbLine
 10
84.94559492107537
 20
78.34871060840299
 30
0.0
 11
84.17934492107539
 21
78.34871060840299
 31
0.0
  0
LINE
  5
160
330
6C
100
AcDbEntity
  8
Hidden (ANSI)
 48
0.0177565310150385
100
AcDbLine
 10
84.07059492107125
 20
78.348910608403
 30
0.0
 11
84.16434492107125
 21
78.348910608403
 31
0.0
  0
LINE
  5
161
330
6C
100
AcDbEntity
  8
Hidden (ANSI)
 48
0.0177565310150385
100
AcDbLine
 10
84.16434492107509
 20
55.942460608403
 30
0.0
 11
84.07059492107508
 21
55.942460608403
 31
0.0
  0
LINE
  5
162
330
6C
100
AcDbEntity
  8
Hidden (ANSI)
 48
0.0177565310150385
100
AcDbLine
 10
84.16434492107509
 20
56.504960608403
 30
0.0
 11
84.07059492107508
 21
56.504960608403
 31
0.0
  0
LINE
  5
163
330
6C
100
AcDbEntity
  8
Hidden (ANSI)
 48
0.0177565310150385
100
AcDbLine
 10
84.16434492107509
 20
32.817460608403
 30
0.0
 11
84.07059492107508
 21
32.817460608403
 31
0.0
  0
LINE
  5
164
330
6C
100
AcDbEntity
  8
Hidden (ANSI)
 48
0.0177565310150385
100
AcDbLine
 10
84.16434492107509
 20
33.379960608403
 30
0.0
 11
84.07059492107508
 21
33.379960608403
 31
0.0
  0
LINE
  5
165
330
6C
100
AcDbEntity
  8
Hidden (ANSI)
 48
0.0177565310150385
100
AcDbLine
 10
84.16434492107509
 20
79.06746060840299
 30
0.0
 11
84.07059492107508
 21
79.06746060840299
 31
0.0
  0
LINE
  5
166
330
6C
100
AcDbEntity
  8
Hidden (ANSI)
 48
0.0177565310150385
100
AcDbLine
 10
84.16434492107509
 20
79.62996060840301
 30
0.0
 11
84.07059492107508
 21
79.62996060840301
 31
0.0
  0
MTEXT
  5
167
330
6C
100
AcDbEntity
  8
Symbol (ANSI)
100
AcDbMText
 10
80.66609968396052
 20
21.78769612132541
 30
0.0
 40
1.200000014830761
 41
0.0
 46
0.0
 71
     7
 72
     1
  1
SIDE VIEW
  7
Text Style153
 73
     1
 44
1.0
  0
LINE
  5
168
330
6C
100
AcDbEntity
  8
Symbol (ANSI)
370
    30
100
AcDbLine
 10
80.60465952591437
 20
21.53908995967834
 30
0.0
 11
88.71389772996932
 21
21.53908995967834
 31
0.0
  0
ELLIPSE
  5
169
330
6C
100
AcDbEntity
  8
Visible (ANSI)
100
AcDbEllipse
 10
134.2791096158912
 20
52.93888823497275
 30
0.0
 11
-0.1754410118851425
 21
0.3046582392697878
 31
0.0
210
0.0
220
0.0
230
1.0
 40
0.578093115915809
 41
0.0
 42
6.283185307179586
  0
ELLIPSE
  5
16A
330
6C
100
AcDbEntity
  8
Visible (ANSI)
100
AcDbEllipse
 10
134.3619736918115
 20
52.98660648268279
 30
0.0
 11
-0.1754410118851426
 21
0.3046582392697879
 31
0.0
210
0.0
220
0.0
230
1.0
 40
0.5780931159158092
 41
0.2374735152854006
 42
2.904119138304434
  0
ELLIPSE
  5
16B
330
6C
100
AcDbEntity
  8
Visible (ANSI)
100
AcDbEllipse
 10
123.643958461801
 20
59.06326446880128
 30
0.0
 11
-0.1754410118851425
 21
0.3046582392697878
 31
0.0
210
0.0
220
0.0
230
1.0
 40
0.578093115915809
 41
0.0
 42
6.283185307179586
  0
ELLIPSE
  5
16C
330
6C
100
AcDbEntity
  8
Visible (ANSI)
100
AcDbEllipse
 10
123.7268225377213
 20
59.11098271651132
 30
0.0
 11
-0.1754410118851423
 21
0.3046582392697875
 31
0.0
210
0.0
220
0.0
230
1.0
 40
0.5780931159158092
 41
0.2374735152854328
 42
2.904119138304372
  0
ELLIPSE
  5
16D
330
6C
100
AcDbEntity
  8
Visible (ANSI)
100
AcDbEllipse
 10
134.2791096158912
 20
29.30666665749317
 30
0.0
 11
-0.1754410118851425
 21
0.3046582392697878
 31
0.0
210
0.0
220
0.0
230
1.0
 40
0.578093115915809
 41
0.0
 42
6.283185307179586
  0
ELLIPSE
  5
16E
330
6C
100
AcDbEntity
  8
Visible (ANSI)
100
AcDbEllipse
 10
134.3619736918114
 20
29.35438490520321
 30
0.0
 11
-0.1754410118851423
 21
0.3046582392697873
 31
0.0
210
0.0
220
0.0
230
1.0
 40
0.5780931159158092
 41
0.2374735152854006
 42
2.904119138304428
  0
ELLIPSE
  5
16F
330
6C
100
AcDbEntity
  8
Visible (ANSI)
100
AcDbEllipse
 10
123.643958461801
 20
35.43104289132169
 30
0.0
 11
-0.1754410118851425
 21
0.3046582392697878
 31
0.0
210
0.0
220
0.0
230
1.0
 40
0.578093115915809
 41
0.0
 42
6.283185307179586
  0
ELLIPSE
  5
170
330
6C
100
AcDbEntity
  8
Visible (ANSI)
100
AcDbEllipse
 10
123.7268225377212
 20
35.47876113903174
 30
0.0
 11
-0.1754410118851426
 21
0.3046582392697878
 31
0.0
210
0.0
220
0.0
230
1.0
 40
0.5780931159158093
 41
0.2374735152854122
 42
2.904119138304371
  0
ELLIPSE
  5
171
330
6C
100
AcDbEntity
  8
Visible (ANSI)
100
AcDbEllipse
 10
134.2791096158913
 20
76.57110981245235
 30
0.0
 11
-0.1754410118851425
 21
0.3046582392697878
 31
0.0
210
0.0
220
0.0
230
1.0
 40
0.578093115915809
 41
0.0
 42
6.283185307179586
  0
ELLIPSE
  5
172
330
6C
100
AcDbEntity
  8
Visible (ANSI)
100
AcDbEllipse
 10
134.3619736918116
 20
76.6188280601624
 30
0.0
 11
-0.1754410118851426
 21
0.3046582392697879
 31
0.0
210
0.0
220
0.0
230
1.0
 40
0.5780931159158092
 41
0.2374735152853589
 42
2.904119138304421
  0
ELLIPSE
  5
173
330
6C
100
AcDbEntity
  8
Visible (ANSI)
100
AcDbEllipse
 10
123.6439584618011
 20
82.69548604628088
 30
0.0
 11
-0.1754410118851425
 21
0.3046582392697878
 31
0.0
210
0.0
220
0.0
230
1.0
 40
0.578093115915809
 41
0.0
 42
6.283185307179586
  0
ELLIPSE
  5
174
330
6C
100
AcDbEntity
  8
Visible (ANSI)
100
AcDbEllipse
 10
123.7268225377214
 20
82.74320429399093
 30
0.0
 11
-0.1754410118851414
 21
0.304658239269786
 31
0.0
210
0.0
220
0.0
230
1.0
 40
0.578093115915809
 41
0.2374735152854124
 42
2.904119138304359
  0
ELLIPSE
  5
175
330
6C
100
AcDbEntity
  8
Visible (ANSI)
100
AcDbEllipse
 10
122.9666827479457
 20
60.58592185415839
 30
0.0
 11
-0.1359375000000002
 21
-0.0000000000000169
 31
0.0
210
0.0
220
0.0
230
1.0
 40
0.575861700985394
 41
0.0000000000003597
 42
0.7853981633975535
  0
LINE
  5
176
330
6C
100
AcDbEntity
  8
Visible (ANSI)
100
AcDbLine
 10
123.6307002096536
 20
58.93970610630244
 30
0.0
 11
123.6081764060008
 21
58.92673551041829
 31
0.0
  0
LINE
  5
177
330
6C
100
AcDbEntity
  8
Visible (ANSI)
100
AcDbLine
 10
123.5739296402821
 20
58.9723981029466
 30
0.0
 11
123.6307002096536
 21
58.93970610630244
 31
0.0
  0
ELLIPSE
  5
178
330
6C
100
AcDbEntity
  8
Visible (ANSI)
100
AcDbEllipse
 10
122.9666827479457
 20
58.54205404205204
 30
0.0
 11
-0.1359375
 21
0.0000000000000085
 31
0.0
210
0.0
220
0.0
230
1.0
 40
0.5758617009853263
 41
5.497787143785046
 42
7.068583470576844
  0
LINE
  5
179
330
6C
100
AcDbEntity
  8
Visible (ANSI)
100
AcDbLine
 10
122.8705604198781
 20
60.53056868681476
 30
0.0
 11
122.8705604198781
 21
58.48670087470842
 31
0.0
  0
LINE
  5
17A
330
6C
100
AcDbEntity
  8
Visible (ANSI)
100
AcDbLine
 10
123.6307002096536
 20
58.90127254650227
 30
0.0
 11
123.6307002096536
 21
58.93970610630244
 31
0.0
  0
LINE
  5
17B
330
6C
100
AcDbEntity
  8
Visible (ANSI)
100
AcDbLine
 10
123.6307002096536
 20
82.53349412398184
 30
0.0
 11
123.6307002096536
 21
82.57192768378201
 31
0.0
  0
LINE
  5
17C
330
6C
100
AcDbEntity
  8
Visible (ANSI)
100
AcDbLine
 10
123.6307002096536
 20
82.57192768378201
 30
0.0
 11
123.6081764060008
 21
82.55895708789788
 31
0.0
  0
LINE
  5
17D
330
6C
100
AcDbEntity
  8
Visible (ANSI)
100
AcDbLine
 10
123.5739296402821
 20
82.60461968042617
 30
0.0
 11
123.6307002096536
 21
82.57192768378201
 31
0.0
  0
LINE
  5
17E
330
6C
100
AcDbEntity
  8
Visible (ANSI)
100
AcDbLine
 10
122.8707371965735
 20
82.11882065325955
 30
0.0
 11
122.8705604198782
 21
82.118922452188
 31
0.0
  0
LINE
  5
17F
330
6C
100
AcDbEntity
  8
Visible (ANSI)
100
AcDbLine
 10
122.8705604198781
 20
36.89834710933516
 30
0.0
 11
122.8707371965734
 21
36.89824531040671
 31
0.0
  0
ELLIPSE
  5
180
330
6C
100
AcDbEntity
  8
Visible (ANSI)
100
AcDbEllipse
 10
122.9666827479456
 20
36.9537002766788
 30
0.0
 11
-0.1359375
 21
-0.0000000000000028
 31
0.0
210
0.0
220
0.0
230
1.0
 40
0.5758617009853264
 41
0.0
 42
0.7853981633973613
  0
LINE
  5
181
330
6C
100
AcDbEntity
  8
Visible Narrow (ANSI)
100
AcDbLine
 10
122.8705604198781
 20
58.48670087470842
 30
0.0
 11
122.8705604198781
 21
36.89834710933516
 31
0.0
  0
ELLIPSE
  5
182
330
6C
100
AcDbEntity
  8
Visible (ANSI)
100
AcDbEllipse
 10
122.9666827479457
 20
82.17427561953163
 30
0.0
 11
-0.1359375
 21
0.0000000000000004
 31
0.0
210
0.0
220
0.0
230
1.0
 40
0.5758617009853159
 41
5.497787143788483
 42
7.068583470576982
  0
LINE
  5
183
330
6C
100
AcDbEntity
  8
Visible Narrow (ANSI)
100
AcDbLine
 10
122.8705604198782
 20
82.118922452188
 30
0.0
 11
122.8705604198781
 21
60.53056868681476
 31
0.0
  0
LINE
  5
184
330
6C
100
AcDbEntity
  8
Visible (ANSI)
100
AcDbLine
 10
122.8707371965734
 20
36.89824531040671
 30
0.0
 11
122.8707371965734
 21
34.98211923655701
 31
0.0
  0
LINE
  5
185
330
6C
100
AcDbEntity
  8
Visible (ANSI)
100
AcDbLine
 10
122.8707371965735
 20
82.11902504004077
 30
0.0
 11
122.8707371965735
 21
82.11882065325955
 31
0.0
  0
LINE
  5
186
330
6C
100
AcDbEntity
  8
Visible (ANSI)
100
AcDbLine
 10
122.8705604198782
 20
82.11912683896921
 30
0.0
 11
122.8707371965735
 21
82.11902504004077
 31
0.0
  0
LINE
  5
187
330
6C
100
AcDbEntity
  8
Visible (ANSI)
100
AcDbLine
 10
122.8307452479457
 20
58.54205404205205
 30
0.0
 11
122.8307452479456
 21
36.9537002766788
 31
0.0
  0
LINE
  5
188
330
6C
100
AcDbEntity
  8
Visible (ANSI)
100
AcDbLine
 10
122.8307452479457
 20
82.17427561953163
 30
0.0
 11
122.8307452479457
 21
60.58592185415839
 31
0.0
  0
LINE
  5
189
330
6C
100
AcDbEntity
  8
Visible (ANSI)
100
AcDbLine
 10
135.1353717337344
 20
53.49280525491595
 30
0.0
 11
135.1353717337344
 21
51.5193022646693
 31
0.0
  0
LINE
  5
18A
330
6C
100
AcDbEntity
  8
Visible (ANSI)
100
AcDbLine
 10
135.0525076578142
 20
51.47158401695926
 30
0.0
 11
135.0525076578142
 21
53.51545182906561
 31
0.0
  0
LINE
  5
18B
330
6C
100
AcDbEntity
  8
Visible (ANSI)
100
AcDbLine
 10
135.1353717337344
 20
51.5193022646693
 30
0.0
 11
135.0525076578142
 21
51.47158401695926
 31
0.0
  0
LINE
  5
18C
330
6C
100
AcDbEntity
  8
Visible (ANSI)
100
AcDbLine
 10
135.1353717337344
 20
51.5193022646693
 30
0.0
 11
135.1355485104297
 21
51.51920046574086
 31
0.0
  0
LINE
  5
18D
330
6C
100
AcDbEntity
  8
Visible (ANSI)
100
AcDbLine
 10
135.0526844345094
 20
51.47148221803082
 30
0.0
 11
135.0525076578142
 21
51.47158401695926
 31
0.0
  0
ELLIPSE
  5
18E
330
6C
100
AcDbEntity
  8
Visible (ANSI)
100
AcDbEllipse
 10
135.148806762577
 20
51.52683538537448
 30
0.0
 11
-0.1359374999999983
 21
0.0000000000000084
 31
0.0
210
0.0
220
0.0
230
1.0
 40
0.5758617009853158
 41
0.7853981633978418
 42
2.356194490193056
  0
LINE
  5
18F
330
6C
100
AcDbEntity
  8
Visible (ANSI)
100
AcDbLine
 10
135.9222048044996
 20
51.86149936264756
 30
0.0
 11
135.2449290906446
 21
51.47148221803085
 31
0.0
  0
LINE
  5
190
330
6C
100
AcDbEntity
  8
Visible (ANSI)
100
AcDbLine
 10
135.8393407285793
 20
51.90921761035763
 30
0.0
 11
135.9222048044996
 21
51.86149936264756
 31
0.0
  0
LINE
  5
191
330
6C
100
AcDbEntity
  8
Visible (ANSI)
100
AcDbLine
 10
135.1620650147242
 20
51.51920046574089
 30
0.0
 11
135.8393407285793
 21
51.90921761035763
 31
0.0
  0
ELLIPSE
  5
192
330
6C
100
AcDbEntity
  8
Visible (ANSI)
100
AcDbEllipse
 10
135.148806762577
 20
51.52683538537448
 30
0.0
 11
0.0187500000000009
 21
0.0000000000000011
 31
0.0
210
0.0
220
0.0
230
1.0
 40
0.5758617009853157
 41
3.926990816989112
 42
5.497787143783868
  0
LINE
  5
193
330
6C
100
AcDbEntity
  8
Visible (ANSI)
100
AcDbLine
 10
135.2449290906446
 20
53.51535003013717
 30
0.0
 11
135.9222048044996
 21
53.90536717475391
 31
0.0
  0
ELLIPSE
  5
194
330
6C
100
AcDbEntity
  8
Visible (ANSI)
100
AcDbEllipse
 10
135.148806762577
 20
53.57070319748081
 30
0.0
 11
0.1359374999999948
 21
0.0000000000000077
 31
0.0
210
0.0
220
0.0
230
1.0
 40
0.5758617009853159
 41
3.926990816987078
 42
5.497787143782085
  0
LINE
  5
195
330
6C
100
AcDbEntity
  8
Visible (ANSI)
100
AcDbLine
 10
135.0525076578142
 20
53.51545182906561
 30
0.0
 11
135.0526844345094
 21
53.51535003013716
 31
0.0
  0
LINE
  5
196
330
6C
100
AcDbEntity
  8
Visible (ANSI)
100
AcDbLine
 10
135.1355485104297
 20
29.86057363406824
 30
0.0
 11
135.1355485104297
 21
28.0147206265179
 31
0.0
  0
LINE
  5
197
330
6C
100
AcDbEntity
  8
Visible (ANSI)
100
AcDbLine
 10
135.0526844345094
 20
29.88292406587636
 30
0.0
 11
135.0528620600149
 21
29.88302635360211
 31
0.0
  0
LINE
  5
198
330
6C
100
AcDbEntity
  8
Visible (ANSI)
100
AcDbLine
 10
135.0526844345094
 20
27.96700237880786
 30
0.0
 11
135.0526844345094
 21
29.88292406587636
 31
0.0
  0
LINE
  5
199
330
6C
100
AcDbEntity
  8
Visible (ANSI)
100
AcDbLine
 10
135.1355485104297
 20
28.0147206265179
 30
0.0
 11
135.0526844345094
 21
27.96700237880786
 31
0.0
  0
LINE
  5
19A
330
6C
100
AcDbEntity
  8
Visible (ANSI)
100
AcDbLine
 10
122.8705604198782
 20
84.03504852603768
 30
0.0
 11
122.8705604198782
 21
82.11912683896921
 31
0.0
  0
LINE
  5
19B
330
6C
100
AcDbEntity
  8
Visible (ANSI)
100
AcDbLine
 10
122.9534244957985
 20
84.08276677374773
 30
0.0
 11
122.8705604198782
 21
84.03504852603768
 31
0.0
  0
LINE
  5
19C
330
6C
100
AcDbEntity
  8
Visible (ANSI)
100
AcDbLine
 10
135.1353717337345
 20
77.06764991599858
 30
0.0
 11
122.9534244957985
 21
84.08276677374773
 31
0.0
  0
LINE
  5
19D
330
6C
100
AcDbEntity
  8
Visible (ANSI)
100
AcDbLine
 10
122.8705604198782
 20
84.03504852603768
 30
0.0
 11
135.0525076578142
 21
77.01993166828853
 31
0.0
  0
LINE
  5
19E
330
6C
100
AcDbEntity
  8
Visible (ANSI)
100
AcDbLine
 10
135.0526844345094
 20
27.96700237880786
 30
0.0
 11
122.8707371965734
 21
34.98211923655701
 31
0.0
  0
LINE
  5
19F
330
6C
100
AcDbEntity
  8
Visible (ANSI)
100
AcDbLine
 10
135.1353717337345
 20
77.06764991599858
 30
0.0
 11
135.1353717337345
 21
75.15152384214889
 31
0.0
  0
LINE
  5
1A0
330
6C
100
AcDbEntity
  8
Visible Narrow (ANSI)
100
AcDbLine
 10
135.0526844345094
 20
29.88312845265757
 30
0.0
 11
135.0526844345094
 21
51.47148221803082
 31
0.0
  0
ELLIPSE
  5
1A1
330
6C
100
AcDbEntity
  8
Visible (ANSI)
100
AcDbEllipse
 10
135.1488067625769
 20
29.93848162000123
 30
0.0
 11
0.135937499999993
 21
0.0000000000000077
 31
0.0
210
0.0
220
0.0
230
1.0
 40
0.5758617009853158
 41
3.926990816987224
 42
5.497787143782211
  0
LINE
  5
1A2
330
6C
100
AcDbEntity
  8
Visible Narrow (ANSI)
100
AcDbLine
 10
135.2449290906445
 20
29.88312845265761
 30
0.0
 11
135.2449290906446
 21
51.47148221803085
 31
0.0
  0
LINE
  5
1A3
330
6C
100
AcDbEntity
  8
Visible Narrow (ANSI)
100
AcDbLine
 10
135.2449290906446
 20
53.51535003013717
 30
0.0
 11
135.2449290906446
 21
75.10370379551043
 31
0.0
  0
ELLIPSE
  5
1A4
330
6C
100
AcDbEntity
  8
Visible (ANSI)
100
AcDbEllipse
 10
135.148806762577
 20
75.15905696285407
 30
0.0
 11
0.1359374999999986
 21
0.0000000000000077
 31
0.0
210
0.0
220
0.0
230
1.0
 40
0.5758617009853158
 41
3.926990816987016
 42
5.497787143782022
  0
LINE
  5
1A5
330
6C
100
AcDbEntity
  8
Visible Narrow (ANSI)
100
AcDbLine
 10
135.0526844345094
 20
53.51535003013716
 30
0.0
 11
135.0526844345095
 21
75.1037037955104
 31
0.0
  0
LINE
  5
1A6
330
6C
100
AcDbEntity
  8
Visible (ANSI)
100
AcDbLine
 10
135.0525076578141
 20
29.88302586480481
 30
0.0
 11
135.0526851195064
 21
29.88312805819682
 31
0.0
  0
LINE
  5
1A7
330
6C
100
AcDbEntity
  8
Visible (ANSI)
100
AcDbLine
 10
135.0526844345094
 20
29.88292406587636
 30
0.0
 11
135.0525076578141
 21
29.88302586480481
 31
0.0
  0
LINE
  5
1A8
330
6C
100
AcDbEntity
  8
Visible (ANSI)
100
AcDbLine
 10
135.0525076578142
 20
77.01993166828853
 30
0.0
 11
135.1353717337345
 21
77.06764991599858
 31
0.0
  0
ELLIPSE
  5
1A9
330
6C
100
AcDbEntity
  8
Visible (ANSI)
100
AcDbEllipse
 10
135.148806762577
 20
75.15905696285405
 30
0.0
 11
0.0187499999999948
 21
0.0000000000000011
 31
0.0
210
0.0
220
0.0
230
1.0
 40
0.575861700985316
 41
3.926990816988654
 42
5.497787143784326
  0
LINE
  5
1AA
330
6C
100
AcDbEntity
  8
Visible (ANSI)
100
AcDbLine
 10
135.0525076578142
 20
75.10380559443884
 30
0.0
 11
135.1353717337345
 21
75.15152384214889
 31
0.0
  0
LINE
  5
1AB
330
6C
100
AcDbEntity
  8
Visible (ANSI)
100
AcDbLine
 10
135.0525076578142
 20
75.10380559443884
 30
0.0
 11
135.0525076578142
 21
77.01993166828853
 31
0.0
  0
LINE
  5
1AC
330
6C
100
AcDbEntity
  8
Visible (ANSI)
100
AcDbLine
 10
135.0525076578141
 20
29.88302586480481
 30
0.0
 11
135.0525076578141
 21
29.88323025158602
 31
0.0
  0
LINE
  5
1AD
330
6C
100
AcDbEntity
  8
Visible (ANSI)
100
AcDbLine
 10
135.1353717337345
 20
75.15152384214889
 30
0.0
 11
135.1355485104298
 21
75.15142204322045
 31
0.0
  0
LINE
  5
1AE
330
6C
100
AcDbEntity
  8
Visible (ANSI)
100
AcDbLine
 10
135.9222048044996
 20
51.86149936264756
 30
0.0
 11
135.9222048044996
 21
30.27314559727437
 31
0.0
  0
LINE
  5
1AF
330
6C
100
AcDbEntity
  8
Visible (ANSI)
100
AcDbLine
 10
135.2449290906445
 20
29.88312845265761
 30
0.0
 11
135.9222048044996
 21
30.27314559727437
 31
0.0
  0
LINE
  5
1B0
330
6C
100
AcDbEntity
  8
Visible (ANSI)
100
AcDbLine
 10
135.9222048044997
 20
75.49372094012719
 30
0.0
 11
135.9222048044996
 21
53.90536717475391
 31
0.0
  0
LINE
  5
1B1
330
6C
100
AcDbEntity
  8
Visible (ANSI)
100
AcDbLine
 10
135.9222048044997
 20
75.49372094012719
 30
0.0
 11
135.2449290906446
 21
75.10370379551043
 31
0.0
  0
LINE
  5
1B2
330
6C
100
AcDbEntity
  8
Visible (ANSI)
100
AcDbLine
 10
135.0525076578141
 20
29.88323025158602
 30
0.0
 11
135.0526844345094
 21
29.88312845265757
 31
0.0
  0
LINE
  5
1B3
330
6C
100
AcDbEntity
  8
Visible (ANSI)
100
AcDbLine
 10
135.8393407285794
 20
75.54143918783722
 30
0.0
 11
135.9222048044997
 21
75.49372094012719
 31
0.0
  0
LINE
  5
1B4
330
6C
100
AcDbEntity
  8
Visible (ANSI)
100
AcDbLine
 10
135.1620650147243
 20
75.15142204322046
 30
0.0
 11
135.8393407285794
 21
75.54143918783722
 31
0.0
  0
LINE
  5
1B5
330
6C
100
AcDbEntity
  8
Visible (ANSI)
100
AcDbLine
 10
135.0526844345095
 20
75.1037037955104
 30
0.0
 11
135.0525076578142
 21
75.10380559443884
 31
0.0
  0
ARC
  5
1B6
330
6C
100
AcDbEntity
  8
Visible (ANSI)
100
AcDbCircle
 10
35.56165439951317
 20
97.48791285328374
 30
0.0
 40
0.015
100
AcDbArc
 50
180.0
 51
269.9999999998931
  0
ARC
  5
1B7
330
6C
100
AcDbEntity
  8
Visible (ANSI)
100
AcDbCircle
 10
35.56165439951317
 20
97.48791285328374
 30
0.0
 40
0.10875
100
AcDbArc
 50
180.0
 51
269.9999999999852
  0
LINE
  5
1B8
330
6C
100
AcDbEntity
  8
Hidden (ANSI)
 48
0.0177565310150385
100
AcDbLine
 10
35.56185439951314
 20
97.37916285328376
 30
0.0
 11
35.56185439951314
 21
97.47291285328374
 31
0.0
  0
LINE
  5
1B9
330
6C
100
AcDbEntity
  8
Visible (ANSI)
100
AcDbLine
 10
35.54665439951315
 20
98.25416285328374
 30
0.0
 11
35.54665439951317
 21
97.48791285328309
 31
0.0
  0
LINE
  5
1BA
330
6C
100
AcDbEntity
  8
Visible (ANSI)
100
AcDbLine
 10
35.45290439951315
 20
98.25416285328374
 30
0.0
 11
35.54665439951315
 21
98.25416285328374
 31
0.0
  0
LINE
  5
1BB
330
6C
100
AcDbEntity
  8
Visible (ANSI)
100
AcDbLine
 10
35.45290439951317
 20
97.48791285328309
 30
0.0
 11
35.45290439951315
 21
98.25416285328374
 31
0.0
  0
LINE
  5
1BC
330
6C
100
AcDbEntity
  8
Visible (ANSI)
100
AcDbLine
 10
49.34395439951316
 20
97.47291285328429
 30
0.0
 11
35.56165439951314
 21
97.47291285328429
 31
0.0
  0
LINE
  5
1BD
330
6C
100
AcDbEntity
  8
Visible (ANSI)
100
AcDbLine
 10
35.56165439951314
 20
97.37916285328429
 30
0.0
 11
49.34395439951316
 21
97.37916285328429
 31
0.0
  0
LINE
  5
1BE
330
6C
100
AcDbEntity
  8
Visible (ANSI)
100
AcDbLine
 10
49.34395439951316
 20
97.47291285328374
 30
0.0
 11
49.34415439951317
 21
97.47291285328374
 31
0.0
  0
LINE
  5
1BF
330
6C
100
AcDbEntity
  8
Visible (ANSI)
100
AcDbLine
 10
49.45290439951315
 20
98.25416285328374
 30
0.0
 11
49.45290439951314
 21
97.48791285328376
 31
0.0
  0
LINE
  5
1C0
330
6C
100
AcDbEntity
  8
Visible (ANSI)
100
AcDbLine
 10
49.35915439951315
 20
98.25416285328374
 30
0.0
 11
49.45290439951315
 21
98.25416285328374
 31
0.0
  0
LINE
  5
1C1
330
6C
100
AcDbEntity
  8
Visible (ANSI)
100
AcDbLine
 10
49.35915439951314
 20
97.48791285328376
 30
0.0
 11
49.35915439951315
 21
98.25416285328374
 31
0.0
  0
LINE
  5
1C2
330
6C
100
AcDbEntity
  8
Visible (ANSI)
100
AcDbLine
 10
49.34415439951317
 20
97.37916285328376
 30
0.0
 11
49.34395439951316
 21
97.37916285328376
 31
0.0
  0
ARC
  5
1C3
330
6C
100
AcDbEntity
  8
Visible (ANSI)
100
AcDbCircle
 10
49.34415439951315
 20
97.48791285328374
 30
0.0
 40
0.1087499999999989
100
AcDbArc
 50
270.000000000011
 51
0.0
  0
LINE
  5
1C4
330
6C
100
AcDbEntity
  8
Visible (ANSI)
100
AcDbLine
 10
49.34395439951316
 20
97.37916285328429
 30
0.0
 11
49.34395439951316
 21
97.47291285328429
 31
0.0
  0
ARC
  5
1C5
330
6C
100
AcDbEntity
  8
Visible (ANSI)
100
AcDbCircle
 10
49.34415439951315
 20
97.48791285328373
 30
0.0
 40
0.0149999999999959
100
AcDbArc
 50
270.0000000000534
 51
0.0
  0
LINE
  5
1C6
330
6C
100
AcDbEntity
  8
Hidden (ANSI)
 48
0.0177565310150385
100
AcDbLine
 10
49.34415439951318
 20
97.37916285327099
 30
0.0
 11
49.34415439951318
 21
97.47291285327099
 31
0.0
  0
LINE
  5
1C7
330
6C
100
AcDbEntity
  8
Visible (ANSI)
100
AcDbLine
 10
35.56165439951314
 20
97.47291285328429
 30
0.0
 11
35.56165439951314
 21
97.37916285328429
 31
0.0
  0
LINE
  5
1C8
330
6C
100
AcDbEntity
  8
Hidden (ANSI)
 48
0.0177565310150385
100
AcDbLine
 10
48.75020439951313
 20
97.47291285328405
 30
0.0
 11
48.75020439951313
 21
97.37916285328402
 31
0.0
  0
LINE
  5
1C9
330
6C
100
AcDbEntity
  8
Hidden (ANSI)
 48
0.0177565310150385
100
AcDbLine
 10
48.18770439951314
 20
97.47291285328405
 30
0.0
 11
48.18770439951314
 21
97.37916285328402
 31
0.0
  0
LINE
  5
1CA
330
6C
100
AcDbEntity
  8
Hidden (ANSI)
 48
0.0177565310150385
100
AcDbLine
 10
36.71790439951314
 20
97.47291285328405
 30
0.0
 11
36.71790439951314
 21
97.37916285328402
 31
0.0
  0
LINE
  5
1CB
330
6C
100
AcDbEntity
  8
Hidden (ANSI)
 48
0.0177565310150385
100
AcDbLine
 10
36.15540439951314
 20
97.47291285328405
 30
0.0
 11
36.15540439951314
 21
97.37916285328402
 31
0.0
  0
MTEXT
  5
1CC
330
6C
100
AcDbEntity
  8
Symbol (ANSI)
100
AcDbMText
 10
38.54367718110185
 20
91.82585840232075
 30
0.0
 40
1.200000014830761
 41
0.0
 46
0.0
 71
     7
 72
     1
  1
TOP VIEW
  7
Text Style153
 73
     1
 44
1.0
  0
LINE
  5
1CD
330
6C
100
AcDbEntity
  8
Symbol (ANSI)
370
    30
100
AcDbLine
 10
38.54463718357132
 20
91.58114202857182
 30
0.0
 11
46.11611195724863
 21
91.58114202857182
 31
0.0
  0
DIMENSION
  5
1CE
330
6C
100
AcDbEntity
  8
Dimension (ANSI)
100
AcDbDimension
280
     0
  2
*D4
 10
84.07059492107535
 20
66.53420632819844
 30
0.0
 11
89.36832675708647
 21
66.53420632819844
 31
0.0
 70
   160
  1
<>{\PTYP.}
 71
     4
 42
0.8750000000000142
 73
     0
 74
     0
 75
     0
  3
Default (ANSI)
100
AcDbAlignedDimension
 13
84.94559492107537
 23
77.81498565225253
 33
0.0
 14
84.07059492107535
 24
57.223710608403
 34
0.0
 50
180.0
100
AcDbRotatedDimension
1001
ACAD
1000
DSTYLE
1002
{
1070
   289
1070
     1
1070
    73
1070
     0
1070
    74
1070
     0
1070
   271
1070
     2
1070
    75
1070
     1
1070
   272
1070
     2
1070
    48
1040
0.0
1070
    47
1040
0.0
1002
}
  0
LINE
  5
2C7
330
6C
100
AcDbEntity
  8
Center Mark (ANSI)
  6
CHAIN
 48
0.1700296252965927
100
AcDbLine
 10
36.4366543995008
 20
80.879960608403
 30
0.0
 11
36.4366543995008
 21
77.81746060840299
 31
0.0
  0
LINE
  5
2C8
330
6C
100
AcDbEntity
  8
Center Mark (ANSI)
  6
CHAIN
 48
0.1700296252965927
100
AcDbLine
 10
48.46895439950079
 20
80.879960608403
 30
0.0
 11
48.46895439950079
 21
77.81746060840299
 31
0.0
  0
LINE
  5
2C9
330
6C
100
AcDbEntity
  8
Centerline (ANSI)
  6
CHAIN
 48
0.9524481296539306
100
AcDbLine
 10
34.90540439950079
 20
79.348710608403
 30
0.0
 11
50.0002043995008
 21
79.348710608403
 31
0.0
  0
LINE
  5
2CA
330
6C
100
AcDbEntity
  8
Center Mark (ANSI)
  6
CHAIN
 48
0.1700296252965927
100
AcDbLine
 10
37.9679043995008
 20
79.348710608403
 30
0.0
 11
34.90540439950079
 21
79.348710608403
 31
0.0
  0
LINE
  5
2CB
330
6C
100
AcDbEntity
  8
Center Mark (ANSI)
  6
CHAIN
 48
0.1700296252965927
100
AcDbLine
 10
37.9679043995008
 20
56.223710608403
 30
0.0
 11
34.90540439950079
 21
56.223710608403
 31
0.0
  0
LINE
  5
2CC
330
6C
100
AcDbEntity
  8
Centerline (ANSI)
  6
CHAIN
 48
0.9524481296539306
100
AcDbLine
 10
36.4366543995008
 20
80.879960608403
 30
0.0
 11
36.4366543995008
 21
54.69246060840299
 31
0.0
  0
LINE
  5
2CD
330
6C
100
AcDbEntity
  8
Center Mark (ANSI)
  6
CHAIN
 48
0.1700296252965927
100
AcDbLine
 10
36.4366543995008
 20
57.754960608403
 30
0.0
 11
36.4366543995008
 21
54.69246060840299
 31
0.0
  0
LINE
  5
2CE
330
6C
100
AcDbEntity
  8
Center Mark (ANSI)
  6
CHAIN
 48
0.1700296252965927
100
AcDbLine
 10
48.46895439950079
 20
57.754960608403
 30
0.0
 11
48.46895439950079
 21
54.69246060840299
 31
0.0
  0
LINE
  5
2CF
330
6C
100
AcDbEntity
  8
Centerline (ANSI)
  6
CHAIN
 48
0.9524481296539306
100
AcDbLine
 10
34.90540439950079
 20
56.223710608403
 30
0.0
 11
50.0002043995008
 21
56.223710608403
 31
0.0
  0
LINE
  5
2D0
330
6C
100
AcDbEntity
  8
Center Mark (ANSI)
  6
CHAIN
 48
0.1700296252965927
100
AcDbLine
 10
36.4366543995008
 20
34.629960608403
 30
0.0
 11
36.4366543995008
 21
31.567460608403
 31
0.0
  0
LINE
  5
2D1
330
6C
100
AcDbEntity
  8
Center Mark (ANSI)
  6
CHAIN
 48
0.1700296252965927
100
AcDbLine
 10
48.46895439950079
 20
34.629960608403
 30
0.0
 11
48.46895439950079
 21
31.567460608403
 31
0.0
  0
LINE
  5
2D2
330
6C
100
AcDbEntity
  8
Centerline (ANSI)
  6
CHAIN
 48
0.9524481296539306
100
AcDbLine
 10
34.90540439950079
 20
33.09871060840301
 30
0.0
 11
50.0002043995008
 21
33.09871060840301
 31
0.0
  0
LINE
  5
2D3
330
6C
100
AcDbEntity
  8
Center Mark (ANSI)
  6
CHAIN
 48
0.1700296252965927
100
AcDbLine
 10
37.9679043995008
 20
56.223710608403
 30
0.0
 11
34.90540439950079
 21
56.223710608403
 31
0.0
  0
LINE
  5
2D4
330
6C
100
AcDbEntity
  8
Center Mark (ANSI)
  6
CHAIN
 48
0.1700296252965927
100
AcDbLine
 10
37.9679043995008
 20
33.09871060840301
 30
0.0
 11
34.90540439950079
 21
33.09871060840301
 31
0.0
  0
LINE
  5
2D5
330
6C
100
AcDbEntity
  8
Centerline (ANSI)
  6
CHAIN
 48
0.9524481296539306
100
AcDbLine
 10
36.4366543995008
 20
57.754960608403
 30
0.0
 11
36.4366543995008
 21
31.56746060840301
 31
0.0
  0
LINE
  5
2D6
330
6C
100
AcDbEntity
  8
Center Mark (ANSI)
  6
CHAIN
 48
0.1700296252965927
100
AcDbLine
 10
50.0002043995008
 20
56.223710608403
 30
0.0
 11
46.93770439950078
 21
56.223710608403
 31
0.0
  0
LINE
  5
2D7
330
6C
100
AcDbEntity
  8
Center Mark (ANSI)
  6
CHAIN
 48
0.1700296252965927
100
AcDbLine
 10
50.0002043995008
 20
33.09871060840301
 30
0.0
 11
46.93770439950078
 21
33.09871060840301
 31
0.0
  0
LINE
  5
2D8
330
6C
100
AcDbEntity
  8
Centerline (ANSI)
  6
CHAIN
 48
0.9524481296539306
100
AcDbLine
 10
48.46895439950079
 20
57.754960608403
 30
0.0
 11
48.46895439950079
 21
31.56746060840301
 31
0.0
  0
LINE
  5
2D9
330
6C
100
AcDbEntity
  8
Center Mark (ANSI)
  6
CHAIN
 48
0.1700296252965927
100
AcDbLine
 10
50.0002043995008
 20
79.348710608403
 30
0.0
 11
46.93770439950078
 21
79.348710608403
 31
0.0
  0
LINE
  5
2DA
330
6C
100
AcDbEntity
  8
Center Mark (ANSI)
  6
CHAIN
 48
0.1700296252965927
100
AcDbLine
 10
50.0002043995008
 20
56.223710608403
 30
0.0
 11
46.93770439950078
 21
56.223710608403
 31
0.0
  0
LINE
  5
2DB
330
6C
100
AcDbEntity
  8
Centerline (ANSI)
  6
CHAIN
 48
0.9524481296539306
100
AcDbLine
 10
48.46895439950079
 20
80.879960608403
 30
0.0
 11
48.46895439950079
 21
54.69246060840299
 31
0.0
  0
DIMENSION
  5
2DC
330
6C
100
AcDbEntity
  8
Dimension (ANSI)
100
AcDbDimension
280
     0
  2
*D5
 10
19.81362290343781
 20
32.223710608403
 30
0.0
 11
19.8136229034378
 21
56.223710608403
 31
0.0
 70
   160
  1
<>
 42
48.0
 73
     0
 74
     0
 75
     0
  3
Default (ANSI)
100
AcDbAlignedDimension
 13
35.5616543995008
 23
80.22371060840299
 33
0.0
 14
35.56185439950081
 24
32.223710608403
 34
0.0
 50
270.0
100
AcDbRotatedDimension
1001
ACAD
1000
DSTYLE
1002
{
1070
   289
1070
     1
1070
   271
1070
     2
1070
   272
1070
     2
1070
    48
1040
0.0
1070
    47
1040
0.0
1002
}
  0
DIMENSION
  5
3C6
330
6C
100
AcDbEntity
  8
Dimension (ANSI)
100
AcDbDimension
280
     0
  2
*D6
 10
31.33237269276011
 20
56.223710608403
 30
0.0
 11
31.33237269276009
 21
44.661210608403
 31
0.0
 70
   160
  1
<>
 42
23.125
 73
     0
 74
     0
 75
     0
  3
Default (ANSI)
100
AcDbAlignedDimension
 13
34.90540439950079
 23
33.09871060840301
 33
0.0
 14
34.90540439950079
 24
56.223710608403
 34
0.0
 50
90.0
100
AcDbRotatedDimension
1001
ACAD
1000
DSTYLE
1002
{
1070
   289
1070
     1
1070
   271
1070
     2
1070
   272
1070
     2
1070
    48
1040
0.0
1070
    47
1040
0.0
1002
}
  0
DIMENSION
  5
4B0
330
6C
100
AcDbEntity
  8
Dimension (ANSI)
100
AcDbDimension
280
     0
  2
*D7
 10
34.16966456788972
 20
32.223710608403
 30
0.0
 11
31.33237269276009
 21
28.42187120150942
 31
0.0
 70
   160
  1
<>
 71
     5
 42
0.8750000000000071
 73
     0
 74
     0
 75
     0
  3
Default (ANSI)
100
AcDbAlignedDimension
 13
34.90540439950079
 23
33.09871060840301
 33
0.0
 14
35.56185439950081
 24
32.223710608403
 34
0.0
 50
90.0
100
AcDbRotatedDimension
1001
ACAD
1000
DSTYLE
1002
{
1070
   289
1070
     1
1070
   271
1070
     2
1070
   272
1070
     2
1070
    48
1040
0.0
1070
    47
1040
0.0
1002
}
  0
DIMENSION
  5
5B0
330
6C
100
AcDbEntity
  8
Dimension (ANSI)
100
AcDbDimension
280
     0
  2
*D8
 10
49.4529043995008
 20
87.01012793123764
 30
0.0
 11
42.45290439950081
 21
87.01012793123764
 31
0.0
 70
   160
  1
<>
 42
13.99999999999998
 73
     0
 74
     0
 75
     0
  3
Default (ANSI)
100
AcDbAlignedDimension
 13
35.45290439950083
 23
78.34871060840299
 33
0.0
 14
49.4529043995008
 24
78.34871060840299
 34
0.0
 50
180.0
100
AcDbRotatedDimension
1001
ACAD
1000
DSTYLE
1002
{
1070
   289
1070
     1
1070
    73
1070
     0
1070
    74
1070
     0
1070
   271
1070
     2
1070
   272
1070
     2
1070
    48
1040
0.0
1070
    47
1040
0.0
1002
}
  0
DIMENSION
  5
69A
330
6C
100
AcDbEntity
  8
Dimension (ANSI)
100
AcDbDimension
280
     0
  2
*D9
 10
48.27008061729205
 20
32.89983682619432
 30
0.0
 11
58.19576135657015
 21
38.60616933430166
 31
0.0
 70
   163
  1
<>{\P(6 PL.)}
 71
     5
 42
0.5625
 73
     0
 74
     0
 75
     0
  3
Default (ANSI)
100
AcDbDiametricDimension
 15
48.66782818170954
 25
33.2975843906117
 35
0.0
 40
0.0
1001
ACAD
1000
DSTYLE
1002
{
1070
   144
1040
1.0
1070
   271
1070
     3
1070
   272
1070
     2
1070
    48
1040
0.0
1070
    47
1040
0.0
1002
}
1001
ACAD_DSTYLE_DIMRADIAL_EXTENSION
1070
   387
1070
     1
1070
   388
1040
0.0
1070
   390
1040
0.0
  0
DIMENSION
  5
755
330
6C
100
AcDbEntity
  8
Dimension (ANSI)
100
AcDbDimension
280
     0
  2
*D10
 10
48.46895439950079
 20
84.02141254309313
 30
0.0
 11
42.45280439950079
 21
84.02141254309313
 31
0.0
 70
   160
  1
<>
 42
12.0323
 73
     0
 74
     0
 75
     0
  3
Default (ANSI)
100
AcDbAlignedDimension
 13
36.4366543995008
 23
80.879960608403
 33
0.0
 14
48.46895439950079
 24
80.879960608403
 34
0.0
 50
180.0
100
AcDbRotatedDimension
1001
ACAD
1000
DSTYLE
1002
{
1070
   289
1070
     1
1070
    73
1070
     0
1070
    74
1070
     0
1070
   271
1070
     2
1070
   272
1070
     2
1070
    48
1040
0.0
1070
    47
1040
0.0
1002
}
  0
DIMENSION
  5
83F
330
6C
100
AcDbEntity
  8
Dimension (ANSI)
100
AcDbDimension
280
     0
  2
*D11
 10
36.4366543995008
 20
84.02141254309313
 30
0.0
 11
31.12279818147069
 21
84.02141254309313
 31
0.0
 70
   160
  1
<>
 42
0.9837499999999721
 73
     0
 74
     0
 75
     0
  3
Default (ANSI)
100
AcDbAlignedDimension
 13
35.45290439950083
 23
78.34871060840299
 33
0.0
 14
36.4366543995008
 24
80.879960608403
 34
0.0
 50
180.0
100
AcDbRotatedDimension
1001
ACAD
1000
DSTYLE
1002
{
1070
   289
1070
     1
1070
    73
1070
     0
1070
    74
1070
     0
1070
   271
1070
     2
1070
   272
1070
     2
1070
    48
1040
0.0
1070
    47
1040
0.0
1002
}
  0
DIMENSION
  5
929
330
6C
100
AcDbEntity
  8
Dimension (ANSI)
100
AcDbDimension
280
     0
  2
*D12
 10
26.24398707666615
 20
33.09871060840301
 30
0.0
 11
26.24398707666615
 21
56.223710608403
 31
0.0
 70
   160
  1
<>
 42
46.25
 73
     0
 74
     0
 75
     0
  3
Default (ANSI)
100
AcDbAlignedDimension
 13
34.90540439950079
 23
79.348710608403
 33
0.0
 14
34.90540439950079
 24
33.09871060840301
 34
0.0
 50
90.0
100
AcDbRotatedDimension
1001
ACAD
1000
DSTYLE
1002
{
1070
   289
1070
     1
1070
   271
1070
     2
1070
   272
1070
     2
1070
    48
1040
0.0
1070
    47
1040
0.0
1002
}
  0
MTEXT
  5
A13
102
{ACAD_XDICTIONARY
360
B13
102
}
330
6C
100
AcDbEntity
  8
Symbol (ANSI)
100
AcDbMText
 10
91.80295491650303
 20
11.10398245398344
 30
0.0
 40
1.000000031914297
 41
73.83387107548755
 46
0.0
 71
     4
 72
     1
  3
{\fRomanS|b0|i0|c0|p2;\H2x;PART#: WA60SMP14G\P(DATA SUBJECT TO CHANGE WITHOUT NOTICE)\H1.6157x; \H0.61894x;\P \H1.352x; \H0.73963x;\P\H0.6x;THIS DRAWING IS PROPERTY OF HUBBELL INC. WIEGMANN\H1.5633x; \H0.63966x;\PALL INFORMATION IS PROPRIETARY AND NO
  1
T TO BE DUPLICATED\H1.234x; \H0.81039x;\P\H1.2571x; }
  7
Note Text (ANSI)
 73
     1
 44
0.8026435375213623
  0
DIMENSION
  5
A15
330
6C
100
AcDbEntity
  8
Dimension (ANSI)
100
AcDbDimension
280
     0
  2
*D13
 10
84.07059492107535
 20
79.24664576140061
 30
0.0
 11
93.45903804377391
 21
79.24664576140061
 31
0.0
 70
   160
  1
{12 GA. GALV.\P}(<>)
 71
     5
 42
0.0937499999999858
 73
     0
 74
     0
 75
     0
  3
Default (ANSI)
100
AcDbAlignedDimension
 13
84.16434492107534
 23
79.24664576140061
 33
0.0
 14
84.07059492107535
 24
79.28621060840299
 34
0.0
 50
180.0
100
AcDbRotatedDimension
1001
ACAD
1000
DSTYLE
1002
{
1070
   289
1070
     1
1070
    73
1070
     0
1070
    74
1070
     0
1070
   271
1070
     3
1070
    76
1070
     1
1070
    75
1070
     1
1070
   147
1040
0.031496062992126
1070
    72
1070
     0
1070
    71
1070
     0
1070
   272
1070
     2
1070
    48
1040
0.0
1070
    47
1040
0.0
1002
}
  0
ENDSEC
  0
SECTION
  2
OBJECTS
  0
DICTIONARY
  5
C
330
0
100
AcDbDictionary
281
     1
  3
ACAD_CIP_PREVIOUS_PRODUCT_INFO
350
B0E
  3
ACAD_COLOR
350
63
  3
ACAD_GROUP
350
D
  3
ACAD_LAYOUT
350
62
  3
ACAD_MATERIAL
350
10
  3
ACAD_MLEADERSTYLE
350
66
  3
ACAD_MLINESTYLE
350
5F
  3
ACAD_PLOTSETTINGS
350
61
  3
ACAD_PLOTSTYLENAME
350
E
  3
ACAD_SCALELIST
350
42
  3
ACAD_TABLESTYLE
350
64
  3
ACAD_VISUALSTYLE
350
29
  3
ACDB_RECOMPOSE_DATA
350
B15
  3
AcDbVariableDictionary
350
76
  0
DICTIONARY
  5
B13
330
A13
100
AcDbDictionary
280
     1
281
     1
  3
ACAD_MTEXT_2008_RT
360
B14
  0
XRECORD
  5
B0E
102
{ACAD_REACTORS
330
C
102
}
330
C
100
AcDbXrecord
280
     1
300
INVNTOR
300
2012
300
PDSP_F_S
  0
DICTIONARY
  5
63
102
{ACAD_REACTORS
330
C
102
}
330
C
100
AcDbDictionary
281
     1
  0
DICTIONARY
  5
D
102
{ACAD_REACTORS
330
C
102
}
330
C
100
AcDbDictionary
281
     1
  0
DICTIONARY
  5
62
102
{ACAD_REACTORS
330
C
102
}
330
C
100
AcDbDictionary
281
     1
  3
Layout1
350
6B
  3
Layout2
350
73
  3
Model
350
6F
  0
DICTIONARY
  5
10
102
{ACAD_REACTORS
330
C
102
}
330
C
100
AcDbDictionary
281
     1
  3
ByBlock
350
19
  3
ByLayer
350
11
  3
Global
350
21
  0
DICTIONARY
  5
66
102
{ACAD_REACTORS
330
C
102
}
330
C
100
AcDbDictionary
281
     1
  3
Standard
350
67
  0
DICTIONARY
  5
5F
102
{ACAD_REACTORS
330
C
102
}
330
C
100
AcDbDictionary
281
     1
  3
Standard
350
60
  0
DICTIONARY
  5
61
102
{ACAD_REACTORS
330
C
102
}
330
C
100
AcDbDictionary
281
     1
  0
ACDBDICTIONARYWDFLT
  5
E
102
{ACAD_REACTORS
330
C
102
}
330
C
100
AcDbDictionary
281
     1
  3
Normal
350
F
100
AcDbDictionaryWithDefault
340
F
  0
DICTIONARY
  5
42
102
{ACAD_REACTORS
330
C
102
}
330
C
100
AcDbDictionary
281
     1
  3
A0
350
43
  3
A1
350
44
  3
A2
350
45
  3
A3
350
46
  3
A4
350
47
  3
A5
350
48
  3
A6
350
49
  3
A7
350
4A
  3
A8
350
4B
  3
A9
350
4C
  3
B0
350
4D
  3
B1
350
4E
  3
B2
350
4F
  3
B3
350
50
  3
B4
350
51
  3
B5
350
52
  3
B6
350
53
  0
DICTIONARY
  5
64
102
{ACAD_REACTORS
330
C
102
}
330
C
100
AcDbDictionary
281
     1
  3
Standard
350
65
  0
DICTIONARY
  5
29
102
{ACAD_REACTORS
330
C
102
}
330
C
100
AcDbDictionary
281
     1
  3
2dWireframe
350
2F
  3
Basic
350
2E
  3
Brighten
350
35
  3
ColorChange
350
39
  3
Conceptual
350
32
  3
Dim
350
34
  3
EdgeColorOff
350
41
  3
Facepattern
350
38
  3
Flat
350
2A
  3
FlatWithEdges
350
2B
  3
Gouraud
350
2C
  3
GouraudWithEdges
350
2D
  3
Hidden
350
31
  3
JitterOff
350
3F
  3
Linepattern
350
37
  3
OverhangOff
350
40
  3
Realistic
350
33
  3
Shaded
350
3E
  3
Shaded with edges
350
3D
  3
Shades of Gray
350
3A
  3
Sketchy
350
3B
  3
Thicken
350
36
  3
Wireframe
350
30
  3
X-Ray
350
3C
  0
XRECORD
  5
B15
102
{ACAD_REACTORS
330
C
102
}
330
C
100
AcDbXrecord
280
     1
 90
        1
330
65
330
A13
  0
DICTIONARY
  5
76
102
{ACAD_REACTORS
330
C
102
}
330
C
100
AcDbDictionary
281
     1
  3
CANNOSCALE
350
79
  3
CMLEADERSTYLE
350
78
  3
CTABLESTYLE
350
77
  0
XRECORD
  5
B14
102
{ACAD_REACTORS
330
B13
102
}
330
B13
100
AcDbXrecord
280
     1
 40
3110551.0
  1
\pxsm0.94;{\fRomanS|b0|i0;\H2.0000;PART#: WA60SMP14G\P(DATA SUBJECT TO CHANGE WITHOUT NOTICE)\P \P\fRomanS|b0|i0;\H1.2000;THIS DRAWING IS PROPERTY OF HUBBELL INC. WIEGMANN\PALL INFORMATION IS PROPRIETARY AND NOT TO BE DUPLICATED\P}
  0
LAYOUT
  5
6B
102
{ACAD_REACTORS
330
62
102
}
330
62
100
AcDbPlotSettings
  1

  2

  4

  6

 40
0.0
 41
0.0
 42
0.0
 43
0.0
 44
0.0
 45
0.0
 46
0.0
 47
0.0
 48
0.0
 49
0.0
140
0.0
141
0.0
142
1.0
143
1.0
 70
   688
 72
     0
 73
     0
 74
     5
  7

 75
    16
147
1.0
 76
     0
 77
     2
 78
   300
148
0.0
149
0.0
100
AcDbLayout
  1
Layout1
 70
     1
 71
     1
 10
0.0
 20
0.0
 11
12.0
 21
9.0
 12
0.0
 22
0.0
 32
0.0
 14
0.0
 24
0.0
 34
0.0
 15
0.0
 25
0.0
 35
0.0
146
0.0
 13
0.0
 23
0.0
 33
0.0
 16
1.0
 26
0.0
 36
0.0
 17
0.0
 27
1.0
 37
0.0
 76
     0
330
68
  0
LAYOUT
  5
73
102
{ACAD_REACTORS
330
62
102
}
330
62
100
AcDbPlotSettings
  1

  2

  4

  6

 40
0.0
 41
0.0
 42
0.0
 43
0.0
 44
0.0
 45
0.0
 46
0.0
 47
0.0
 48
0.0
 49
0.0
140
0.0
141
0.0
142
1.0
143
1.0
 70
   688
 72
     0
 73
     0
 74
     5
  7

 75
    16
147
1.0
 76
     0
 77
     2
 78
   300
148
0.0
149
0.0
100
AcDbLayout
  1
Layout2
 70
     1
 71
     2
 10
0.0
 20
0.0
 11
12.0
 21
9.0
 12
0.0
 22
0.0
 32
0.0
 14
0.0
 24
0.0
 34
0.0
 15
0.0
 25
0.0
 35
0.0
146
0.0
 13
0.0
 23
0.0
 33
0.0
 16
1.0
 26
0.0
 36
0.0
 17
0.0
 27
1.0
 37
0.0
 76
     0
330
70
  0
LAYOUT
  5
6F
102
{ACAD_REACTORS
330
62
102
}
330
62
100
AcDbPlotSettings
  1

  2

  4

  6

 40
0.0
 41
0.0
 42
0.0
 43
0.0
 44
0.0
 45
0.0
 46
0.0
 47
0.0
 48
0.0
 49
0.0
140
0.0
141
0.0
142
1.0
143
1.0
 70
  1712
 72
     0
 73
     0
 74
     0
  7

 75
     0
147
1.0
 76
     0
 77
     2
 78
   300
148
0.0
149
0.0
100
AcDbLayout
  1
Model
 70
     1
 71
     0
 10
0.0
 20
0.0
 11
12.0
 21
9.0
 12
0.0
 22
0.0
 32
0.0
 14
0.0
 24
0.0
 34
0.0
 15
0.0
 25
0.0
 35
0.0
146
0.0
 13
0.0
 23
0.0
 33
0.0
 16
1.0
 26
0.0
 36
0.0
 17
0.0
 27
1.0
 37
0.0
 76
     0
330
6C
  0
MATERIAL
  5
19
102
{ACAD_XDICTIONARY
360
1A
102
}
102
{ACAD_REACTORS
330
10
102
}
330
10
100
AcDbMaterial
  1
ByBlock
 72
     0
 43
0.0208333333333333
 43
0.0
 43
0.0
 43
0.0
 43
0.0
 43
0.0208333333333333
 43
0.0
 43
0.0
 43
0.0
 43
0.0
 43
1.0
 43
0.0
 43
0.0
 43
0.0
 43
0.0
 43
1.0
 77
     0
 47
0.0208333333333333
 47
0.0
 47
0.0
 47
0.0
 47
0.0
 47
0.0208333333333333
 47
0.0
 47
0.0
 47
0.0
 47
0.0
 47
1.0
 47
0.0
 47
0.0
 47
0.0
 47
0.0
 47
1.0
171
     0
 49
0.0208333333333333
 49
0.0
 49
0.0
 49
0.0
 49
0.0
 49
0.0208333333333333
 49
0.0
 49
0.0
 49
0.0
 49
0.0
 49
1.0
 49
0.0
 49
0.0
 49
0.0
 49
0.0
 49
1.0
175
     0
142
0.0208333333333333
142
0.0
142
0.0
142
0.0
142
0.0
142
0.0208333333333333
142
0.0
142
0.0
142
0.0
142
0.0
142
1.0
142
0.0
142
0.0
142
0.0
142
0.0
142
1.0
179
     0
144
0.0208333333333333
144
0.0
144
0.0
144
0.0
144
0.0
144
0.0208333333333333
144
0.0
144
0.0
144
0.0
144
0.0
144
1.0
144
0.0
144
0.0
144
0.0
144
0.0
144
1.0
147
0.0208333333333333
147
0.0
147
0.0
147
0.0
147
0.0
147
0.0208333333333333
147
0.0
147
0.0
147
0.0
147
0.0
147
1.0
147
0.0
147
0.0
147
0.0
147
0.0
147
1.0
  0
MATERIAL
  5
11
102
{ACAD_XDICTIONARY
360
12
102
}
102
{ACAD_REACTORS
330
10
102
}
330
10
100
AcDbMaterial
  1
ByLayer
 72
     0
 43
0.0208333333333333
 43
0.0
 43
0.0
 43
0.0
 43
0.0
 43
0.0208333333333333
 43
0.0
 43
0.0
 43
0.0
 43
0.0
 43
1.0
 43
0.0
 43
0.0
 43
0.0
 43
0.0
 43
1.0
 77
     0
 47
0.0208333333333333
 47
0.0
 47
0.0
 47
0.0
 47
0.0
 47
0.0208333333333333
 47
0.0
 47
0.0
 47
0.0
 47
0.0
 47
1.0
 47
0.0
 47
0.0
 47
0.0
 47
0.0
 47
1.0
171
     0
 49
0.0208333333333333
 49
0.0
 49
0.0
 49
0.0
 49
0.0
 49
0.0208333333333333
 49
0.0
 49
0.0
 49
0.0
 49
0.0
 49
1.0
 49
0.0
 49
0.0
 49
0.0
 49
0.0
 49
1.0
175
     0
142
0.0208333333333333
142
0.0
142
0.0
142
0.0
142
0.0
142
0.0208333333333333
142
0.0
142
0.0
142
0.0
142
0.0
142
1.0
142
0.0
142
0.0
142
0.0
142
0.0
142
1.0
179
     0
144
0.0208333333333333
144
0.0
144
0.0
144
0.0
144
0.0
144
0.0208333333333333
144
0.0
144
0.0
144
0.0
144
0.0
144
1.0
144
0.0
144
0.0
144
0.0
144
0.0
144
1.0
147
0.0208333333333333
147
0.0
147
0.0
147
0.0
147
0.0
147
0.0208333333333333
147
0.0
147
0.0
147
0.0
147
0.0
147
1.0
147
0.0
147
0.0
147
0.0
147
0.0
147
1.0
  0
MATERIAL
  5
21
102
{ACAD_XDICTIONARY
360
22
102
}
102
{ACAD_REACTORS
330
10
102
}
330
10
100
AcDbMaterial
  1
Global
 72
     0
 43
0.0208333333333333
 43
0.0
 43
0.0
 43
0.0
 43
0.0
 43
0.0208333333333333
 43
0.0
 43
0.0
 43
0.0
 43
0.0
 43
1.0
 43
0.0
 43
0.0
 43
0.0
 43
0.0
 43
1.0
 77
     0
 47
0.0208333333333333
 47
0.0
 47
0.0
 47
0.0
 47
0.0
 47
0.0208333333333333
 47
0.0
 47
0.0
 47
0.0
 47
0.0
 47
1.0
 47
0.0
 47
0.0
 47
0.0
 47
0.0
 47
1.0
171
     0
 49
0.0208333333333333
 49
0.0
 49
0.0
 49
0.0
 49
0.0
 49
0.0208333333333333
 49
0.0
 49
0.0
 49
0.0
 49
0.0
 49
1.0
 49
0.0
 49
0.0
 49
0.0
 49
0.0
 49
1.0
175
     0
142
0.0208333333333333
142
0.0
142
0.0
142
0.0
142
0.0
142
0.0208333333333333
142
0.0
142
0.0
142
0.0
142
0.0
142
1.0
142
0.0
142
0.0
142
0.0
142
0.0
142
1.0
179
     0
144
0.0208333333333333
144
0.0
144
0.0
144
0.0
144
0.0
144
0.0208333333333333
144
0.0
144
0.0
144
0.0
144
0.0
144
1.0
144
0.0
144
0.0
144
0.0
144
0.0
144
1.0
147
0.0208333333333333
147
0.0
147
0.0
147
0.0
147
0.0
147
0.0208333333333333
147
0.0
147
0.0
147
0.0
147
0.0
147
1.0
147
0.0
147
0.0
147
0.0
147
0.0
147
1.0
  0
MLEADERSTYLE
  5
67
102
{ACAD_XDICTIONARY
360
B11
102
}
102
{ACAD_REACTORS
330
66
102
}
330
66
100
AcDbMLeaderStyle
179
     2
170
     2
171
     1
172
     0
 90
        2
 40
0.0
 41
0.0
173
     1
 91
-1056964608
340
5B
 92
       -2
290
     1
 42
0.09
291
     1
 43
0.36
  3
Standard
 44
0.18
300

342
55
174
     1
178
     6
175
     1
176
     0
 93
-1056964608
 45
0.18
292
     0
297
     0
 46
0.18
 94
-1056964608
 47
1.0
 49
1.0
140
1.0
293
     1
141
0.0
294
     1
177
     0
142
1.0
295
     0
296
     0
143
0.125
271
     0
272
     9
273
     9
  0
MLINESTYLE
  5
60
102
{ACAD_REACTORS
330
5F
102
}
330
5F
100
AcDbMlineStyle
  2
STANDARD
 70
     0
  3

 62
   256
 51
90.0
 52
90.0
 71
     2
 49
0.5
 62
   256
  6
BYLAYER
 49
-0.5
 62
   256
  6
BYLAYER
  0
ACDBPLACEHOLDER
  5
F
102
{ACAD_REACTORS
330
E
102
}
330
E
  0
SCALE
  5
43
102
{ACAD_REACTORS
330
42
102
}
330
42
100
AcDbScale
 70
     0
300
1:1
140
1.0
141
1.0
290
     1
  0
SCALE
  5
44
102
{ACAD_REACTORS
330
42
102
}
330
42
100
AcDbScale
 70
     0
300
1/128" = 1'-0"
140
0.0078125
141
12.0
290
     0
  0
SCALE
  5
45
102
{ACAD_REACTORS
330
42
102
}
330
42
100
AcDbScale
 70
     0
300
1/64" = 1'-0"
140
0.015625
141
12.0
290
     0
  0
SCALE
  5
46
102
{ACAD_REACTORS
330
42
102
}
330
42
100
AcDbScale
 70
     0
300
1/32" = 1'-0"
140
0.03125
141
12.0
290
     0
  0
SCALE
  5
47
102
{ACAD_REACTORS
330
42
102
}
330
42
100
AcDbScale
 70
     0
300
1/16" = 1'-0"
140
0.0625
141
12.0
290
     0
  0
SCALE
  5
48
102
{ACAD_REACTORS
330
42
102
}
330
42
100
AcDbScale
 70
     0
300
3/32" = 1'-0"
140
0.09375
141
12.0
290
     0
  0
SCALE
  5
49
102
{ACAD_REACTORS
330
42
102
}
330
42
100
AcDbScale
 70
     0
300
1/8" = 1'-0"
140
0.125
141
12.0
290
     0
  0
SCALE
  5
4A
102
{ACAD_REACTORS
330
42
102
}
330
42
100
AcDbScale
 70
     0
300
3/16" = 1'-0"
140
0.1875
141
12.0
290
     0
  0
SCALE
  5
4B
102
{ACAD_REACTORS
330
42
102
}
330
42
100
AcDbScale
 70
     0
300
1/4" = 1'-0"
140
0.25
141
12.0
290
     0
  0
SCALE
  5
4C
102
{ACAD_REACTORS
330
42
102
}
330
42
100
AcDbScale
 70
     0
300
3/8" = 1'-0"
140
0.375
141
12.0
290
     0
  0
SCALE
  5
4D
102
{ACAD_REACTORS
330
42
102
}
330
42
100
AcDbScale
 70
     0
300
1/2" = 1'-0"
140
0.5
141
12.0
290
     0
  0
SCALE
  5
4E
102
{ACAD_REACTORS
330
42
102
}
330
42
100
AcDbScale
 70
     0
300
3/4" = 1'-0"
140
0.75
141
12.0
290
     0
  0
SCALE
  5
4F
102
{ACAD_REACTORS
330
42
102
}
330
42
100
AcDbScale
 70
     0
300
1" = 1'-0"
140
1.0
141
12.0
290
     0
  0
SCALE
  5
50
102
{ACAD_REACTORS
330
42
102
}
330
42
100
AcDbScale
 70
     0
300
1-1/2" = 1'-0"
140
1.5
141
12.0
290
     0
  0
SCALE
  5
51
102
{ACAD_REACTORS
330
42
102
}
330
42
100
AcDbScale
 70
     0
300
3" = 1'-0"
140
3.0
141
12.0
290
     0
  0
SCALE
  5
52
102
{ACAD_REACTORS
330
42
102
}
330
42
100
AcDbScale
 70
     0
300
6" = 1'-0"
140
6.0
141
12.0
290
     0
  0
SCALE
  5
53
102
{ACAD_REACTORS
330
42
102
}
330
42
100
AcDbScale
 70
     0
300
1'-0" = 1'-0"
140
12.0
141
12.0
290
     0
  0
TABLESTYLE
  5
65
102
{ACAD_XDICTIONARY
360
B0F
102
}
102
{ACAD_REACTORS
330
64
102
}
330
64
100
AcDbTableStyle
280
     0
  3
Standard
 70
     0
 71
     0
 40
0.06
 41
0.06
280
     0
281
     0
  7
Standard
140
0.18
170
     2
 62
     0
 63
     7
283
     0
 90
      512
 91
        0
  1

274
    -2
284
     1
 64
     0
275
    -2
285
     1
 65
     0
276
    -2
286
     1
 66
     0
277
    -2
287
     1
 67
     0
278
    -2
288
     1
 68
     0
279
    -2
289
     1
 69
     0
  7
Standard
140
0.25
170
     5
 62
     0
 63
     7
283
     0
 90
      512
 91
        0
  1

274
    -2
284
     1
 64
     0
275
    -2
285
     1
 65
     0
276
    -2
286
     1
 66
     0
277
    -2
287
     1
 67
     0
278
    -2
288
     1
 68
     0
279
    -2
289
     1
 69
     0
  7
Standard
140
0.18
170
     5
 62
     0
 63
     7
283
     0
 90
      512
 91
        0
  1

274
    -2
284
     1
 64
     0
275
    -2
285
     1
 65
     0
276
    -2
286
     1
 66
     0
277
    -2
287
     1
 67
     0
278
    -2
288
     1
 68
     0
279
    -2
289
     1
 69
     0
  0
VISUALSTYLE
  5
2F
102
{ACAD_REACTORS
330
29
102
}
330
29
100
AcDbVisualStyle
  2
2dWireframe
 70
     4
177
     2
291
     0
 71
     0
176
     1
 72
     2
176
     1
 73
     0
176
     1
 90
        0
176
     1
 40
0.6
176
     1
 41
30.0
176
     1
 63
     7
421
 16777215
176
     1
 74
     1
176
     1
 91
        4
176
     1
 64
     7
176
     1
 65
   257
176
     1
 75
     1
176
     1
175
     1
176
     1
 42
1.0
176
     1
 92
        0
176
     1
 66
   257
176
     1
 43
1.0
176
     1
 76
     1
176
     1
 77
     6
176
     1
 78
     2
176
     1
 67
     7
176
     1
 79
     5
176
     1
170
     0
176
     1
171
     0
176
     1
290
     0
176
     1
 93
        1
176
     1
 44
0.0
176
     1
173
     0
176
     1
  0
VISUALSTYLE
  5
2E
102
{ACAD_REACTORS
330
29
102
}
330
29
100
AcDbVisualStyle
  2
Basic
 70
     7
177
     2
291
     1
 71
     1
176
     1
 72
     0
176
     1
 73
     1
176
     1
 90
        0
176
     1
 40
0.6
176
     1
 41
30.0
176
     1
 63
     7
421
 16777215
176
     1
 74
     0
176
     1
 91
        4
176
     1
 64
     7
176
     1
 65
   257
176
     1
 75
     1
176
     1
175
     1
176
     1
 42
1.0
176
     1
 92
        8
176
     1
 66
     7
176
     1
 43
1.0
176
     1
 76
     1
176
     1
 77
     6
176
     1
 78
     2
176
     1
 67
     7
176
     1
 79
     5
176
     1
170
     0
176
     1
171
     0
176
     1
290
     0
176
     1
 93
        1
176
     1
 44
0.0
176
     1
173
     0
176
     1
  0
VISUALSTYLE
  5
35
102
{ACAD_REACTORS
330
29
102
}
330
29
100
AcDbVisualStyle
  2
Brighten
 70
    12
177
     2
291
     1
 71
     2
176
     1
 72
     2
176
     1
 73
     0
176
     1
 90
        0
176
     1
 40
0.6
176
     1
 41
30.0
176
     1
 63
     7
421
 16777215
176
     1
 74
     1
176
     1
 91
        4
176
     1
 64
     7
176
     1
 65
   257
176
     1
 75
     1
176
     1
175
     1
176
     1
 42
1.0
176
     1
 92
        8
176
     1
 66
     7
176
     1
 43
1.0
176
     1
 76
     1
176
     1
 77
     6
176
     1
 78
     2
176
     1
 67
     7
176
     1
 79
     5
176
     1
170
     0
176
     1
171
     0
176
     1
290
     0
176
     1
 93
        1
176
     1
 44
50.0
176
     1
173
     0
176
     1
  0
VISUALSTYLE
  5
39
102
{ACAD_REACTORS
330
29
102
}
330
29
100
AcDbVisualStyle
  2
ColorChange
 70
    16
177
     2
291
     1
 71
     2
176
     1
 72
     2
176
     1
 73
     3
176
     1
 90
        0
176
     1
 40
0.6
176
     1
 41
30.0
176
     1
 63
     8
421
  8421504
176
     1
 74
     1
176
     1
 91
        4
176
     1
 64
     7
176
     1
 65
   257
176
     1
 75
     1
176
     1
175
     1
176
     1
 42
1.0
176
     1
 92
        8
176
     1
 66
     8
424
  8421504
176
     1
 43
1.0
176
     1
 76
     1
176
     1
 77
     6
176
     1
 78
     2
176
     1
 67
     7
176
     1
 79
     5
176
     1
170
     0
176
     1
171
     0
176
     1
290
     0
176
     1
 93
        1
176
     1
 44
0.0
176
     1
173
     0
176
     1
  0
VISUALSTYLE
  5
32
102
{ACAD_REACTORS
330
29
102
}
330
29
100
AcDbVisualStyle
  2
Conceptual
 70
     9
177
     2
291
     0
 71
     3
176
     1
 72
     2
176
     1
 73
     0
176
     1
 90
        0
176
     1
 40
0.6
176
     1
 41
30.0
176
     1
 63
     7
421
 16777215
176
     1
 74
     2
176
     1
 91
        2
176
     1
 64
     7
176
     1
 65
   257
176
     1
 75
     1
176
     1
175
     1
176
     1
 42
179.0
176
     1
 92
        8
176
     1
 66
     7
176
     1
 43
1.0
176
     1
 76
     1
176
     1
 77
     6
176
     1
 78
     2
176
     1
 67
     7
176
     1
 79
     3
176
     1
170
     0
176
     1
171
     0
176
     1
290
     0
176
     1
 93
        1
176
     1
 44
0.0
176
     1
173
     0
176
     1
  0
VISUALSTYLE
  5
34
102
{ACAD_REACTORS
330
29
102
}
330
29
100
AcDbVisualStyle
  2
Dim
 70
    11
177
     2
291
     1
 71
     2
176
     1
 72
     2
176
     1
 73
     0
176
     1
 90
        0
176
     1
 40
0.6
176
     1
 41
30.0
176
     1
 63
     7
421
 16777215
176
     1
 74
     1
176
     1
 91
        4
176
     1
 64
     7
176
     1
 65
   257
176
     1
 75
     1
176
     1
175
     1
176
     1
 42
1.0
176
     1
 92
        8
176
     1
 66
     7
176
     1
 43
1.0
176
     1
 76
     1
176
     1
 77
     6
176
     1
 78
     2
176
     1
 67
     7
176
     1
 79
     5
176
     1
170
     0
176
     1
171
     0
176
     1
290
     0
176
     1
 93
        1
176
     1
 44
-50.0
176
     1
173
     0
176
     1
  0
VISUALSTYLE
  5
41
102
{ACAD_REACTORS
330
29
102
}
330
29
100
AcDbVisualStyle
  2
EdgeColorOff
 70
    22
177
     2
291
     1
 71
     2
176
     0
 72
     2
176
     0
 73
     0
176
     0
 90
        0
176
     0
 40
0.6
176
     0
 41
30.0
176
     0
 63
     7
421
 16777215
176
     0
 74
     1
176
     0
 91
        4
176
     0
 64
     7
176
     0
 65
   257
176
     0
 75
     1
176
     0
175
     1
176
     0
 42
1.0
176
     0
 92
        8
176
     2
 66
     7
176
     0
 43
1.0
176
     0
 76
     1
176
     0
 77
     6
176
     0
 78
     2
176
     0
 67
     7
176
     0
 79
     5
176
     0
170
     0
176
     0
171
     0
176
     0
290
     0
176
     0
 93
        1
176
     0
 44
0.0
176
     0
173
     0
176
     0
  0
VISUALSTYLE
  5
38
102
{ACAD_REACTORS
330
29
102
}
330
29
100
AcDbVisualStyle
  2
Facepattern
 70
    15
177
     2
291
     1
 71
     2
176
     1
 72
     2
176
     1
 73
     0
176
     1
 90
        0
176
     1
 40
0.6
176
     1
 41
30.0
176
     1
 63
     7
421
 16777215
176
     1
 74
     1
176
     1
 91
        4
176
     1
 64
     7
176
     1
 65
   257
176
     1
 75
     1
176
     1
175
     1
176
     1
 42
1.0
176
     1
 92
        8
176
     1
 66
     7
176
     1
 43
1.0
176
     1
 76
     1
176
     1
 77
     6
176
     1
 78
     2
176
     1
 67
     7
176
     1
 79
     5
176
     1
170
     0
176
     1
171
     0
176
     1
290
     0
176
     1
 93
        1
176
     1
 44
0.0
176
     1
173
     0
176
     1
  0
VISUALSTYLE
  5
2A
102
{ACAD_REACTORS
330
29
102
}
330
29
100
AcDbVisualStyle
  2
Flat
 70
     0
177
     2
291
     1
 71
     2
176
     1
 72
     1
176
     1
 73
     1
176
     1
 90
        2
176
     1
 40
0.6
176
     1
 41
30.0
176
     1
 63
     7
421
 16777215
176
     1
 74
     0
176
     1
 91
        0
176
     1
 64
     7
176
     1
 65
   257
176
     1
 75
     1
176
     1
175
     1
176
     1
 42
1.0
176
     1
 92
        8
176
     1
 66
     7
176
     1
 43
1.0
176
     1
 76
     1
176
     1
 77
     6
176
     1
 78
     2
176
     1
 67
     7
176
     1
 79
     5
176
     1
170
     0
176
     1
171
     0
176
     1
290
     0
176
     1
 93
       13
176
     1
 44
0.0
176
     1
173
     0
176
     1
  0
VISUALSTYLE
  5
2B
102
{ACAD_REACTORS
330
29
102
}
330
29
100
AcDbVisualStyle
  2
FlatWithEdges
 70
     1
177
     2
291
     1
 71
     2
176
     1
 72
     1
176
     1
 73
     1
176
     1
 90
        2
176
     1
 40
0.6
176
     1
 41
30.0
176
     1
 63
     7
421
 16777215
176
     1
 74
     1
176
     1
 91
        0
176
     1
 64
     7
176
     1
 65
   257
176
     1
 75
     1
176
     1
175
     1
176
     1
 42
1.0
176
     1
 92
        0
176
     1
 66
   257
176
     1
 43
1.0
176
     1
 76
     1
176
     1
 77
     6
176
     1
 78
     2
176
     1
 67
     7
176
     1
 79
     5
176
     1
170
     0
176
     1
171
     0
176
     1
290
     0
176
     1
 93
       13
176
     1
 44
0.0
176
     1
173
     0
176
     1
  0
VISUALSTYLE
  5
2C
102
{ACAD_REACTORS
330
29
102
}
330
29
100
AcDbVisualStyle
  2
Gouraud
 70
     2
177
     2
291
     1
 71
     2
176
     1
 72
     2
176
     1
 73
     1
176
     1
 90
        2
176
     1
 40
0.6
176
     1
 41
30.0
176
     1
 63
     7
421
 16777215
176
     1
 74
     0
176
     1
 91
        0
176
     1
 64
     7
176
     1
 65
   257
176
     1
 75
     1
176
     1
175
     1
176
     1
 42
1.0
176
     1
 92
        0
176
     1
 66
     7
176
     1
 43
1.0
176
     1
 76
     1
176
     1
 77
     6
176
     1
 78
     2
176
     1
 67
     7
176
     1
 79
     5
176
     1
170
     0
176
     1
171
     0
176
     1
290
     0
176
     1
 93
       13
176
     1
 44
0.0
176
     1
173
     0
176
     1
  0
VISUALSTYLE
  5
2D
102
{ACAD_REACTORS
330
29
102
}
330
29
100
AcDbVisualStyle
  2
GouraudWithEdges
 70
     3
177
     2
291
     1
 71
     2
176
     1
 72
     2
176
     1
 73
     1
176
     1
 90
        2
176
     1
 40
0.6
176
     1
 41
30.0
176
     1
 63
     7
421
 16777215
176
     1
 74
     1
176
     1
 91
        0
176
     1
 64
     7
176
     1
 65
   257
176
     1
 75
     1
176
     1
175
     1
176
     1
 42
1.0
176
     1
 92
        0
176
     1
 66
   257
176
     1
 43
1.0
176
     1
 76
     1
176
     1
 77
     6
176
     1
 78
     2
176
     1
 67
     7
176
     1
 79
     5
176
     1
170
     0
176
     1
171
     0
176
     1
290
     0
176
     1
 93
       13
176
     1
 44
0.0
176
     1
173
     0
176
     1
  0
VISUALSTYLE
  5
31
102
{ACAD_REACTORS
330
29
102
}
330
29
100
AcDbVisualStyle
  2
Hidden
 70
     6
177
     2
291
     0
 71
     1
176
     1
 72
     2
176
     1
 73
     2
176
     1
 90
        0
176
     1
 40
0.6
176
     1
 41
30.0
176
     1
 63
     7
421
 16777215
176
     1
 74
     2
176
     1
 91
        2
176
     1
 64
     7
176
     1
 65
   257
176
     1
 75
     2
176
     1
175
     1
176
     1
 42
40.0
176
     1
 92
        0
176
     1
 66
   257
176
     1
 43
1.0
176
     1
 76
     1
176
     1
 77
     6
176
     1
 78
     2
176
     1
 67
     7
176
     1
 79
     3
176
     1
170
     0
176
     1
171
     0
176
     1
290
     0
176
     1
 93
        1
176
     1
 44
0.0
176
     1
173
     0
176
     1
  0
VISUALSTYLE
  5
3F
102
{ACAD_REACTORS
330
29
102
}
330
29
100
AcDbVisualStyle
  2
JitterOff
 70
    20
177
     2
291
     1
 71
     2
176
     0
 72
     2
176
     0
 73
     0
176
     0
 90
        0
176
     0
 40
0.6
176
     0
 41
30.0
176
     0
 63
     7
421
 16777215
176
     0
 74
     1
176
     0
 91
        4
176
     0
 64
     7
176
     0
 65
   257
176
     0
 75
     1
176
     0
175
     1
176
     0
 42
1.0
176
     0
 92
       10
176
     2
 66
     7
176
     0
 43
1.0
176
     0
 76
     1
176
     0
 77
     6
176
     0
 78
     2
176
     0
 67
     7
176
     0
 79
     5
176
     0
170
     0
176
     0
171
     0
176
     0
290
     0
176
     0
 93
        1
176
     0
 44
0.0
176
     0
173
     0
176
     0
  0
VISUALSTYLE
  5
37
102
{ACAD_REACTORS
330
29
102
}
330
29
100
AcDbVisualStyle
  2
Linepattern
 70
    14
177
     2
291
     1
 71
     2
176
     1
 72
     2
176
     1
 73
     0
176
     1
 90
        0
176
     1
 40
0.6
176
     1
 41
30.0
176
     1
 63
     7
421
 16777215
176
     1
 74
     1
176
     1
 91
        4
176
     1
 64
     7
176
     1
 65
   257
176
     1
 75
     7
176
     1
175
     7
176
     1
 42
1.0
176
     1
 92
        8
176
     1
 66
     7
176
     1
 43
1.0
176
     1
 76
     1
176
     1
 77
     6
176
     1
 78
     2
176
     1
 67
     7
176
     1
 79
     5
176
     1
170
     0
176
     1
171
     0
176
     1
290
     0
176
     1
 93
        1
176
     1
 44
0.0
176
     1
173
     0
176
     1
  0
VISUALSTYLE
  5
40
102
{ACAD_REACTORS
330
29
102
}
330
29
100
AcDbVisualStyle
  2
OverhangOff
 70
    21
177
     2
291
     1
 71
     2
176
     0
 72
     2
176
     0
 73
     0
176
     0
 90
        0
176
     0
 40
0.6
176
     0
 41
30.0
176
     0
 63
     7
421
 16777215
176
     0
 74
     1
176
     0
 91
        4
176
     0
 64
     7
176
     0
 65
   257
176
     0
 75
     1
176
     0
175
     1
176
     0
 42
1.0
176
     0
 92
        9
176
     2
 66
     7
176
     0
 43
1.0
176
     0
 76
     1
176
     0
 77
     6
176
     0
 78
     2
176
     0
 67
     7
176
     0
 79
     5
176
     0
170
     0
176
     0
171
     0
176
     0
290
     0
176
     0
 93
        1
176
     0
 44
0.0
176
     0
173
     0
176
     0
  0
VISUALSTYLE
  5
33
102
{ACAD_REACTORS
330
29
102
}
330
29
100
AcDbVisualStyle
  2
Realistic
 70
     8
177
     2
291
     0
 71
     2
176
     1
 72
     3
176
     1
 73
     0
176
     1
 90
        2
176
     1
 40
0.6
176
     1
 41
30.0
176
     1
 63
     7
421
 16777215
176
     1
 74
     0
176
     1
 91
        0
176
     1
 64
     7
176
     1
 65
   257
176
     1
 75
     1
176
     1
175
     1
176
     1
 42
1.0
176
     1
 92
        8
176
     1
 66
   257
176
     1
 43
1.0
176
     1
 76
     1
176
     1
 77
     6
176
     1
 78
     2
176
     1
 67
     7
176
     1
 79
     3
176
     1
170
     0
176
     1
171
     0
176
     1
290
     0
176
     1
 93
       13
176
     1
 44
0.0
176
     1
173
     0
176
     1
  0
VISUALSTYLE
  5
3E
102
{ACAD_REACTORS
330
29
102
}
330
29
100
AcDbVisualStyle
  2
Shaded
 70
    27
177
     2
291
     0
 71
     2
176
     1
 72
     2
176
     1
 73
     1
176
     1
 90
        2
176
     1
 40
0.6
176
     1
 41
30.0
176
     1
 63
     7
421
 16777215
176
     1
 74
     0
176
     1
 91
        4
176
     1
 64
     7
176
     1
 65
   257
176
     1
 75
     1
176
     1
175
     1
176
     1
 42
1.0
176
     1
 92
        8
176
     1
 66
   257
176
     1
 43
1.0
176
     1
 76
     1
176
     1
 77
     6
176
     1
 78
     2
176
     1
 67
     8
425
  7895160
176
     1
 79
     3
176
     1
170
     0
176
     1
171
     0
176
     1
290
     0
176
     1
 93
        5
176
     1
 44
0.0
176
     1
173
     0
176
     1
  0
VISUALSTYLE
  5
3D
102
{ACAD_REACTORS
330
29
102
}
330
29
100
AcDbVisualStyle
  2
Shaded with edges
 70
    26
177
     2
291
     0
 71
     2
176
     1
 72
     2
176
     1
 73
     1
176
     1
 90
        2
176
     1
 40
0.6
176
     1
 41
30.0
176
     1
 63
     7
421
 16777215
176
     1
 74
     1
176
     1
 91
       10
176
     1
 64
     7
176
     1
 65
   257
176
     1
 75
     2
176
     1
175
     1
176
     1
 42
1.0
176
     1
 92
        8
176
     1
 66
   257
176
     1
 43
1.0
176
     1
 76
     1
176
     1
 77
     6
176
     1
 78
     2
176
     1
 67
     7
176
     1
 79
     3
176
     1
170
     0
176
     1
171
     0
176
     1
290
     0
176
     1
 93
        5
176
     1
 44
0.0
176
     1
173
     0
176
     1
  0
VISUALSTYLE
  5
3A
102
{ACAD_REACTORS
330
29
102
}
330
29
100
AcDbVisualStyle
  2
Shades of Gray
 70
    23
177
     2
291
     0
 71
     2
176
     1
 72
     2
176
     1
 73
     3
176
     1
 90
        0
176
     1
 40
0.6
176
     1
 41
30.0
176
     1
 63
     7
421
 16777215
176
     1
 74
     2
176
     1
 91
        2
176
     1
 64
     7
176
     1
 65
     7
176
     1
 75
     1
176
     1
175
     1
176
     1
 42
40.0
176
     1
 92
        8
176
     1
 66
     7
176
     1
 43
1.0
176
     1
 76
     1
176
     1
 77
     6
176
     1
 78
     2
176
     1
 67
     7
176
     1
 79
     3
176
     1
170
     0
176
     1
171
     0
176
     1
290
     0
176
     1
 93
        1
176
     1
 44
0.0
176
     1
173
     0
176
     1
  0
VISUALSTYLE
  5
3B
102
{ACAD_REACTORS
330
29
102
}
330
29
100
AcDbVisualStyle
  2
Sketchy
 70
    24
177
     2
291
     0
 71
     1
176
     1
 72
     2
176
     1
 73
     2
176
     1
 90
        0
176
     1
 40
0.6
176
     1
 41
30.0
176
     1
 63
     7
421
 16777215
176
     1
 74
     2
176
     1
 91
        2
176
     1
 64
     7
176
     1
 65
     7
176
     1
 75
     1
176
     1
175
     1
176
     1
 42
40.0
176
     1
 92
       11
176
     1
 66
     7
176
     1
 43
1.0
176
     1
 76
     1
176
     1
 77
     6
176
     1
 78
     2
176
     1
 67
     7
176
     1
 79
     6
176
     1
170
     0
176
     1
171
     0
176
     1
290
     0
176
     1
 93
        1
176
     1
 44
0.0
176
     1
173
     0
176
     1
  0
VISUALSTYLE
  5
36
102
{ACAD_REACTORS
330
29
102
}
330
29
100
AcDbVisualStyle
  2
Thicken
 70
    13
177
     2
291
     1
 71
     2
176
     1
 72
     2
176
     1
 73
     0
176
     1
 90
        0
176
     1
 40
0.6
176
     1
 41
30.0
176
     1
 63
     7
421
 16777215
176
     1
 74
     1
176
     1
 91
        4
176
     1
 64
     7
176
     1
 65
   257
176
     1
 75
     1
176
     1
175
     1
176
     1
 42
1.0
176
     1
 92
       12
176
     1
 66
     7
176
     1
 43
1.0
176
     1
 76
     1
176
     1
 77
     6
176
     1
 78
     2
176
     1
 67
     7
176
     1
 79
     5
176
     1
170
     0
176
     1
171
     0
176
     1
290
     0
176
     1
 93
        1
176
     1
 44
0.0
176
     1
173
     0
176
     1
  0
VISUALSTYLE
  5
30
102
{ACAD_REACTORS
330
29
102
}
330
29
100
AcDbVisualStyle
  2
Wireframe
 70
     5
177
     2
291
     0
 71
     0
176
     1
 72
     2
176
     1
 73
     0
176
     1
 90
        0
176
     1
 40
0.6
176
     1
 41
30.0
176
     1
 63
     7
421
 16777215
176
     1
 74
     1
176
     1
 91
        4
176
     1
 64
     7
176
     1
 65
   257
176
     1
 75
     1
176
     1
175
     1
176
     1
 42
1.0
176
     1
 92
        0
176
     1
 66
   257
176
     1
 43
1.0
176
     1
 76
     1
176
     1
 77
     6
176
     1
 78
     2
176
     1
 67
     7
176
     1
 79
     3
176
     1
170
     0
176
     1
171
     0
176
     1
290
     0
176
     1
 93
        1
176
     1
 44
0.0
176
     1
173
     0
176
     1
  0
VISUALSTYLE
  5
3C
102
{ACAD_REACTORS
330
29
102
}
330
29
100
AcDbVisualStyle
  2
X-Ray
 70
    25
177
     2
291
     0
 71
     2
176
     1
 72
     2
176
     1
 73
     1
176
     1
 90
        1
176
     1
 40
0.5
176
     1
 41
30.0
176
     1
 63
     7
421
 16777215
176
     1
 74
     1
176
     1
 91
        0
176
     1
 64
     7
176
     1
 65
   257
176
     1
 75
     1
176
     1
175
     1
176
     1
 42
1.0
176
     1
 92
        8
176
     1
 66
     7
176
     1
 43
1.0
176
     1
 76
     1
176
     1
 77
     6
176
     1
 78
     2
176
     1
 67
     7
176
     1
 79
     3
176
     1
170
     0
176
     1
171
     0
176
     1
290
     0
176
     1
 93
       13
176
     1
 44
0.0
176
     1
173
     0
176
     1
  0
DICTIONARYVAR
  5
79
102
{ACAD_REACTORS
330
76
102
}
330
76
100
DictionaryVariables
280
     0
  1
1:1
  0
DICTIONARYVAR
  5
78
102
{ACAD_REACTORS
330
76
102
}
330
76
100
DictionaryVariables
280
     0
  1
STANDARD
  0
DICTIONARYVAR
  5
77
102
{ACAD_REACTORS
330
76
102
}
330
76
100
DictionaryVariables
280
     0
  1
STANDARD
  0
DICTIONARY
  5
1A
330
19
100
AcDbDictionary
280
     1
281
     1
  3
BUMPTILE
360
1C
  3
DIFFUSETILE
360
1B
  3
OPACITYTILE
360
1F
  3
REFLECTIONTILE
360
1E
  3
REFRACTIONTILE
360
20
  3
SPECULARTILE
360
1D
  0
DICTIONARY
  5
12
330
11
100
AcDbDictionary
280
     1
281
     1
  3
BUMPTILE
360
14
  3
DIFFUSETILE
360
13
  3
FBXASSET
360
109
  3
OPACITYTILE
360
17
  3
REFLECTIONTILE
360
16
  3
REFRACTIONTILE
360
18
  3
SPECULARTILE
360
15
  0
DICTIONARY
  5
22
330
21
100
AcDbDictionary
280
     1
281
     1
  3
BUMPTILE
360
24
  3
DIFFUSETILE
360
23
  3
FBXASSET
360
BA
  3
OPACITYTILE
360
27
  3
REFLECTIONTILE
360
26
  3
REFRACTIONTILE
360
28
  3
SPECULARTILE
360
25
  0
DICTIONARY
  5
B11
330
67
100
AcDbDictionary
280
     1
281
     1
  3
ACAD_XREC_ROUNDTRIP
360
B12
  0
DICTIONARY
  5
B0F
330
65
100
AcDbDictionary
280
     1
281
     1
  3
ACAD_ROUNDTRIP_2008_TABLESTYLE_CELLSTYLEMAP
360
B10
  0
XRECORD
  5
1C
102
{ACAD_REACTORS
330
1A
102
}
330
1A
100
AcDbXrecord
280
     1
270
     1
271
     1
  0
XRECORD
  5
1B
102
{ACAD_REACTORS
330
1A
102
}
330
1A
100
AcDbXrecord
280
     1
270
     1
271
     1
  0
XRECORD
  5
1F
102
{ACAD_REACTORS
330
1A
102
}
330
1A
100
AcDbXrecord
280
     1
270
     1
271
     1
  0
XRECORD
  5
1E
102
{ACAD_REACTORS
330
1A
102
}
330
1A
100
AcDbXrecord
280
     1
270
     1
271
     1
  0
XRECORD
  5
20
102
{ACAD_REACTORS
330
1A
102
}
330
1A
100
AcDbXrecord
280
     1
270
     1
271
     1
  0
XRECORD
  5
1D
102
{ACAD_REACTORS
330
1A
102
}
330
1A
100
AcDbXrecord
280
     1
270
     1
271
     1
  0
XRECORD
  5
14
102
{ACAD_REACTORS
330
12
102
}
330
12
100
AcDbXrecord
280
     1
270
     1
271
     1
  0
XRECORD
  5
13
102
{ACAD_REACTORS
330
12
102
}
330
12
100
AcDbXrecord
280
     1
270
     1
271
     1
  0
XRECORD
  5
109
102
{ACAD_REACTORS
330
12
102
}
330
12
100
AcDbXrecord
280
     1
 70
     1
 90
1959938040
 71
     1
  1
8D91F299-0DC7-47B0-92DD-DD230EE4C85A
311
504B03040A0000080000893ADB423DEE336E79000000790000001B0000006175746F6465736B2D64657369676E2D7061636B6167652E786D6C3C3F786D6C2076657273696F6E3D22312E302220656E636F64696E673D227574662D3822203F3E3C666F726D6174733E3C666F726D61743E687474703A2F2F736368656D612E
311
6175746F6465736B2E636F6D2F64657369676E2D7061636B6167652F323030393C2F666F726D61743E3C2F666F726D6174733E504B0304140006080800893ADB42D486FD9CA0000000F4000000130000005B436F6E74656E745F54797065735D2E786D6C7D8EC10E82300C865F65E91D8A1E8C310C0EEA1BF002731658846E
311
D98AC1B77784ABF1D8FE5FBFBF75BBCE937A534CCEB38643598122B6FEE978D0B0485F9C41B54DDD7D022595594E1A469170414C76A4D9A4D207E29CF43ECE46F218070CC6BECC4078ACAA135ACF422C856C0E68EA1BF5669944DDD7BCDE7B1F8E415D77AECB980613C2E4AC91FC167A2B244592486606FC29C8FD7F045B9A
311
EF7053A7E60B504B0304140006080800893ADB428FFFDE3CEB0000007C01000008000000636F72652E786D6C8D90518E83201445B742F89DA0805AAD419AD63A2B980D10A096B482116866F983AD4D66FEE6EBBD5CEEE1DD5C76F89EEEE0A1176F9CED20C93004DA4AA78C1D3B18C30535101C385B9C0BBF6C105831E90EAE
311
32E46C5C5C9C37493A1BB40D49B54EE94D14DEEB0081BCA7A5835E5EF52432114372F85B360B7913A3CEC87B4B708C4681D711A3D27FE662F40239A987FE54F79FE8BCDB97A82C29454D3550444E35DE57E7A1ECE991E52BCC5930D3FBBE5CB4085A414E312910DE215A7FE1BAA5B825CD07AEDA02B37CB5FF81E2ACFE0945
311
634341B7B82FCCA7AC29C8F381B37CED228D675169AEBDF11F504B0304140006080800893ADB4255019EA25F0000007C00000007000000636E782E786D6C4DCB3B0E80201045D1AD90E915ED2CF8AC45050C11660C8261F98AB1B07AC9C97D42D718D865D3E909258CFD00CCE24AC6E326A164D74DC0B4128928FF32603847
311
2BA13128B1252AC747C6BAB984FC68F0B87FE8960A5C09FE86CFB69FBA01504B0304140006080800893ADB42FE822DAF68010000020300000C0000006662782F636F72652E786D6C8D52ED8E8230107C95A67F2FD05251D4949AF3E39EE05EA042E588D092D2121FFF960FC37931C69094666667777680EF6E75853A65DBD2
311
E8144721C548E9CCE4A52E52ECDD255863B413DC1AE3FE9461A465AD52DCC358F0C21ADF4C5066B453DA01AA4DAE2650B6AD721865155C52DC663FAA96A1F40E2ADA6BD8C8EC2A0B154621D0502778EB2C1840E390FEC4E272BE7132E2827B5FE6135BE630ADBC94CA621125A7C33E397C05C7D5260EE298B160BD3CB120DA
311
2774B33C9EE203FBE4A4170BEECAFAEE2EB34A3A9563C168B408E82A60C9374DB68C6EA3F5075D6E179493BEFC41E49BFC4D912FB55BB0C9EE286BC12B1819887FDB42440EB5B2033F4470D28708AF21E1C7A0211008D9C97375DFE30A50A732676C0C4C6EFC4C75B2F20AA652343C9C8C2C741E1AC0664FFBB0177D5EF780
311
0F287501D6A483EBD9BB7E3A1FA74E5134CA069DBB216D6C2DABD9DC68713EE7414FE599A98C7D474DA655C91426E9FF5EF10B504B0304140006080800893ADB42C2E28AD67E0000009D0000000B0000006662782F636E782E786D6C4DCCDF0A83201C86E15B91DFB94BD352418DF6EF3E625944A5C3E9D8E5AF46073BFAE0
311
E1E3D5CD675DD0DBC5D714BC017A22809C7F847EF2A3819C062C013556C710D2DF0D90EF56676067B07A8C213F0FEADDD0E5256DBA4C7E3E50DD29694B26F0599602F34B4DB162ACC53771AD545D71492487C2EAE257DA760FDB2F504B0304140006080800893ADB42B42620592C01000014020000310000006662782F3946
311
3130413233372D423832372D344336312D393333412D4537443539363534383038342F636F72652E786D6C8D515B6EC32010BC8AC557AACA36181B3B11264A5F27E8051C20294A0C168F2AC7EFBA76A4F62F3F2C9A9D991DEDF2FD6DBC66DFDA07E36C8F488151A6AD74CAD8738F523CE51DCAF6827BE7E21F1ACAEC30EA1E
311
CD3012FCEC5D9A56483A1BB58D805AA7F40A0E21E8883279854F8F82FCD2E3500C2902235C8A699097E1AC0B52401B788287E82140B60C995F24B61F041F2ADAE62F5DD5E6F52B23F996D243FEDEBE355BD6D41DEE6A5E2E42C153326A951B0571CCC968FFA8C92C163C9AF11E5F7A3D44AD90A830A1396679D57EE27657E1
311
1DE99E71B3A3989733FD9F284DEA41513236D26A8DBBC8021284974B4370E5D2F17A0FA36F93F3319BE76D82964F48E0026251D232C6CB850A0B004F56AF9E213A0F0BDE5C8EC026CD62CC6AC1CBF946507E0F0875BEA7F801504B0304140006080800893ADB427D3CA81B4E01000033030000300000006662782F39463130
311
413233372D423832372D344336312D393333412D4537443539363534383038342F636E782E786D6CD593CD6E022114855F85B06DE64FAD1AC360D2459FA08B6E19B82ACAC0849FA6BE7D2F8AD68D8B2EBB2193730FE7DC7C61D8F67B34E40B7CD0CEF6B4AB5B4AC04AA7B4DDF734C55DB5A664CB99772E3ED828B162849E66
311
9972B6F72E4D4552B013C944548DB6A7227A082E790901E57C93182785C100B0554211C601940245EE46FCDA81C755501CCE241E80BCBF7D12371C41C6C09A9CC259933B38CB67697A3051228D08A1A7411E6014B548D12908A75A8928EAAEBE753DD9E93789E40BB7CAE435C9E53DCD27E565A31A39B206879C85E8915E31
311
C5F304948B69325A8A88909B8BF1EAE12C691B978BE2D508DEA3BB5BCE170B0CBBCC388B7A84E2901E440445F9ACEDE655BBAC66AB8F76B599B59B6EFDD2BE6EE62D6BB29DB3C139532E610C783711E96C041B29EF5893C7CFF0151F51DA236BE7CF7F0089004AEB95CE3DE33FF3692EEF1B7179FC0BF80F504B0304140006
311
080800893ADB4259887B43A505000081100000340000006662782F39463130413233372D423832372D344336312D393333412D4537443539363534383038342F6F626A656374732E786D6CAD575D739B3814FD2B0CFBB2FB0036B6D3C63B844E62271D4F9BB6534F3BFBE0198F0C826823102389C4D95FBF47206C70EDD4BB
311
D3174042BABAF7DC733F14BEDBE6DC79A25231515CB9813F741D5AC422614576E5563AF52E5DE75D144A21746799EB1424A757AE9976A33093A22AED54425352717D307B77F397A3625A50D7893951EACA55F103CD894F2A2D12AA1EFD8468E267E9D60FFC66615F6C2649F97020B42492161A9A62BE8014A7512AE80F87EE
311
200A07E67F149AA75D353EBD6A50DBD33F9F154A9322FEE1B00331E36032BF1D5D4CBD8BC964EC4DDE8C02EFE6EE66EE056FC7C3D99BD96C7A7D3BC5C14A4B48B29A489ABAD17B6023591C0E9A5F5158B1428F47768975D040D227663CE54623270807CD9A9D75D6C863EAC7A228685C6305346AFBACE88496B448E0734615
311
34EB2034EC0F038363E7F7D88CED91DDE9F310E8EEE8086A756FDF5D4DC5E66F98A0CE619054D430B0C1D21ADA7075B847782304B7FF987272A2A964843B9C6D24912F6E84A5664914F6C418264B130DC6023782179ADF7DBA208C7ECEF3635AA615E786C66E5447C11AB142B5AA3563FF50B9D7BE8B0C7482AF0C1B2EAD41
311
FAA5A46E346D287279C0A6064827E52483CB61A6D9391E1D183A3371BA98BBD187BBCD766962F7F8E1A5142595DAD007D46A1DD7BE0D4A56A7E02CCF990DEE812A7B50BE02F94F08F5BD2AF09B64DBC976624FD192142A1532876F9CA1E30DF1183A41FD34DF9DAF70B0DBDCF7DE293CE16C03D52FC0B36F43D7971D38A3F0
311
098417726C4D5BC684236DDCB302001992385C600A7938DD6CDD68812C87AC8C5D8447014C86BA4FF80C07560C12457D52E75D00CB83B4784682066C3523A146437EABE0DE4F3FA4B3FA60BBEC14BC17BF84AED7F3E58765255312D37B1BD3739AB2826994B83D6FBA0AF530EF59F4485F9E854C60E88F782FBB78E7F62805
311
B40DE606F8ACCDE966B03FB977408C7D9930E926FCC90930C214D68EFC7BA662CA3929A8A8DA735FAD1F281B0DC426D80D937705665F58409AE6CF410CA248C7929506C45DB5DA254DFF8475DF169FC04837BA79F9485EBAD96BB3CFBDB1E042AE372FEB262D1D85FA7B9FDB1683819102BAD741D2C6BF057D9DB034AD1492
311
E0115CBF2F665DDF99B48014D14A6DA26502FB115C445AD2B67251AD25412515C59AA16E22EE8E1ED0950F482D036A81A7345694A76BC67995AF53C6518DD639294FC0F1FFF5DF5479B926B9A80A7D42764F755487BEEE3DF6AA67A2E307375AD66FEF06B937A1C90932985A7204AB9E6B2FE7D3E06E349D7AC3F9ECAD3779
311
7B33F4A6A3F9DC9BCF47E3E1EDED64767971DDFAA9D1240ADB52D38D687809A52DAC24B3EEFBB640FCD824E046F744ABD5FB263CDBF7B7858F5E381C600FEAE56EE375F284BE8F263F17B05F7954D0222F39CD69A18989A17BF3C1BF12F4193D659AF9454E327A8694CFEF9707C660E68C7D5F4CBCD3E783BD76766602F2A8
311
10FD50E59B82307EB0316B90F4CB22B3F8B53ED9BD9B42D30ECDC83A069DA9129C25C88389935191538D6C784611923955A05EB7A74FECDDE38CDD4F4D87A8C986D35693078226992B8405A855C5BA3FEFFC86A6CEF455572ECAADFF8887CD14AE03CE5CB968D2358BA9F23728D0A615AA85834BDD4E1E8D3F29328E5EBBD9
311
B41BEF76196C7A2579B7E49CFEC9DAD5A4706B00D24889BE010D11BC532B1385B56EF67FFC9F0C6FD57188C6E7A6D23B5BF6133B63EA6310A28D51F6B68026E6D11EBD45A0BE6E56E0D76B7A889C75CB7A95048D544F1399D53705A39F55E97AFE65800EC5597C764A5E65F0E5F9923C4941E6CA0438580456589925D1A0EA
311
ECCFD517297093CD9D3B060A38BF6F2FDFFCB19A893C174533B5BAB6F76167F980DB6DB24272A0E65AA256A361305AD5D7017B43596F88A23E49D42326E059C97640F7DC0F5E3677C6008BACFBAD2706C615070C5DCC1D5BD826FBF5DDDC6AC041E35150073164AE942662BA0BCA576F04837A295495E8E5A37F01504B0304
311
140006080000893ADB42000000000000000000000000350000006662782F39463130413233372D423832372D344336312D393333412D4537443539363534383038342F76657274696365732E62696E504B0304140006080800893ADB42F270F1330600000004000000360000006662782F39463130413233372D423832372D
311
344336312D393333412D4537443539363534383038342F747269616E676C65732E62696E636660600000504B0304140006080000893ADB42000000000000000000000000370000006662782F39463130413233372D423832372D344336312D393333412D4537443539363534383038342F617474726962757465732E62696E
311
504B0304140006080800893ADB42D5987DFC8F00000041010000360000006662782F39463130413233372D423832372D344336312D393333412D4537443539363534383038342F6469726563746F72792E786D6C858F410EC2201045AF4266AF15DDB800BA74E7C21B903225242D6328188F2FA5C4183471359997F9FF81E8
311
9FF3C41E1816475E02DF1F80A11FC8386F25A438EECEC07A250251FC3803E6F58C12560C4AD840E95E91C151A72936F496F35732D860FE635F62C8F2DA16B505C545B74125BAA2FA9E05D7CC053D063734D5C7665FD55B6B8D15D5E9BFEAFD8490FFA45E504B0304140006080800893ADB42E715830DFE000000A00100003B
311
0000006662782F39463130413233372D423832372D344336312D393333412D4537443539363534383038342F7265736F75726365732F636F72652E786D6C8D504B6E833010BD0AF2B632D80642828CA38670835EC032136225D8C89FAAC7AF09546A77DDCC8CDE47F3F4F8F96B7E669FE0BCB6A64334272803A3ECA8CDD4A1
311
186EF888B2B3E0CEDAF04B86322367E8D00A23C12767E3B243CA9A002624D4D81176507A0F0165EA998E0E79758759E63286A4F08F7C91EA2127C8699EE8A413DC07970264DB937522E1C0DBE814785E6CACE031EA71D7E831FDD4370D0E09DA0CFDA5E9077C3D9C2A5C558CE1633D304C2F0D39D5D7A1EAD93B2F56B3E041
311
CF3F19950319604482115A6272C0ACF9204DCB484B8F6FA46E4BC28B55FEC71497F19FA6A84D28D91E77B3F9943505791182176B5F69BDCA4C7BED567C03504B010214000A0000080000893ADB423DEE336E79000000790000001B00000000000000000000000000000000006175746F6465736B2D64657369676E2D706163
311
6B6167652E786D6C504B01021400140006080800893ADB42D486FD9CA0000000F40000001300000000000000000000000000B20000005B436F6E74656E745F54797065735D2E786D6C504B01021400140006080800893ADB428FFFDE3CEB0000007C010000080000000000000000000000000083010000636F72652E786D6C
311
504B01021400140006080800893ADB4255019EA25F0000007C000000070000000000000000000000000094020000636E782E786D6C504B01021400140006080800893ADB42FE822DAF68010000020300000C00000000000000000000000000180300006662782F636F72652E786D6C504B01021400140006080800893ADB42
311
C2E28AD67E0000009D0000000B00000000000000000000000000AA0400006662782F636E782E786D6C504B01021400140006080800893ADB42B42620592C010000140200003100000000000000000000000000510500006662782F39463130413233372D423832372D344336312D393333412D453744353936353438303834
311
2F636F72652E786D6C504B01021400140006080800893ADB427D3CA81B4E010000330300003000000000000000000000000000CC0600006662782F39463130413233372D423832372D344336312D393333412D4537443539363534383038342F636E782E786D6C504B01021400140006080800893ADB4259887B43A5050000
311
811000003400000000000000000000000000680800006662782F39463130413233372D423832372D344336312D393333412D4537443539363534383038342F6F626A656374732E786D6C504B01021400140006080000893ADB4200000000000000000000000035000000000000000000000000005F0E00006662782F394631
311
30413233372D423832372D344336312D393333412D4537443539363534383038342F76657274696365732E62696E504B01021400140006080800893ADB42F270F13306000000040000003600000000000000000000000000B20E00006662782F39463130413233372D423832372D344336312D393333412D45374435393635
311
34383038342F747269616E676C65732E62696E504B01021400140006080000893ADB4200000000000000000000000037000000000000000000000000000C0F00006662782F39463130413233372D423832372D344336312D393333412D4537443539363534383038342F617474726962757465732E62696E504B0102140014
311
0006080800893ADB42D5987DFC8F000000410100003600000000000000000000000000610F00006662782F39463130413233372D423832372D344336312D393333412D4537443539363534383038342F6469726563746F72792E786D6C504B01021400140006080800893ADB42E715830DFE000000A00100003B0000000000
311
0000000000000000441000006662782F39463130413233372D423832372D344336312D393333412D4537443539363534383038342F7265736F75726365732F636F72652E786D6C504B0506000000000E000E00800400009B1100000000
310
504B03040A0000080000893ADB423DEE336E79000000790000001B0000006175746F6465736B2D64657369676E2D7061636B6167652E786D6C3C3F786D6C2076657273696F6E3D22312E302220656E636F64696E673D227574662D3822203F3E3C666F726D6174733E3C666F726D61743E687474703A2F2F736368656D612E
310
6175746F6465736B2E636F6D2F64657369676E2D7061636B6167652F323030393C2F666F726D61743E3C2F666F726D6174733E504B0304140006080800893ADB42D486FD9CA0000000F4000000130000005B436F6E74656E745F54797065735D2E786D6C7D8EC10E82300C865F65E91D8A1E8C310C0EEA1BF002731658846E
310
D98AC1B77784ABF1D8FE5FBFBF75BBCE937A534CCEB38643598122B6FEE978D0B0485F9C41B54DDD7D022595594E1A469170414C76A4D9A4D207E29CF43ECE46F218070CC6BECC4078ACAA135ACF422C856C0E68EA1BF5669944DDD7BCDE7B1F8E415D77AECB980613C2E4AC91FC167A2B244592486606FC29C8FD7F045B9A
310
EF7053A7E60B504B0304140006080800893ADB427DE17C28EB0000007C01000008000000636F72652E786D6C8D90416EC3201045AF82665BE1807182636122254D4ED00B20202E4A0C9681AAC72F4E1CA9DD7535A33FFFCD8CBE387C8F77F465E7E882EF81560490F53A18E7871E72BAE216D0418A3984F4CB06C8ABD1F6B0
310
C820C530873CAD920E3E599F8AEA83B1ABA862B40990BE97A687A83FEDA82A955371C45B35297D5383ADE8AB2B70CECEA0E71167CA3E77757606C96ACA76A7CB05EF9A77869B76DFE023E7474C7873E6EDB6399D39119B059622B9F1755FCF56256B40D684324C76B8E61F847735E968FB46B61D2BD062FF03E5C9FC13CACE
310
2756AFEF3EB1089296471E0329364B16A53C822A75C94DFE00504B0304140006080800893ADB4255019EA25F0000007C00000007000000636E782E786D6C4DCB3B0E80201045D1AD90E915ED2CF8AC45050C11660C8261F98AB1B07AC9C97D42D718D865D3E909258CFD00CCE24AC6E326A164D74DC0B4128928FF32603847
310
2BA13128B1252AC747C6BAB984FC68F0B87FE8960A5C09FE86CFB69FBA01504B0304140006080800893ADB42C39403D567010000020300000C0000006662782F636F72652E786D6C8D52ED8E8230107C95A67F2F85F2A178A6D4444F9FE05EA042E51AA125A5253EFE2D1F86F3628C2129CDCCCEEEEC00DBDD9A1AF5D276CA
310
E81C4701C548EAC2944A5739F6EE423618ED38B3C6B83F651869D1C81C0F30E6ACB2C6B7335418EDA476806A53CA19145D271D46450D971C77C58F6C4420BC838AEE1AB4A2B88A4A06510034D471D6390B06D034643831BF9C6F2C9C70CEBC57E5CCAA12A6A98B9216F3248E92F5E17422EBF42B21E9E63325FB2CDB139AA5
310
C76CB34A0FC78CB2701073E65473775758299C2C318F699410BA2671F64DB36D4CB7D1E683AEB6098886F207916FCB37455E6997C4B3DD49D6611E819191F8B72D44E450277AF01372160E21C26B4CF8316808044276E25CDFF7B802D4CBC2199B02531ABF50BDA8BD84A9148D0F0B27163A8F0D60B3A77DE2177D5EF7800F
310
287405D68483EBD9BB613A9BA6CE51B4D292DEDD9036B611F5626EB2B89CCBA0A7F2C2D4C6BEA30EE755C339CC70F87BF92F504B0304140006080800893ADB426780FBB87D0000009D0000000B0000006662782F636E782E786D6C4DCCD10A83201886E15B91FFDCA5A1CB811AC6EA3E6259C84CC3E9D8E5AF46073BFAE0E1
310
E395ED67F5E86DD3CBC5A0805E08201B1E7172615150F28C05A056CB1463FEBB010AE36A151C0C5A2E2996EDA4C9CE63F17957EFC2F3C4C6D4BDE0826353771CB3E1D66371A51D36B4B953429819D8009596D5AFB4EF11D65F504B0304140006080800893ADB4245A8D5FF2B01000014020000310000006662782F37413245
310
383538352D413242352D344639452D383631422D4131374431303034414634462F636F72652E786D6C8D515B6EC23010BC4AE42FAACA899D779163145438412F601C0316C48EFCA8387E374D90DA3F7EBCD6ECCCEC6897ED1EE33DF956CE6B6B3A4453821265A41DB4B9742886336E51B2E3CC591BFED05062C4A83A34C388
310
B38BB3715A21694D5026006AECA0565078AF024AE41D3E1DF2F2AA46918A1880E16FE924E44D5C544A5368038F331F1C04489621F38B78D3E787B66A2BDCE7FB0A97C78F036E6BBAC73D6D3E2921657F2C8F2C5B849CC5A88755AE0788A3CF5AB9574D663167418FCFF8D22911D480784E6881498DF3E68B34DB9C6C69FB4E
310
AA6D415836D3FF89E234BC288ADA84225FE32E328F3865D9D2E06CB0F1747F86518FC9BA90CCF3365EC937C4490AB16A9AD39A650B1516009E75B97AFA601D2C78733B01BB588DEB92B36CBE1194DF03429DEFC97F00504B0304140006080800893ADB421B9B670C5601000033030000300000006662782F37413245383538
310
352D413242352D344639452D383631422D4131374431303034414634462F636E782E786D6CBD93CD6EC32010845F0571ADFC9F3A568489D4439FA0875E316C121A1B2CC055F3F65D1292E69243A5AA1764CD0E33AB4F986DBFA6917C82F3DA9A9E5679490918699536FB9E2E619775946C3973D6863B1B25464CD0D32853CE
310
F6CE2E739214ECC4320654476D8E4974E0EDE2247894E34D325A29460C00932D28C2348052A0C8CD885F3B70B80A8AC389840390D7977762870F90C1B322A67056C40ECEE2999AEE4C94C85178DF532F0F30895C2CC12AF0C75C8920F22ABF763DD8E92789C40BD7CAC56912CB7B1A4FCAD346397264050E39F3C121BD640A
310
A7192817F33C6A2902422ECEC68B87B3459BD0AE9257237887EEA66EBB0EC3CE33CE829E2039A4031140515E975593956D56AFDFCAF5A62E3755F7543E6F9A9215D1CED960ED982E610C383B13694D001328AF5811C78FF0251F51DA216BEB4EBF00890052EB85CE2DE32FF9546DB35AFD239FE2FCBE1197C3BF807F03504B
310
0304140006080800893ADB42990E5381630700009A1B0000340000006662782F37413245383538352D413242352D344639452D383631422D4131374431303034414634462F6F626A656374732E786D6CED59DD73A33610FF5718FAD23E181BDBB98B3B844E625F6E3C6DDA9BBA77D307CF3032C8448D108C247271FFFAAE3E
310
C0404C827BE95B1F6C4048ABDDDF7E6A097E7ACAA8F388B92039BB727D6FE23A98C57942587AE596723FBA749D9FC280E7B96C4C731D86327CE5AA61370C529E97851D4AF01E955476466F6FFE74448C19769D982221AE5C11DFE30C79A8947982C583972089BC74FFE4F99E99D8269B7254DC7788168863268153186740C5
310
314CF9EDC7893B0E83B17A1F06EADFCE9A0D9A35EF9F35D652B7B9244C48C4E2672C75C8CC06B134F3E7AB0FD38BC5E8623E9F8DE6EFA6FEE8E6F66635F2DFCF26CB77CBE5E2FAC302D8DBE539B53225B8C02C01FD1DDCD00FC6EA4D2DBA45E014D771CE188E3590009516AB4B9060015B35E09BB41F7D2551E3B596B0F13C
310
57EF2D0B8DE1599B4ADFAC6140B4E8822076BB4AE2EADA942FDFFD05828B2146C90596C0AD901CB46BE1E1E0156E3809C666340C76475D10E16448624E107528D971C4412930554D0903B3C09251CEC18194A324D09A33AFDBB6059EF9BAEB9CE2725F52AA3CC30DB56345E07E580ACD19F91BF323F74D64802790B6244C5E
310
5A2EE5A1C06EB808C67A300CD46536B52F0D90CE9EA2546844CCDB8EA04BE5FAEB951BFE7CBB7BDAA870707AF382E705E652199DD2A3E60B0CD95E154A765B7F90E6D40210C6806A571E41F91D90FF15A2C79115D01B274FF3A7B99D2B3962629FF30C74E34C9CD104FE268EAFFFD57DE32E18D78BDBDAEBC313DC544175F9
310
ED78B665D05859FE1B7086C123187CCE67F6D5264614ECF98E300048198943731882D0BEDF3DB9E11A0227047A588568E883C8C0EE23DC06634BE6A895CABDACD73140D4EE311BA224804D5B24B0D1A3A78F903D38898F6A6A8AD807EFC59B98EBF56AF3F3A6E47B14E33BEBD32BBC278C48C89AA7196A61DE92E8011FBEE6
310
3C01419FE3BD69E29DD9AD04A0AD3057C0A71508EAE1B8736B8318D6A5B90A37C12B3B80102A5737E8DF1111634A11C37959ED5B473765A8B5C7DB9AC10DA706E2D9B463C21C3F12555580D31C67B41885BC1F73522810DDF0A391AC0E9A5E8F749FD7BF8245D6F37B66AD19845E86E81F3A689DC0A165D915D216885AE0DD
310
319CC739CD79B43B4426D2B9504B001B6D6FF9D2220AB1DE284951010FD27E578594D4481B2564BF2F05C4D5132C7E592F9BE630F166FE85D3FCEF38E31CA22DF82EE2D6EF3A7B442443298EF628E9DBAEB95B4D5B68923DA439DE53908B3C127988908C26094ECF81E62CE28B37A59ED25C08C2B0807C7512FC261A130F02
310
89D166C5B2D26A076822A20C4B44CF414091E90157A71D5DE3C6503ABCCE636DBD2F69AC49F43FB2088EA096CC5944A014851CF22AE3BE770131A48DAE41B9832F585B455B8B414B2821E243F41593F45E9E83BA21DF837B0C4792524679816230EB01649FF98A526A87F71D8A1F54FE88E292BE9581084CF711A1B4CC22F8
310
1106278F21AE5D07A61751681037B14FE20C8A32244B3E649377179367FB989AA11B021B1BED0985B01D65A8E841BD1510753DE2D4E05BEA3D4ADD955911A12C2FD92043F1665D6FB2E4BB6A556407F2AB4A45281B2BC29660181026EBAC5AC56C30751D58C18D74A03A4402650535A7B057128F5F7B93A6DCBB01B77EFAB6
310
1B6450F8F568AF1951E7150C96C7566120BE2219DFBBE1465F4737507F273839A6FAAAD66C568080988AE4252756459FD750DED81ACD0DEF9014DB8F26EB56D7CF6B0FBA1FC118D640ED522F5C2BA033CC245295C99DBAA1BF2308C12D1A667CAD72EA3954AE9344578D88DE923E75B6CA88D6A619F18A7BCCF20C7E6C4B58
310
4CCB046F51221EA23B49A30D51AC5B29BD8C5418BF28E06F1F371D78606480489F548187BF76D6DAD1A52A974E1291F765B6638840106C89961ADD78054BAD462A2DD75775A680BA0B0CCCAA78FEFFC9A2D98EF8FF64915AC3F8A693C5CDE1177468F6451AE93C56767DD631A0CE4F8ACA5B1C0374DBA1A65A671193CCADFC
310
D69922088A55941F5C8D5541C310ECE3F85F67EDBE2C68B6EBF07F5ED6F69F551C676595D664D5A53A51B9AE9B39EC72B5F06FA78BC568B25ABE1FCDDFDF4C468BE96A355AADA6B3C9870FF3E5E5C5758DA676D430A88399CE5DF06C825A35AC9E2C06D095153925099CE61327C510F3259CE907B4CF79860524CF66B33BB1
310
4DF901AB1F4D9F53A21DC51527F7081AC454405A078CCA58B6C79DEFA03529E1A07DE542D3C87B803F6B95AE0399E7CA855681243116DE0EDA4CAAA1A78943CAD5B9DF12037C104B554A348BEAE77A95C2A615FEEB2943D28095ABD5C380C2AD80EE57AB43A179B33CC567095EB1E32009B7BB5242B56664390ED4C2E86D8E
310
EA37B251C21EECD64FE0BA2F8BE57B7A4E0B91419F0C5E3402437524114F75BF5B316659BA5E7D1A439FCD59FFE614B44C4197C3298D3806632E5541055604566169164882A92E7FDC7EE2397CE2C91C5D1539DF3F5DBEFB61BBCCB32C6766687B0DA7B2043E14399B7BF8EC936CA178C0AAB92EB6D3893FDDEAA6B6EDB347
310
3B24B0A7AA2218A88A092548C7E4C02E9F35A86CFB72AC54D199BE5E3936884233C0D8D1B31EAFF9C8E5800FA9CF29CA63B49F57D2BED8D71EEBA960131C3AD2E13F504B0304140006080000893ADB42000000000000000000000000350000006662782F37413245383538352D413242352D344639452D383631422D413137
310
4431303034414634462F76657274696365732E62696E504B0304140006080800893ADB42F270F1330600000004000000360000006662782F37413245383538352D413242352D344639452D383631422D4131374431303034414634462F747269616E676C65732E62696E636660600000504B0304140006080000893ADB4200
310
0000000000000000000000370000006662782F37413245383538352D413242352D344639452D383631422D4131374431303034414634462F617474726962757465732E62696E504B0304140006080800893ADB42D5987DFC8F00000041010000360000006662782F37413245383538352D413242352D344639452D38363142
310
2D4131374431303034414634462F6469726563746F72792E786D6C858F410EC2201045AF4266AF15DDB800BA74E7C21B903225242D6328188F2FA5C4183471359997F9FF81E89FF3C41E1816475E02DF1F80A11FC8386F25A438EECEC07A250251FC3803E6F58C12560C4AD840E95E91C151A72936F496F35732D860FE635F
310
62C8F2DA16B505C545B74125BAA2FA9E05D7CC053D063734D5C7665FD55B6B8D15D5E9BFEAFD8490FFA45E504B0304140006080800893ADB42150B2119FD000000A00100003B0000006662782F37413245383538352D413242352D344639452D383631422D4131374431303034414634462F7265736F75726365732F636F72
310
652E786D6C8D50596E833010BD0A9ADFCA609660828C23254D4FD00B586642AD041B79A97AFC9A40A5F6AF3F33A3B7689E1E3F7DCD8FEC139DD7D60C50E6143234CA8EDA4C03C470231D6427C19DB5E1970C3223671C608541F0C9D9B8EC90B226A009093576C41D94DE63804C3DD23180571F38CB5CC69014FE9E2F52DDE5
310
847999273AE904F7C1A500D9F6649D201C7A1B9D42CF8B8D153C463DEE1A3DA69FFAA6D181A8ABB26E2F6F57D236AF3569BA6343CE8C9D0965CD957587E672659417AB59F0A0E79F8CCAA10C3882A8685913DA928ABD53D657B42FBB177AE8EB645AE57F4C7119FF698ADA84BADAE36E360FA24C419E84E0C5DA575ACF32D3
310
5EBB15DF504B010214000A0000080000893ADB423DEE336E79000000790000001B00000000000000000000000000000000006175746F6465736B2D64657369676E2D7061636B6167652E786D6C504B01021400140006080800893ADB42D486FD9CA0000000F40000001300000000000000000000000000B20000005B436F6E
310
74656E745F54797065735D2E786D6C504B01021400140006080800893ADB427DE17C28EB0000007C010000080000000000000000000000000083010000636F72652E786D6C504B01021400140006080800893ADB4255019EA25F0000007C000000070000000000000000000000000094020000636E782E786D6C504B010214
310
00140006080800893ADB42C39403D567010000020300000C00000000000000000000000000180300006662782F636F72652E786D6C504B01021400140006080800893ADB426780FBB87D0000009D0000000B00000000000000000000000000A90400006662782F636E782E786D6C504B01021400140006080800893ADB4245
310
A8D5FF2B0100001402000031000000000000000000000000004F0500006662782F37413245383538352D413242352D344639452D383631422D4131374431303034414634462F636F72652E786D6C504B01021400140006080800893ADB421B9B670C56010000330300003000000000000000000000000000C9060000666278
310
2F37413245383538352D413242352D344639452D383631422D4131374431303034414634462F636E782E786D6C504B01021400140006080800893ADB42990E5381630700009A1B000034000000000000000000000000006D0800006662782F37413245383538352D413242352D344639452D383631422D4131374431303034
310
414634462F6F626A656374732E786D6C504B01021400140006080000893ADB420000000000000000000000003500000000000000000000000000221000006662782F37413245383538352D413242352D344639452D383631422D4131374431303034414634462F76657274696365732E62696E504B01021400140006080800
310
893ADB42F270F13306000000040000003600000000000000000000000000751000006662782F37413245383538352D413242352D344639452D383631422D4131374431303034414634462F747269616E676C65732E62696E504B01021400140006080000893ADB420000000000000000000000003700000000000000000000
310
000000CF1000006662782F37413245383538352D413242352D344639452D383631422D4131374431303034414634462F617474726962757465732E62696E504B01021400140006080800893ADB42D5987DFC8F000000410100003600000000000000000000000000241100006662782F37413245383538352D413242352D34
310
4639452D383631422D4131374431303034414634462F6469726563746F72792E786D6C504B01021400140006080800893ADB42150B2119FD000000A00100003B00000000000000000000000000071200006662782F37413245383538352D413242352D344639452D383631422D4131374431303034414634462F7265736F75
310
726365732F636F72652E786D6C504B0506000000000E000E00800400005D1300000000
  0
XRECORD
  5
17
102
{ACAD_REACTORS
330
12
102
}
330
12
100
AcDbXrecord
280
     1
270
     1
271
     1
  0
XRECORD
  5
16
102
{ACAD_REACTORS
330
12
102
}
330
12
100
AcDbXrecord
280
     1
270
     1
271
     1
  0
XRECORD
  5
18
102
{ACAD_REACTORS
330
12
102
}
330
12
100
AcDbXrecord
280
     1
270
     1
271
     1
  0
XRECORD
  5
15
102
{ACAD_REACTORS
330
12
102
}
330
12
100
AcDbXrecord
280
     1
270
     1
271
     1
  0
XRECORD
  5
24
102
{ACAD_REACTORS
330
22
102
}
330
22
100
AcDbXrecord
280
     1
270
     1
271
     1
  0
XRECORD
  5
23
102
{ACAD_REACTORS
330
22
102
}
330
22
100
AcDbXrecord
280
     1
270
     1
271
     1
  0
XRECORD
  5
BA
102
{ACAD_REACTORS
330
22
102
}
330
22
100
AcDbXrecord
280
     1
 70
     1
 90
1959938040
 71
     1
  1
66B67977-744F-40BD-AC19-40CC774D24D5
311
504B03040A0000080000873ADB423DEE336E79000000790000001B0000006175746F6465736B2D64657369676E2D7061636B6167652E786D6C3C3F786D6C2076657273696F6E3D22312E302220656E636F64696E673D227574662D3822203F3E3C666F726D6174733E3C666F726D61743E687474703A2F2F736368656D612E
311
6175746F6465736B2E636F6D2F64657369676E2D7061636B6167652F323030393C2F666F726D61743E3C2F666F726D6174733E504B0304140006080800873ADB42D486FD9CA0000000F4000000130000005B436F6E74656E745F54797065735D2E786D6C7D8EC10E82300C865F65E91D8A1E8C310C0EEA1BF002731658846E
311
D98AC1B77784ABF1D8FE5FBFBF75BBCE937A534CCEB38643598122B6FEE978D0B0485F9C41B54DDD7D022595594E1A469170414C76A4D9A4D207E29CF43ECE46F218070CC6BECC4078ACAA135ACF422C856C0E68EA1BF5669944DDD7BCDE7B1F8E415D77AECB980613C2E4AC91FC167A2B244592486606FC29C8FD7F045B9A
311
EF7053A7E60B504B0304140006080800873ADB4231D62EAAEC0000007C01000008000000636F72652E786D6C8D904D6EC3201085AF82665B616308B56361A2246D4ED00B20202E4A0C9681AAC72FCE8FD4EEBA9AD19BF7CD8C9ED87D4F57F46597E8821FA0A90820EB7530CE8F03E474C61DA09D144B08E9970D9057931D60
311
95418A7109797E483AF8647D2AAA0FC63E4415A34D80F4B5340344FD692755A99C8A235EAA59E98B1A6DD53CBB02E7EC0CBA1F71A6EC736767179064DFF2F6ADEBF091BF9FF086B514EFB79CE103E3EC4037BCDB9E8EA25E6129929B9EF7F56255B20624250DC3E415D3F683B43D257DC35F08EF1911F56AFF03E5D9FC13CA
311
CE27461FEFDEB108B2298FDC0652D46B16A5DC822A75CD4DFE00504B0304140006080800873ADB4255019EA25F0000007C00000007000000636E782E786D6C4DCB3B0E80201045D1AD90E915ED2CF8AC45050C11660C8261F98AB1B07AC9C97D42D718D865D3E909258CFD00CCE24AC6E326A164D74DC0B4128928FF326038
311
472BA13128B1252AC747C6BAB984FC68F0B87FE8960A5C09FE86CFB69FBA01504B0304140006080800873ADB42D8F8C45368010000020300000C0000006662782F636F72652E786D6C8D52ED8E8230107C95A67F2FD00272A02935EA9D4F702F50A1728DD092D2121FFF960FE37931E642529A999DDDD901B6BDB60D1AA4ED
311
95D1058E428A91D4A5A994AE0BECDD39C831DA72668D71BFCA30D2A295051E61CC596D8DEF16A834DA49ED00D5A6920B28FA5E3A8CCA062E05EECB6FD98A50780715FD25EC447911B50CA31068A8E3AC77160CA079C878627E3E5D199971CEBC57D5C2AA0AA6A9B3921673BACBD2EC23CF8343FA790C56491607BB759A04FB
311
244DF6F12ACDD7C70323A39833A7DA9BBBD24AE16485794CA324A0EF419C7DD16C13D34D94BED174935046C6F20791EFAA7F8ABCD22E8917BBB3ACC73C022313F1675B88C8A15E0CE0877046C610E13525FC18340402213B716A6E7B5C001A64E98C5D0153197FA706D1780953299A1E4666163A4F0D60B3A77DE2177D5EF7
311
800F28740DD68483EBC9BB713A9BA72E5174D20683BB226D6C2B9ABBB9D9E2FDBC0F7A2A2F4D63EC7FD46459952C6192F1EFE53F504B0304140006080800873ADB42B073E26B7E0000009D0000000B0000006662782F636E782E786D6C4DCCD10E82201886E15B61FF390929E401E042E33E5CA263213482D6E5A7CD838EBE
311
EDD9B757749FD5A3B74D2F1783047A22806CB8C7C9854542C9336E01754AA418F3DF0D5018572B6167506249B13C0F9AEC3C169F37F52E3C0EBCF0FA36D0BAC1AD26036E7AAAF1D568837B43CE9A70C69966502951FD4ADBEE61F505504B0304140006080800873ADB421E63911C2E01000014020000310000006662782F37
311
363345443133342D384230442D344331422D414642462D4346303242303635363542352F636F72652E786D6C8D515B6EC32010BC0AE22B55850DF89134C24475D29CA0177080A42831583CAA1CBF503B52FB971F16CDCECC8E76D9EE3EDEC0B7725E5BD3415260089411566A73E9600C67B48160C799B336FCA14160865175
311
30C390B38BB3715A20614D502624D458A91670F05E0508C42D7D3AE8C5971A8762882131FCB59806711D2EAA20456A271E673EB81400CC43F20BF9BAAD3E0EA4AAD1A6C70754EF498FDE8FFD11ED8F98F6B86DDAA66F58390B398B51CB45AE658AA3CF5AB9674DB298B3A0C7477CE1D41094849C625221DC22BAFEC4EB2DC5
311
5BD2BCE2665B615666FA3F519CE493A2A84DA8E812779679C8092BE70667D2C6D3ED1146DD27EB02C8F3565E8917C8718109ADDF2ABA61E54C4D0B489E6DBD78FA605D5AF0EA7A4A6C92D6948DDB9AB332DF2895DF03A69AEFC97F00504B0304140006080800873ADB42B3DF8F4D4E01000033030000300000006662782F37
311
363345443133342D384230442D344331422D414642462D4346303242303635363542352F636E782E786D6CD593BB6E032110457F05D146FBF233B2582CA5C817A448CBC2D8C66661C5238AFF3E838D1D372E52A641AB3B977B47472CDB7E8F867C810FDAD99E76754B0958E994B6FB9EA6B8AB5E29D972E69D8B0F364AAC18
311
A1A759A69CEDBD4B539114EC44321155A3EDA9881E824B5E424039DF24C6496130006C9550847100A54091BB11BF76E07115148733890720EF6F9FC40D479031B026A770D6E40ECEF2599A1E4C94482342E869900718452D52740AC2A956228ABAAB6F5D4F76FA4D22F9C2AD32794D72794FF34979D9A8468EACC12167217A
311
A4574CF13C01E5629A8C962222E4E662BC7A384BDAC6D5A2783582F7E8EE56F3C502C32E33CEA21EA138A4071141513E6BBB79D5AEAAD9FAA35D6F66EDA65BBEB4CBCDBC654DB673363867CA258C01EF26229D8D6023E51D6BF2F819BEE2234A7B64EDFCF90F20114069BDD2B967FC673ECDE57D232E8F7F01FF01504B0304
311
140006080800873ADB423E80A000A405000080100000340000006662782F37363345443133342D384230442D344331422D414642462D4346303242303635363542352F6F626A656374732E786D6CAD57DB6EDB3810FD1541FBB2FBE08B6C374E168A8AC46E0AA3485BD448B10F060C4AA2146E285120A9D4D9AFDF43899225
311
C74EBD8BBEE8C2CB70E6CC990BFDF7BB8C3BCF542A26F26BD71B8E5D87E69188599E5EBBA54E0697AEF33EF0A510BAB3CC757292D16BD70CBB819F4A51167628A60929B93E18BDBBFDCB5111CDA9EB449C2875EDAAE8916664484A2D62AA9E8631D1649826BBA137AC17F6C5A692148F07420B2269AEA129C67348716AA5BC
311
FEEFD81D05FEC8CC07BE79DA55D3D3AB46953DFDF359AE34C9A357871D88997AB3E587C9BBABC1BBD96C3A985D4CBCC1EDDDED72E0CDA7E3C5C5627175F3E10A072B2D21C96A2269E2061F818D64913FAAA702BF64B99E4EEC12EBA091A4CFCC78CA0D268EE78FEA35AD75D6C863EA4722CF69546105342AFBACE89816348F
311
E173461534EB2034EEFF7A06C7CEF4D4FCDB23BBC3E721D0DDD111D4E8DEBCBB9A8AF06F98A0CE619054D430B0C6D21A5A7375BC47381482DB39A69C8C682A19E10E67A124F2C50DB0D42C09FC9E18C36469A2C158E006F0423DDDA70BC2E8E73C3FA66552726E68EC0655146C112B54AB4A33F60F957BEDBBC84027F8CAB0
311
E1D21AA45F0AEA065735452E0FD85403E9249CA47039CC343BA793034317264E574B37F87417EED626768F1F5E485150A90D7D40ADC671CDDBA06475F2CEF29CD9E01EA8B207E51B90FF8C50DFAB02BF49B69BED66F6142D49AE122133F8C6193B83311E63C7AB9EE6BBF3E58FDACD7DEF9DC213CE3650FD023CFB36747DD9
311
8133F09F417821A7D6B4754438D2C63DCB01902189C3058690879370E7062B64396465EC223CF06032D47DC6A73FB2629028AA933AEF1C581EA4C533123460AB1809356AF25B05F77E7A95CEAA83EDB253F0BEFB2574BD59AE3FAD4B999088DEDB985ED284E54CA3C4ED79D355A88779CFA227FAF243C81886BEC67BDDC53B
311
B34729A06D3037C0A74D4E373FFB937B0744D8970A936EFC9F9C00234C61EDC8BF672AA29C939C8AB239F7CDFA81B251436C82DD30B92D30FBC202D2D433073188221D49561810DB6AD526CDE109EB1E569FC148ACE722247CBF28DCA7DE487021B7E1CBB6CE4A4791FEDEA7B6856064A480ED558C34E16F31DFC62C494A85
311
1C7804D6EFAB45D775262B20433452EB6099C17CC4169196B38D5C146B49504845BE65289B08BBA30774E503514B804AE0298D15E5C996715E66DB847114A36D468A1370FC7FFDC3322BB6241365AE4FC8EEA98EE2D0D7BD475EF583E8E8D10DD6D57B708BD41BD378EFE6DE62534A8E60D573EDC5C5EDC5FC6A3E1FCC67B3
311
BBC16C8CCEE966E15DE16BB198CF67CBC96C89246135AA7AA8C06F2A4D37A0E1255436BF94CCBAEF6185F0B139C00DEE89569B8F757436EF87D510ADB03FC21E94CB76E34DFC8CB68FC63F17B05F7954D02A2B38CD68AE8909A17BF3C1BF11B4193D65EAF15546527A86942F1FD707C660E48C7D5F4DB8D31F077BEDE8C204
311
E45121FAB1CCC29C307EB031AD911C16796AF16B7CD2BEEB3AD3FC9A3FEB1834A64A7016230DC64E4A45463592E11935486654817ADD963EB6578F33763FD70DA22621A78D268F043D3257080BF0B68C747FDCF90D3D9D69ABAE5D54DBE1131E3653B80E3873EDA247D72CA26A18A23E9B4EA8120E2E751B797096E42947AB
311
5D6F6AFFDB5D069B5E456E979CD33E59BBEA0C6E0D401A29D036A01F82772A6502BFD2CDCE47FFC9F0461D87687C86A56E6DD90FB4C654C720446BA3EC65013DCC933D7A87407DDB2C6F58ADE92172D625EB4D12D452079AC8B4BA2818FDAC4A37CBAF233428CEEA8B53F032852FCF97349014642E4D80834560859559100D
311
AA2EFEDC7C950217D9CCB963A080F3FBEEF2E28FCD426499C8EBA1CD8DBD0E3BEB475C6EE30D920335B712B5998CBDC9A6BA0DD80BCA36248A0E49AC9E3000CF4AD602DD733F78595F195187EA8976DDC8B8E280A1ABA5630BDB0C422D5DBAB9D58083BE23A70E62C8DC284DC47417146F5E0846D552A820D1CA07FF02504B
311
0304140006080000873ADB42000000000000000000000000350000006662782F37363345443133342D384230442D344331422D414642462D4346303242303635363542352F76657274696365732E62696E504B0304140006080800873ADB42F270F1330600000004000000360000006662782F37363345443133342D384230
311
442D344331422D414642462D4346303242303635363542352F747269616E676C65732E62696E636660600000504B0304140006080000873ADB42000000000000000000000000370000006662782F37363345443133342D384230442D344331422D414642462D4346303242303635363542352F617474726962757465732E62
311
696E504B0304140006080800873ADB42D5987DFC8F00000041010000360000006662782F37363345443133342D384230442D344331422D414642462D4346303242303635363542352F6469726563746F72792E786D6C858F410EC2201045AF4266AF15DDB800BA74E7C21B903225242D6328188F2FA5C4183471359997F9FF
311
81E89FF3C41E1816475E02DF1F80A11FC8386F25A438EECEC07A250251FC3803E6F58C12560C4AD840E95E91C151A72936F496F35732D860FE635F62C8F2DA16B505C545B74125BAA2FA9E05D7CC053D063734D5C7665FD55B6B8D15D5E9BFEAFD8490FFA45E504B0304140006080800873ADB42C1B7BADAFF000000A00100
311
003B0000006662782F37363345443133342D384230442D344331422D414642462D4346303242303635363542352F7265736F75726365732F636F72652E786D6C8D504B6E833010BD0A9A6D6530382E24328E92B439412F609909B1126CE44FD5E3D724546A77DDCC8CDE47F3F4C4FE6BBA179FE88371B687BAA450A0D56E30
311
76EC21C50BE9A0D84BE19D8BBF64505835610F0B0C528CDEA57985B4B3116DCCA87503AEA00A012314FA9E8F1E82BEE2A44A956256845B392B7D5323967599E9AC9322449F0314CF27CB04E931B8E43506513D59295232C3AA3143FE692E063D487A6879FBD6B5E4C4DFCF64C3DA861CB69C9123E3ECD86C78B73D9F44B598
311
A58866FAC9A83DAA8803C886D68CD057D2B41FB4DD357457F317CA778C8A6A91FF31A579F8A729191B59B3C67DDA02C83A07791052544B5F793DCACC7BE9567E03504B010214000A0000080000873ADB423DEE336E79000000790000001B00000000000000000000000000000000006175746F6465736B2D64657369676E2D
311
7061636B6167652E786D6C504B01021400140006080800873ADB42D486FD9CA0000000F40000001300000000000000000000000000B20000005B436F6E74656E745F54797065735D2E786D6C504B01021400140006080800873ADB4231D62EAAEC0000007C010000080000000000000000000000000083010000636F72652E
311
786D6C504B01021400140006080800873ADB4255019EA25F0000007C000000070000000000000000000000000095020000636E782E786D6C504B01021400140006080800873ADB42D8F8C45368010000020300000C00000000000000000000000000190300006662782F636F72652E786D6C504B0102140014000608080087
311
3ADB42B073E26B7E0000009D0000000B00000000000000000000000000AB0400006662782F636E782E786D6C504B01021400140006080800873ADB421E63911C2E010000140200003100000000000000000000000000520500006662782F37363345443133342D384230442D344331422D414642462D434630324230363536
311
3542352F636F72652E786D6C504B01021400140006080800873ADB42B3DF8F4D4E010000330300003000000000000000000000000000CF0600006662782F37363345443133342D384230442D344331422D414642462D4346303242303635363542352F636E782E786D6C504B01021400140006080800873ADB423E80A000A4
311
0500008010000034000000000000000000000000006B0800006662782F37363345443133342D384230442D344331422D414642462D4346303242303635363542352F6F626A656374732E786D6C504B01021400140006080000873ADB420000000000000000000000003500000000000000000000000000610E00006662782F
311
37363345443133342D384230442D344331422D414642462D4346303242303635363542352F76657274696365732E62696E504B01021400140006080800873ADB42F270F13306000000040000003600000000000000000000000000B40E00006662782F37363345443133342D384230442D344331422D414642462D43463032
311
42303635363542352F747269616E676C65732E62696E504B01021400140006080000873ADB4200000000000000000000000037000000000000000000000000000E0F00006662782F37363345443133342D384230442D344331422D414642462D4346303242303635363542352F617474726962757465732E62696E504B0102
311
1400140006080800873ADB42D5987DFC8F000000410100003600000000000000000000000000630F00006662782F37363345443133342D384230442D344331422D414642462D4346303242303635363542352F6469726563746F72792E786D6C504B01021400140006080800873ADB42C1B7BADAFF000000A00100003B0000
311
0000000000000000000000461000006662782F37363345443133342D384230442D344331422D414642462D4346303242303635363542352F7265736F75726365732F636F72652E786D6C504B0506000000000E000E00800400009E1100000000
310
504B03040A0000080000873ADB423DEE336E79000000790000001B0000006175746F6465736B2D64657369676E2D7061636B6167652E786D6C3C3F786D6C2076657273696F6E3D22312E302220656E636F64696E673D227574662D3822203F3E3C666F726D6174733E3C666F726D61743E687474703A2F2F736368656D612E
310
6175746F6465736B2E636F6D2F64657369676E2D7061636B6167652F323030393C2F666F726D61743E3C2F666F726D6174733E504B0304140006080800873ADB42D486FD9CA0000000F4000000130000005B436F6E74656E745F54797065735D2E786D6C7D8EC10E82300C865F65E91D8A1E8C310C0EEA1BF002731658846E
310
D98AC1B77784ABF1D8FE5FBFBF75BBCE937A534CCEB38643598122B6FEE978D0B0485F9C41B54DDD7D022595594E1A469170414C76A4D9A4D207E29CF43ECE46F218070CC6BECC4078ACAA135ACF422C856C0E68EA1BF5669944DDD7BCDE7B1F8E415D77AECB980613C2E4AC91FC167A2B244592486606FC29C8FD7F045B9A
310
EF7053A7E60B504B0304140006080800873ADB42D5C5D60FEB0000007C01000008000000636F72652E786D6C8D904D6EC3201085AF82D856D8E0DFD8C24471139FA01740405C94182C03558F5F481CA9DD7535A337EF9B193D7AFC5EEEE04B6D4E5B33409261089411566A330F30F82B3A40706474B3D6FFB24160F8A20698
310
64C8E8BCD9B0EE92B0C62BE3A36AAC54BBC89D531E02718FCD009DF8540BCF78F0D1E16ED9CAC58DCF2A23AF2EC22168099E47B48CFBF455AB0DB2F6709AC67337A29A4C675435970A9DBAF7065D0E53D9E06EC4B822344F30A35E2FAFFB6253DC2B095981498970838AF603B77D817B52BFE1BA2F31CD93FD0F1456F94F28
310
68E3CB627FF78939C8D2238F01A379CA22964750B1A6DCD80F504B0304140006080800873ADB4255019EA25F0000007C00000007000000636E782E786D6C4DCB3B0E80201045D1AD90E915ED2CF8AC45050C11660C8261F98AB1B07AC9C97D42D718D865D3E909258CFD00CCE24AC6E326A164D74DC0B4128928FF32603847
310
2BA13128B1252AC747C6BAB984FC68F0B87FE8960A5C09FE86CFB69FBA01504B0304140006080800873ADB424DF259BE69010000020300000C0000006662782F636F72652E786D6C8D52ED8E8230107C95A67F2FD0F2217EA4D4E8A94F702F50A1728DD092D2121FFF960FE37931E642529A999DDDD901B6BD3535EAA5ED94
310
D1398E428A91D4852995AE72ECDD255861B4E5CC1AE37E9561A44523733CC098B3CA1ADFCE5061B493DA01AA4D296750749D741815355C72DC15DFB211A1F00E2ABA6BD88AE22A2A194621D050C759E72C1840D390E1C4FC72BE3132E19C79AFCA9955254C5317252DE6CBD5EEB43FACF7C1223A1D82343BA6C16EFD9905C7
310
D529C9E87A4F691A3132883973AAB9BB2BAC144E9698C7344A029A05F1F28B2E3731DD448B0FBAD8249491A1FC49E4DBF29F22AFB44BE2D9EE24EB301F8C8CC49F6D2122873AD1831FC219194284D798F073D0100884ECC4B9BEEF7105A89785333605A634FE41F5A2F612A652343E8C4C2C741E1BC0662FFBC46FFABCEF01
310
1F50E80AAC0907D7B377C374364D9DA368A50D7A7743DAD846D40F7393C5C7F918F4525E98DAD8FFA8C9BC2A99C324C3DFCB7F00504B0304140006080800873ADB42258784FC7F0000009D0000000B0000006662782F636E782E786D6C4DCCCB0E82301085E15769665FA9F53298B4258AC37B1029A4A1B4A616E3E30B8685
310
AB937C39F955F5993C7BDBF4723168D8EF04301B1EB17361D030E79E97C02AA3528CF9EF062CB493D5B0321835A4383F37EA6CDFCE3E2FEA5D1837447991D8E0959FC4F9C68F4D4DBC44245ED35D0A2214920E501855FC4ACBAE61F305504B0304140006080800873ADB42F9E10CB62B01000014020000310000006662782F
310
37323932374637412D353036422D344643452D383737452D4345443230454537303245332F636F72652E786D6C8D515B6EC32010BC0AE22B55850DD831498489DAD439412FE000495162B07854397E71ED48ED5F7E58343B333BDAE5FBFB7003DFDA07E36C0B498121D0563A65ECA585299ED10682BDE0DEB9F8870681ED07
310
DDC20986825FBC4BE3024967A3B631A3D629BD807D083A42206FF9D3C220BFF4D0177D8A9911AEC5D8CB6B7FD10529723BF3040FD1E700601E32BD5030BAA5ECC8DED01A37EFA83E1E3AB461AC4387EE83E2AE639876152F67A1E02919B5C88DCA71CCD968FFACC924163C9AE1115F7ADD47ADA0A09854083788B24FCC7614
310
EFC8FA15AF7715E6E544FF274AA37A52948C8D155DE2CEB20005E1E5DC105CB974BA3DC2E8FBE87C04D3BC55D0F2050A5C605263C236352F676A5E40F66CEAC53344E7F38257D75366578B71530B5E4E37CAE5F780B94EF7143F504B0304140006080800873ADB42D578405A5501000033030000300000006662782F373239
310
32374637412D353036422D344643452D383737452D4345443230454537303245332F636E782E786D6CBD93CD6EC32010845F0571ADFC9F3F4598483DF4097AE815C3A6A1C16001AE9AB7EF929034971C2A55BD206B7698597DC26CF7351AF2093E68677BDA94352560A553DABEF7748EFB6243C98E33EF5CBCB35162C5083D
310
4D32E5ECDDBB79CA9282BD984D44D5687BCCA287E0662F21A09C6E12E3A4301800B69851847100A540919B11BFF6E071151487138907202FCF6FC40D1F206360554AE1AC4A1D9CA53337DD9928914684D0D3200F308A52CCD12908C7528928CAA6BC763DD8E92789A40BD7CAD96B92CA7B9A4ECAF346257264150E390BD123
310
BD6C8AA7092817D364B41411215767E3C5C3D9AC6D5C2DB25723788FEEAE5D6D3618769E7116F508D9213D88088AF2B66EBAA25E15EDFAB55E6FDB7ADB2C9FEAE5B6AB5995EC9C0DCE997C0963C0BB89486723D84879C3AA347E842FFB88D21E593B7FFA054804905B2F746E197FC9A759758BC53FF2A9CEEF1B7179FC0BF8
310
37504B0304140006080800873ADB4261331A905F070000991B0000340000006662782F37323932374637412D353036422D344643452D383737452D4345443230454537303245332F6F626A656374732E786D6CED595B73A33614FE2B0C7D691F8C4DECDC3A849DC46E329E9DECEEACBB3B7DF00C23834CD408C1482297FEFA
310
1E5DC0404C82BBE9DB3ED880908ECEF9CE5587E0C353469D07CC05C9D985EB7B13D7C12CCE13C2D20BB794DBD199EB7C08039EE7B231CD7518CAF085AB86DD3048795E167628C15B5452D919BDBEFACB113166D875628A84B870457C8733E4A152E60916F75E8224F2D2ED93E77B66629B6CCA5171D7215A208E99044E619C
310
0115C730E5B71F27EE380CC6EA7D18A87F3B6B3A68D6AC7FD6584BDDE6923021118B5FB0D421331DC4D2D49F2DFE383A3E1F1DCF66D3D1ECE4C81F5D5D5F2D46FEE974323F99CFCF2FFF3807F636794EAD4C092E304B407FCF6EE80763F5A616DD22B08FEB38670CC71A48804A8BD52548B080AD1AF04DDA8FBE92A8F15A4B
310
D8789EA9F79685C6F0B44DA56FD630205A744110BB5D2571756DCA976FFE06C1C510A3E4024BE056480EDAB5F070F00A379C0463331A069B9D2E887032243127883A946C38E2A01498AAA684815960C928E7E040CA511268CD99D76DDB02CF7CDB75F671B92D29559EE186DAB122703F2C85E68CFC83F98EFB2632C013485B
310
1226CF2C97F2B9C06E781E8CF56018A8CBF4C8BE34403A5B8A52A111316F3B82CE95EB2F176EF8F17AF3B452E160FFE605CF0BCCA5323AA547CD1718B2BD2A94ECB6FE20CDA905208C01D5AEDC81F21590FF04D163C70AE88D93A7D9D3CCCE951C31B1CD7906BA7126CE68027F13C7D7FFEABE71178CEBC56DEDF5E1096EAA
310
A03AFB713CDB3268AC2CFF0D38C3E0010C3EE753FB6A15230AF67C4B1800A48CC4A1390C4168DF6E9EDC70098113023DAC4234F4416460F7016E83B125B3D34AE55ED6EB18206AF7980E5112C0A62D12D8E8D1D30D640F4EE29D9A9A22F6C17BFC2EE67AB9587D5C957C8B627C6B7D7A81B784110959733F432DCC5B12DDE3
310
E7C79C2720E84BBC574DBC33BB9500B415E60AF8B402413DEC766E6D10C3BA3457E1267863071042E5EA06FD5B22624C2962382FAB7DEBE8A60CB5F6785B33B8E19181787AD431618E1F88AA2AC06976335A8C42DE8F392914886E786324AB83A6D723DDB7E527B0C87A7ECFAC2583D0CB10FD5307AD3D38B42CBB42DA0251
310
0BBCD985F338A7398F36CF9189742ED412C046DB5BBEB78842AC374A5254C083B4DF55212535D24609D96E4B0171750F8BDF97F3A6394CBCA97FEC34FF3BCE3883680BBE8BB8F5BBCE1E11C9508AA32D4AFAB66BEE56D3169A640F698EB714E4220F443E4748469304A787407310F1F377A59ED25C08C2B0807CB517FC261A
310
130F0289D166C5B2D26A076822A20C4B440F414091E90157A71D5DE3C6503ABCCD636DBDAF69AC49F47FB2088EA096CC5944A014851CF226E3BE770C31A48DAE41B9832F585B455B8B414B2821E2E7E81193F44E1E82BA21DF837B0C4792524679816230EB01645FF88A526A87F70D8AEF55FE88E292BE9781084CB711A1B4
310
CC22F81106278F21AE5D07A65751681037B14FE20C8A32244B3E649393E3C98B7D4CCDD00D818D8DB68442D88E3254F4A0DE0A88BA1E716AF02DF51EA56ECAAC885096976C90A178D3AE3759F25DB52AB203F955A522948D15614B300C08937556AD623698BA0EACE0463A503D4702650535A7B037128F5F7B93A6DCBB01B7
310
7EFABE1B6450F8F568AF195167150C96C75661201E918CEFDC70A5AFA32BA8BF139CEC527D556B362B40404C45F29213ABA26F4B286F6C8DE686B7488AF58DC9BAD5F5DBD283EE4730863550BBD40B970AE80C3389546572AB6EE8570421B845C38C2F554E3D84CA6592E8AA11D16BD2A7CE5619D1DA34235E7187599EC18F
310
AD098B6999E0354AC47D742B69B4228A752BA597910AE35705FC7CB3EAC003230344FAA20A3CFCD8596B47E7AA5CDA4B44DE95D986210241B0255A6A74E3152CB51AA9B45C5FD59902EA2E3030ABE2D9CF9345B31DF1F364915AC3F8B19305CD3788EEA24D239BC7CAAC0F3A05D4E94951798F5380EE3AD454EB246272B915
310
DFFA520431B10AF2838BB12A6618827D1CFFE7A4DD9704CD761DFE0F4BDAFE8B82E3A0A4D29AAC9A547B0AD76533859D9C5C9D9C9E9F9E8E4E67B3EBD16C02ADD9CBB97F0E77F3F9E9E96C71345BEC4E0DDA4FC3A08E653A75C1B38969D5B07AB218405356E4942470984F9C1443C89770A41FD03DE71916903B9BBDEEC4F6
310
E407AC7E306D4E893614579CDC21E80F5301591D302A63D91E777E81CEA48473F6850B3D23EF1EFEAC55BA0E249E0B173A0592C458781BE832A97E9E260E1957A77E4B0CF0412C5519D12CAA9FEB550A9B56F4AFA70CC90256AE560B03EAB6029A5FAD0685E6CDF2141F2478C58E8324DC6E4A09C59A916537500BA3B7D9A9
310
DFC84609BBB75B3F81EBBE2E96EFE9392D44067D3178D5080CD591443CD5ED6EC59865E972F1650C6D3667F9D9296899822E87531A710CC65CAA7A0AAC08ACC2D22C9004539DFFBEFEC273F8C29339BA28727E7D3A3BF96D3DCFB32C6766687D0987B204BE1339AB3BF8EA93ACA176C0AAB72ED64713FF68AD7BDAB6CD1E6D
310
90C09E2A8A60A0AA2594201D9303BB7CD19FB2DDCBB1524567FA72E1D8200A5E6DECE8458BD77CE372C087D4D714E531DACF2B695F6D6B8FF554B0090E0DE9F05F504B0304140006080000873ADB42000000000000000000000000350000006662782F37323932374637412D353036422D344643452D383737452D43454432
310
30454537303245332F76657274696365732E62696E504B0304140006080800873ADB42F270F1330600000004000000360000006662782F37323932374637412D353036422D344643452D383737452D4345443230454537303245332F747269616E676C65732E62696E636660600000504B0304140006080000873ADB420000
310
00000000000000000000370000006662782F37323932374637412D353036422D344643452D383737452D4345443230454537303245332F617474726962757465732E62696E504B0304140006080800873ADB42D5987DFC8F00000041010000360000006662782F37323932374637412D353036422D344643452D383737452D
310
4345443230454537303245332F6469726563746F72792E786D6C858F410EC2201045AF4266AF15DDB800BA74E7C21B903225242D6328188F2FA5C4183471359997F9FF81E89FF3C41E1816475E02DF1F80A11FC8386F25A438EECEC07A250251FC3803E6F58C12560C4AD840E95E91C151A72936F496F35732D860FE635F62
310
C8F2DA16B505C545B74125BAA2FA9E05D7CC053D063734D5C7665FD55B6B8D15D5E9BFEAFD8490FFA45E504B0304140006080800873ADB42BD2F8B3EFF000000A00100003B0000006662782F37323932374637412D353036422D344643452D383737452D4345443230454537303245332F7265736F75726365732F636F7265
310
2E786D6C8D504B6E833010BD0A9A6D65309090808CA3A40927E8052C332156821DF953F5F8B50395DA5D3733A3F7D13C3D76F89A1FD9275AA78CEEA1CC2964A8A519959E7A08FE4AF6901D38B3C6F85F32C8B498B1870403679335E1B942D2688FDA47549B11575038871E32F988470F4EDE7016B9083E2ADC3D7F0A791713
310
E6651EE9A8E3CC791B0364CB9334815B742658898E150BCB59086A5C356A8C3FD555A105BEDB1F87D3B93D926D399CC9A6B96CC8B17D6FC8653FD40D6D4F946E4A562433675ECD3F19A545E171045ED1B226B421D5EE83EEBA8A76E5F68D6EBB9AB222C9FF98C273FCA72928EDEB6A8DBBD81CF014E4457056A4BEE27A9519
310
77EA967F03504B010214000A0000080000873ADB423DEE336E79000000790000001B00000000000000000000000000000000006175746F6465736B2D64657369676E2D7061636B6167652E786D6C504B01021400140006080800873ADB42D486FD9CA0000000F40000001300000000000000000000000000B20000005B436F
310
6E74656E745F54797065735D2E786D6C504B01021400140006080800873ADB42D5C5D60FEB0000007C010000080000000000000000000000000083010000636F72652E786D6C504B01021400140006080800873ADB4255019EA25F0000007C000000070000000000000000000000000094020000636E782E786D6C504B0102
310
1400140006080800873ADB424DF259BE69010000020300000C00000000000000000000000000180300006662782F636F72652E786D6C504B01021400140006080800873ADB42258784FC7F0000009D0000000B00000000000000000000000000AB0400006662782F636E782E786D6C504B01021400140006080800873ADB42
310
F9E10CB62B010000140200003100000000000000000000000000530500006662782F37323932374637412D353036422D344643452D383737452D4345443230454537303245332F636F72652E786D6C504B01021400140006080800873ADB42D578405A55010000330300003000000000000000000000000000CD0600006662
310
782F37323932374637412D353036422D344643452D383737452D4345443230454537303245332F636E782E786D6C504B01021400140006080800873ADB4261331A905F070000991B00003400000000000000000000000000700800006662782F37323932374637412D353036422D344643452D383737452D43454432304545
310
37303245332F6F626A656374732E786D6C504B01021400140006080000873ADB420000000000000000000000003500000000000000000000000000211000006662782F37323932374637412D353036422D344643452D383737452D4345443230454537303245332F76657274696365732E62696E504B010214001400060808
310
00873ADB42F270F13306000000040000003600000000000000000000000000741000006662782F37323932374637412D353036422D344643452D383737452D4345443230454537303245332F747269616E676C65732E62696E504B01021400140006080000873ADB4200000000000000000000000037000000000000000000
310
00000000CE1000006662782F37323932374637412D353036422D344643452D383737452D4345443230454537303245332F617474726962757465732E62696E504B01021400140006080800873ADB42D5987DFC8F000000410100003600000000000000000000000000231100006662782F37323932374637412D353036422D
310
344643452D383737452D4345443230454537303245332F6469726563746F72792E786D6C504B01021400140006080800873ADB42BD2F8B3EFF000000A00100003B00000000000000000000000000061200006662782F37323932374637412D353036422D344643452D383737452D4345443230454537303245332F7265736F
310
75726365732F636F72652E786D6C504B0506000000000E000E00800400005E1300000000
  0
XRECORD
  5
27
102
{ACAD_REACTORS
330
22
102
}
330
22
100
AcDbXrecord
280
     1
270
     1
271
     1
  0
XRECORD
  5
26
102
{ACAD_REACTORS
330
22
102
}
330
22
100
AcDbXrecord
280
     1
270
     1
271
     1
  0
XRECORD
  5
28
102
{ACAD_REACTORS
330
22
102
}
330
22
100
AcDbXrecord
280
     1
270
     1
271
     1
  0
XRECORD
  5
25
102
{ACAD_REACTORS
330
22
102
}
330
22
100
AcDbXrecord
280
     1
270
     1
271
     1
  0
XRECORD
  5
B12
102
{ACAD_REACTORS
330
B11
102
}
330
B11
100
AcDbXrecord
280
     1
102
ACAD_ROUNDTRIP_2012_MLEADER_STYLE
298
     1
  0
CELLSTYLEMAP
  5
B10
102
{ACAD_REACTORS
330
B0F
102
}
330
B0F
100
AcDbCellStyleMap
 90
        3
300
CELLSTYLE
  1
TABLEFORMAT_BEGIN
 90
        5
170
     1
 91
        0
 92
    32768
 62
   257
 93
        1
300
CONTENTFORMAT
  1
CONTENTFORMAT_BEGIN
 90
        0
 91
        0
 92
      512
 93
        0
300

 40
0.0
140
1.0
 94
        5
 62
     0
340
55
144
0.25
309
CONTENTFORMAT_END
171
     0
 94
        0
309
TABLEFORMAT_END
  1
CELLSTYLE_BEGIN
 90
        1
 91
        1
300
_TITLE
309
CELLSTYLE_END
300
CELLSTYLE
  1
TABLEFORMAT_BEGIN
 90
        5
170
     1
 91
        0
 92
        0
 62
   257
 93
        1
300
CONTENTFORMAT
  1
CONTENTFORMAT_BEGIN
 90
        0
 91
        0
 92
      512
 93
        0
300

 40
0.0
140
1.0
 94
        5
 62
     0
340
55
144
0.18
309
CONTENTFORMAT_END
171
     0
 94
        0
309
TABLEFORMAT_END
  1
CELLSTYLE_BEGIN
 90
        2
 91
        1
300
_HEADER
309
CELLSTYLE_END
300
CELLSTYLE
  1
TABLEFORMAT_BEGIN
 90
        5
170
     1
 91
        0
 92
        0
 62
   257
 93
        1
300
CONTENTFORMAT
  1
CONTENTFORMAT_BEGIN
 90
        0
 91
        0
 92
      512
 93
        0
300

 40
0.0
140
1.0
 94
        2
 62
     0
340
55
144
0.18
309
CONTENTFORMAT_END
171
     0
 94
        0
309
TABLEFORMAT_END
  1
CELLSTYLE_BEGIN
 90
        3
 91
        2
300
_DATA
309
CELLSTYLE_END
  0
ENDSEC
  0
EOF