0
SECTION
  2
HEADER
  9
$ACADVER
  1
AC1024
  9
$ACADMAINTVER
 70
    63
  9
$DWGCODEPAGE
  3
ANSI_1252
  9
$AUTHOR
  1
KRA
  9
$REVISIONNUMBER
  1
-
  9
$CUSTOMPROPERTYTAG
  1
Manager
  9
$CUSTOMPROPERTY
  1

  9
$CUSTOMPROPERTYTAG
  1
Company
  9
$CUSTOMPROPERTY
  1

  9
$CUSTOMPROPERTYTAG
  1
Category
  9
$CUSTOMPROPERTY
  1

  9
$CUSTOMPROPERTYTAG
  1
Part Number
  9
$CUSTOMPROPERTY
  1
HWDP1614SS-S
  9
$CUSTOMPROPERTYTAG
  1
Description
  9
$CUSTOMPROPERTY
  1
P SERIES BACK PANEL MASTER VIEW
  9
$CUSTOMPROPERTYTAG
  1
Project
  9
$CUSTOMPROPERTY
  1

  9
$CUSTOMPROPERTYTAG
  1
Designer
  9
$CUSTOMPROPERTY
  1
KRA
  9
$CUSTOMPROPERTYTAG
  1
Engineer
  9
$CUSTOMPROPERTY
  1

  9
$CUSTOMPROPERTYTAG
  1
Authority
  9
$CUSTOMPROPERTY
  1

  9
$CUSTOMPROPERTYTAG
  1
Cost Center
  9
$CUSTOMPROPERTY
  1

  9
$CUSTOMPROPERTYTAG
  1
Vendor
  9
$CUSTOMPROPERTY
  1

  9
$CUSTOMPROPERTYTAG
  1
User Status
  9
$CUSTOMPROPERTY
  1

  9
$CUSTOMPROPERTYTAG
  1
Design Status
  9
$CUSTOMPROPERTY
  1
WorkInProgress
  9
$CUSTOMPROPERTYTAG
  1
Checked by
  9
$CUSTOMPROPERTY
  1
JMG
  9
$CUSTOMPROPERTYTAG
  1
Date Checked
  9
$CUSTOMPROPERTY
  1
02/12/2009
  9
$CUSTOMPROPERTYTAG
  1
Engr Approved by
  9
$CUSTOMPROPERTY
  1

  9
$CUSTOMPROPERTYTAG
  1
Mfg Approved by
  9
$CUSTOMPROPERTY
  1

  9
$CUSTOMPROPERTYTAG
  1
DWG. NO
  9
$CUSTOMPROPERTY
  1

  9
$CUSTOMPROPERTYTAG
  1
NUMBER OF SHEETS
  9
$CUSTOMPROPERTY
  1
1
  9
$CUSTOMPROPERTYTAG
  1
DRAWING #
  9
$CUSTOMPROPERTY
  1
1
  9
$INSBASE
 10
0.0
 20
0.0
 30
0.0
  9
$EXTMIN
 10
0.0
 20
0.0
 30
0.0
  9
$EXTMAX
 10
42.5
 20
27.5
 30
0.0
  9
$LIMMIN
 10
0.0
 20
0.0
  9
$LIMMAX
 10
42.5
 20
27.5
  9
$ORTHOMODE
 70
     0
  9
$REGENMODE
 70
     1
  9
$FILLMODE
 70
     1
  9
$QTEXTMODE
 70
     0
  9
$MIRRTEXT
 70
     0
  9
$LTSCALE
 40
2.5
  9
$ATTMODE
 70
     1
  9
$TEXTSIZE
 40
0.2
  9
$TRACEWID
 40
0.05
  9
$TEXTSTYLE
  7
Standard
  9
$CLAYER
  8
0
  9
$CELTYPE
  6
ByLayer
  9
$CECOLOR
 62
   256
  9
$CELTSCALE
 40
1.0
  9
$DISPSILH
 70
     0
  9
$DIMSCALE
 40
1.0
  9
$DIMASZ
 40
0.0708661417322835
  9
$DIMEXO
 40
0.0625
  9
$DIMDLI
 40
0.38
  9
$DIMRND
 40
0.0
  9
$DIMDLE
 40
0.0
  9
$DIMEXE
 40
0.18
  9
$DIMTP
 40
0.0
  9
$DIMTM
 40
0.0
  9
$DIMTXT
 40
0.0708661417322835
  9
$DIMCEN
 40
0.09
  9
$DIMTSZ
 40
0.0
  9
$DIMTOL
 70
     0
  9
$DIMLIM
 70
     0
  9
$DIMTIH
 70
     1
  9
$DIMTOH
 70
     1
  9
$DIMSE1
 70
     0
  9
$DIMSE2
 70
     0
  9
$DIMTAD
 70
     0
  9
$DIMZIN
 70
     0
  9
$DIMBLK
  1

  9
$DIMASO
 70
     1
  9
$DIMSHO
 70
     1
  9
$DIMPOST
  1

  9
$DIMAPOST
  1

  9
$DIMALT
 70
     0
  9
$DIMALTD
 70
     2
  9
$DIMALTF
 40
25.4
  9
$DIMLFAC
 40
1.0
  9
$DIMTOFL
 70
     0
  9
$DIMTVP
 40
0.0
  9
$DIMTIX
 70
     0
  9
$DIMSOXD
 70
     0
  9
$DIMSAH
 70
     0
  9
$DIMBLK1
  1

  9
$DIMBLK2
  1

  9
$DIMSTYLE
  2
STANDARD
  9
$DIMCLRD
 70
     0
  9
$DIMCLRE
 70
     0
  9
$DIMCLRT
 70
     0
  9
$DIMTFAC
 40
1.0
  9
$DIMGAP
 40
0.09
  9
$DIMJUST
 70
     0
  9
$DIMSD1
 70
     0
  9
$DIMSD2
 70
     0
  9
$DIMTOLJ
 70
     1
  9
$DIMTZIN
 70
     0
  9
$DIMALTZ
 70
     0
  9
$DIMALTTZ
 70
     0
  9
$DIMUPT
 70
     0
  9
$DIMDEC
 70
     4
  9
$DIMTDEC
 70
     4
  9
$DIMALTU
 70
     2
  9
$DIMALTTD
 70
     2
  9
$DIMTXSTY
  7
Standard
  9
$DIMAUNIT
 70
     0
  9
$DIMADEC
 70
     0
  9
$DIMALTRND
 40
0.0
  9
$DIMAZIN
 70
     0
  9
$DIMDSEP
 70
    46
  9
$DIMATFIT
 70
     3
  9
$DIMFRAC
 70
     0
  9
$DIMLDRBLK
  1

  9
$DIMLUNIT
 70
     2
  9
$DIMLWD
 70
    -2
  9
$DIMLWE
 70
    -2
  9
$DIMTMOVE
 70
     0
  9
$DIMFXL
 40
1.0
  9
$DIMFXLON
 70
     0
  9
$DIMJOGANG
 40
0.7853981633974483
  9
$DIMTFILL
 70
     0
  9
$DIMTFILLCLR
 70
     0
  9
$DIMARCSYM
 70
     0
  9
$DIMLTYPE
  6

  9
$DIMLTEX1
  6

  9
$DIMLTEX2
  6

  9
$DIMTXTDIRECTION
 70
     0
  9
$LUNITS
 70
     2
  9
$LUPREC
 70
     4
  9
$SKETCHINC
 40
0.1
  9
$FILLETRAD
 40
0.0
  9
$AUNITS
 70
     0
  9
$AUPREC
 70
     0
  9
$MENU
  1
.
  9
$ELEVATION
 40
0.0
  9
$PELEVATION
 40
0.0
  9
$THICKNESS
 40
0.0
  9
$LIMCHECK
 70
     0
  9
$CHAMFERA
 40
0.0
  9
$CHAMFERB
 40
0.0
  9
$CHAMFERC
 40
0.0
  9
$CHAMFERD
 40
0.0
  9
$SKPOLY
 70
     0
  9
$TDCREATE
 40
2456107.469773530
  9
$TDUCREATE
 40
2456107.678106864
  9
$TDUPDATE
 40
2456107.469773542
  9
$TDUUPDATE
 40
2456107.678106875
  9
$TDINDWG
 40
0.0000251852
  9
$TDUSRTIMER
 40
0.0000251852
  9
$USRTIMER
 70
     1
  9
$ANGBASE
 50
0.0
  9
$ANGDIR
 70
     0
  9
$PDMODE
 70
     0
  9
$PDSIZE
 40
0.0
  9
$PLINEWID
 40
0.0
  9
$SPLFRAME
 70
     0
  9
$SPLINETYPE
 70
     6
  9
$SPLINESEGS
 70
     8
  9
$HANDSEED
  5
88B
  9
$SURFTAB1
 70
     6
  9
$SURFTAB2
 70
     6
  9
$SURFTYPE
 70
     6
  9
$SURFU
 70
     6
  9
$SURFV
 70
     6
  9
$UCSBASE
  2

  9
$UCSNAME
  2

  9
$UCSORG
 10
0.0
 20
0.0
 30
0.0
  9
$UCSXDIR
 10
1.0
 20
0.0
 30
0.0
  9
$UCSYDIR
 10
0.0
 20
1.0
 30
0.0
  9
$UCSORTHOREF
  2

  9
$UCSORTHOVIEW
 70
     0
  9
$UCSORGTOP
 10
0.0
 20
0.0
 30
0.0
  9
$UCSORGBOTTOM
 10
0.0
 20
0.0
 30
0.0
  9
$UCSORGLEFT
 10
0.0
 20
0.0
 30
0.0
  9
$UCSORGRIGHT
 10
0.0
 20
0.0
 30
0.0
  9
$UCSORGFRONT
 10
0.0
 20
0.0
 30
0.0
  9
$UCSORGBACK
 10
0.0
 20
0.0
 30
0.0
  9
$PUCSBASE
  2

  9
$PUCSNAME
  2

  9
$PUCSORG
 10
0.0
 20
0.0
 30
0.0
  9
$PUCSXDIR
 10
1.0
 20
0.0
 30
0.0
  9
$PUCSYDIR
 10
0.0
 20
1.0
 30
0.0
  9
$PUCSORTHOREF
  2

  9
$PUCSORTHOVIEW
 70
     0
  9
$PUCSORGTOP
 10
0.0
 20
0.0
 30
0.0
  9
$PUCSORGBOTTOM
 10
0.0
 20
0.0
 30
0.0
  9
$PUCSORGLEFT
 10
0.0
 20
0.0
 30
0.0
  9
$PUCSORGRIGHT
 10
0.0
 20
0.0
 30
0.0
  9
$PUCSORGFRONT
 10
0.0
 20
0.0
 30
0.0
  9
$PUCSORGBACK
 10
0.0
 20
0.0
 30
0.0
  9
$USERI1
 70
     0
  9
$USERI2
 70
     0
  9
$USERI3
 70
     0
  9
$USERI4
 70
     0
  9
$USERI5
 70
     0
  9
$USERR1
 40
0.0
  9
$USERR2
 40
0.0
  9
$USERR3
 40
0.0
  9
$USERR4
 40
0.0
  9
$USERR5
 40
0.0
  9
$WORLDVIEW
 70
     1
  9
$SHADEDGE
 70
     3
  9
$SHADEDIF
 70
    70
  9
$TILEMODE
 70
     1
  9
$MAXACTVP
 70
    64
  9
$PINSBASE
 10
0.0
 20
0.0
 30
0.0
  9
$PLIMCHECK
 70
     0
  9
$PEXTMIN
 10
0.0
 20
0.0
 30
0.0
  9
$PEXTMAX
 10
42.5
 20
27.5
 30
0.0
  9
$PLIMMIN
 10
0.0
 20
0.0
  9
$PLIMMAX
 10
42.5
 20
27.5
  9
$UNITMODE
 70
     0
  9
$VISRETAIN
 70
     1
  9
$PLINEGEN
 70
     0
  9
$PSLTSCALE
 70
     1
  9
$TREEDEPTH
 70
  3020
  9
$CMLSTYLE
  2
Standard
  9
$CMLJUST
 70
     0
  9
$CMLSCALE
 40
1.0
  9
$PROXYGRAPHICS
 70
     1
  9
$MEASUREMENT
 70
     0
  9
$CELWEIGHT
370
    -1
  9
$ENDCAPS
280
     0
  9
$JOINSTYLE
280
     0
  9
$LWDISPLAY
290
     0
  9
$INSUNITS
 70
     1
  9
$HYPERLINKBASE
  1

  9
$STYLESHEET
  1

  9
$XEDIT
290
     1
  9
$CEPSNTYPE
380
     0
  9
$PSTYLEMODE
290
     1
  9
$FINGERPRINTGUID
  2
{B14D32BD-FF4F-4F8D-A6AE-6A3A7749FA51}
  9
$VERSIONGUID
  2
{90375242-9B82-411F-B119-A62442EC0707}
  9
$EXTNAMES
290
     1
  9
$PSVPSCALE
 40
0.0
  9
$OLESTARTUP
290
     0
  9
$SORTENTS
280
   127
  9
$INDEXCTL
280
     0
  9
$HIDETEXT
280
     1
  9
$XCLIPFRAME
280
     2
  9
$HALOGAP
280
     0
  9
$OBSCOLOR
 70
   257
  9
$OBSLTYPE
280
     0
  9
$INTERSECTIONDISPLAY
280
     0
  9
$INTERSECTIONCOLOR
 70
   257
  9
$DIMASSOC
280
     1
  9
$PROJECTNAME
  1

  9
$CAMERADISPLAY
290
     0
  9
$LENSLENGTH
 40
50.0
  9
$CAMERAHEIGHT
 40
0.0
  9
$STEPSPERSEC
 40
2.0
  9
$STEPSIZE
 40
6.0
  9
$3DDWFPREC
 40
2.0
  9
$PSOLWIDTH
 40
0.25
  9
$PSOLHEIGHT
 40
4.0
  9
$LOFTANG1
 40
1.570796326794896
  9
$LOFTANG2
 40
1.570796326794896
  9
$LOFTMAG1
 40
0.0
  9
$LOFTMAG2
 40
0.0
  9
$LOFTPARAM
 70
     7
  9
$LOFTNORMALS
280
     1
  9
$LATITUDE
 40
37.795
  9
$LONGITUDE
 40
-122.394
  9
$NORTHDIRECTION
 40
0.0
  9
$TIMEZONE
 70
 -8000
  9
$LIGHTGLYPHDISPLAY
280
     1
  9
$TILEMODELIGHTSYNCH
280
     1
  9
$CMATERIAL
347
11
  9
$SOLIDHIST
280
     0
  9
$SHOWHIST
280
     1
  9
$DWFFRAME
280
     2
  9
$DGNFRAME
280
     0
  9
$REALWORLDSCALE
290
     1
  9
$INTERFERECOLOR
 62
     1
  9
$INTERFEREOBJVS
345
33
  9
$INTERFEREVPVS
346
30
  9
$CSHADOW
280
     0
  9
$SHADOWPLANELOCATION
 40
0.0
  0
ENDSEC
  0
SECTION
  2
CLASSES
  0
CLASS
  1
ACDBDICTIONARYWDFLT
  2
AcDbDictionaryWithDefault
  3
ObjectDBX Classes
 90
        0
 91
        1
280
     0
281
     0
  0
CLASS
  1
MATERIAL
  2
AcDbMaterial
  3
ObjectDBX Classes
 90
     1153
 91
        3
280
     0
281
     0
  0
CLASS
  1
VISUALSTYLE
  2
AcDbVisualStyle
  3
ObjectDBX Classes
 90
     4095
 91
       24
280
     0
281
     0
  0
CLASS
  1
SCALE
  2
AcDbScale
  3
ObjectDBX Classes
 90
     1153
 91
       17
280
     0
281
     0
  0
CLASS
  1
TABLESTYLE
  2
AcDbTableStyle
  3
ObjectDBX Classes
 90
     4095
 91
        1
280
     0
281
     0
  0
CLASS
  1
MLEADERSTYLE
  2
AcDbMLeaderStyle
  3
ACDB_MLEADERSTYLE_CLASS
 90
     4095
 91
        1
280
     0
281
     0
  0
CLASS
  1
DICTIONARYVAR
  2
AcDbDictionaryVar
  3
ObjectDBX Classes
 90
        0
 91
        3
280
     0
281
     0
  0
CLASS
  1
CELLSTYLEMAP
  2
AcDbCellStyleMap
  3
ObjectDBX Classes
 90
     1152
 91
        1
280
     0
281
     0
  0
ENDSEC
  0
SECTION
  2
TABLES
  0
TABLE
  2
VPORT
  5
8
330
0
100
AcDbSymbolTable
 70
     1
  0
VPORT
  5
57
330
8
100
AcDbSymbolTableRecord
100
AcDbViewportTableRecord
  2
*Active
 70
     0
 10
0.0
 20
0.0
 11
1.0
 21
1.0
 12
21.25
 22
13.75
 13
0.0
 23
0.0
 14
1.0
 24
1.0
 15
0.0
 25
0.0
 16
0.0
 26
0.0
 36
1.0
 17
0.0
 27
0.0
 37
0.0
 40
27.5
 41
1.545454545454545
 42
50.0
 43
0.0
 44
0.0
 50
0.0
 51
0.0
 71
     0
 72
   100
 73
     1
 74
     1
 75
     0
 76
     0
 77
     0
 78
     0
281
     0
 65
     1
110
0.0
120
0.0
130
0.0
111
1.0
121
0.0
131
0.0
112
0.0
122
1.0
132
0.0
 79
     0
146
0.0
 60
     3
 61
     5
292
     1
282
     1
141
0.0
142
0.0
 63
   250
421
  3355443
  0
ENDTAB
  0
TABLE
  2
LTYPE
  5
5
330
0
100
AcDbSymbolTable
 70
    59
  0
LTYPE
  5
5B
330
5
100
AcDbSymbolTableRecord
100
AcDbLinetypeTableRecord
  2
ByBlock
 70
     0
  3

 72
    65
 73
     0
 40
0.0
  0
LTYPE
  5
5C
330
5
100
AcDbSymbolTableRecord
100
AcDbLinetypeTableRecord
  2
ByLayer
 70
     0
  3

 72
    65
 73
     0
 40
0.0
  0
LTYPE
  5
5D
330
5
100
AcDbSymbolTableRecord
100
AcDbLinetypeTableRecord
  2
Continuous
 70
     0
  3
Solid line
 72
    65
 73
     0
 40
0.0
  0
LTYPE
  5
7C
330
5
100
AcDbSymbolTableRecord
100
AcDbLinetypeTableRecord
  2
BY_STANDARD
 70
     0
  3
By Standard ____________    ____    ____   _
 72
    65
 73
     6
 40
1.240299999999999
 49
0.6614
 74
     0
 49
-0.0827
 74
     0
 49
0.1654
 74
     0
 49
-0.0827
 74
     0
 49
0.1654
 74
     0
 49
-0.0827
 74
     0
  0
LTYPE
  5
7D
330
5
100
AcDbSymbolTableRecord
100
AcDbLinetypeTableRecord
  2
CHAIN
 70
     0
  3
Chain ____ _ ____ _ ____ _ ____ _ ____ _ ____
 72
    65
 73
     4
 40
0.7087
 49
0.4724000000000001
 74
     0
 49
-0.0591
 74
     0
 49
0.1181
 74
     0
 49
-0.0591
 74
     0
  0
LTYPE
  5
7E
330
5
100
AcDbSymbolTableRecord
100
AcDbLinetypeTableRecord
  2
DASH_DOT
 70
     0
  3
Dash dot __ . __ . __ . __ . __ . __ . __ . __
 72
    65
 73
     4
 40
0.37
 49
0.24
 74
     0
 49
-0.06
 74
     0
 49
0.01
 74
     0
 49
-0.06
 74
     0
  0
LTYPE
  5
7F
330
5
100
AcDbSymbolTableRecord
100
AcDbLinetypeTableRecord
  2
DOUBLE_DASH_DOT
 70
     0
  3
Double-Dash Dot __ __ . __ __ . __ __ . __ _
 72
    65
 73
     6
 40
0.4398
 49
0.24
 74
     0
 49
-0.06
 74
     0
 49
0.0098
 74
     0
 49
-0.06
 74
     0
 49
0.01
 74
     0
 49
-0.06
 74
     0
  0
LTYPE
  5
80
330
5
100
AcDbSymbolTableRecord
100
AcDbLinetypeTableRecord
  2
DASH_TRIPLE_DOT
 70
     0
  3
Dash Triple-Dot _ . . . _ . . . _ . . . _
 72
    65
 73
     8
 40
0.51
 49
0.24
 74
     0
 49
-0.06
 74
     0
 49
0.01
 74
     0
 49
-0.06
 74
     0
 49
0.01
 74
     0
 49
-0.06
 74
     0
 49
0.01
 74
     0
 49
-0.06
 74
     0
  0
LTYPE
  5
81
330
5
100
AcDbSymbolTableRecord
100
AcDbLinetypeTableRecord
  2
DASHED
 70
     0
  3
Dashed __ __ __ __ __ __ __ __ __ __ __ __ __ _
 72
    65
 73
     2
 40
0.2067
 49
0.1654
 74
     0
 49
-0.0413
 74
     0
  0
LTYPE
  5
82
330
5
100
AcDbSymbolTableRecord
100
AcDbLinetypeTableRecord
  2
DASH_DOUBLE_DOT
 70
     0
  3
Dash Double-Dot __ . . __ . . __ . . __ . .
 72
    65
 73
     6
 40
0.4398
 49
0.24
 74
     0
 49
-0.06
 74
     0
 49
0.0098
 74
     0
 49
-0.06
 74
     0
 49
0.01
 74
     0
 49
-0.06
 74
     0
  0
LTYPE
  5
83
330
5
100
AcDbSymbolTableRecord
100
AcDbLinetypeTableRecord
  2
DASHED_SPACE
 70
     0
  3
Dashed Space __ __ __ __ __ __ __ __ __ __ __ _
 72
    65
 73
     2
 40
0.2067
 49
0.1654
 74
     0
 49
-0.0413
 74
     0
  0
LTYPE
  5
84
330
5
100
AcDbSymbolTableRecord
100
AcDbLinetypeTableRecord
  2
DOTTED
 70
     0
  3
Dotted . . . . . . . . . . . . . . . . . . . . 
 72
    65
 73
     2
 40
0.0482
 49
0.0069
 74
     0
 49
-0.0413
 74
     0
  0
LTYPE
  5
85
330
5
100
AcDbSymbolTableRecord
100
AcDbLinetypeTableRecord
  2
DOUBLE_DASH_CHAIN
 70
     0
  3
Double-Dash Chain ______  __  __  ______  __  _
 72
    65
 73
     6
 40
1.240299999999999
 49
0.6614
 74
     0
 49
-0.0827
 74
     0
 49
0.1654
 74
     0
 49
-0.0827
 74
     0
 49
0.1654
 74
     0
 49
-0.0827
 74
     0
  0
LTYPE
  5
87
330
5
100
AcDbSymbolTableRecord
100
AcDbLinetypeTableRecord
  2
DOUBLE_DASH_DOUBLE_DOT
 70
     0
  3
Double-Dash Double-dot _ _ . . _ _ . . _
 72
    65
 73
     8
 40
0.7400000000000001
 49
0.24
 74
     0
 49
-0.06
 74
     0
 49
0.24
 74
     0
 49
-0.06
 74
     0
 49
0.01
 74
     0
 49
-0.06
 74
     0
 49
0.01
 74
     0
 49
-0.06
 74
     0
  0
LTYPE
  5
88
330
5
100
AcDbSymbolTableRecord
100
AcDbLinetypeTableRecord
  2
DOUBLE_DASH_TRIPLE_DOT
 70
     0
  3
Double Dash Triple Dot __ __ . . . __ __ . .
 72
    65
 73
    10
 40
0.8100000000000001
 49
0.24
 74
     0
 49
-0.06
 74
     0
 49
0.24
 74
     0
 49
-0.06
 74
     0
 49
0.01
 74
     0
 49
-0.06
 74
     0
 49
0.01
 74
     0
 49
-0.06
 74
     0
 49
0.01
 74
     0
 49
-0.06
 74
     0
  0
LTYPE
  5
89
330
5
100
AcDbSymbolTableRecord
100
AcDbLinetypeTableRecord
  2
LONG_DASH_DOTTED
 70
     0
  3
Long Dash Dotted ____ . ____ . ____ . ____ . _
 72
    65
 73
     4
 40
0.3543
 49
0.2362
 74
     0
 49
-0.0295
 74
     0
 49
0.0591
 74
     0
 49
-0.0295
 74
     0
  0
LTYPE
  5
8A
330
5
100
AcDbSymbolTableRecord
100
AcDbLinetypeTableRecord
  2
LONG_DASH_DOUBLE_DOT
 70
     0
  3
Long Dash Double Dot ________  .  .  ________  
 72
    65
 73
     6
 40
0.6799999999999999
 49
0.48
 74
     0
 49
-0.06
 74
     0
 49
0.01
 74
     0
 49
-0.06
 74
     0
 49
0.01
 74
     0
 49
-0.06
 74
     0
  0
LTYPE
  5
8B
330
5
100
AcDbSymbolTableRecord
100
AcDbLinetypeTableRecord
  2
LONG_DASH_TRIPLE_DOT
 70
     0
  3
Long Dash Triple Dot ____ ... ____ ... ____
 72
    65
 73
     8
 40
0.3689
 49
0.2362
 74
     0
 49
-0.0295
 74
     0
 49
0.0049
 74
     0
 49
-0.0295
 74
     0
 49
0.0049
 74
     0
 49
-0.0295
 74
     0
 49
0.0049
 74
     0
 49
-0.0295
 74
     0
  0
LTYPE
  5
8C
330
5
100
AcDbSymbolTableRecord
100
AcDbLinetypeTableRecord
  2
BORDER
 70
     0
  3
Border __ __ . __ __ . __ __ . __ __ . __ __ .
 72
    65
 73
     6
 40
1.75
 49
0.5
 74
     0
 49
-0.25
 74
     0
 49
0.5
 74
     0
 49
-0.25
 74
     0
 49
0.0
 74
     0
 49
-0.25
 74
     0
  0
LTYPE
  5
8D
330
5
100
AcDbSymbolTableRecord
100
AcDbLinetypeTableRecord
  2
BORDER2
 70
     0
  3
Border (.5x) __.__.__.__.__.__.__.__.__.__.__.
 72
    65
 73
     6
 40
0.875
 49
0.25
 74
     0
 49
-0.125
 74
     0
 49
0.25
 74
     0
 49
-0.125
 74
     0
 49
0.0
 74
     0
 49
-0.125
 74
     0
  0
LTYPE
  5
8E
330
5
100
AcDbSymbolTableRecord
100
AcDbLinetypeTableRecord
  2
BORDERX2
 70
     0
  3
Border (2x) ____  ____  .  ____  ____  .  ___
 72
    65
 73
     6
 40
3.5
 49
1.0
 74
     0
 49
-0.5
 74
     0
 49
1.0
 74
     0
 49
-0.5
 74
     0
 49
0.0
 74
     0
 49
-0.5
 74
     0
  0
LTYPE
  5
8F
330
5
100
AcDbSymbolTableRecord
100
AcDbLinetypeTableRecord
  2
CENTER
 70
     0
  3
Center ____ _ ____ _ ____ _ ____ _ ____ _ ____
 72
    65
 73
     4
 40
2.0
 49
1.25
 74
     0
 49
-0.25
 74
     0
 49
0.25
 74
     0
 49
-0.25
 74
     0
  0
LTYPE
  5
90
330
5
100
AcDbSymbolTableRecord
100
AcDbLinetypeTableRecord
  2
CENTER2
 70
     0
  3
Center (.5x) ___ _ ___ _ ___ _ ___ _ ___ _ ___
 72
    65
 73
     4
 40
1.125
 49
0.75
 74
     0
 49
-0.125
 74
     0
 49
0.125
 74
     0
 49
-0.125
 74
     0
  0
LTYPE
  5
91
330
5
100
AcDbSymbolTableRecord
100
AcDbLinetypeTableRecord
  2
CENTERX2
 70
     0
  3
Center (2x) ________  __  ________  __  _____
 72
    65
 73
     4
 40
4.0
 49
2.5
 74
     0
 49
-0.5
 74
     0
 49
0.5
 74
     0
 49
-0.5
 74
     0
  0
LTYPE
  5
92
330
5
100
AcDbSymbolTableRecord
100
AcDbLinetypeTableRecord
  2
DASHDOT2
 70
     0
  3
Dash dot (.5x) _._._._._._._._._._._._._._._.
 72
    65
 73
     4
 40
0.5
 49
0.25
 74
     0
 49
-0.125
 74
     0
 49
0.0
 74
     0
 49
-0.125
 74
     0
  0
LTYPE
  5
93
330
5
100
AcDbSymbolTableRecord
100
AcDbLinetypeTableRecord
  2
DASHDOTX2
 70
     0
  3
Dash dot (2x) ____  .  ____  .  ____  .  ___
 72
    65
 73
     4
 40
2.0
 49
1.0
 74
     0
 49
-0.5
 74
     0
 49
0.0
 74
     0
 49
-0.5
 74
     0
  0
LTYPE
  5
95
330
5
100
AcDbSymbolTableRecord
100
AcDbLinetypeTableRecord
  2
DASHED2
 70
     0
  3
Dashed (.5x) _ _ _ _ _ _ _ _ _ _ _ _ _ _ _ _ _
 72
    65
 73
     2
 40
0.375
 49
0.25
 74
     0
 49
-0.125
 74
     0
  0
LTYPE
  5
96
330
5
100
AcDbSymbolTableRecord
100
AcDbLinetypeTableRecord
  2
DASHEDX2
 70
     0
  3
Dashed (2x) ____  ____  ____  ____  ____  ___
 72
    65
 73
     2
 40
1.5
 49
1.0
 74
     0
 49
-0.5
 74
     0
  0
LTYPE
  5
97
330
5
100
AcDbSymbolTableRecord
100
AcDbLinetypeTableRecord
  2
DIVIDE
 70
     0
  3
Divide ____ . . ____ . . ____ . . ____ . . ____
 72
    65
 73
     6
 40
1.25
 49
0.5
 74
     0
 49
-0.25
 74
     0
 49
0.0
 74
     0
 49
-0.25
 74
     0
 49
0.0
 74
     0
 49
-0.25
 74
     0
  0
LTYPE
  5
98
330
5
100
AcDbSymbolTableRecord
100
AcDbLinetypeTableRecord
  2
DIVIDE2
 70
     0
  3
Divide (.5x) __..__..__..__..__..__..__..__.._
 72
    65
 73
     6
 40
0.625
 49
0.25
 74
     0
 49
-0.125
 74
     0
 49
0.0
 74
     0
 49
-0.125
 74
     0
 49
0.0
 74
     0
 49
-0.125
 74
     0
  0
LTYPE
  5
99
330
5
100
AcDbSymbolTableRecord
100
AcDbLinetypeTableRecord
  2
DIVIDEX2
 70
     0
  3
Divide (2x) ________  .  .  ________  .  .  _
 72
    65
 73
     6
 40
2.5
 49
1.0
 74
     0
 49
-0.5
 74
     0
 49
0.0
 74
     0
 49
-0.5
 74
     0
 49
0.0
 74
     0
 49
-0.5
 74
     0
  0
LTYPE
  5
9A
330
5
100
AcDbSymbolTableRecord
100
AcDbLinetypeTableRecord
  2
DOT
 70
     0
  3
Dot . . . . . . . . . . . . . . . . . . . . . .
 72
    65
 73
     2
 40
0.25
 49
0.0
 74
     0
 49
-0.25
 74
     0
  0
LTYPE
  5
9B
330
5
100
AcDbSymbolTableRecord
100
AcDbLinetypeTableRecord
  2
DOT2
 70
     0
  3
Dot (.5x) .....................................
 72
    65
 73
     2
 40
0.125
 49
0.0
 74
     0
 49
-0.125
 74
     0
  0
LTYPE
  5
9C
330
5
100
AcDbSymbolTableRecord
100
AcDbLinetypeTableRecord
  2
DOTX2
 70
     0
  3
Dot (2x) .  .  .  .  .  .  .  .  .  .  .  .  . 
 72
    65
 73
     2
 40
0.5
 49
0.0
 74
     0
 49
-0.5
 74
     0
  0
LTYPE
  5
9D
330
5
100
AcDbSymbolTableRecord
100
AcDbLinetypeTableRecord
  2
HIDDEN
 70
     0
  3
Hidden __ __ __ __ __ __ __ __ __ __ __ __ __ _
 72
    65
 73
     2
 40
0.375
 49
0.25
 74
     0
 49
-0.125
 74
     0
  0
LTYPE
  5
9E
330
5
100
AcDbSymbolTableRecord
100
AcDbLinetypeTableRecord
  2
HIDDEN2
 70
     0
  3
Hidden (.5x) _ _ _ _ _ _ _ _ _ _ _ _ _ _ _ _ _
 72
    65
 73
     2
 40
0.1875
 49
0.125
 74
     0
 49
-0.0625
 74
     0
  0
LTYPE
  5
9F
330
5
100
AcDbSymbolTableRecord
100
AcDbLinetypeTableRecord
  2
HIDDENX2
 70
     0
  3
Hidden (2x) ____ ____ ____ ____ ____ ____ ____
 72
    65
 73
     2
 40
0.75
 49
0.5
 74
     0
 49
-0.25
 74
     0
  0
LTYPE
  5
A0
330
5
100
AcDbSymbolTableRecord
100
AcDbLinetypeTableRecord
  2
PHANTOM
 70
     0
  3
Phantom ______  __  __  ______  __  __  ______
 72
    65
 73
     6
 40
2.5
 49
1.25
 74
     0
 49
-0.25
 74
     0
 49
0.25
 74
     0
 49
-0.25
 74
     0
 49
0.25
 74
     0
 49
-0.25
 74
     0
  0
LTYPE
  5
A1
330
5
100
AcDbSymbolTableRecord
100
AcDbLinetypeTableRecord
  2
PHANTOM2
 70
     0
  3
Phantom (.5x) ___ _ _ ___ _ _ ___ _ _ ___ _ _
 72
    65
 73
     6
 40
1.25
 49
0.625
 74
     0
 49
-0.125
 74
     0
 49
0.125
 74
     0
 49
-0.125
 74
     0
 49
0.125
 74
     0
 49
-0.125
 74
     0
  0
LTYPE
  5
A2
330
5
100
AcDbSymbolTableRecord
100
AcDbLinetypeTableRecord
  2
PHANTOMX2
 70
     0
  3
Phantom (2x) ____________    ____    ____   _
 72
    65
 73
     6
 40
5.0
 49
2.5
 74
     0
 49
-0.5
 74
     0
 49
0.5
 74
     0
 49
-0.5
 74
     0
 49
0.5
 74
     0
 49
-0.5
 74
     0
  0
LTYPE
  5
A3
330
5
100
AcDbSymbolTableRecord
100
AcDbLinetypeTableRecord
  2
ACAD_ISO02W100
 70
     0
  3
ISO dash __ __ __ __ __ __ __ __ __ __ __ __ __
 72
    65
 73
     2
 40
0.59
 49
0.47
 74
     0
 49
-0.12
 74
     0
  0
LTYPE
  5
A4
330
5
100
AcDbSymbolTableRecord
100
AcDbLinetypeTableRecord
  2
ACAD_ISO03W100
 70
     0
  3
ISO dash space __    __    __    __    __    __
 72
    65
 73
     2
 40
1.179999999999999
 49
0.47
 74
     0
 49
-0.71
 74
     0
  0
LTYPE
  5
A5
330
5
100
AcDbSymbolTableRecord
100
AcDbLinetypeTableRecord
  2
ACAD_ISO04W100
 70
     0
  3
ISO long-dash dot ____ . ____ . ____ . ____ . _
 72
    65
 73
     4
 40
1.179999999999999
 49
0.9399999999999998
 74
     0
 49
-0.12
 74
     0
 49
0.0
 74
     0
 49
-0.12
 74
     0
  0
LTYPE
  5
A6
330
5
100
AcDbSymbolTableRecord
100
AcDbLinetypeTableRecord
  2
ACAD_ISO05W100
 70
     0
  3
ISO long-dash double-dot ____ .. ____ .. ____ .
 72
    65
 73
     6
 40
1.299999999999999
 49
0.9399999999999998
 74
     0
 49
-0.12
 74
     0
 49
0.0
 74
     0
 49
-0.12
 74
     0
 49
0.0
 74
     0
 49
-0.12
 74
     0
  0
LTYPE
  5
A7
330
5
100
AcDbSymbolTableRecord
100
AcDbLinetypeTableRecord
  2
ACAD_ISO06W100
 70
     0
  3
ISO long-dash triple-dot ____ ... ____ ... ____
 72
    65
 73
     8
 40
1.419999999999999
 49
0.9399999999999998
 74
     0
 49
-0.12
 74
     0
 49
0.0
 74
     0
 49
-0.12
 74
     0
 49
0.0
 74
     0
 49
-0.12
 74
     0
 49
0.0
 74
     0
 49
-0.12
 74
     0
  0
LTYPE
  5
A8
330
5
100
AcDbSymbolTableRecord
100
AcDbLinetypeTableRecord
  2
ACAD_ISO07W100
 70
     0
  3
ISO dot . . . . . . . . . . . . . . . . . . . .
 72
    65
 73
     2
 40
0.12
 49
0.0
 74
     0
 49
-0.12
 74
     0
  0
LTYPE
  5
A9
330
5
100
AcDbSymbolTableRecord
100
AcDbLinetypeTableRecord
  2
ACAD_ISO08W100
 70
     0
  3
ISO long-dash short-dash ____ __ ____ __ ____ _
 72
    65
 73
     4
 40
0.95
 49
0.47
 74
     0
 49
-0.12
 74
     0
 49
0.24
 74
     0
 49
-0.12
 74
     0
  0
LTYPE
  5
AA
330
5
100
AcDbSymbolTableRecord
100
AcDbLinetypeTableRecord
  2
ACAD_ISO09W100
 70
     0
  3
ISO long-dash double-short-dash ____ __ __ ____
 72
    65
 73
     6
 40
1.31
 49
0.47
 74
     0
 49
-0.12
 74
     0
 49
0.24
 74
     0
 49
-0.12
 74
     0
 49
0.24
 74
     0
 49
-0.12
 74
     0
  0
LTYPE
  5
AB
330
5
100
AcDbSymbolTableRecord
100
AcDbLinetypeTableRecord
  2
ACAD_ISO10W100
 70
     0
  3
ISO dash dot __ . __ . __ . __ . __ . __ . __ .
 72
    65
 73
     4
 40
0.71
 49
0.47
 74
     0
 49
-0.12
 74
     0
 49
0.0
 74
     0
 49
-0.12
 74
     0
  0
LTYPE
  5
AC
330
5
100
AcDbSymbolTableRecord
100
AcDbLinetypeTableRecord
  2
ACAD_ISO11W100
 70
     0
  3
ISO double-dash dot __ __ . __ __ . __ __ . __ 
 72
    65
 73
     6
 40
1.299999999999999
 49
0.47
 74
     0
 49
-0.12
 74
     0
 49
0.47
 74
     0
 49
-0.12
 74
     0
 49
0.0
 74
     0
 49
-0.12
 74
     0
  0
LTYPE
  5
AD
330
5
100
AcDbSymbolTableRecord
100
AcDbLinetypeTableRecord
  2
ACAD_ISO12W100
 70
     0
  3
ISO dash double-dot __ . . __ . . __ . . __ . .
 72
    65
 73
     6
 40
0.8299999999999998
 49
0.47
 74
     0
 49
-0.12
 74
     0
 49
0.0
 74
     0
 49
-0.12
 74
     0
 49
0.0
 74
     0
 49
-0.12
 74
     0
  0
LTYPE
  5
AE
330
5
100
AcDbSymbolTableRecord
100
AcDbLinetypeTableRecord
  2
ACAD_ISO13W100
 70
     0
  3
ISO double-dash double-dot __ __ . . __ __ . . 
 72
    65
 73
     8
 40
1.419999999999999
 49
0.47
 74
     0
 49
-0.12
 74
     0
 49
0.47
 74
     0
 49
-0.12
 74
     0
 49
0.0
 74
     0
 49
-0.12
 74
     0
 49
0.0
 74
     0
 49
-0.12
 74
     0
  0
LTYPE
  5
AF
330
5
100
AcDbSymbolTableRecord
100
AcDbLinetypeTableRecord
  2
ACAD_ISO14W100
 70
     0
  3
ISO dash triple-dot __ . . . __ . . . __ . . . 
 72
    65
 73
     8
 40
0.95
 49
0.47
 74
     0
 49
-0.12
 74
     0
 49
0.0
 74
     0
 49
-0.12
 74
     0
 49
0.0
 74
     0
 49
-0.12
 74
     0
 49
0.0
 74
     0
 49
-0.12
 74
     0
  0
LTYPE
  5
B0
330
5
100
AcDbSymbolTableRecord
100
AcDbLinetypeTableRecord
  2
ACAD_ISO15W100
 70
     0
  3
ISO double-dash triple-dot __ __ . . . __ __ . 
 72
    65
 73
    10
 40
1.539999999999999
 49
0.47
 74
     0
 49
-0.12
 74
     0
 49
0.47
 74
     0
 49
-0.12
 74
     0
 49
0.0
 74
     0
 49
-0.12
 74
     0
 49
0.0
 74
     0
 49
-0.12
 74
     0
 49
0.0
 74
     0
 49
-0.12
 74
     0
  0
LTYPE
  5
B3
330
5
100
AcDbSymbolTableRecord
100
AcDbLinetypeTableRecord
  2
FENCELINE1
 70
     0
  3
Fenceline circle ----0-----0----0-----0----0---
 72
    65
 73
     4
 40
1.45
 49
0.25
 74
     0
 49
-0.1
 74
     4
 75
   133
340
B2
 46
0.1
 50
0.0
 44
-0.1
 45
0.0
 49
-0.1
 74
     0
 49
1.0
 74
     0
  0
LTYPE
  5
B4
330
5
100
AcDbSymbolTableRecord
100
AcDbLinetypeTableRecord
  2
FENCELINE2
 70
     0
  3
Fenceline square ----[]-----[]----[]-----[]----
 72
    65
 73
     4
 40
1.45
 49
0.25
 74
     0
 49
-0.1
 74
     4
 75
   132
340
B2
 46
0.1
 50
0.0
 44
-0.1
 45
0.0
 49
-0.1
 74
     0
 49
1.0
 74
     0
  0
LTYPE
  5
B5
330
5
100
AcDbSymbolTableRecord
100
AcDbLinetypeTableRecord
  2
TRACKS
 70
     0
  3
Tracks -|-|-|-|-|-|-|-|-|-|-|-|-|-|-|-|-|-|-|-|
 72
    65
 73
     2
 40
0.3
 49
0.15
 74
     4
 75
   130
340
B2
 46
0.25
 50
0.0
 44
0.0
 45
0.0
 49
0.15
 74
     0
  0
LTYPE
  5
B6
330
5
100
AcDbSymbolTableRecord
100
AcDbLinetypeTableRecord
  2
BATTING
 70
     0
  3
Batting SSSSSSSSSSSSSSSSSSSSSSSSSSSSSSSSSSSSSSS
 72
    65
 73
     4
 40
0.4001000000000001
 49
0.0001
 74
     0
 49
-0.1
 74
     4
 75
   134
340
B2
 46
0.1
 50
0.0
 44
-0.1
 45
0.0
 49
-0.2
 74
     4
 75
   134
340
B2
 46
0.1
 50
180.0
 44
0.1
 45
0.0
 49
-0.1
 74
     0
  0
LTYPE
  5
B7
330
5
100
AcDbSymbolTableRecord
100
AcDbLinetypeTableRecord
  2
HOT_WATER_SUPPLY
 70
     0
  3
Hot water supply ---- HW ---- HW ---- HW ----
 72
    65
 73
     3
 40
0.9
 49
0.5
 74
     0
 49
-0.2
 74
     2
 75
     0
340
55
 46
0.1
 50
0.0
 44
-0.1
 45
-0.05
  9
HW
 49
-0.2
 74
     0
  0
LTYPE
  5
B8
330
5
100
AcDbSymbolTableRecord
100
AcDbLinetypeTableRecord
  2
GAS_LINE
 70
     0
  3
Gas line ----GAS----GAS----GAS----GAS----GAS---
 72
    65
 73
     3
 40
0.95
 49
0.5
 74
     0
 49
-0.2
 74
     2
 75
     0
340
55
 46
0.1
 50
0.0
 44
-0.1
 45
-0.05
  9
GAS
 49
-0.25
 74
     0
  0
LTYPE
  5
B9
330
5
100
AcDbSymbolTableRecord
100
AcDbLinetypeTableRecord
  2
ZIGZAG
 70
     0
  3
Zig zag /\/\/\/\/\/\/\/\/\/\/\/\/\/\/\/\/\/\/\/
 72
    65
 73
     4
 40
0.8001000000000001
 49
0.0001
 74
     0
 49
-0.2
 74
     4
 75
   131
340
B2
 46
0.2
 50
0.0
 44
-0.2
 45
0.0
 49
-0.4
 74
     4
 75
   131
340
B2
 46
0.2
 50
180.0
 44
0.2
 45
0.0
 49
-0.2
 74
     0
  0
ENDTAB
  0
TABLE
  2
LAYER
  5
2
330
0
100
AcDbSymbolTable
 70
    27
  0
LAYER
  5
54
330
2
100
AcDbSymbolTableRecord
100
AcDbLayerTableRecord
  2
0
 70
     0
 62
     7
  6
Continuous
370
    18
390
F
347
21
  0
LAYER
  5
C3
330
2
100
AcDbSymbolTableRecord
100
AcDbLayerTableRecord
  2
Dimension (ANSI)
 70
     0
 62
     7
  6
Continuous
370
    13
390
F
347
21
  0
LAYER
  5
C5
330
2
100
AcDbSymbolTableRecord
100
AcDbLayerTableRecord
  2
Hidden (ANSI)
 70
     0
 62
     7
  6
DASHED
370
    15
390
F
347
21
  0
LAYER
  5
CC
330
2
100
AcDbSymbolTableRecord
100
AcDbLayerTableRecord
  2
Symbol (ANSI)
 70
     0
 62
     7
  6
Continuous
370
    18
390
F
347
21
  0
LAYER
  5
CF
330
2
100
AcDbSymbolTableRecord
100
AcDbLayerTableRecord
  2
Visible (ANSI)
 70
     0
 62
     7
  6
Continuous
370
    13
390
F
347
21
  0
LAYER
  5
D0
330
2
100
AcDbSymbolTableRecord
100
AcDbLayerTableRecord
  2
Visible Narrow (ANSI)
 70
     0
 62
     7
  6
Continuous
370
    18
390
F
347
21
  0
LAYER
  5
143
330
2
100
AcDbSymbolTableRecord
100
AcDbLayerTableRecord
  2
Defpoints
 70
     0
 62
     7
  6
Continuous
290
     0
370
    -3
390
F
347
21
  0
ENDTAB
  0
TABLE
  2
STYLE
  5
3
330
0
100
AcDbSymbolTable
 70
    18
  0
STYLE
  5
55
330
3
100
AcDbSymbolTableRecord
100
AcDbTextStyleTableRecord
  2
Standard
 70
     0
 40
0.0
 41
1.0
 50
0.0
 71
     0
 42
0.2
  3
txt
  4

  0
STYLE
  5
5A
330
3
100
AcDbSymbolTableRecord
100
AcDbTextStyleTableRecord
  2
Annotative
 70
     0
 40
0.0
 41
1.0
 50
0.0
 71
     0
 42
0.2
  3
txt
  4

1001
AcadAnnotative
1000
AnnotativeData
1002
{
1070
     1
1070
     1
1002
}
  0
STYLE
  5
B2
330
3
100
AcDbSymbolTableRecord
100
AcDbTextStyleTableRecord
  2

 70
     1
 40
0.0
 41
1.0
 50
0.0
 71
     0
 42
0.2
  3
ltypeshp.shx
  4

  0
STYLE
  5
D4
330
3
100
AcDbSymbolTableRecord
100
AcDbTextStyleTableRecord
  2
ITALICC_120
 70
     0
 40
0.0
 41
1.0
 50
0.0
 71
     0
 42
0.2
  3
italicc.shx
  4

  0
STYLE
  5
D5
330
3
100
AcDbSymbolTableRecord
100
AcDbTextStyleTableRecord
  2
Label Text (ANSI)
 70
     0
 40
0.0
 41
1.0
 50
0.0
 71
     0
 42
0.2
  3
tahoma.ttf
  4

1001
ACAD
1000
Tahoma
1071
      256
  0
STYLE
  5
D6
330
3
100
AcDbSymbolTableRecord
100
AcDbTextStyleTableRecord
  2
Note Text (ANSI)
 70
     0
 40
0.0
 41
1.0
 50
0.0
 71
     0
 42
0.2
  3
tahoma.ttf
  4

1001
ACAD
1000
Tahoma
1071
      256
  0
STYLE
  5
D7
330
3
100
AcDbSymbolTableRecord
100
AcDbTextStyleTableRecord
  2
ROMANS
 70
     0
 40
0.0
 41
1.0
 50
0.0
 71
     0
 42
0.2
  3
romans.shx
  4

  0
STYLE
  5
D8
330
3
100
AcDbSymbolTableRecord
100
AcDbTextStyleTableRecord
  2
SANSSERIF_114
 70
     0
 40
0.0
 41
1.0
 50
0.0
 71
     0
 42
0.2
  3
tahoma.ttf
  4

1001
ACAD
1000
Tahoma
1071
      256
  0
STYLE
  5
D9
330
3
100
AcDbSymbolTableRecord
100
AcDbTextStyleTableRecord
  2
SANSSERIF_117
 70
     0
 40
0.0
 41
1.0
 50
0.0
 71
     0
 42
0.2
  3
tahoma.ttf
  4

1001
ACAD
1000
Tahoma
1071
      256
  0
STYLE
  5
DA
330
3
100
AcDbSymbolTableRecord
100
AcDbTextStyleTableRecord
  2
STANDARDAM_ANSI
 70
     0
 40
0.0
 41
1.0
 50
0.0
 71
     0
 42
0.2
  3
txt.shx
  4

  0
STYLE
  5
DB
330
3
100
AcDbSymbolTableRecord
100
AcDbTextStyleTableRecord
  2
StandardAM_ANSI$0
 70
     0
 40
0.0
 41
1.0
 50
0.0
 71
     0
 42
0.2
  3
txt.shx
  4

  0
STYLE
  5
DC
330
3
100
AcDbSymbolTableRecord
100
AcDbTextStyleTableRecord
  2
STANDARDAM_ANSI$3
 70
     0
 40
0.0
 41
1.0
 50
0.0
 71
     0
 42
0.2
  3
txt.shx
  4

  0
STYLE
  5
DD
330
3
100
AcDbSymbolTableRecord
100
AcDbTextStyleTableRecord
  2
STANDARDAM_ANSI$4
 70
     0
 40
0.0
 41
1.0
 50
0.0
 71
     0
 42
0.2
  3
txt.shx
  4

  0
STYLE
  5
DE
330
3
100
AcDbSymbolTableRecord
100
AcDbTextStyleTableRecord
  2
STANDARDAM_ANSI$7
 70
     0
 40
0.0
 41
1.0
 50
0.0
 71
     0
 42
0.2
  3
txt.shx
  4

  0
STYLE
  5
DF
330
3
100
AcDbSymbolTableRecord
100
AcDbTextStyleTableRecord
  2
STANDARDAM_ANSI$SF
 70
     0
 40
0.0
 41
1.0
 50
0.0
 71
     0
 42
0.2
  3
txt.shx
  4

  0
STYLE
  5
E0
330
3
100
AcDbSymbolTableRecord
100
AcDbTextStyleTableRecord
  2
STANDARDAM_ANSI$SH
 70
     0
 40
0.0
 41
1.0
 50
0.0
 71
     0
 42
0.2
  3
txt.shx
  4

  0
STYLE
  5
E1
330
3
100
AcDbSymbolTableRecord
100
AcDbTextStyleTableRecord
  2
STANDARDSTANDARD
 70
     0
 40
0.0
 41
1.0
 50
0.0
 71
     0
 42
0.2
  3
txt.shx
  4

  0
STYLE
  5
132
330
3
100
AcDbSymbolTableRecord
100
AcDbTextStyleTableRecord
  2
Text Style150
 70
     0
 40
0.0
 41
1.0
 50
0.0
 71
     0
 42
0.2
  3
tahoma.ttf
  4

1001
ACAD
1000
Tahoma
1071
      256
  0
ENDTAB
  0
TABLE
  2
VIEW
  5
6
330
0
100
AcDbSymbolTable
 70
     0
  0
ENDTAB
  0
TABLE
  2
UCS
  5
7
330
0
100
AcDbSymbolTable
 70
     0
  0
ENDTAB
  0
TABLE
  2
APPID
  5
9
330
0
100
AcDbSymbolTable
 70
     3
  0
APPID
  5
56
330
9
100
AcDbSymbolTableRecord
100
AcDbRegAppTableRecord
  2
ACAD
 70
     0
  0
APPID
  5
5E
330
9
100
AcDbSymbolTableRecord
100
AcDbRegAppTableRecord
  2
AcadAnnotative
 70
     0
  0
APPID
  5
790
330
9
100
AcDbSymbolTableRecord
100
AcDbRegAppTableRecord
  2
ACAD_DSTYLE_DIMRADIAL_EXTENSION
 70
     0
  0
ENDTAB
  0
TABLE
  2
DIMSTYLE
  5
A
330
0
100
AcDbSymbolTable
 70
    29
100
AcDbDimStyleTable
 71
     3
340
F6
340
58
340
F8
  0
DIMSTYLE
105
58
330
A
100
AcDbSymbolTableRecord
100
AcDbDimStyleTableRecord
  2
STANDARD
 70
     0
 41
0.1800000071525573
 42
0.0625
140
0.1800000071525574
144
1.0
147
0.0900000035762787
176
   256
177
   256
178
   256
274
     3
340
55
371
    -1
372
    -1
  0
DIMSTYLE
105
59
330
A
100
AcDbSymbolTableRecord
100
AcDbDimStyleTableRecord
  2
Annotative
 70
     0
340
55
1001
AcadAnnotative
1000
AnnotativeData
1002
{
1070
     1
1070
     1
1002
}
  0
DIMSTYLE
105
E2
330
A
100
AcDbSymbolTableRecord
100
AcDbDimStyleTableRecord
  2
AM_ANSI
 70
     0
  4
 mm
 40
2.5
 41
0.119999997317791
 42
0.05
 43
0.5
 44
0.1
 45
0.00000001
 78
     4
 79
     2
140
0.1200000047683716
146
0.7099999189376831
147
0.0599999986588955
176
   256
177
   256
178
     2
284
     4
340
DA
371
    -1
372
    -1
  0
DIMSTYLE
105
E3
330
A
100
AcDbSymbolTableRecord
100
AcDbDimStyleTableRecord
  2
AM_ANSI$7
 70
     0
  4
 mm
 40
2.5
 41
0.119999997317791
 42
0.05
 43
0.5
 44
0.1
 45
0.00000001
 78
     4
 79
     2
140
0.1200000047683716
146
0.7099999189376831
147
0.0599999986588955
176
   256
177
   256
178
     2
284
     4
340
DA
371
    -1
372
    -1
  0
DIMSTYLE
105
E4
330
A
100
AcDbSymbolTableRecord
100
AcDbDimStyleTableRecord
  2
AM_ANSI$0
 70
     0
  4
 mm
 40
2.5
 41
0.119999997317791
 42
0.05
 43
0.5
 44
0.1
 45
0.00000001
 78
     4
 79
     2
140
0.1200000047683716
146
0.7099999189376831
147
0.0599999986588955
176
   256
177
   256
178
     2
284
     4
340
DB
371
    -1
372
    -1
  0
DIMSTYLE
105
E5
330
A
100
AcDbSymbolTableRecord
100
AcDbDimStyleTableRecord
  2
AM_ANSI$0$7
 70
     0
  4
 mm
 40
2.5
 41
0.119999997317791
 42
0.05
 43
0.5
 44
0.1
 45
0.00000001
 78
     4
 79
     2
140
0.1200000047683716
146
0.7099999189376831
147
0.0599999986588955
176
   256
177
   256
178
     2
284
     4
340
DB
371
    -1
372
    -1
  0
DIMSTYLE
105
E6
330
A
100
AcDbSymbolTableRecord
100
AcDbDimStyleTableRecord
  2
AM_ANSI$3
 70
     0
  4
 mm
 40
2.5
 41
0.119999997317791
 42
0.05
 43
0.5
 44
0.1
 45
0.00000001
 78
     4
 79
     2
140
0.1200000047683716
146
0.7099999189376831
147
0.0599999986588955
176
   256
177
   256
178
     2
284
     4
340
DC
371
    -1
372
    -1
  0
DIMSTYLE
105
E7
330
A
100
AcDbSymbolTableRecord
100
AcDbDimStyleTableRecord
  2
AM_ANSI$3$7
 70
     0
  4
 mm
 40
2.5
 41
0.119999997317791
 42
0.05
 43
0.5
 44
0.1
 45
0.00000001
 78
     4
 79
     2
140
0.1200000047683716
146
0.7099999189376831
147
0.0599999986588955
176
   256
177
   256
178
     2
284
     4
340
DC
371
    -1
372
    -1
  0
DIMSTYLE
105
E8
330
A
100
AcDbSymbolTableRecord
100
AcDbDimStyleTableRecord
  2
AM_ANSI$4
 70
     0
  4
 mm
 40
2.5
 41
0.119999997317791
 42
0.05
 43
0.5
 44
0.1
 45
0.00000001
 78
     4
 79
     2
140
0.1200000047683716
146
0.7099999189376831
147
0.0599999986588955
176
   256
177
   256
178
     2
284
     4
340
DD
371
    -1
372
    -1
  0
DIMSTYLE
105
E9
330
A
100
AcDbSymbolTableRecord
100
AcDbDimStyleTableRecord
  2
AM_ANSI$4$7
 70
     0
  4
 mm
 40
2.5
 41
0.119999997317791
 42
0.05
 43
0.5
 44
0.1
 45
0.00000001
 78
     4
 79
     2
140
0.1200000047683716
146
0.7099999189376831
147
0.0599999986588955
176
   256
177
   256
178
     2
284
     4
340
DD
371
    -1
372
    -1
  0
DIMSTYLE
105
EA
330
A
100
AcDbSymbolTableRecord
100
AcDbDimStyleTableRecord
  2
AM_ANSI$SF
 70
     0
  4
 mm
 40
2.5
 41
0.119999997317791
 42
0.05
 43
0.5
 44
0.1
 45
0.00000001
 75
     1
 76
     1
 78
     4
 79
     2
140
0.1200000047683716
146
0.7099999189376831
147
0.0599999986588955
176
   256
177
   256
178
     2
284
     4
340
DF
371
    -1
372
    -1
  0
DIMSTYLE
105
EB
330
A
100
AcDbSymbolTableRecord
100
AcDbDimStyleTableRecord
  2
AM_ANSI$SF$7
 70
     0
  4
 mm
 40
2.5
 41
0.119999997317791
 42
0.05
 43
0.5
 44
0.1
 45
0.00000001
 75
     1
 76
     1
 78
     4
 79
     2
140
0.1200000047683716
146
0.7099999189376831
147
0.0599999986588955
176
   256
177
   256
178
     2
284
     4
340
DF
371
    -1
372
    -1
  0
DIMSTYLE
105
EC
330
A
100
AcDbSymbolTableRecord
100
AcDbDimStyleTableRecord
  2
AM_ANSI$SH
 70
     0
  4
 mm
 40
2.5
 41
0.119999997317791
 42
0.05
 43
0.5
 44
0.1
 45
0.00000001
 75
     1
 76
     1
 78
     4
 79
     2
140
0.1200000047683716
146
0.7099999189376831
147
0.0599999986588955
176
   256
177
   256
178
     2
284
     4
340
E0
371
    -1
372
    -1
  0
DIMSTYLE
105
ED
330
A
100
AcDbSymbolTableRecord
100
AcDbDimStyleTableRecord
  2
AM_ANSI$SH$7
 70
     0
  4
 mm
 40
2.5
 41
0.119999997317791
 42
0.05
 43
0.5
 44
0.1
 45
0.00000001
 75
     1
 76
     1
 78
     4
 79
     2
140
0.1200000047683716
146
0.7099999189376831
147
0.0599999986588955
176
   256
177
   256
178
     2
284
     4
340
E0
371
    -1
372
    -1
  0
DIMSTYLE
105
EE
330
A
100
AcDbSymbolTableRecord
100
AcDbDimStyleTableRecord
  2
Architectural (ANSI)
 70
     0
 40
2.5
 41
0.0984251946210861
 43
0.2362204724409449
 44
0.125
 45
0.00000001
 46
0.3937007874015748
 78
     3
 79
     3
140
0.1200000047683716
147
0.031496062992126
171
     1
176
   256
177
   256
178
   256
272
     2
274
     1
276
     2
277
     4
284
    12
285
     4
286
    12
340
D6
371
    -1
372
    -1
  0
DIMSTYLE
105
EF
330
A
100
AcDbSymbolTableRecord
100
AcDbDimStyleTableRecord
  2
Architectural (ANSI)$7
 70
     0
 40
2.5
 41
0.0984251946210861
 43
0.2362204724409449
 44
0.125
 45
0.00000001
 46
0.3937007874015748
 78
     3
 79
     3
140
0.1200000047683716
147
0.031496062992126
171
     1
176
   256
177
   256
178
   256
272
     2
274
     1
276
     2
277
     4
284
    12
285
     4
286
    12
340
D6
371
    -1
372
    -1
  0
DIMSTYLE
105
F0
330
A
100
AcDbSymbolTableRecord
100
AcDbDimStyleTableRecord
  2
Default - Fraction (ANSI)
 70
     0
 40
2.5
 41
0.0984251946210861
 43
0.2362204724409449
 44
0.125
 45
0.00000001
 46
0.3937007874015748
 79
     3
140
0.1200000047683716
147
0.031496062992126
171
     1
176
   256
177
   256
178
   256
272
     2
274
     1
276
     2
277
     5
284
    12
285
     4
286
    12
340
D6
371
    -1
372
    -1
  0
DIMSTYLE
105
F1
330
A
100
AcDbSymbolTableRecord
100
AcDbDimStyleTableRecord
  2
Default - Fraction (ANSI)$7
 70
     0
 40
2.5
 41
0.0984251946210861
 43
0.2362204724409449
 44
0.125
 45
0.00000001
 46
0.3937007874015748
 79
     3
140
0.1200000047683716
147
0.031496062992126
171
     1
176
   256
177
   256
178
   256
272
     2
274
     1
276
     2
277
     5
284
    12
285
     4
286
    12
340
D6
371
    -1
372
    -1
  0
DIMSTYLE
105
F2
330
A
100
AcDbSymbolTableRecord
100
AcDbDimStyleTableRecord
  2
Default - mm (ANSI)
 70
     0
 40
2.5
 41
0.0984251946210861
 42
0.063
 43
0.2362204724409449
 44
0.125
 45
0.00000001
 46
0.3937007874015748
 73
     0
 78
     4
 79
     1
140
0.1200000047683716
143
1.0
144
25.4
147
0.031496062992126
171
     1
176
   256
177
   256
178
   256
179
     1
271
     2
272
     2
274
     1
284
     4
285
     4
340
D6
371
    -1
372
    -1
  0
DIMSTYLE
105
F3
330
A
100
AcDbSymbolTableRecord
100
AcDbDimStyleTableRecord
  2
Default - mm (ANSI)$7
 70
     0
 40
2.5
 41
0.0984251946210861
 42
0.063
 43
0.2362204724409449
 44
0.125
 45
0.00000001
 46
0.3937007874015748
 73
     0
 78
     4
 79
     1
140
0.1200000047683716
143
1.0
144
25.4
147
0.031496062992126
171
     1
176
   256
177
   256
178
   256
179
     1
271
     2
272
     2
274
     1
284
     4
285
     4
340
D6
371
    -1
372
    -1
  0
DIMSTYLE
105
F4
330
A
100
AcDbSymbolTableRecord
100
AcDbDimStyleTableRecord
  2
Default - mm [in] (ANSI)
 70
     0
  4
 in
 40
2.5
 41
0.0984251946210861
 42
0.063
 43
0.25
 44
0.125
 45
0.00000001
 46
0.3937007874015748
 73
     0
 78
     4
 79
     1
140
0.1200000047683716
143
0.03937
144
25.4
147
0.031496062992126
170
     1
171
     3
176
   256
177
   256
178
   256
179
     1
271
     2
272
     2
274
     3
284
     4
285
     4
286
     4
340
D6
371
    -1
372
    -1
  0
DIMSTYLE
105
F5
330
A
100
AcDbSymbolTableRecord
100
AcDbDimStyleTableRecord
  2
Default - mm [in] (ANSI)$7
 70
     0
  4
 in
 40
2.5
 41
0.0984251946210861
 42
0.063
 43
0.25
 44
0.125
 45
0.00000001
 46
0.3937007874015748
 73
     0
 78
     4
 79
     1
140
0.1200000047683716
143
0.03937
144
25.4
147
0.031496062992126
170
     1
171
     3
176
   256
177
   256
178
   256
179
     1
271
     2
272
     2
274
     3
284
     4
285
     4
286
     4
340
D6
371
    -1
372
    -1
  0
DIMSTYLE
105
F6
102
{ACAD_REACTORS
330
52D
330
617
330
6F6
330
7B1
102
}
330
A
100
AcDbSymbolTableRecord
100
AcDbDimStyleTableRecord
  2
Default (ANSI)
 70
     0
 40
2.5
 41
0.0984251946210861
 43
0.2362204724409449
 44
0.125
 45
0.00000001
 46
0.3937007874015748
 79
     1
140
0.1200000047683716
147
0.031496062992126
171
     1
176
   256
177
   256
178
   256
271
     3
272
     2
274
     1
284
     4
285
     4
340
D6
371
    -1
372
    -1
  0
DIMSTYLE
105
F7
330
A
100
AcDbSymbolTableRecord
100
AcDbDimStyleTableRecord
  2
Default (ANSI)$7
 70
     0
 40
2.5
 41
0.0984251946210861
 43
0.2362204724409449
 44
0.125
 45
0.00000001
 46
0.3937007874015748
 79
     1
140
0.1200000047683716
147
0.031496062992126
171
     1
176
   256
177
   256
178
   256
271
     3
272
     2
274
     1
284
     4
285
     4
340
D6
371
    -1
372
    -1
  0
DIMSTYLE
105
F8
102
{ACAD_REACTORS
330
141
330
22D
330
317
330
42F
102
}
330
A
100
AcDbSymbolTableRecord
100
AcDbDimStyleTableRecord
  2
Default (ANSI)-01
 70
     0
 40
2.5
 41
0.0984251946210861
 43
0.2362204724409449
 44
0.125
 45
0.00000001
 46
0.3937007874015748
 79
     1
140
0.1200000047683716
147
0.031496062992126
171
     1
176
   256
177
   256
178
   256
271
     2
272
     2
274
     1
284
     4
285
     4
340
D6
371
    -1
372
    -1
  0
DIMSTYLE
105
F9
330
A
100
AcDbSymbolTableRecord
100
AcDbDimStyleTableRecord
  2
Default (ANSI)-01$7
 70
     0
 40
2.5
 41
0.0984251946210861
 43
0.2362204724409449
 44
0.125
 45
0.00000001
 46
0.3937007874015748
 79
     1
140
0.1200000047683716
147
0.031496062992126
171
     1
176
   256
177
   256
178
   256
271
     2
272
     2
274
     1
284
     4
285
     4
340
D6
371
    -1
372
    -1
  0
DIMSTYLE
105
FA
330
A
100
AcDbSymbolTableRecord
100
AcDbDimStyleTableRecord
  2
Alternate (ANSI)
 70
     0
 40
2.5
 41
0.0979999974370003
340
55
342
FB
  0
DIMSTYLE
105
10D
330
A
100
AcDbSymbolTableRecord
100
AcDbDimStyleTableRecord
  2
Datum (ANSI)
 70
     0
 40
2.5
 41
0.0979999974370003
340
55
342
FB
  0
DIMSTYLE
105
11C
330
A
100
AcDbSymbolTableRecord
100
AcDbDimStyleTableRecord
  2
Large (ANSI)
 70
     0
 40
2.5
 41
0.1959999948740005
340
55
342
FB
  0
ENDTAB
  0
TABLE
  2
BLOCK_RECORD
  5
1
330
0
100
AcDbSymbolTable
 70
    12
  0
BLOCK_RECORD
  5
6C
330
1
100
AcDbSymbolTableRecord
100
AcDbBlockTableRecord
  2
*Model_Space
340
6F
 70
     0
280
     1
281
     0
  0
BLOCK_RECORD
  5
68
330
1
100
AcDbSymbolTableRecord
100
AcDbBlockTableRecord
  2
*Paper_Space
340
6B
 70
     0
280
     1
281
     0
  0
BLOCK_RECORD
  5
70
330
1
100
AcDbSymbolTableRecord
100
AcDbBlockTableRecord
  2
*Paper_Space0
340
73
 70
     0
280
     1
281
     0
  0
BLOCK_RECORD
  5
FB
330
1
100
AcDbSymbolTableRecord
100
AcDbBlockTableRecord
  2
_Closed
340
0
 70
     0
280
     1
281
     0
  0
BLOCK_RECORD
  5
102
330
1
100
AcDbSymbolTableRecord
100
AcDbBlockTableRecord
  2
DatumFilled45
340
0
 70
     0
280
     1
281
     0
  0
BLOCK_RECORD
  5
10E
330
1
100
AcDbSymbolTableRecord
100
AcDbBlockTableRecord
  2
Filled-1
340
0
 70
     0
280
     1
281
     0
  0
BLOCK_RECORD
  5
144
330
1
100
AcDbSymbolTableRecord
100
AcDbBlockTableRecord
  2
*D4
340
0
 70
     0
280
     1
281
     0
  0
BLOCK_RECORD
  5
22E
330
1
100
AcDbSymbolTableRecord
100
AcDbBlockTableRecord
  2
*D5
340
0
 70
     0
280
     1
281
     0
  0
BLOCK_RECORD
  5
318
330
1
100
AcDbSymbolTableRecord
100
AcDbBlockTableRecord
  2
*D6
340
0
 70
     0
280
     1
281
     0
  0
BLOCK_RECORD
  5
430
330
1
100
AcDbSymbolTableRecord
100
AcDbBlockTableRecord
  2
*D7
340
0
 70
     0
280
     1
281
     0
  0
BLOCK_RECORD
  5
52E
330
1
100
AcDbSymbolTableRecord
100
AcDbBlockTableRecord
  2
*D8
340
0
 70
     0
280
     1
281
     0
  0
BLOCK_RECORD
  5
618
330
1
100
AcDbSymbolTableRecord
100
AcDbBlockTableRecord
  2
*D9
340
0
 70
     0
280
     1
281
     0
  0
BLOCK_RECORD
  5
6F7
330
1
100
AcDbSymbolTableRecord
100
AcDbBlockTableRecord
  2
*D10
340
0
 70
     0
280
     1
281
     0
  0
BLOCK_RECORD
  5
7B2
330
1
100
AcDbSymbolTableRecord
100
AcDbBlockTableRecord
  2
*D11
340
0
 70
     0
280
     1
281
     0
  0
ENDTAB
  0
ENDSEC
  0
SECTION
  2
BLOCKS
  0
BLOCK
  5
6D
330
6C
100
AcDbEntity
  8
0
100
AcDbBlockBegin
  2
*Model_Space
 70
     0
 10
0.0
 20
0.0
 30
0.0
  3
*Model_Space
  1

  0
ENDBLK
  5
6E
330
6C
100
AcDbEntity
  8
0
100
AcDbBlockEnd
  0
BLOCK
  5
69
330
68
100
AcDbEntity
 67
     1
  8
0
100
AcDbBlockBegin
  2
*Paper_Space
 70
     0
 10
0.0
 20
0.0
 30
0.0
  3
*Paper_Space
  1

  0
ENDBLK
  5
6A
330
68
100
AcDbEntity
 67
     1
  8
0
100
AcDbBlockEnd
  0
BLOCK
  5
71
330
70
100
AcDbEntity
 67
     1
  8
0
100
AcDbBlockBegin
  2
*Paper_Space0
 70
     0
 10
0.0
 20
0.0
 30
0.0
  3
*Paper_Space0
  1

  0
ENDBLK
  5
72
330
70
100
AcDbEntity
 67
     1
  8
0
100
AcDbBlockEnd
  0
BLOCK
  5
100
330
FB
100
AcDbEntity
  8
0
100
AcDbBlockBegin
  2
_Closed
 70
     0
 10
0.0
 20
0.0
 30
0.0
  3
_Closed
  1

  0
LINE
  5
FC
330
FB
100
AcDbEntity
  8
0
  6
ByBlock
 62
     0
370
    -2
100
AcDbLine
 10
-1.0
 20
0.1666666666666666
 30
0.0
 11
0.0
 21
0.0
 31
0.0
  0
LINE
  5
FD
330
FB
100
AcDbEntity
  8
0
  6
ByBlock
 62
     0
370
    -2
100
AcDbLine
 10
0.0
 20
0.0
 30
0.0
 11
-1.0
 21
-0.1666666666666666
 31
0.0
  0
LINE
  5
FE
330
FB
100
AcDbEntity
  8
0
  6
ByBlock
 62
     0
370
    -2
100
AcDbLine
 10
-1.0
 20
0.1666666666666666
 30
0.0
 11
-1.0
 21
-0.1666666666666666
 31
0.0
  0
LINE
  5
FF
330
FB
100
AcDbEntity
  8
0
  6
ByBlock
 62
     0
370
    -2
100
AcDbLine
 10
0.0
 20
0.0
 30
0.0
 11
-1.0
 21
0.0
 31
0.0
  0
ENDBLK
  5
101
330
FB
100
AcDbEntity
  8
0
100
AcDbBlockEnd
  0
BLOCK
  5
103
330
102
100
AcDbEntity
  8
0
100
AcDbBlockBegin
  2
DatumFilled45
 70
     0
 10
0.0
 20
0.0
 30
0.0
  3
DatumFilled45
  1

  0
POLYLINE
  5
105
330
102
100
AcDbEntity
  8
0
 62
     0
100
AcDb2dPolyline
 66
     1
 10
0.0
 20
0.0
 30
0.0
 70
   128
  0
VERTEX
  5
106
330
105
100
AcDbEntity
  8
0
 62
     0
100
AcDbVertex
100
AcDb2dVertex
 10
0.0
 20
0.9999999999999998
 30
0.0
  0
VERTEX
  5
107
330
105
100
AcDbEntity
  8
0
 62
     0
100
AcDbVertex
100
AcDb2dVertex
 10
0.0
 20
-0.9999999999999998
 30
0.0
  0
VERTEX
  5
109
330
105
100
AcDbEntity
  8
0
 62
     0
100
AcDbVertex
100
AcDb2dVertex
 10
-0.9999999999999998
 20
0.0
 30
0.0
  0
VERTEX
  5
10A
330
105
100
AcDbEntity
  8
0
 62
     0
100
AcDbVertex
100
AcDb2dVertex
 10
0.0
 20
0.9999999999999998
 30
0.0
  0
SEQEND
  5
108
330
105
100
AcDbEntity
  8
0
 62
     0
  0
SOLID
  5
10C
330
102
100
AcDbEntity
  8
0
 62
     0
100
AcDbTrace
 10
0.0
 20
0.9999999999999998
 30
0.0
 11
0.0
 21
-0.9999999999999998
 31
0.0
 12
-0.9999999999999998
 22
0.0
 32
0.0
 13
0.0
 23
0.9999999999999998
 33
0.0
  0
ENDBLK
  5
104
330
102
100
AcDbEntity
  8
0
100
AcDbBlockEnd
  0
BLOCK
  5
10F
330
10E
100
AcDbEntity
  8
0
100
AcDbBlockBegin
  2
Filled-1
 70
     0
 10
0.0
 20
0.0
 30
0.0
  3
Filled-1
  1

  0
LINE
  5
111
330
10E
100
AcDbEntity
  8
0
 62
     0
100
AcDbLine
 10
-0.9999999999999998
 20
0.0
 30
0.0
 11
0.0
 21
0.0
 31
0.0
  0
POLYLINE
  5
112
330
10E
100
AcDbEntity
  8
0
 62
     0
100
AcDb2dPolyline
 66
     1
 10
0.0
 20
0.0
 30
0.0
 70
   128
  0
VERTEX
  5
113
330
112
100
AcDbEntity
  8
0
 62
     0
100
AcDbVertex
100
AcDb2dVertex
 10
-0.9999999999999998
 20
-0.0994897959183674
 30
0.0
  0
VERTEX
  5
114
330
112
100
AcDbEntity
  8
0
 62
     0
100
AcDbVertex
100
AcDb2dVertex
 10
0.0
 20
0.0
 30
0.0
  0
VERTEX
  5
116
330
112
100
AcDbEntity
  8
0
 62
     0
100
AcDbVertex
100
AcDb2dVertex
 10
-0.9999999999999998
 20
0.0994897959183674
 30
0.0
  0
VERTEX
  5
117
330
112
100
AcDbEntity
  8
0
 62
     0
100
AcDbVertex
100
AcDb2dVertex
 10
-0.9999999999999998
 20
-0.0994897959183674
 30
0.0
  0
SEQEND
  5
115
330
112
100
AcDbEntity
  8
0
 62
     0
  0
SOLID
  5
118
330
10E
100
AcDbEntity
  8
0
 62
     0
100
AcDbTrace
 10
-0.9999999999999998
 20
-0.0994897959183674
 30
0.0
 11
0.0
 21
0.0
 31
0.0
 12
-0.9999999999999998
 22
0.0994897959183674
 32
0.0
 13
-0.9999999999999998
 23
-0.0994897959183674
 33
0.0
  0
LINE
  5
119
330
10E
100
AcDbEntity
  8
0
 62
     0
100
AcDbLine
 10
-0.9999999999999998
 20
-0.0994897959183674
 30
0.0
 11
0.0
 21
0.0
 31
0.0
  0
LINE
  5
11A
330
10E
100
AcDbEntity
  8
0
 62
     0
100
AcDbLine
 10
0.0
 20
0.0
 30
0.0
 11
-0.9999999999999998
 21
0.0994897959183674
 31
0.0
  0
LINE
  5
11B
330
10E
100
AcDbEntity
  8
0
 62
     0
100
AcDbLine
 10
-0.9999999999999998
 20
0.0994897959183674
 30
0.0
 11
-0.9999999999999998
 21
-0.0994897959183674
 31
0.0
  0
ENDBLK
  5
110
330
10E
100
AcDbEntity
  8
0
100
AcDbBlockEnd
  0
BLOCK
  5
145
330
144
100
AcDbEntity
  8
0
100
AcDbBlockBegin
  2
*D4
 70
     1
 10
0.0
 20
0.0
 30
0.0
  3
*D4
  1

  0
LINE
  5
223
330
144
100
AcDbEntity
  8
Dimension (ANSI)
440
 16777216
100
AcDbLine
 10
18.19557362052252
 20
8.40461595541713
 30
0.0
 11
18.19557362052252
 21
5.93865466932789
 31
0.0
  0
LINE
  5
224
330
144
100
AcDbEntity
  8
Dimension (ANSI)
440
 16777216
100
AcDbLine
 10
5.315573620522525
 20
8.40461595541713
 30
0.0
 11
5.315573620522525
 21
5.93865466932789
 31
0.0
  0
LINE
  5
225
330
144
100
AcDbEntity
  8
Dimension (ANSI)
440
 16777216
100
AcDbLine
 10
17.94951063396981
 20
6.25115466932789
 30
0.0
 11
12.40804383940333
 21
6.25115466932789
 31
0.0
  0
LINE
  5
226
330
144
100
AcDbEntity
  8
Dimension (ANSI)
440
 16777216
100
AcDbLine
 10
5.56163660707524
 20
6.25115466932789
 30
0.0
 11
11.28508330427032
 21
6.25115466932789
 31
0.0
  0
SOLID
  5
227
330
144
100
AcDbEntity
  8
Dimension (ANSI)
440
 16777216
100
AcDbTrace
 10
17.94951063396981
 20
6.292165167086676
 30
0.0
 11
17.94951063396981
 21
6.210144171569104
 31
0.0
 12
18.19557362052252
 22
6.25115466932789
 32
0.0
 13
18.19557362052252
 23
6.25115466932789
 33
0.0
  0
SOLID
  5
228
330
144
100
AcDbEntity
  8
Dimension (ANSI)
440
 16777216
100
AcDbTrace
 10
5.56163660707524
 20
6.292165167086676
 30
0.0
 11
5.56163660707524
 21
6.210144171569104
 31
0.0
 12
5.315573620522525
 22
6.25115466932789
 32
0.0
 13
5.315573620522525
 23
6.25115466932789
 33
0.0
  0
MTEXT
  5
229
330
144
100
AcDbEntity
  8
Dimension (ANSI)
440
 16777216
100
AcDbMText
 10
11.36382346175063
 20
6.408004909604226
 30
0.0
 40
0.3000000119209289
 41
0.0
 46
0.0
 71
     1
 72
     1
  1
\A1;12.88
  7
Note Text (ANSI)
 73
     1
 44
1.0
  0
POINT
  5
22A
330
144
100
AcDbEntity
  8
Defpoints
 62
     0
440
 16777216
100
AcDbPoint
 10
18.19557362052252
 20
8.56086595541713
 30
0.0
  0
POINT
  5
22B
330
144
100
AcDbEntity
  8
Defpoints
 62
     0
440
 16777216
100
AcDbPoint
 10
5.315573620522525
 20
8.56086595541713
 30
0.0
  0
POINT
  5
22C
330
144
100
AcDbEntity
  8
Defpoints
 62
     0
440
 16777216
100
AcDbPoint
 10
5.315573620522525
 20
6.25115466932789
 30
0.0
  0
ENDBLK
  5
146
330
144
100
AcDbEntity
  8
0
100
AcDbBlockEnd
  0
BLOCK
  5
22F
330
22E
100
AcDbEntity
  8
0
100
AcDbBlockBegin
  2
*D5
 70
     1
 10
0.0
 20
0.0
 30
0.0
  3
*D5
  1

  0
LINE
  5
30D
330
22E
100
AcDbEntity
  8
Dimension (ANSI)
440
 16777216
100
AcDbLine
 10
5.159323620522525
 20
8.56086595541713
 30
0.0
 11
2.693362334433283
 21
8.560865955417131
 31
0.0
  0
LINE
  5
30E
330
22E
100
AcDbEntity
  8
Dimension (ANSI)
440
 16777216
100
AcDbLine
 10
5.159323620522521
 20
23.44086595541713
 30
0.0
 11
2.693362334433286
 21
23.44086595541713
 31
0.0
  0
LINE
  5
30F
330
22E
100
AcDbEntity
  8
Dimension (ANSI)
440
 16777216
100
AcDbLine
 10
3.005862334433283
 20
8.806928941969847
 30
0.0
 11
3.005862334433285
 21
15.76527555766048
 31
0.0
  0
LINE
  5
310
330
22E
100
AcDbEntity
  8
Dimension (ANSI)
440
 16777216
100
AcDbLine
 10
3.005862334433286
 20
23.19480296886442
 30
0.0
 11
3.005862334433285
 21
16.23645635317378
 31
0.0
  0
SOLID
  5
311
330
22E
100
AcDbEntity
  8
Dimension (ANSI)
440
 16777216
100
AcDbTrace
 10
2.964851836674497
 20
8.806928941969847
 30
0.0
 11
3.046872832192069
 21
8.806928941969847
 31
0.0
 12
3.005862334433283
 22
8.560865955417131
 32
0.0
 13
3.005862334433283
 23
8.560865955417131
 33
0.0
  0
SOLID
  5
312
330
22E
100
AcDbEntity
  8
Dimension (ANSI)
440
 16777216
100
AcDbTrace
 10
2.964851836674501
 20
23.19480296886442
 30
0.0
 11
3.046872832192072
 21
23.19480296886442
 31
0.0
 12
3.005862334433286
 22
23.44086595541713
 32
0.0
 13
3.005862334433286
 23
23.44086595541713
 33
0.0
  0
MTEXT
  5
313
330
22E
100
AcDbEntity
  8
Dimension (ANSI)
440
 16777216
100
AcDbMText
 10
2.523122224347088
 20
16.15771619569347
 30
0.0
 40
0.3000000119209289
 41
0.0
 46
0.0
 71
     1
 72
     1
  1
\A1;14.88
  7
Note Text (ANSI)
 73
     1
 44
1.0
  0
POINT
  5
314
330
22E
100
AcDbEntity
  8
Defpoints
 62
     0
440
 16777216
100
AcDbPoint
 10
5.315573620522525
 20
8.56086595541713
 30
0.0
  0
POINT
  5
315
330
22E
100
AcDbEntity
  8
Defpoints
 62
     0
440
 16777216
100
AcDbPoint
 10
5.315573620522521
 20
23.44086595541713
 30
0.0
  0
POINT
  5
316
330
22E
100
AcDbEntity
  8
Defpoints
 62
     0
440
 16777216
100
AcDbPoint
 10
3.005862334433286
 20
23.44086595541713
 30
0.0
  0
ENDBLK
  5
230
330
22E
100
AcDbEntity
  8
0
100
AcDbBlockEnd
  0
BLOCK
  5
319
330
318
100
AcDbEntity
  8
0
100
AcDbBlockBegin
  2
*D6
 70
     1
 10
0.0
 20
0.0
 30
0.0
  3
*D6
  1

  0
LINE
  5
423
330
318
100
AcDbEntity
  8
Dimension (ANSI)
440
 16777216
100
AcDbLine
 10
5.159323620522525
 20
8.56086595541713
 30
0.0
 11
4.665048149583628
 21
8.56086595541713
 31
0.0
  0
LINE
  5
424
330
318
100
AcDbEntity
  8
Dimension (ANSI)
440
 16777216
100
AcDbLine
 10
5.316323620522524
 20
8.873865955417132
 30
0.0
 11
4.665048149583628
 21
8.873865955417132
 31
0.0
  0
LINE
  5
425
330
318
100
AcDbEntity
  8
Dimension (ANSI)
440
 16777216
100
AcDbLine
 10
4.977548149583628
 20
8.314802968864414
 30
0.0
 11
4.977548149583628
 21
8.068739982311699
 31
0.0
  0
LINE
  5
426
330
318
100
AcDbEntity
  8
Dimension (ANSI)
440
 16777216
100
AcDbLine
 10
4.977548149583628
 20
9.119928941969847
 30
0.0
 11
4.977548149583628
 21
9.365991928522563
 31
0.0
  0
LINE
  5
427
330
318
100
AcDbEntity
  8
Dimension (ANSI)
440
 16777216
100
AcDbLine
 10
4.731485163030913
 20
9.897682994041455
 30
0.0
 11
4.977548149583628
 21
9.897682994041455
 31
0.0
  0
LINE
  5
428
330
318
100
AcDbEntity
  8
Dimension (ANSI)
440
 16777216
100
AcDbLine
 10
4.977548149583628
 20
9.897682994041455
 30
0.0
 11
4.977548149583628
 21
9.365991928522563
 31
0.0
  0
MTEXT
  5
429
330
318
100
AcDbEntity
  8
Dimension (ANSI)
440
 16777216
100
AcDbMText
 10
3.860132487571011
 20
10.09924445219413
 30
0.0
 40
0.3000000119209289
 41
0.0
 46
0.0
 71
     1
 72
     1
  1
\A1;0.31{\PTYP.}
  7
Note Text (ANSI)
 73
     1
 44
1.0
  0
SOLID
  5
42A
330
318
100
AcDbEntity
  8
Dimension (ANSI)
440
 16777216
100
AcDbTrace
 10
4.936537651824842
 20
8.314802968864414
 30
0.0
 11
5.018558647342414
 21
8.314802968864414
 31
0.0
 12
4.977548149583628
 22
8.56086595541713
 32
0.0
 13
4.977548149583628
 23
8.56086595541713
 33
0.0
  0
SOLID
  5
42B
330
318
100
AcDbEntity
  8
Dimension (ANSI)
440
 16777216
100
AcDbTrace
 10
4.936537651824842
 20
9.119928941969847
 30
0.0
 11
5.018558647342414
 21
9.119928941969847
 31
0.0
 12
4.977548149583628
 22
8.873865955417132
 32
0.0
 13
4.977548149583628
 23
8.873865955417132
 33
0.0
  0
POINT
  5
42C
330
318
100
AcDbEntity
  8
Defpoints
 62
     0
440
 16777216
100
AcDbPoint
 10
5.315573620522525
 20
8.56086595541713
 30
0.0
  0
POINT
  5
42D
330
318
100
AcDbEntity
  8
Defpoints
 62
     0
440
 16777216
100
AcDbPoint
 10
5.472573620522524
 20
8.873865955417132
 30
0.0
  0
POINT
  5
42E
330
318
100
AcDbEntity
  8
Defpoints
 62
     0
440
 16777216
100
AcDbPoint
 10
4.977548149583628
 20
8.873865955417132
 30
0.0
  0
ENDBLK
  5
31A
330
318
100
AcDbEntity
  8
0
100
AcDbBlockEnd
  0
BLOCK
  5
431
330
430
100
AcDbEntity
  8
0
100
AcDbBlockBegin
  2
*D7
 70
     1
 10
0.0
 20
0.0
 30
0.0
  3
*D7
  1

  0
LINE
  5
523
330
430
100
AcDbEntity
  8
Dimension (ANSI)
440
 16777216
100
AcDbLine
 10
5.315573620522525
 20
8.40461595541713
 30
0.0
 11
5.315573620522525
 21
6.680807086084446
 31
0.0
  0
LINE
  5
524
330
430
100
AcDbEntity
  8
Dimension (ANSI)
440
 16777216
100
AcDbLine
 10
5.628573620522524
 20
8.592615955417134
 30
0.0
 11
5.628573620522524
 21
6.680807086084446
 31
0.0
  0
LINE
  5
525
330
430
100
AcDbEntity
  8
Dimension (ANSI)
440
 16777216
100
AcDbLine
 10
5.874636607075239
 20
6.993307086084446
 30
0.0
 11
6.120699593627954
 21
6.993307086084446
 31
0.0
  0
LINE
  5
526
330
430
100
AcDbEntity
  8
Dimension (ANSI)
440
 16777216
100
AcDbLine
 10
5.06951063396981
 20
6.993307086084446
 30
0.0
 11
4.662306989681001
 21
6.993307086084446
 31
0.0
  0
SOLID
  5
527
330
430
100
AcDbEntity
  8
Dimension (ANSI)
440
 16777216
100
AcDbTrace
 10
5.874636607075239
 20
7.034317583843233
 30
0.0
 11
5.874636607075239
 21
6.95229658832566
 31
0.0
 12
5.628573620522524
 22
6.993307086084446
 32
0.0
 13
5.628573620522524
 23
6.993307086084446
 33
0.0
  0
SOLID
  5
528
330
430
100
AcDbEntity
  8
Dimension (ANSI)
440
 16777216
100
AcDbTrace
 10
5.06951063396981
 20
7.034317583843233
 30
0.0
 11
5.06951063396981
 21
6.95229658832566
 31
0.0
 12
5.315573620522525
 22
6.993307086084446
 32
0.0
 13
5.315573620522525
 23
6.993307086084446
 33
0.0
  0
MTEXT
  5
529
330
430
100
AcDbEntity
  8
Dimension (ANSI)
440
 16777216
100
AcDbMText
 10
3.7909543142211
 20
7.194868544237123
 30
0.0
 40
0.3000000119209289
 41
0.0
 46
0.0
 71
     1
 72
     1
  1
\A1;0.31{\PTYP.}
  7
Note Text (ANSI)
 73
     1
 44
1.0
  0
POINT
  5
52A
330
430
100
AcDbEntity
  8
Defpoints
 62
     0
440
 16777216
100
AcDbPoint
 10
5.315573620522525
 20
8.56086595541713
 30
0.0
  0
POINT
  5
52B
330
430
100
AcDbEntity
  8
Defpoints
 62
     0
440
 16777216
100
AcDbPoint
 10
5.628573620522524
 20
8.748865955417134
 30
0.0
  0
POINT
  5
52C
330
430
100
AcDbEntity
  8
Defpoints
 62
     0
440
 16777216
100
AcDbPoint
 10
5.628573620522524
 20
6.993307086084446
 30
0.0
  0
ENDBLK
  5
432
330
430
100
AcDbEntity
  8
0
100
AcDbBlockEnd
  0
BLOCK
  5
52F
330
52E
100
AcDbEntity
  8
0
100
AcDbBlockBegin
  2
*D8
 70
     1
 10
0.0
 20
0.0
 30
0.0
  3
*D8
  1

  0
LINE
  5
60D
330
52E
100
AcDbEntity
  8
Dimension (ANSI)
440
 16777216
100
AcDbLine
 10
5.628573620522525
 20
8.592615955417134
 30
0.0
 11
5.628573620522525
 21
6.664807086084449
 31
0.0
  0
LINE
  5
60E
330
52E
100
AcDbEntity
  8
Dimension (ANSI)
440
 16777216
100
AcDbLine
 10
6.628573620522525
 20
8.592615955417132
 30
0.0
 11
6.628573620522525
 21
6.664807086084449
 31
0.0
  0
LINE
  5
60F
330
52E
100
AcDbEntity
  8
Dimension (ANSI)
440
 16777216
100
AcDbLine
 10
5.87463660707524
 20
6.977307086084449
 30
0.0
 11
6.382510633969809
 21
6.977307086084449
 31
0.0
  0
LINE
  5
610
330
52E
100
AcDbEntity
  8
Dimension (ANSI)
440
 16777216
100
AcDbLine
 10
6.628573620522525
 20
6.977307086084449
 30
0.0
 11
7.073304749657506
 21
6.977307086084449
 31
0.0
  0
SOLID
  5
611
330
52E
100
AcDbEntity
  8
Dimension (ANSI)
440
 16777216
100
AcDbTrace
 10
5.87463660707524
 20
7.018317583843235
 30
0.0
 11
5.87463660707524
 21
6.936296588325663
 31
0.0
 12
5.628573620522525
 22
6.977307086084449
 32
0.0
 13
5.628573620522525
 23
6.977307086084449
 33
0.0
  0
SOLID
  5
612
330
52E
100
AcDbEntity
  8
Dimension (ANSI)
440
 16777216
100
AcDbTrace
 10
6.382510633969809
 20
7.018317583843235
 30
0.0
 11
6.382510633969809
 21
6.936296588325663
 31
0.0
 12
6.628573620522525
 22
6.977307086084449
 32
0.0
 13
6.628573620522525
 23
6.977307086084449
 33
0.0
  0
MTEXT
  5
613
330
52E
100
AcDbEntity
  8
Dimension (ANSI)
440
 16777216
100
AcDbMText
 10
7.152044907137821
 20
7.133452155081444
 30
0.0
 40
0.3000000119209289
 41
0.0
 46
0.0
 71
     1
 72
     1
  1
\A1;1.000
  7
Note Text (ANSI)
 73
     1
 44
1.0
  0
POINT
  5
614
330
52E
100
AcDbEntity
  8
Defpoints
 62
     0
440
 16777216
100
AcDbPoint
 10
5.628573620522525
 20
8.748865955417134
 30
0.0
  0
POINT
  5
615
330
52E
100
AcDbEntity
  8
Defpoints
 62
     0
440
 16777216
100
AcDbPoint
 10
6.628573620522525
 20
8.748865955417132
 30
0.0
  0
POINT
  5
616
330
52E
100
AcDbEntity
  8
Defpoints
 62
     0
440
 16777216
100
AcDbPoint
 10
6.628573620522525
 20
6.977307086084449
 30
0.0
  0
ENDBLK
  5
530
330
52E
100
AcDbEntity
  8
0
100
AcDbBlockEnd
  0
BLOCK
  5
619
330
618
100
AcDbEntity
  8
0
100
AcDbBlockBegin
  2
*D9
 70
     1
 10
0.0
 20
0.0
 30
0.0
  3
*D9
  1

  0
LINE
  5
6EE
330
618
100
AcDbEntity
  8
Dimension (ANSI)
440
 16777216
100
AcDbLine
 10
23.09428658749842
 20
19.05955361945913
 30
0.0
 11
22.84822360094571
 21
19.05955361945913
 31
0.0
  0
LINE
  5
6EF
330
618
100
AcDbEntity
  8
Dimension (ANSI)
440
 16777216
100
AcDbLine
 10
23.66041256060385
 20
19.05955361945913
 30
0.0
 11
24.9166144265045
 21
19.05955361945913
 31
0.0
  0
SOLID
  5
6F0
330
618
100
AcDbEntity
  8
Dimension (ANSI)
440
 16777216
100
AcDbTrace
 10
23.09428658749842
 20
19.10056411721791
 30
0.0
 11
23.09428658749842
 21
19.01854312170034
 31
0.0
 12
23.34034957405114
 22
19.05955361945913
 32
0.0
 13
23.34034957405114
 23
19.05955361945913
 33
0.0
  0
SOLID
  5
6F1
330
618
100
AcDbEntity
  8
Dimension (ANSI)
440
 16777216
100
AcDbTrace
 10
23.66041256060385
 20
19.10056411721791
 30
0.0
 11
23.66041256060385
 21
19.01854312170034
 31
0.0
 12
23.41434957405114
 22
19.05955361945913
 32
0.0
 13
23.41434957405114
 23
19.05955361945913
 33
0.0
  0
MTEXT
  5
6F2
330
618
100
AcDbEntity
  8
Dimension (ANSI)
440
 16777216
100
AcDbMText
 10
24.99535458398481
 20
19.21519499468516
 30
0.0
 40
0.3000000119209289
 41
0.0
 46
0.0
 71
     1
 72
     1
  1
\A1; 14 GA.
  7
Note Text (ANSI)
 73
     1
 44
1.0
  0
POINT
  5
6F3
330
618
100
AcDbEntity
  8
Defpoints
 62
     0
440
 16777216
100
AcDbPoint
 10
23.88440680812523
 20
8.560865955417133
 30
0.0
  0
POINT
  5
6F4
330
618
100
AcDbEntity
  8
Defpoints
 62
     0
440
 16777216
100
AcDbPoint
 10
23.81040680812523
 20
8.560865955417133
 30
0.0
  0
POINT
  5
6F5
330
618
100
AcDbEntity
  8
Defpoints
 62
     0
440
 16777216
100
AcDbPoint
 10
23.34034957405114
 20
19.05955361945913
 30
0.0
  0
ENDBLK
  5
61A
330
618
100
AcDbEntity
  8
0
100
AcDbBlockEnd
  0
BLOCK
  5
6F8
330
6F7
100
AcDbEntity
  8
0
100
AcDbBlockBegin
  2
*D10
 70
     1
 10
0.0
 20
0.0
 30
0.0
  3
*D10
  1

  0
LINE
  5
7A9
330
6F7
100
AcDbEntity
  8
Dimension (ANSI)
440
 16777216
100
AcDbLine
 10
8.800083653460688
 20
8.182959167395305
 30
0.0
 11
8.554020666907931
 21
8.182959167395306
 31
0.0
  0
LINE
  5
7AA
330
6F7
100
AcDbEntity
  8
Dimension (ANSI)
440
 16777216
100
AcDbLine
 10
8.554020666907931
 20
8.182959167395306
 30
0.0
 11
6.977832235390953
 21
8.748541736171173
 31
0.0
  0
MTEXT
  5
7AB
330
6F7
100
AcDbEntity
  8
Dimension (ANSI)
440
 16777216
100
AcDbMText
 10
8.878823810941005
 20
8.404590490028603
 30
0.0
 40
0.3000000119209289
 41
0.0
 46
0.0
 71
     1
 72
     1
  1
\A1;∅0.250{\PGROUND\P HOLE}
  7
Note Text (ANSI)
 73
     1
 44
1.0
  0
SOLID
  5
7AC
330
6F7
100
AcDbEntity
  8
Dimension (ANSI)
440
 16777216
100
AcDbTrace
 10
6.991683276315989
 20
8.787142378545571
 30
0.0
 11
6.963981194465915
 21
8.709941093796771
 31
0.0
 12
6.746228381144552
 22
8.831647981721395
 32
0.0
 13
6.746228381144552
 23
8.831647981721395
 33
0.0
  0
LINE
  5
7AD
330
6F7
100
AcDbEntity
  8
Dimension (ANSI)
440
 16777216
100
AcDbLine
 10
6.403573620522529
 20
8.873865955417137
 30
0.0
 11
6.853573620522527
 21
8.873865955417137
 31
0.0
  0
LINE
  5
7AE
330
6F7
100
AcDbEntity
  8
Dimension (ANSI)
440
 16777216
100
AcDbLine
 10
6.628573620522527
 20
8.648865955417136
 30
0.0
 11
6.628573620522527
 21
9.098865955417135
 31
0.0
  0
POINT
  5
7AF
330
6F7
100
AcDbEntity
  8
Defpoints
 62
     0
440
 16777216
100
AcDbPoint
 10
6.746228381144552
 20
8.831647981721395
 30
0.0
  0
POINT
  5
7B0
330
6F7
100
AcDbEntity
  8
Defpoints
 62
     0
440
 16777216
100
AcDbPoint
 10
6.510918859900501
 20
8.916083929112875
 30
0.0
  0
ENDBLK
  5
6F9
330
6F7
100
AcDbEntity
  8
0
100
AcDbBlockEnd
  0
BLOCK
  5
7B3
330
7B2
100
AcDbEntity
  8
0
100
AcDbBlockBegin
  2
*D11
 70
     1
 10
0.0
 20
0.0
 30
0.0
  3
*D11
  1

  0
LINE
  5
84F
330
7B2
100
AcDbEntity
  8
Dimension (ANSI)
440
 16777216
100
AcDbLine
 10
18.67565088751181
 20
9.719675548203134
 30
0.0
 11
18.40454617001804
 21
9.719675548203134
 31
0.0
  0
LINE
  5
850
330
7B2
100
AcDbEntity
  8
Dimension (ANSI)
440
 16777216
100
AcDbLine
 10
18.40454617001804
 20
9.719675548203134
 30
0.0
 11
18.09985703311043
 21
9.194780632837819
 31
0.0
  0
MTEXT
  5
851
330
7B2
100
AcDbEntity
  8
Dimension (ANSI)
440
 16777216
100
AcDbMText
 10
18.75439104499213
 20
9.96245916828261
 30
0.0
 40
0.3000000119209289
 41
0.0
 46
0.0
 71
     1
 72
     1
  1
\A1; \fromans|b0|i0;\H0.3000;0.250 X 0.312\POBROUND\PTYP. (4 PL.)
  7
Note Text (ANSI)
 73
     1
 44
1.0
  0
SOLID
  5
852
330
7B2
100
AcDbEntity
  8
Dimension (ANSI)
440
 16777216
100
AcDbTrace
 10
18.06438900979345
 20
9.215368985088764
 30
0.0
 11
18.13532505642742
 21
9.174192280586872
 31
0.0
 12
17.97632691960476
 22
8.981972492935895
 32
0.0
 13
17.97632691960476
 23
8.981972492935895
 33
0.0
  0
POINT
  5
853
330
7B2
100
AcDbEntity
  8
Defpoints
 62
     0
440
 16777216
100
AcDbPoint
 10
17.97632691960476
 20
8.981972492935895
 30
0.0
  0
POINT
  5
854
330
7B2
100
AcDbEntity
  8
Defpoints
 62
     0
440
 16777216
100
AcDbPoint
 10
17.91357362052252
 20
8.87386595541713
 30
0.0
  0
ENDBLK
  5
7B4
330
7B2
100
AcDbEntity
  8
0
100
AcDbBlockEnd
  0
ENDSEC
  0
SECTION
  2
ENTITIES
  0
CIRCLE
  5
11D
330
6C
100
AcDbEntity
  8
Visible (ANSI)
100
AcDbCircle
 10
6.628573620522525
 20
8.873865955417128
 30
0.0
 40
0.125
  0
LINE
  5
11E
330
6C
100
AcDbEntity
  8
Visible (ANSI)
100
AcDbLine
 10
5.597573620522525
 20
8.99886595541713
 30
0.0
 11
5.659573620522524
 21
8.99886595541713
 31
0.0
  0
ARC
  5
11F
330
6C
100
AcDbEntity
  8
Visible (ANSI)
100
AcDbCircle
 10
5.597573620522525
 20
8.87386595541713
 30
0.0
 40
0.125
100
AcDbArc
 50
90.0
 51
270.0
  0
LINE
  5
120
330
6C
100
AcDbEntity
  8
Visible (ANSI)
100
AcDbLine
 10
5.659573620522524
 20
8.748865955417132
 30
0.0
 11
5.597573620522525
 21
8.748865955417132
 31
0.0
  0
ARC
  5
121
330
6C
100
AcDbEntity
  8
Visible (ANSI)
100
AcDbCircle
 10
5.659573620522524
 20
8.87386595541713
 30
0.0
 40
0.125
100
AcDbArc
 50
270.0
 51
90.0
  0
LINE
  5
122
330
6C
100
AcDbEntity
  8
Visible (ANSI)
100
AcDbLine
 10
17.85157362052252
 20
23.25286595541713
 30
0.0
 11
17.91357362052252
 21
23.25286595541713
 31
0.0
  0
ARC
  5
123
330
6C
100
AcDbEntity
  8
Visible (ANSI)
100
AcDbCircle
 10
17.85157362052252
 20
23.12786595541713
 30
0.0
 40
0.125000000000001
100
AcDbArc
 50
90.0
 51
270.0
  0
LINE
  5
124
330
6C
100
AcDbEntity
  8
Visible (ANSI)
100
AcDbLine
 10
17.91357362052252
 20
23.00286595541713
 30
0.0
 11
17.85157362052252
 21
23.00286595541713
 31
0.0
  0
ARC
  5
125
330
6C
100
AcDbEntity
  8
Visible (ANSI)
100
AcDbCircle
 10
17.91357362052252
 20
23.12786595541713
 30
0.0
 40
0.125000000000001
100
AcDbArc
 50
270.0
 51
90.0
  0
LINE
  5
126
330
6C
100
AcDbEntity
  8
Visible (ANSI)
100
AcDbLine
 10
17.85157362052252
 20
8.998865955417134
 30
0.0
 11
17.91357362052252
 21
8.998865955417134
 31
0.0
  0
ARC
  5
127
330
6C
100
AcDbEntity
  8
Visible (ANSI)
100
AcDbCircle
 10
17.85157362052252
 20
8.873865955417132
 30
0.0
 40
0.125
100
AcDbArc
 50
90.0
 51
270.0
  0
LINE
  5
128
330
6C
100
AcDbEntity
  8
Visible (ANSI)
100
AcDbLine
 10
17.91357362052252
 20
8.748865955417135
 30
0.0
 11
17.85157362052252
 21
8.748865955417135
 31
0.0
  0
ARC
  5
129
330
6C
100
AcDbEntity
  8
Visible (ANSI)
100
AcDbCircle
 10
17.91357362052252
 20
8.873865955417132
 30
0.0
 40
0.125
100
AcDbArc
 50
270.0
 51
90.0
  0
LINE
  5
12A
330
6C
100
AcDbEntity
  8
Visible (ANSI)
100
AcDbLine
 10
5.597573620522521
 20
23.25286595541713
 30
0.0
 11
5.65957362052252
 21
23.25286595541713
 31
0.0
  0
ARC
  5
12B
330
6C
100
AcDbEntity
  8
Visible (ANSI)
100
AcDbCircle
 10
5.59757362052252
 20
23.12786595541713
 30
0.0
 40
0.125000000000001
100
AcDbArc
 50
90.0
 51
270.0
  0
LINE
  5
12C
330
6C
100
AcDbEntity
  8
Visible (ANSI)
100
AcDbLine
 10
5.65957362052252
 20
23.00286595541713
 30
0.0
 11
5.597573620522521
 21
23.00286595541713
 31
0.0
  0
ARC
  5
12D
330
6C
100
AcDbEntity
  8
Visible (ANSI)
100
AcDbCircle
 10
5.659573620522521
 20
23.12786595541713
 30
0.0
 40
0.125000000000001
100
AcDbArc
 50
270.0
 51
90.0
  0
LINE
  5
12E
330
6C
100
AcDbEntity
  8
Visible (ANSI)
100
AcDbLine
 10
5.315573620522525
 20
8.56086595541713
 30
0.0
 11
5.315573620522521
 21
23.44086595541713
 31
0.0
  0
LINE
  5
12F
330
6C
100
AcDbEntity
  8
Visible (ANSI)
100
AcDbLine
 10
5.315573620522521
 20
23.44086595541713
 30
0.0
 11
18.19557362052252
 21
23.44086595541714
 31
0.0
  0
LINE
  5
130
330
6C
100
AcDbEntity
  8
Visible (ANSI)
100
AcDbLine
 10
18.19557362052252
 20
23.44086595541714
 30
0.0
 11
18.19557362052252
 21
8.56086595541713
 31
0.0
  0
LINE
  5
131
330
6C
100
AcDbEntity
  8
Visible (ANSI)
100
AcDbLine
 10
18.19557362052252
 20
8.56086595541713
 30
0.0
 11
5.315573620522525
 21
8.56086595541713
 31
0.0
  0
MTEXT
  5
133
330
6C
100
AcDbEntity
  8
Symbol (ANSI)
100
AcDbMText
 10
10.61472659274745
 20
5.102945768482793
 30
0.0
 40
0.3000000037076905
 41
0.0
 46
0.0
 71
     7
 72
     1
  1
FRONT VIEW
  7
Text Style150
 73
     1
 44
1.0
  0
LINE
  5
135
330
6C
100
AcDbEntity
  8
Symbol (ANSI)
370
    30
100
AcDbLine
 10
10.58472651557649
 20
5.041766675045568
 30
0.0
 11
12.99663902629068
 21
5.041766675045568
 31
0.0
  0
MTEXT
  5
136
330
6C
100
AcDbEntity
  8
Symbol (ANSI)
100
AcDbMText
 10
11.69404582195853
 20
4.426237750288231
 30
0.0
 40
0.4499999908950385
 41
0.0
 46
0.0
 71
     7
 72
     1
  1
 
  7
Label Text (ANSI)
 73
     1
 44
1.0
  0
LINE
  5
137
330
6C
100
AcDbEntity
  8
Hidden (ANSI)
 48
0.0562790185213089
100
AcDbLine
 10
23.81040680812515
 20
23.25286595541714
 30
0.0
 11
23.88440680812515
 21
23.25286595541714
 31
0.0
  0
LINE
  5
138
330
6C
100
AcDbEntity
  8
Hidden (ANSI)
 48
0.0562790185213089
100
AcDbLine
 10
23.81040680812515
 20
23.00286595541713
 30
0.0
 11
23.88440680812515
 21
23.00286595541713
 31
0.0
  0
LINE
  5
139
330
6C
100
AcDbEntity
  8
Hidden (ANSI)
 48
0.0562790185213089
100
AcDbLine
 10
23.81040680812515
 20
8.998865955417137
 30
0.0
 11
23.88440680812515
 21
8.998865955417137
 31
0.0
  0
LINE
  5
13A
330
6C
100
AcDbEntity
  8
Hidden (ANSI)
 48
0.0562790185213089
100
AcDbLine
 10
23.81040680812515
 20
8.748865955417137
 30
0.0
 11
23.88440680812515
 21
8.748865955417137
 31
0.0
  0
LINE
  5
13B
330
6C
100
AcDbEntity
  8
Visible (ANSI)
100
AcDbLine
 10
23.88440680812523
 20
23.44086595541714
 30
0.0
 11
23.81040680812523
 21
23.44086595541714
 31
0.0
  0
LINE
  5
13C
330
6C
100
AcDbEntity
  8
Visible (ANSI)
100
AcDbLine
 10
23.81040680812523
 20
23.44086595541714
 30
0.0
 11
23.81040680812523
 21
8.560865955417133
 31
0.0
  0
LINE
  5
13D
330
6C
100
AcDbEntity
  8
Visible (ANSI)
100
AcDbLine
 10
23.88440680812523
 20
8.560865955417133
 30
0.0
 11
23.81040680812523
 21
8.560865955417133
 31
0.0
  0
LINE
  5
13E
330
6C
100
AcDbEntity
  8
Visible (ANSI)
100
AcDbLine
 10
23.88440680812523
 20
8.560865955417133
 30
0.0
 11
23.88440680812523
 21
23.44086595541714
 31
0.0
  0
MTEXT
  5
13F
330
6C
100
AcDbEntity
  8
Symbol (ANSI)
100
AcDbMText
 10
22.50832503685511
 20
5.069578218054352
 30
0.0
 40
0.3000000037076905
 41
0.0
 46
0.0
 71
     7
 72
     1
  1
RIGHT VIEW
  7
Text Style150
 73
     1
 44
1.0
  0
LINE
  5
140
330
6C
100
AcDbEntity
  8
Symbol (ANSI)
370
    30
100
AcDbLine
 10
22.47832495968414
 20
5.007912900900691
 30
0.0
 11
24.81560212992548
 21
5.007912900900691
 31
0.0
  0
DIMENSION
  5
141
330
6C
100
AcDbEntity
  8
Dimension (ANSI)
100
AcDbDimension
280
     0
  2
*D4
 10
5.315573620522525
 20
6.25115466932789
 30
0.0
 11
11.84656357183683
 21
6.25115466932789
 31
0.0
 70
   160
  1
<>
 42
12.88
 73
     0
 74
     0
 75
     0
  3
Default (ANSI)-01
100
AcDbAlignedDimension
 13
18.19557362052252
 23
8.56086595541713
 33
0.0
 14
5.315573620522525
 24
8.56086595541713
 34
0.0
 50
180.0
100
AcDbRotatedDimension
1001
ACAD
1000
DSTYLE
1002
{
1070
   289
1070
     1
1070
    73
1070
     0
1070
    74
1070
     0
1070
   271
1070
     2
1070
   272
1070
     2
1070
    48
1040
0.0
1070
    47
1040
0.0
1002
}
  0
DIMENSION
  5
22D
330
6C
100
AcDbEntity
  8
Dimension (ANSI)
100
AcDbDimension
280
     0
  2
*D5
 10
3.005862334433286
 20
23.44086595541713
 30
0.0
 11
3.005862334433282
 21
16.00086595541713
 31
0.0
 70
   160
  1
<>
 42
14.88
 73
     0
 74
     0
 75
     0
  3
Default (ANSI)-01
100
AcDbAlignedDimension
 13
5.315573620522525
 23
8.56086595541713
 33
0.0
 14
5.315573620522521
 24
23.44086595541713
 34
0.0
 50
90.0
100
AcDbRotatedDimension
1001
ACAD
1000
DSTYLE
1002
{
1070
   289
1070
     1
1070
   271
1070
     2
1070
   272
1070
     2
1070
    48
1040
0.0
1070
    47
1040
0.0
1002
}
  0
DIMENSION
  5
317
330
6C
100
AcDbEntity
  8
Dimension (ANSI)
100
AcDbDimension
280
     0
  2
*D6
 10
4.977548149583628
 20
8.873865955417132
 30
0.0
 11
4.956947731042245
 21
9.897682994041456
 31
0.0
 70
   160
  1
<>{\PTYP.}
 42
0.3130000000000024
 73
     0
 74
     0
 75
     0
  3
Default (ANSI)-01
100
AcDbAlignedDimension
 13
5.315573620522525
 23
8.56086595541713
 33
0.0
 14
5.472573620522524
 24
8.873865955417132
 34
0.0
 50
90.0
100
AcDbRotatedDimension
1001
ACAD
1000
DSTYLE
1002
{
1070
   289
1070
     1
1070
   279
1070
     1
1070
   145
1040
-0.25
1070
   271
1070
     2
1070
   272
1070
     2
1070
    48
1040
0.0
1070
    47
1040
0.0
1002
}
  0
DIMENSION
  5
42F
330
6C
100
AcDbEntity
  8
Dimension (ANSI)
100
AcDbDimension
280
     0
  2
*D7
 10
5.628573620522524
 20
6.993307086084446
 30
0.0
 11
4.187260573210893
 21
6.993307086084446
 31
0.0
 70
   160
  1
<>{\PTYP.}
 42
0.3129999999999988
 73
     0
 74
     0
 75
     0
  3
Default (ANSI)-01
100
AcDbAlignedDimension
 13
5.315573620522525
 23
8.56086595541713
 33
0.0
 14
5.628573620522524
 24
8.748865955417134
 34
0.0
 50
180.0
100
AcDbRotatedDimension
1001
ACAD
1000
DSTYLE
1002
{
1070
   289
1070
     1
1070
    73
1070
     0
1070
    74
1070
     0
1070
   145
1040
-0.25
1070
   271
1070
     2
1070
   272
1070
     2
1070
    48
1040
0.0
1070
    47
1040
0.0
1002
}
  0
DIMENSION
  5
52D
330
6C
100
AcDbEntity
  8
Dimension (ANSI)
100
AcDbDimension
280
     0
  2
*D8
 10
6.628573620522525
 20
6.977307086084449
 30
0.0
 11
7.633878368436291
 21
6.977307086084449
 31
0.0
 70
   160
  1
<>
 73
     0
 74
     0
 75
     0
  3
Default (ANSI)
100
AcDbAlignedDimension
 13
5.628573620522525
 23
8.748865955417134
 33
0.0
 14
6.628573620522525
 24
8.748865955417132
 34
0.0
 50
180.0
100
AcDbRotatedDimension
1001
ACAD
1000
DSTYLE
1002
{
1070
   289
1070
     2
1070
    73
1070
     0
1070
    74
1070
     0
1070
   271
1070
     3
1070
   272
1070
     2
1070
    48
1040
0.0
1070
    47
1040
0.0
1002
}
  0
DIMENSION
  5
617
330
6C
100
AcDbEntity
  8
Dimension (ANSI)
100
AcDbDimension
280
     0
  2
*D9
 10
23.34034957405114
 20
19.05955361945913
 30
0.0
 11
25.65418603639794
 21
19.05955361945913
 31
0.0
 70
   160
  1
 14 GA.
 42
0.0739999999999981
 73
     0
 74
     0
 75
     0
  3
Default (ANSI)
100
AcDbAlignedDimension
 13
23.88440680812523
 23
8.560865955417133
 33
0.0
 14
23.81040680812523
 24
8.560865955417133
 34
0.0
100
AcDbRotatedDimension
1001
ACAD
1000
DSTYLE
1002
{
1070
   289
1070
     1
1070
    73
1070
     0
1070
    74
1070
     0
1070
   271
1070
     3
1070
    76
1070
     1
1070
    75
1070
     1
1070
   272
1070
     2
1070
    48
1040
0.0
1070
    47
1040
0.0
1002
}
  0
DIMENSION
  5
6F6
330
6C
100
AcDbEntity
  8
Dimension (ANSI)
100
AcDbDimension
280
     0
  2
*D10
 10
6.510918859900501
 20
8.916083929112875
 30
0.0
 11
9.690375214708613
 21
8.182959167395305
 31
0.0
 70
   163
  1
<>{\PGROUND\P HOLE}
 42
0.25
 73
     0
 74
     0
 75
     0
  3
Default (ANSI)
100
AcDbDiametricDimension
 15
6.746228381144552
 25
8.831647981721395
 35
0.0
 40
0.0
1001
ACAD_DSTYLE_DIMRADIAL_EXTENSION
1070
   387
1070
     1
1070
   388
1040
0.0
1070
   390
1040
0.0
1001
ACAD
1000
DSTYLE
1002
{
1070
   145
1040
-0.3333333333333334
1070
   144
1040
0.9999999999999875
1070
   271
1070
     3
1070
   272
1070
     2
1070
    48
1040
0.0
1070
    47
1040
0.0
1002
}
  0
DIMENSION
  5
7B1
330
6C
100
AcDbEntity
  8
Dimension (ANSI)
100
AcDbDimension
280
     0
  2
*D11
 10
17.91357362052252
 20
8.87386595541713
 30
0.0
 11
20.54741176681181
 21
9.719675548203134
 31
0.0
 70
   164
  1
 \fromans|b0|i0;\H0.3000;0.250 X 0.312\POBROUND\PTYP. (4 PL.)
 42
0.125
 73
     0
 74
     0
 75
     0
  3
Default (ANSI)
100
AcDbRadialDimension
 15
17.97632691960476
 25
8.981972492935895
 35
0.0
 40
0.0
1001
ACAD_DSTYLE_DIMRADIAL_EXTENSION
1070
   387
1070
     1
1070
   388
1040
0.0
1070
   390
1040
0.0
1001
ACAD
1000
DSTYLE
1002
{
1070
   145
1040
-0.3333333333333334
1070
   271
1070
     3
1070
   141
1040
0.0
1070
   272
1070
     2
1070
    48
1040
0.0
1070
    47
1040
0.0
1002
}
  0
MTEXT
  5
855
330
6C
100
AcDbEntity
  8
Symbol (ANSI)
100
AcDbMText
 10
28.4832209047155
 20
7.37133970862632
 30
0.0
 40
0.3000000037076905
 41
13.72259544459933
 46
0.0
 71
     1
 72
     1
  1
{\fRomanS|b0|i0;\H0.3000;PART#: P1614SS\P(DATA SUBJECT TO CHANGE WITHOUT \PNOTICE)\PTHIS DRAWING AND COMPONENTS OF ARE\PPROPERTY OF HUBBELL INC. WIEGMANN\P}
  7
Note Text (ANSI)
 73
     2
 44
0.8751232028007507
  0
ELLIPSE
  5
856
330
6C
100
AcDbEntity
  8
Visible (ANSI)
100
AcDbEllipse
 10
33.17648959709634
 20
14.17430864976367
 30
0.0
 11
0.0506829589890463
 21
-0.0880123802334913
 31
0.0
210
0.0
220
0.0
230
1.0
 40
0.5780931159158108
 41
3.572615253427306
 42
5.852162707341186
  0
ELLIPSE
  5
857
330
6C
100
AcDbEntity
  8
Visible (ANSI)
100
AcDbEllipse
 10
33.13397480187749
 20
14.1498260074719
 30
0.0
 11
-0.0506829589890411
 21
0.0880123802334943
 31
0.0
210
0.0
220
0.0
230
1.0
 40
0.5780931159158107
 41
0.0
 42
6.283185307179586
  0
LINE
  5
858
330
6C
100
AcDbEntity
  8
Visible (ANSI)
100
AcDbLine
 10
32.54164029011221
 20
14.57396089683609
 30
0.0
 11
32.57726079421448
 21
14.5534484127538
 31
0.0
  0
ELLIPSE
  5
859
330
6C
100
AcDbEntity
  8
Visible (ANSI)
100
AcDbEllipse
 10
32.58415508533103
 20
14.51541140926103
 30
0.0
 11
0.0506829589890463
 21
-0.0880123802334912
 31
0.0
210
0.0
220
0.0
230
1.0
 40
0.5780931159158106
 41
3.572615253427306
 42
5.499720852204655
  0
ELLIPSE
  5
85A
330
6C
100
AcDbEntity
  8
Visible (ANSI)
100
AcDbEllipse
 10
32.54164029011221
 20
14.49092876696927
 30
0.0
 11
-0.0506829589890359
 21
0.0880123802334973
 31
0.0
210
0.0
220
0.0
230
1.0
 40
0.5780931159158106
 41
5.499720852205195
 42
8.641313505794988
  0
LINE
  5
85B
330
6C
100
AcDbEntity
  8
Visible Narrow (ANSI)
100
AcDbLine
 10
32.54164029011221
 20
14.40789663710245
 30
0.0
 11
32.58415508533103
 21
14.43237927939421
 31
0.0
  0
LINE
  5
85C
330
6C
100
AcDbEntity
  8
Visible (ANSI)
100
AcDbLine
 10
32.58415508533103
 20
14.43237927939421
 30
0.0
 11
32.61977558943332
 21
14.41186679531193
 31
0.0
  0
LINE
  5
85D
330
6C
100
AcDbEntity
  8
Visible (ANSI)
100
AcDbLine
 10
32.57726079421448
 20
14.38738415302016
 30
0.0
 11
32.54164029011221
 21
14.40789663710245
 31
0.0
  0
LINE
  5
85E
330
6C
100
AcDbEntity
  8
Visible Narrow (ANSI)
100
AcDbLine
 10
32.57726079421448
 20
14.38738415302016
 30
0.0
 11
32.61977558943332
 21
14.41186679531193
 31
0.0
  0
ELLIPSE
  5
85F
330
6C
100
AcDbEntity
  8
Visible (ANSI)
100
AcDbEllipse
 10
32.61977558943332
 20
14.49489892517875
 30
0.0
 11
0.0506829589890404
 21
-0.0880123802334932
 31
0.0
210
0.0
220
0.0
230
1.0
 40
0.5780931159158106
 41
5.499720852205022
 42
5.852162707341656
  0
ELLIPSE
  5
860
330
6C
100
AcDbEntity
  8
Visible (ANSI)
100
AcDbEllipse
 10
32.57726079421448
 20
14.47041628288698
 30
0.0
 11
0.0506829589890358
 21
-0.0880123802334973
 31
0.0
210
0.0
220
0.0
230
1.0
 40
0.5780931159158106
 41
5.499720852205195
 42
8.641313505794988
  0
LINE
  5
861
330
6C
100
AcDbEntity
  8
Visible (ANSI)
100
AcDbLine
 10
39.58186056864946
 20
19.98808750490081
 30
0.0
 11
39.61748107275173
 21
19.96757502081852
 31
0.0
  0
ELLIPSE
  5
862
330
6C
100
AcDbEntity
  8
Visible (ANSI)
100
AcDbEllipse
 10
39.62437536386829
 20
19.92953801732575
 30
0.0
 11
0.0506829589890462
 21
-0.088012380233491
 31
0.0
210
0.0
220
0.0
230
1.0
 40
0.5780931159158106
 41
3.572615253427326
 42
5.499720852204655
  0
ELLIPSE
  5
863
330
6C
100
AcDbEntity
  8
Visible (ANSI)
100
AcDbEllipse
 10
39.58186056864946
 20
19.90505537503398
 30
0.0
 11
-0.0506829589890363
 21
0.088012380233498
 31
0.0
210
0.0
220
0.0
230
1.0
 40
0.5780931159158107
 41
5.499720852205193
 42
8.641313505794988
  0
LINE
  5
864
330
6C
100
AcDbEntity
  8
Visible Narrow (ANSI)
100
AcDbLine
 10
39.58186056864946
 20
19.82202324516716
 30
0.0
 11
39.62437536386829
 21
19.84650588745893
 31
0.0
  0
LINE
  5
865
330
6C
100
AcDbEntity
  8
Visible (ANSI)
100
AcDbLine
 10
39.62437536386829
 20
19.84650588745893
 30
0.0
 11
39.65999586797057
 21
19.82599340337665
 31
0.0
  0
LINE
  5
866
330
6C
100
AcDbEntity
  8
Visible (ANSI)
100
AcDbLine
 10
39.61748107275173
 20
19.80151076108488
 30
0.0
 11
39.58186056864946
 21
19.82202324516716
 31
0.0
  0
LINE
  5
867
330
6C
100
AcDbEntity
  8
Visible Narrow (ANSI)
100
AcDbLine
 10
39.61748107275173
 20
19.80151076108488
 30
0.0
 11
39.65999586797057
 21
19.82599340337665
 31
0.0
  0
ELLIPSE
  5
868
330
6C
100
AcDbEntity
  8
Visible (ANSI)
100
AcDbEllipse
 10
39.65999586797057
 20
19.90902553324351
 30
0.0
 11
0.0506829589890619
 21
-0.0880123802335304
 31
0.0
210
0.0
220
0.0
230
1.0
 40
0.5780931159158108
 41
5.49972085220512
 42
5.852162707341503
  0
ELLIPSE
  5
869
330
6C
100
AcDbEntity
  8
Visible (ANSI)
100
AcDbEllipse
 10
39.61748107275173
 20
19.8845428909517
 30
0.0
 11
0.0506829589890363
 21
-0.088012380233498
 31
0.0
210
0.0
220
0.0
230
1.0
 40
0.5780931159158107
 41
5.499720852205195
 42
8.641313505794988
  0
LINE
  5
86A
330
6C
100
AcDbEntity
  8
Visible (ANSI)
100
AcDbLine
 10
39.58186056864946
 20
10.51976767192754
 30
0.0
 11
39.61748107275173
 21
10.49925518784526
 31
0.0
  0
ELLIPSE
  5
86B
330
6C
100
AcDbEntity
  8
Visible (ANSI)
100
AcDbEllipse
 10
39.62437536386829
 20
10.46121818435249
 30
0.0
 11
0.0506829589890464
 21
-0.0880123802334913
 31
0.0
210
0.0
220
0.0
230
1.0
 40
0.5780931159158107
 41
3.572615253427306
 42
5.499720852204655
  0
ELLIPSE
  5
86C
330
6C
100
AcDbEntity
  8
Visible (ANSI)
100
AcDbEllipse
 10
39.58186056864946
 20
10.43673554206072
 30
0.0
 11
-0.0506829589890359
 21
0.0880123802334973
 31
0.0
210
0.0
220
0.0
230
1.0
 40
0.5780931159158107
 41
5.499720852205193
 42
8.641313505794988
  0
LINE
  5
86D
330
6C
100
AcDbEntity
  8
Visible Narrow (ANSI)
100
AcDbLine
 10
39.58186056864946
 20
10.3537034121939
 30
0.0
 11
39.62437536386829
 21
10.37818605448567
 31
0.0
  0
LINE
  5
86E
330
6C
100
AcDbEntity
  8
Visible (ANSI)
100
AcDbLine
 10
39.62437536386829
 20
10.37818605448567
 30
0.0
 11
39.65999586797057
 21
10.35767357040338
 31
0.0
  0
LINE
  5
86F
330
6C
100
AcDbEntity
  8
Visible (ANSI)
100
AcDbLine
 10
39.61748107275173
 20
10.33319092811161
 30
0.0
 11
39.58186056864946
 21
10.3537034121939
 31
0.0
  0
LINE
  5
870
330
6C
100
AcDbEntity
  8
Visible Narrow (ANSI)
100
AcDbLine
 10
39.61748107275173
 20
10.33319092811161
 30
0.0
 11
39.65999586797057
 21
10.35767357040338
 31
0.0
  0
ELLIPSE
  5
871
330
6C
100
AcDbEntity
  8
Visible (ANSI)
100
AcDbEllipse
 10
39.65999586797057
 20
10.44070570027021
 30
0.0
 11
0.0506829589890442
 21
-0.0880123802334996
 31
0.0
210
0.0
220
0.0
230
1.0
 40
0.5780931159158108
 41
5.499720852205022
 42
5.852162707341525
  0
ELLIPSE
  5
872
330
6C
100
AcDbEntity
  8
Visible (ANSI)
100
AcDbEllipse
 10
39.61748107275173
 20
10.41622305797843
 30
0.0
 11
0.0506829589890358
 21
-0.0880123802334973
 31
0.0
210
0.0
220
0.0
230
1.0
 40
0.5780931159158106
 41
5.499720852205195
 42
8.641313505794988
  0
LINE
  5
873
330
6C
100
AcDbEntity
  8
Visible (ANSI)
100
AcDbLine
 10
32.54164029011221
 20
24.04228072980935
 30
0.0
 11
32.57726079421448
 21
24.02176824572707
 31
0.0
  0
ELLIPSE
  5
874
330
6C
100
AcDbEntity
  8
Visible (ANSI)
100
AcDbEllipse
 10
32.58415508533103
 20
23.9837312422343
 30
0.0
 11
0.0506829589890462
 21
-0.088012380233491
 31
0.0
210
0.0
220
0.0
230
1.0
 40
0.5780931159158107
 41
3.572615253427326
 42
5.499720852204655
  0
ELLIPSE
  5
875
330
6C
100
AcDbEntity
  8
Visible (ANSI)
100
AcDbEllipse
 10
32.54164029011221
 20
23.95924859994253
 30
0.0
 11
-0.0506829589890363
 21
0.088012380233498
 31
0.0
210
0.0
220
0.0
230
1.0
 40
0.5780931159158108
 41
5.499720852205195
 42
8.641313505794988
  0
LINE
  5
876
330
6C
100
AcDbEntity
  8
Visible Narrow (ANSI)
100
AcDbLine
 10
32.54164029011221
 20
23.87621647007572
 30
0.0
 11
32.58415508533103
 21
23.90069911236748
 31
0.0
  0
LINE
  5
877
330
6C
100
AcDbEntity
  8
Visible (ANSI)
100
AcDbLine
 10
32.58415508533103
 20
23.90069911236748
 30
0.0
 11
32.61977558943332
 21
23.88018662828519
 31
0.0
  0
LINE
  5
878
330
6C
100
AcDbEntity
  8
Visible (ANSI)
100
AcDbLine
 10
32.57726079421448
 20
23.85570398599343
 30
0.0
 11
32.54164029011221
 21
23.87621647007572
 31
0.0
  0
LINE
  5
879
330
6C
100
AcDbEntity
  8
Visible Narrow (ANSI)
100
AcDbLine
 10
32.57726079421448
 20
23.85570398599343
 30
0.0
 11
32.61977558943332
 21
23.88018662828519
 31
0.0
  0
ELLIPSE
  5
87A
330
6C
100
AcDbEntity
  8
Visible (ANSI)
100
AcDbEllipse
 10
32.61977558943331
 20
23.96321875815206
 30
0.0
 11
0.0506829589890676
 21
-0.0880123802335403
 31
0.0
210
0.0
220
0.0
230
1.0
 40
0.5780931159158108
 41
5.49972085220512
 42
5.852162707341568
  0
ELLIPSE
  5
87B
330
6C
100
AcDbEntity
  8
Visible (ANSI)
100
AcDbEllipse
 10
32.57726079421448
 20
23.93873611586025
 30
0.0
 11
0.0506829589890363
 21
-0.088012380233498
 31
0.0
210
0.0
220
0.0
230
1.0
 40
0.5780931159158108
 41
5.499720852205195
 42
8.641313505794988
  0
LINE
  5
87C
330
6C
100
AcDbEntity
  8
Visible (ANSI)
100
AcDbLine
 10
32.37962444887281
 20
14.3763150317054
 30
0.0
 11
32.37962444887281
 21
24.26045977105171
 31
0.0
  0
LINE
  5
87D
330
6C
100
AcDbEntity
  8
Visible (ANSI)
100
AcDbLine
 10
32.42213924409165
 20
24.28494241334348
 30
0.0
 11
32.37962444887281
 21
24.26045977105171
 31
0.0
  0
LINE
  5
87E
330
6C
100
AcDbEntity
  8
Visible (ANSI)
100
AcDbLine
 10
32.37962444887281
 20
24.26045977105171
 30
0.0
 11
39.77949691399113
 21
19.99915662621556
 31
0.0
  0
LINE
  5
87F
330
6C
100
AcDbEntity
  8
Visible (ANSI)
100
AcDbLine
 10
39.82201170920997
 20
20.02363926850733
 30
0.0
 11
39.77949691399113
 21
19.99915662621556
 31
0.0
  0
LINE
  5
880
330
6C
100
AcDbEntity
  8
Visible (ANSI)
100
AcDbLine
 10
39.82201170920997
 20
20.02363926850733
 30
0.0
 11
32.42213924409165
 21
24.28494241334348
 31
0.0
  0
LINE
  5
881
330
6C
100
AcDbEntity
  8
Visible (ANSI)
100
AcDbLine
 10
39.77949691399113
 20
19.99915662621556
 30
0.0
 11
39.77949691399113
 21
10.11501188686926
 31
0.0
  0
LINE
  5
882
330
6C
100
AcDbEntity
  8
Visible (ANSI)
100
AcDbLine
 10
39.82201170920997
 20
10.13949452916103
 30
0.0
 11
39.77949691399113
 21
10.11501188686926
 31
0.0
  0
LINE
  5
883
330
6C
100
AcDbEntity
  8
Visible (ANSI)
100
AcDbLine
 10
39.82201170920997
 20
10.13949452916103
 30
0.0
 11
39.82201170920997
 21
20.02363926850733
 31
0.0
  0
LINE
  5
884
330
6C
100
AcDbEntity
  8
Visible (ANSI)
100
AcDbLine
 10
39.77949691399113
 20
10.11501188686926
 30
0.0
 11
32.37962444887281
 21
14.3763150317054
 31
0.0
  0
ENDSEC
  0
SECTION
  2
OBJECTS
  0
DICTIONARY
  5
C
330
0
100
AcDbDictionary
281
     1
  3
ACAD_CIP_PREVIOUS_PRODUCT_INFO
350
885
  3
ACAD_COLOR
350
63
  3
ACAD_GROUP
350
D
  3
ACAD_LAYOUT
350
62
  3
ACAD_MATERIAL
350
10
  3
ACAD_MLEADERSTYLE
350
66
  3
ACAD_MLINESTYLE
350
5F
  3
ACAD_PLOTSETTINGS
350
61
  3
ACAD_PLOTSTYLENAME
350
E
  3
ACAD_SCALELIST
350
42
  3
ACAD_TABLESTYLE
350
64
  3
ACAD_VISUALSTYLE
350
29
  3
ACDB_RECOMPOSE_DATA
350
88A
  3
AcDbVariableDictionary
350
76
  0
XRECORD
  5
885
102
{ACAD_REACTORS
330
C
102
}
330
C
100
AcDbXrecord
280
     1
300
INVNTOR
300
2012
300
85795PDSP_2012_0F
  0
DICTIONARY
  5
63
102
{ACAD_REACTORS
330
C
102
}
330
C
100
AcDbDictionary
281
     1
  0
DICTIONARY
  5
D
102
{ACAD_REACTORS
330
C
102
}
330
C
100
AcDbDictionary
281
     1
  0
DICTIONARY
  5
62
102
{ACAD_REACTORS
330
C
102
}
330
C
100
AcDbDictionary
281
     1
  3
Layout1
350
6B
  3
Layout2
350
73
  3
Model
350
6F
  0
DICTIONARY
  5
10
102
{ACAD_REACTORS
330
C
102
}
330
C
100
AcDbDictionary
281
     1
  3
ByBlock
350
19
  3
ByLayer
350
11
  3
Global
350
21
  0
DICTIONARY
  5
66
102
{ACAD_REACTORS
330
C
102
}
330
C
100
AcDbDictionary
281
     1
  3
Standard
350
67
  0
DICTIONARY
  5
5F
102
{ACAD_REACTORS
330
C
102
}
330
C
100
AcDbDictionary
281
     1
  3
Standard
350
60
  0
DICTIONARY
  5
61
102
{ACAD_REACTORS
330
C
102
}
330
C
100
AcDbDictionary
281
     1
  0
ACDBDICTIONARYWDFLT
  5
E
102
{ACAD_REACTORS
330
C
102
}
330
C
100
AcDbDictionary
281
     1
  3
Normal
350
F
100
AcDbDictionaryWithDefault
340
F
  0
DICTIONARY
  5
42
102
{ACAD_REACTORS
330
C
102
}
330
C
100
AcDbDictionary
281
     1
  3
A0
350
43
  3
A1
350
44
  3
A2
350
45
  3
A3
350
46
  3
A4
350
47
  3
A5
350
48
  3
A6
350
49
  3
A7
350
4A
  3
A8
350
4B
  3
A9
350
4C
  3
B0
350
4D
  3
B1
350
4E
  3
B2
350
4F
  3
B3
350
50
  3
B4
350
51
  3
B5
350
52
  3
B6
350
53
  0
DICTIONARY
  5
64
102
{ACAD_REACTORS
330
C
102
}
330
C
100
AcDbDictionary
281
     1
  3
Standard
350
65
  0
DICTIONARY
  5
29
102
{ACAD_REACTORS
330
C
102
}
330
C
100
AcDbDictionary
281
     1
  3
2dWireframe
350
2F
  3
Basic
350
2E
  3
Brighten
350
35
  3
ColorChange
350
39
  3
Conceptual
350
32
  3
Dim
350
34
  3
EdgeColorOff
350
41
  3
Facepattern
350
38
  3
Flat
350
2A
  3
FlatWithEdges
350
2B
  3
Gouraud
350
2C
  3
GouraudWithEdges
350
2D
  3
Hidden
350
31
  3
JitterOff
350
3F
  3
Linepattern
350
37
  3
OverhangOff
350
40
  3
Realistic
350
33
  3
Shaded
350
3E
  3
Shaded with edges
350
3D
  3
Shades of Gray
350
3A
  3
Sketchy
350
3B
  3
Thicken
350
36
  3
Wireframe
350
30
  3
X-Ray
350
3C
  0
XRECORD
  5
88A
102
{ACAD_REACTORS
330
C
102
}
330
C
100
AcDbXrecord
280
     1
 90
        1
330
65
330
52D
  0
DICTIONARY
  5
76
102
{ACAD_REACTORS
330
C
102
}
330
C
100
AcDbDictionary
281
     1
  3
CANNOSCALE
350
79
  3
CMLEADERSTYLE
350
78
  3
CTABLESTYLE
350
77
  0
LAYOUT
  5
6B
102
{ACAD_REACTORS
330
62
102
}
330
62
100
AcDbPlotSettings
  1

  2

  4

  6

 40
0.0
 41
0.0
 42
0.0
 43
0.0
 44
0.0
 45
0.0
 46
0.0
 47
0.0
 48
0.0
 49
0.0
140
0.0
141
0.0
142
1.0
143
1.0
 70
   688
 72
     0
 73
     0
 74
     5
  7

 75
    16
147
1.0
 76
     0
 77
     2
 78
   300
148
0.0
149
0.0
100
AcDbLayout
  1
Layout1
 70
     1
 71
     1
 10
0.0
 20
0.0
 11
12.0
 21
9.0
 12
0.0
 22
0.0
 32
0.0
 14
0.0
 24
0.0
 34
0.0
 15
0.0
 25
0.0
 35
0.0
146
0.0
 13
0.0
 23
0.0
 33
0.0
 16
1.0
 26
0.0
 36
0.0
 17
0.0
 27
1.0
 37
0.0
 76
     0
330
68
  0
LAYOUT
  5
73
102
{ACAD_REACTORS
330
62
102
}
330
62
100
AcDbPlotSettings
  1

  2

  4

  6

 40
0.0
 41
0.0
 42
0.0
 43
0.0
 44
0.0
 45
0.0
 46
0.0
 47
0.0
 48
0.0
 49
0.0
140
0.0
141
0.0
142
1.0
143
1.0
 70
   688
 72
     0
 73
     0
 74
     5
  7

 75
    16
147
1.0
 76
     0
 77
     2
 78
   300
148
0.0
149
0.0
100
AcDbLayout
  1
Layout2
 70
     1
 71
     2
 10
0.0
 20
0.0
 11
12.0
 21
9.0
 12
0.0
 22
0.0
 32
0.0
 14
0.0
 24
0.0
 34
0.0
 15
0.0
 25
0.0
 35
0.0
146
0.0
 13
0.0
 23
0.0
 33
0.0
 16
1.0
 26
0.0
 36
0.0
 17
0.0
 27
1.0
 37
0.0
 76
     0
330
70
  0
LAYOUT
  5
6F
102
{ACAD_REACTORS
330
62
102
}
330
62
100
AcDbPlotSettings
  1

  2

  4

  6

 40
0.0
 41
0.0
 42
0.0
 43
0.0
 44
0.0
 45
0.0
 46
0.0
 47
0.0
 48
0.0
 49
0.0
140
0.0
141
0.0
142
1.0
143
1.0
 70
  1712
 72
     0
 73
     0
 74
     0
  7

 75
     0
147
1.0
 76
     0
 77
     2
 78
   300
148
0.0
149
0.0
100
AcDbLayout
  1
Model
 70
     1
 71
     0
 10
0.0
 20
0.0
 11
12.0
 21
9.0
 12
0.0
 22
0.0
 32
0.0
 14
0.0
 24
0.0
 34
0.0
 15
0.0
 25
0.0
 35
0.0
146
0.0
 13
0.0
 23
0.0
 33
0.0
 16
1.0
 26
0.0
 36
0.0
 17
0.0
 27
1.0
 37
0.0
 76
     0
330
6C
  0
MATERIAL
  5
19
102
{ACAD_XDICTIONARY
360
1A
102
}
102
{ACAD_REACTORS
330
10
102
}
330
10
100
AcDbMaterial
  1
ByBlock
 72
     0
 43
0.0208333333333333
 43
0.0
 43
0.0
 43
0.0
 43
0.0
 43
0.0208333333333333
 43
0.0
 43
0.0
 43
0.0
 43
0.0
 43
1.0
 43
0.0
 43
0.0
 43
0.0
 43
0.0
 43
1.0
 77
     0
 47
0.0208333333333333
 47
0.0
 47
0.0
 47
0.0
 47
0.0
 47
0.0208333333333333
 47
0.0
 47
0.0
 47
0.0
 47
0.0
 47
1.0
 47
0.0
 47
0.0
 47
0.0
 47
0.0
 47
1.0
171
     0
 49
0.0208333333333333
 49
0.0
 49
0.0
 49
0.0
 49
0.0
 49
0.0208333333333333
 49
0.0
 49
0.0
 49
0.0
 49
0.0
 49
1.0
 49
0.0
 49
0.0
 49
0.0
 49
0.0
 49
1.0
175
     0
142
0.0208333333333333
142
0.0
142
0.0
142
0.0
142
0.0
142
0.0208333333333333
142
0.0
142
0.0
142
0.0
142
0.0
142
1.0
142
0.0
142
0.0
142
0.0
142
0.0
142
1.0
179
     0
144
0.0208333333333333
144
0.0
144
0.0
144
0.0
144
0.0
144
0.0208333333333333
144
0.0
144
0.0
144
0.0
144
0.0
144
1.0
144
0.0
144
0.0
144
0.0
144
0.0
144
1.0
147
0.0208333333333333
147
0.0
147
0.0
147
0.0
147
0.0
147
0.0208333333333333
147
0.0
147
0.0
147
0.0
147
0.0
147
1.0
147
0.0
147
0.0
147
0.0
147
0.0
147
1.0
  0
MATERIAL
  5
11
102
{ACAD_XDICTIONARY
360
12
102
}
102
{ACAD_REACTORS
330
10
102
}
330
10
100
AcDbMaterial
  1
ByLayer
 72
     0
 43
0.0208333333333333
 43
0.0
 43
0.0
 43
0.0
 43
0.0
 43
0.0208333333333333
 43
0.0
 43
0.0
 43
0.0
 43
0.0
 43
1.0
 43
0.0
 43
0.0
 43
0.0
 43
0.0
 43
1.0
 77
     0
 47
0.0208333333333333
 47
0.0
 47
0.0
 47
0.0
 47
0.0
 47
0.0208333333333333
 47
0.0
 47
0.0
 47
0.0
 47
0.0
 47
1.0
 47
0.0
 47
0.0
 47
0.0
 47
0.0
 47
1.0
171
     0
 49
0.0208333333333333
 49
0.0
 49
0.0
 49
0.0
 49
0.0
 49
0.0208333333333333
 49
0.0
 49
0.0
 49
0.0
 49
0.0
 49
1.0
 49
0.0
 49
0.0
 49
0.0
 49
0.0
 49
1.0
175
     0
142
0.0208333333333333
142
0.0
142
0.0
142
0.0
142
0.0
142
0.0208333333333333
142
0.0
142
0.0
142
0.0
142
0.0
142
1.0
142
0.0
142
0.0
142
0.0
142
0.0
142
1.0
179
     0
144
0.0208333333333333
144
0.0
144
0.0
144
0.0
144
0.0
144
0.0208333333333333
144
0.0
144
0.0
144
0.0
144
0.0
144
1.0
144
0.0
144
0.0
144
0.0
144
0.0
144
1.0
147
0.0208333333333333
147
0.0
147
0.0
147
0.0
147
0.0
147
0.0208333333333333
147
0.0
147
0.0
147
0.0
147
0.0
147
1.0
147
0.0
147
0.0
147
0.0
147
0.0
147
1.0
  0
MATERIAL
  5
21
102
{ACAD_XDICTIONARY
360
22
102
}
102
{ACAD_REACTORS
330
10
102
}
330
10
100
AcDbMaterial
  1
Global
 72
     0
 43
0.0208333333333333
 43
0.0
 43
0.0
 43
0.0
 43
0.0
 43
0.0208333333333333
 43
0.0
 43
0.0
 43
0.0
 43
0.0
 43
1.0
 43
0.0
 43
0.0
 43
0.0
 43
0.0
 43
1.0
 77
     0
 47
0.0208333333333333
 47
0.0
 47
0.0
 47
0.0
 47
0.0
 47
0.0208333333333333
 47
0.0
 47
0.0
 47
0.0
 47
0.0
 47
1.0
 47
0.0
 47
0.0
 47
0.0
 47
0.0
 47
1.0
171
     0
 49
0.0208333333333333
 49
0.0
 49
0.0
 49
0.0
 49
0.0
 49
0.0208333333333333
 49
0.0
 49
0.0
 49
0.0
 49
0.0
 49
1.0
 49
0.0
 49
0.0
 49
0.0
 49
0.0
 49
1.0
175
     0
142
0.0208333333333333
142
0.0
142
0.0
142
0.0
142
0.0
142
0.0208333333333333
142
0.0
142
0.0
142
0.0
142
0.0
142
1.0
142
0.0
142
0.0
142
0.0
142
0.0
142
1.0
179
     0
144
0.0208333333333333
144
0.0
144
0.0
144
0.0
144
0.0
144
0.0208333333333333
144
0.0
144
0.0
144
0.0
144
0.0
144
1.0
144
0.0
144
0.0
144
0.0
144
0.0
144
1.0
147
0.0208333333333333
147
0.0
147
0.0
147
0.0
147
0.0
147
0.0208333333333333
147
0.0
147
0.0
147
0.0
147
0.0
147
1.0
147
0.0
147
0.0
147
0.0
147
0.0
147
1.0
  0
MLEADERSTYLE
  5
67
102
{ACAD_XDICTIONARY
360
888
102
}
102
{ACAD_REACTORS
330
66
102
}
330
66
100
AcDbMLeaderStyle
179
     2
170
     2
171
     1
172
     0
 90
        2
 40
0.0
 41
0.0
173
     1
 91
-1056964608
340
5B
 92
       -2
290
     1
 42
0.09
291
     1
 43
0.36
  3
Standard
 44
0.18
300

342
55
174
     1
178
     6
175
     1
176
     0
 93
-1056964608
 45
0.18
292
     0
297
     0
 46
0.18
 94
-1056964608
 47
1.0
 49
1.0
140
1.0
293
     1
141
0.0
294
     1
177
     0
142
1.0
295
     0
296
     0
143
0.125
271
     0
272
     9
273
     9
  0
MLINESTYLE
  5
60
102
{ACAD_REACTORS
330
5F
102
}
330
5F
100
AcDbMlineStyle
  2
STANDARD
 70
     0
  3

 62
   256
 51
90.0
 52
90.0
 71
     2
 49
0.5
 62
   256
  6
BYLAYER
 49
-0.5
 62
   256
  6
BYLAYER
  0
ACDBPLACEHOLDER
  5
F
102
{ACAD_REACTORS
330
E
102
}
330
E
  0
SCALE
  5
43
102
{ACAD_REACTORS
330
42
102
}
330
42
100
AcDbScale
 70
     0
300
1:1
140
1.0
141
1.0
290
     1
  0
SCALE
  5
44
102
{ACAD_REACTORS
330
42
102
}
330
42
100
AcDbScale
 70
     0
300
1/128" = 1'-0"
140
0.0078125
141
12.0
290
     0
  0
SCALE
  5
45
102
{ACAD_REACTORS
330
42
102
}
330
42
100
AcDbScale
 70
     0
300
1/64" = 1'-0"
140
0.015625
141
12.0
290
     0
  0
SCALE
  5
46
102
{ACAD_REACTORS
330
42
102
}
330
42
100
AcDbScale
 70
     0
300
1/32" = 1'-0"
140
0.03125
141
12.0
290
     0
  0
SCALE
  5
47
102
{ACAD_REACTORS
330
42
102
}
330
42
100
AcDbScale
 70
     0
300
1/16" = 1'-0"
140
0.0625
141
12.0
290
     0
  0
SCALE
  5
48
102
{ACAD_REACTORS
330
42
102
}
330
42
100
AcDbScale
 70
     0
300
3/32" = 1'-0"
140
0.09375
141
12.0
290
     0
  0
SCALE
  5
49
102
{ACAD_REACTORS
330
42
102
}
330
42
100
AcDbScale
 70
     0
300
1/8" = 1'-0"
140
0.125
141
12.0
290
     0
  0
SCALE
  5
4A
102
{ACAD_REACTORS
330
42
102
}
330
42
100
AcDbScale
 70
     0
300
3/16" = 1'-0"
140
0.1875
141
12.0
290
     0
  0
SCALE
  5
4B
102
{ACAD_REACTORS
330
42
102
}
330
42
100
AcDbScale
 70
     0
300
1/4" = 1'-0"
140
0.25
141
12.0
290
     0
  0
SCALE
  5
4C
102
{ACAD_REACTORS
330
42
102
}
330
42
100
AcDbScale
 70
     0
300
3/8" = 1'-0"
140
0.375
141
12.0
290
     0
  0
SCALE
  5
4D
102
{ACAD_REACTORS
330
42
102
}
330
42
100
AcDbScale
 70
     0
300
1/2" = 1'-0"
140
0.5
141
12.0
290
     0
  0
SCALE
  5
4E
102
{ACAD_REACTORS
330
42
102
}
330
42
100
AcDbScale
 70
     0
300
3/4" = 1'-0"
140
0.75
141
12.0
290
     0
  0
SCALE
  5
4F
102
{ACAD_REACTORS
330
42
102
}
330
42
100
AcDbScale
 70
     0
300
1" = 1'-0"
140
1.0
141
12.0
290
     0
  0
SCALE
  5
50
102
{ACAD_REACTORS
330
42
102
}
330
42
100
AcDbScale
 70
     0
300
1-1/2" = 1'-0"
140
1.5
141
12.0
290
     0
  0
SCALE
  5
51
102
{ACAD_REACTORS
330
42
102
}
330
42
100
AcDbScale
 70
     0
300
3" = 1'-0"
140
3.0
141
12.0
290
     0
  0
SCALE
  5
52
102
{ACAD_REACTORS
330
42
102
}
330
42
100
AcDbScale
 70
     0
300
6" = 1'-0"
140
6.0
141
12.0
290
     0
  0
SCALE
  5
53
102
{ACAD_REACTORS
330
42
102
}
330
42
100
AcDbScale
 70
     0
300
1'-0" = 1'-0"
140
12.0
141
12.0
290
     0
  0
TABLESTYLE
  5
65
102
{ACAD_XDICTIONARY
360
886
102
}
102
{ACAD_REACTORS
330
64
102
}
330
64
100
AcDbTableStyle
280
     0
  3
Standard
 70
     0
 71
     0
 40
0.06
 41
0.06
280
     0
281
     0
  7
Standard
140
0.18
170
     2
 62
     0
 63
     7
283
     0
 90
      512
 91
        0
  1

274
    -2
284
     1
 64
     0
275
    -2
285
     1
 65
     0
276
    -2
286
     1
 66
     0
277
    -2
287
     1
 67
     0
278
    -2
288
     1
 68
     0
279
    -2
289
     1
 69
     0
  7
Standard
140
0.25
170
     5
 62
     0
 63
     7
283
     0
 90
      512
 91
        0
  1

274
    -2
284
     1
 64
     0
275
    -2
285
     1
 65
     0
276
    -2
286
     1
 66
     0
277
    -2
287
     1
 67
     0
278
    -2
288
     1
 68
     0
279
    -2
289
     1
 69
     0
  7
Standard
140
0.18
170
     5
 62
     0
 63
     7
283
     0
 90
      512
 91
        0
  1

274
    -2
284
     1
 64
     0
275
    -2
285
     1
 65
     0
276
    -2
286
     1
 66
     0
277
    -2
287
     1
 67
     0
278
    -2
288
     1
 68
     0
279
    -2
289
     1
 69
     0
  0
VISUALSTYLE
  5
2F
102
{ACAD_REACTORS
330
29
102
}
330
29
100
AcDbVisualStyle
  2
2dWireframe
 70
     4
177
     2
291
     0
 71
     0
176
     1
 72
     2
176
     1
 73
     0
176
     1
 90
        0
176
     1
 40
0.6
176
     1
 41
30.0
176
     1
 63
     7
421
 16777215
176
     1
 74
     1
176
     1
 91
        4
176
     1
 64
     7
176
     1
 65
   257
176
     1
 75
     1
176
     1
175
     1
176
     1
 42
1.0
176
     1
 92
        0
176
     1
 66
   257
176
     1
 43
1.0
176
     1
 76
     1
176
     1
 77
     6
176
     1
 78
     2
176
     1
 67
     7
176
     1
 79
     5
176
     1
170
     0
176
     1
171
     0
176
     1
290
     0
176
     1
 93
        1
176
     1
 44
0.0
176
     1
173
     0
176
     1
  0
VISUALSTYLE
  5
2E
102
{ACAD_REACTORS
330
29
102
}
330
29
100
AcDbVisualStyle
  2
Basic
 70
     7
177
     2
291
     1
 71
     1
176
     1
 72
     0
176
     1
 73
     1
176
     1
 90
        0
176
     1
 40
0.6
176
     1
 41
30.0
176
     1
 63
     7
421
 16777215
176
     1
 74
     0
176
     1
 91
        4
176
     1
 64
     7
176
     1
 65
   257
176
     1
 75
     1
176
     1
175
     1
176
     1
 42
1.0
176
     1
 92
        8
176
     1
 66
     7
176
     1
 43
1.0
176
     1
 76
     1
176
     1
 77
     6
176
     1
 78
     2
176
     1
 67
     7
176
     1
 79
     5
176
     1
170
     0
176
     1
171
     0
176
     1
290
     0
176
     1
 93
        1
176
     1
 44
0.0
176
     1
173
     0
176
     1
  0
VISUALSTYLE
  5
35
102
{ACAD_REACTORS
330
29
102
}
330
29
100
AcDbVisualStyle
  2
Brighten
 70
    12
177
     2
291
     1
 71
     2
176
     1
 72
     2
176
     1
 73
     0
176
     1
 90
        0
176
     1
 40
0.6
176
     1
 41
30.0
176
     1
 63
     7
421
 16777215
176
     1
 74
     1
176
     1
 91
        4
176
     1
 64
     7
176
     1
 65
   257
176
     1
 75
     1
176
     1
175
     1
176
     1
 42
1.0
176
     1
 92
        8
176
     1
 66
     7
176
     1
 43
1.0
176
     1
 76
     1
176
     1
 77
     6
176
     1
 78
     2
176
     1
 67
     7
176
     1
 79
     5
176
     1
170
     0
176
     1
171
     0
176
     1
290
     0
176
     1
 93
        1
176
     1
 44
50.0
176
     1
173
     0
176
     1
  0
VISUALSTYLE
  5
39
102
{ACAD_REACTORS
330
29
102
}
330
29
100
AcDbVisualStyle
  2
ColorChange
 70
    16
177
     2
291
     1
 71
     2
176
     1
 72
     2
176
     1
 73
     3
176
     1
 90
        0
176
     1
 40
0.6
176
     1
 41
30.0
176
     1
 63
     8
421
  8421504
176
     1
 74
     1
176
     1
 91
        4
176
     1
 64
     7
176
     1
 65
   257
176
     1
 75
     1
176
     1
175
     1
176
     1
 42
1.0
176
     1
 92
        8
176
     1
 66
     8
424
  8421504
176
     1
 43
1.0
176
     1
 76
     1
176
     1
 77
     6
176
     1
 78
     2
176
     1
 67
     7
176
     1
 79
     5
176
     1
170
     0
176
     1
171
     0
176
     1
290
     0
176
     1
 93
        1
176
     1
 44
0.0
176
     1
173
     0
176
     1
  0
VISUALSTYLE
  5
32
102
{ACAD_REACTORS
330
29
102
}
330
29
100
AcDbVisualStyle
  2
Conceptual
 70
     9
177
     2
291
     0
 71
     3
176
     1
 72
     2
176
     1
 73
     0
176
     1
 90
        0
176
     1
 40
0.6
176
     1
 41
30.0
176
     1
 63
     7
421
 16777215
176
     1
 74
     2
176
     1
 91
        2
176
     1
 64
     7
176
     1
 65
   257
176
     1
 75
     1
176
     1
175
     1
176
     1
 42
179.0
176
     1
 92
        8
176
     1
 66
     7
176
     1
 43
1.0
176
     1
 76
     1
176
     1
 77
     6
176
     1
 78
     2
176
     1
 67
     7
176
     1
 79
     3
176
     1
170
     0
176
     1
171
     0
176
     1
290
     0
176
     1
 93
        1
176
     1
 44
0.0
176
     1
173
     0
176
     1
  0
VISUALSTYLE
  5
34
102
{ACAD_REACTORS
330
29
102
}
330
29
100
AcDbVisualStyle
  2
Dim
 70
    11
177
     2
291
     1
 71
     2
176
     1
 72
     2
176
     1
 73
     0
176
     1
 90
        0
176
     1
 40
0.6
176
     1
 41
30.0
176
     1
 63
     7
421
 16777215
176
     1
 74
     1
176
     1
 91
        4
176
     1
 64
     7
176
     1
 65
   257
176
     1
 75
     1
176
     1
175
     1
176
     1
 42
1.0
176
     1
 92
        8
176
     1
 66
     7
176
     1
 43
1.0
176
     1
 76
     1
176
     1
 77
     6
176
     1
 78
     2
176
     1
 67
     7
176
     1
 79
     5
176
     1
170
     0
176
     1
171
     0
176
     1
290
     0
176
     1
 93
        1
176
     1
 44
-50.0
176
     1
173
     0
176
     1
  0
VISUALSTYLE
  5
41
102
{ACAD_REACTORS
330
29
102
}
330
29
100
AcDbVisualStyle
  2
EdgeColorOff
 70
    22
177
     2
291
     1
 71
     2
176
     0
 72
     2
176
     0
 73
     0
176
     0
 90
        0
176
     0
 40
0.6
176
     0
 41
30.0
176
     0
 63
     7
421
 16777215
176
     0
 74
     1
176
     0
 91
        4
176
     0
 64
     7
176
     0
 65
   257
176
     0
 75
     1
176
     0
175
     1
176
     0
 42
1.0
176
     0
 92
        8
176
     2
 66
     7
176
     0
 43
1.0
176
     0
 76
     1
176
     0
 77
     6
176
     0
 78
     2
176
     0
 67
     7
176
     0
 79
     5
176
     0
170
     0
176
     0
171
     0
176
     0
290
     0
176
     0
 93
        1
176
     0
 44
0.0
176
     0
173
     0
176
     0
  0
VISUALSTYLE
  5
38
102
{ACAD_REACTORS
330
29
102
}
330
29
100
AcDbVisualStyle
  2
Facepattern
 70
    15
177
     2
291
     1
 71
     2
176
     1
 72
     2
176
     1
 73
     0
176
     1
 90
        0
176
     1
 40
0.6
176
     1
 41
30.0
176
     1
 63
     7
421
 16777215
176
     1
 74
     1
176
     1
 91
        4
176
     1
 64
     7
176
     1
 65
   257
176
     1
 75
     1
176
     1
175
     1
176
     1
 42
1.0
176
     1
 92
        8
176
     1
 66
     7
176
     1
 43
1.0
176
     1
 76
     1
176
     1
 77
     6
176
     1
 78
     2
176
     1
 67
     7
176
     1
 79
     5
176
     1
170
     0
176
     1
171
     0
176
     1
290
     0
176
     1
 93
        1
176
     1
 44
0.0
176
     1
173
     0
176
     1
  0
VISUALSTYLE
  5
2A
102
{ACAD_REACTORS
330
29
102
}
330
29
100
AcDbVisualStyle
  2
Flat
 70
     0
177
     2
291
     1
 71
     2
176
     1
 72
     1
176
     1
 73
     1
176
     1
 90
        2
176
     1
 40
0.6
176
     1
 41
30.0
176
     1
 63
     7
421
 16777215
176
     1
 74
     0
176
     1
 91
        0
176
     1
 64
     7
176
     1
 65
   257
176
     1
 75
     1
176
     1
175
     1
176
     1
 42
1.0
176
     1
 92
        8
176
     1
 66
     7
176
     1
 43
1.0
176
     1
 76
     1
176
     1
 77
     6
176
     1
 78
     2
176
     1
 67
     7
176
     1
 79
     5
176
     1
170
     0
176
     1
171
     0
176
     1
290
     0
176
     1
 93
       13
176
     1
 44
0.0
176
     1
173
     0
176
     1
  0
VISUALSTYLE
  5
2B
102
{ACAD_REACTORS
330
29
102
}
330
29
100
AcDbVisualStyle
  2
FlatWithEdges
 70
     1
177
     2
291
     1
 71
     2
176
     1
 72
     1
176
     1
 73
     1
176
     1
 90
        2
176
     1
 40
0.6
176
     1
 41
30.0
176
     1
 63
     7
421
 16777215
176
     1
 74
     1
176
     1
 91
        0
176
     1
 64
     7
176
     1
 65
   257
176
     1
 75
     1
176
     1
175
     1
176
     1
 42
1.0
176
     1
 92
        0
176
     1
 66
   257
176
     1
 43
1.0
176
     1
 76
     1
176
     1
 77
     6
176
     1
 78
     2
176
     1
 67
     7
176
     1
 79
     5
176
     1
170
     0
176
     1
171
     0
176
     1
290
     0
176
     1
 93
       13
176
     1
 44
0.0
176
     1
173
     0
176
     1
  0
VISUALSTYLE
  5
2C
102
{ACAD_REACTORS
330
29
102
}
330
29
100
AcDbVisualStyle
  2
Gouraud
 70
     2
177
     2
291
     1
 71
     2
176
     1
 72
     2
176
     1
 73
     1
176
     1
 90
        2
176
     1
 40
0.6
176
     1
 41
30.0
176
     1
 63
     7
421
 16777215
176
     1
 74
     0
176
     1
 91
        0
176
     1
 64
     7
176
     1
 65
   257
176
     1
 75
     1
176
     1
175
     1
176
     1
 42
1.0
176
     1
 92
        0
176
     1
 66
     7
176
     1
 43
1.0
176
     1
 76
     1
176
     1
 77
     6
176
     1
 78
     2
176
     1
 67
     7
176
     1
 79
     5
176
     1
170
     0
176
     1
171
     0
176
     1
290
     0
176
     1
 93
       13
176
     1
 44
0.0
176
     1
173
     0
176
     1
  0
VISUALSTYLE
  5
2D
102
{ACAD_REACTORS
330
29
102
}
330
29
100
AcDbVisualStyle
  2
GouraudWithEdges
 70
     3
177
     2
291
     1
 71
     2
176
     1
 72
     2
176
     1
 73
     1
176
     1
 90
        2
176
     1
 40
0.6
176
     1
 41
30.0
176
     1
 63
     7
421
 16777215
176
     1
 74
     1
176
     1
 91
        0
176
     1
 64
     7
176
     1
 65
   257
176
     1
 75
     1
176
     1
175
     1
176
     1
 42
1.0
176
     1
 92
        0
176
     1
 66
   257
176
     1
 43
1.0
176
     1
 76
     1
176
     1
 77
     6
176
     1
 78
     2
176
     1
 67
     7
176
     1
 79
     5
176
     1
170
     0
176
     1
171
     0
176
     1
290
     0
176
     1
 93
       13
176
     1
 44
0.0
176
     1
173
     0
176
     1
  0
VISUALSTYLE
  5
31
102
{ACAD_REACTORS
330
29
102
}
330
29
100
AcDbVisualStyle
  2
Hidden
 70
     6
177
     2
291
     0
 71
     1
176
     1
 72
     2
176
     1
 73
     2
176
     1
 90
        0
176
     1
 40
0.6
176
     1
 41
30.0
176
     1
 63
     7
421
 16777215
176
     1
 74
     2
176
     1
 91
        2
176
     1
 64
     7
176
     1
 65
   257
176
     1
 75
     2
176
     1
175
     1
176
     1
 42
40.0
176
     1
 92
        0
176
     1
 66
   257
176
     1
 43
1.0
176
     1
 76
     1
176
     1
 77
     6
176
     1
 78
     2
176
     1
 67
     7
176
     1
 79
     3
176
     1
170
     0
176
     1
171
     0
176
     1
290
     0
176
     1
 93
        1
176
     1
 44
0.0
176
     1
173
     0
176
     1
  0
VISUALSTYLE
  5
3F
102
{ACAD_REACTORS
330
29
102
}
330
29
100
AcDbVisualStyle
  2
JitterOff
 70
    20
177
     2
291
     1
 71
     2
176
     0
 72
     2
176
     0
 73
     0
176
     0
 90
        0
176
     0
 40
0.6
176
     0
 41
30.0
176
     0
 63
     7
421
 16777215
176
     0
 74
     1
176
     0
 91
        4
176
     0
 64
     7
176
     0
 65
   257
176
     0
 75
     1
176
     0
175
     1
176
     0
 42
1.0
176
     0
 92
       10
176
     2
 66
     7
176
     0
 43
1.0
176
     0
 76
     1
176
     0
 77
     6
176
     0
 78
     2
176
     0
 67
     7
176
     0
 79
     5
176
     0
170
     0
176
     0
171
     0
176
     0
290
     0
176
     0
 93
        1
176
     0
 44
0.0
176
     0
173
     0
176
     0
  0
VISUALSTYLE
  5
37
102
{ACAD_REACTORS
330
29
102
}
330
29
100
AcDbVisualStyle
  2
Linepattern
 70
    14
177
     2
291
     1
 71
     2
176
     1
 72
     2
176
     1
 73
     0
176
     1
 90
        0
176
     1
 40
0.6
176
     1
 41
30.0
176
     1
 63
     7
421
 16777215
176
     1
 74
     1
176
     1
 91
        4
176
     1
 64
     7
176
     1
 65
   257
176
     1
 75
     7
176
     1
175
     7
176
     1
 42
1.0
176
     1
 92
        8
176
     1
 66
     7
176
     1
 43
1.0
176
     1
 76
     1
176
     1
 77
     6
176
     1
 78
     2
176
     1
 67
     7
176
     1
 79
     5
176
     1
170
     0
176
     1
171
     0
176
     1
290
     0
176
     1
 93
        1
176
     1
 44
0.0
176
     1
173
     0
176
     1
  0
VISUALSTYLE
  5
40
102
{ACAD_REACTORS
330
29
102
}
330
29
100
AcDbVisualStyle
  2
OverhangOff
 70
    21
177
     2
291
     1
 71
     2
176
     0
 72
     2
176
     0
 73
     0
176
     0
 90
        0
176
     0
 40
0.6
176
     0
 41
30.0
176
     0
 63
     7
421
 16777215
176
     0
 74
     1
176
     0
 91
        4
176
     0
 64
     7
176
     0
 65
   257
176
     0
 75
     1
176
     0
175
     1
176
     0
 42
1.0
176
     0
 92
        9
176
     2
 66
     7
176
     0
 43
1.0
176
     0
 76
     1
176
     0
 77
     6
176
     0
 78
     2
176
     0
 67
     7
176
     0
 79
     5
176
     0
170
     0
176
     0
171
     0
176
     0
290
     0
176
     0
 93
        1
176
     0
 44
0.0
176
     0
173
     0
176
     0
  0
VISUALSTYLE
  5
33
102
{ACAD_REACTORS
330
29
102
}
330
29
100
AcDbVisualStyle
  2
Realistic
 70
     8
177
     2
291
     0
 71
     2
176
     1
 72
     3
176
     1
 73
     0
176
     1
 90
        2
176
     1
 40
0.6
176
     1
 41
30.0
176
     1
 63
     7
421
 16777215
176
     1
 74
     0
176
     1
 91
        0
176
     1
 64
     7
176
     1
 65
   257
176
     1
 75
     1
176
     1
175
     1
176
     1
 42
1.0
176
     1
 92
        8
176
     1
 66
   257
176
     1
 43
1.0
176
     1
 76
     1
176
     1
 77
     6
176
     1
 78
     2
176
     1
 67
     7
176
     1
 79
     3
176
     1
170
     0
176
     1
171
     0
176
     1
290
     0
176
     1
 93
       13
176
     1
 44
0.0
176
     1
173
     0
176
     1
  0
VISUALSTYLE
  5
3E
102
{ACAD_REACTORS
330
29
102
}
330
29
100
AcDbVisualStyle
  2
Shaded
 70
    27
177
     2
291
     0
 71
     2
176
     1
 72
     2
176
     1
 73
     1
176
     1
 90
        2
176
     1
 40
0.6
176
     1
 41
30.0
176
     1
 63
     7
421
 16777215
176
     1
 74
     0
176
     1
 91
        4
176
     1
 64
     7
176
     1
 65
   257
176
     1
 75
     1
176
     1
175
     1
176
     1
 42
1.0
176
     1
 92
        8
176
     1
 66
   257
176
     1
 43
1.0
176
     1
 76
     1
176
     1
 77
     6
176
     1
 78
     2
176
     1
 67
     8
425
  7895160
176
     1
 79
     3
176
     1
170
     0
176
     1
171
     0
176
     1
290
     0
176
     1
 93
        5
176
     1
 44
0.0
176
     1
173
     0
176
     1
  0
VISUALSTYLE
  5
3D
102
{ACAD_REACTORS
330
29
102
}
330
29
100
AcDbVisualStyle
  2
Shaded with edges
 70
    26
177
     2
291
     0
 71
     2
176
     1
 72
     2
176
     1
 73
     1
176
     1
 90
        2
176
     1
 40
0.6
176
     1
 41
30.0
176
     1
 63
     7
421
 16777215
176
     1
 74
     1
176
     1
 91
       10
176
     1
 64
     7
176
     1
 65
   257
176
     1
 75
     2
176
     1
175
     1
176
     1
 42
1.0
176
     1
 92
        8
176
     1
 66
   257
176
     1
 43
1.0
176
     1
 76
     1
176
     1
 77
     6
176
     1
 78
     2
176
     1
 67
     7
176
     1
 79
     3
176
     1
170
     0
176
     1
171
     0
176
     1
290
     0
176
     1
 93
        5
176
     1
 44
0.0
176
     1
173
     0
176
     1
  0
VISUALSTYLE
  5
3A
102
{ACAD_REACTORS
330
29
102
}
330
29
100
AcDbVisualStyle
  2
Shades of Gray
 70
    23
177
     2
291
     0
 71
     2
176
     1
 72
     2
176
     1
 73
     3
176
     1
 90
        0
176
     1
 40
0.6
176
     1
 41
30.0
176
     1
 63
     7
421
 16777215
176
     1
 74
     2
176
     1
 91
        2
176
     1
 64
     7
176
     1
 65
     7
176
     1
 75
     1
176
     1
175
     1
176
     1
 42
40.0
176
     1
 92
        8
176
     1
 66
     7
176
     1
 43
1.0
176
     1
 76
     1
176
     1
 77
     6
176
     1
 78
     2
176
     1
 67
     7
176
     1
 79
     3
176
     1
170
     0
176
     1
171
     0
176
     1
290
     0
176
     1
 93
        1
176
     1
 44
0.0
176
     1
173
     0
176
     1
  0
VISUALSTYLE
  5
3B
102
{ACAD_REACTORS
330
29
102
}
330
29
100
AcDbVisualStyle
  2
Sketchy
 70
    24
177
     2
291
     0
 71
     1
176
     1
 72
     2
176
     1
 73
     2
176
     1
 90
        0
176
     1
 40
0.6
176
     1
 41
30.0
176
     1
 63
     7
421
 16777215
176
     1
 74
     2
176
     1
 91
        2
176
     1
 64
     7
176
     1
 65
     7
176
     1
 75
     1
176
     1
175
     1
176
     1
 42
40.0
176
     1
 92
       11
176
     1
 66
     7
176
     1
 43
1.0
176
     1
 76
     1
176
     1
 77
     6
176
     1
 78
     2
176
     1
 67
     7
176
     1
 79
     6
176
     1
170
     0
176
     1
171
     0
176
     1
290
     0
176
     1
 93
        1
176
     1
 44
0.0
176
     1
173
     0
176
     1
  0
VISUALSTYLE
  5
36
102
{ACAD_REACTORS
330
29
102
}
330
29
100
AcDbVisualStyle
  2
Thicken
 70
    13
177
     2
291
     1
 71
     2
176
     1
 72
     2
176
     1
 73
     0
176
     1
 90
        0
176
     1
 40
0.6
176
     1
 41
30.0
176
     1
 63
     7
421
 16777215
176
     1
 74
     1
176
     1
 91
        4
176
     1
 64
     7
176
     1
 65
   257
176
     1
 75
     1
176
     1
175
     1
176
     1
 42
1.0
176
     1
 92
       12
176
     1
 66
     7
176
     1
 43
1.0
176
     1
 76
     1
176
     1
 77
     6
176
     1
 78
     2
176
     1
 67
     7
176
     1
 79
     5
176
     1
170
     0
176
     1
171
     0
176
     1
290
     0
176
     1
 93
        1
176
     1
 44
0.0
176
     1
173
     0
176
     1
  0
VISUALSTYLE
  5
30
102
{ACAD_REACTORS
330
29
102
}
330
29
100
AcDbVisualStyle
  2
Wireframe
 70
     5
177
     2
291
     0
 71
     0
176
     1
 72
     2
176
     1
 73
     0
176
     1
 90
        0
176
     1
 40
0.6
176
     1
 41
30.0
176
     1
 63
     7
421
 16777215
176
     1
 74
     1
176
     1
 91
        4
176
     1
 64
     7
176
     1
 65
   257
176
     1
 75
     1
176
     1
175
     1
176
     1
 42
1.0
176
     1
 92
        0
176
     1
 66
   257
176
     1
 43
1.0
176
     1
 76
     1
176
     1
 77
     6
176
     1
 78
     2
176
     1
 67
     7
176
     1
 79
     3
176
     1
170
     0
176
     1
171
     0
176
     1
290
     0
176
     1
 93
        1
176
     1
 44
0.0
176
     1
173
     0
176
     1
  0
VISUALSTYLE
  5
3C
102
{ACAD_REACTORS
330
29
102
}
330
29
100
AcDbVisualStyle
  2
X-Ray
 70
    25
177
     2
291
     0
 71
     2
176
     1
 72
     2
176
     1
 73
     1
176
     1
 90
        1
176
     1
 40
0.5
176
     1
 41
30.0
176
     1
 63
     7
421
 16777215
176
     1
 74
     1
176
     1
 91
        0
176
     1
 64
     7
176
     1
 65
   257
176
     1
 75
     1
176
     1
175
     1
176
     1
 42
1.0
176
     1
 92
        8
176
     1
 66
     7
176
     1
 43
1.0
176
     1
 76
     1
176
     1
 77
     6
176
     1
 78
     2
176
     1
 67
     7
176
     1
 79
     3
176
     1
170
     0
176
     1
171
     0
176
     1
290
     0
176
     1
 93
       13
176
     1
 44
0.0
176
     1
173
     0
176
     1
  0
DICTIONARYVAR
  5
79
102
{ACAD_REACTORS
330
76
102
}
330
76
100
DictionaryVariables
280
     0
  1
1:1
  0
DICTIONARYVAR
  5
78
102
{ACAD_REACTORS
330
76
102
}
330
76
100
DictionaryVariables
280
     0
  1
STANDARD
  0
DICTIONARYVAR
  5
77
102
{ACAD_REACTORS
330
76
102
}
330
76
100
DictionaryVariables
280
     0
  1
STANDARD
  0
DICTIONARY
  5
1A
330
19
100
AcDbDictionary
280
     1
281
     1
  3
BUMPTILE
360
1C
  3
DIFFUSETILE
360
1B
  3
OPACITYTILE
360
1F
  3
REFLECTIONTILE
360
1E
  3
REFRACTIONTILE
360
20
  3
SPECULARTILE
360
1D
  0
DICTIONARY
  5
12
330
11
100
AcDbDictionary
280
     1
281
     1
  3
BUMPTILE
360
14
  3
DIFFUSETILE
360
13
  3
FBXASSET
360
10B
  3
OPACITYTILE
360
17
  3
REFLECTIONTILE
360
16
  3
REFRACTIONTILE
360
18
  3
SPECULARTILE
360
15
  0
DICTIONARY
  5
22
330
21
100
AcDbDictionary
280
     1
281
     1
  3
BUMPTILE
360
24
  3
DIFFUSETILE
360
23
  3
FBXASSET
360
BA
  3
OPACITYTILE
360
27
  3
REFLECTIONTILE
360
26
  3
REFRACTIONTILE
360
28
  3
SPECULARTILE
360
25
  0
DICTIONARY
  5
888
330
67
100
AcDbDictionary
280
     1
281
     1
  3
ACAD_XREC_ROUNDTRIP
360
889
  0
DICTIONARY
  5
886
330
65
100
AcDbDictionary
280
     1
281
     1
  3
ACAD_ROUNDTRIP_2008_TABLESTYLE_CELLSTYLEMAP
360
887
  0
XRECORD
  5
1C
102
{ACAD_REACTORS
330
1A
102
}
330
1A
100
AcDbXrecord
280
     1
270
     1
271
     1
  0
XRECORD
  5
1B
102
{ACAD_REACTORS
330
1A
102
}
330
1A
100
AcDbXrecord
280
     1
270
     1
271
     1
  0
XRECORD
  5
1F
102
{ACAD_REACTORS
330
1A
102
}
330
1A
100
AcDbXrecord
280
     1
270
     1
271
     1
  0
XRECORD
  5
1E
102
{ACAD_REACTORS
330
1A
102
}
330
1A
100
AcDbXrecord
280
     1
270
     1
271
     1
  0
XRECORD
  5
20
102
{ACAD_REACTORS
330
1A
102
}
330
1A
100
AcDbXrecord
280
     1
270
     1
271
     1
  0
XRECORD
  5
1D
102
{ACAD_REACTORS
330
1A
102
}
330
1A
100
AcDbXrecord
280
     1
270
     1
271
     1
  0
XRECORD
  5
14
102
{ACAD_REACTORS
330
12
102
}
330
12
100
AcDbXrecord
280
     1
270
     1
271
     1
  0
XRECORD
  5
13
102
{ACAD_REACTORS
330
12
102
}
330
12
100
AcDbXrecord
280
     1
270
     1
271
     1
  0
XRECORD
  5
10B
102
{ACAD_REACTORS
330
12
102
}
330
12
100
AcDbXrecord
280
     1
 70
     1
 90
1959938040
 71
     1
  1
0D64F24C-4FFA-4047-AA76-D14F020BA166
311
504B03040A00000800000E5ADC403DEE336E79000000790000001B0000006175746F6465736B2D64657369676E2D7061636B6167652E786D6C3C3F786D6C2076657273696F6E3D22312E302220656E636F64696E673D227574662D3822203F3E3C666F726D6174733E3C666F726D61743E687474703A2F2F736368656D612E
311
6175746F6465736B2E636F6D2F64657369676E2D7061636B6167652F323030393C2F666F726D61743E3C2F666F726D6174733E504B03041400060808000E5ADC40D486FD9CA0000000F4000000130000005B436F6E74656E745F54797065735D2E786D6C7D8EC10E82300C865F65E91D8A1E8C310C0EEA1BF002731658846E
311
D98AC1B77784ABF1D8FE5FBFBF75BBCE937A534CCEB38643598122B6FEE978D0B0485F9C41B54DDD7D022595594E1A469170414C76A4D9A4D207E29CF43ECE46F218070CC6BECC4078ACAA135ACF422C856C0E68EA1BF5669944DDD7BCDE7B1F8E415D77AECB980613C2E4AC91FC167A2B244592486606FC29C8FD7F045B9A
311
EF7053A7E60B504B03041400060808000E5ADC409A808DD7E90000007C01000008000000636F72652E786D6C8D90416EC3201045AF82668F6DB0E3620B13395572825E0001715162B00C543D7E71E248EDAEAB193EFFCD8C3E3F7ECF77F465D660BD1B80141520E394D7D64D03A478C50CD051F0D5FBF8CB06C8C9D90CB0C9
311
20F8B4FAB4EC92F22E1A17B3EABC36BB2843301190BAE76680A03ECD2C0B996276845BB14875939329C8ABCB704A56A3E712ABF33C7BB566053176DD583376C067D25C70733A8FB87B6F293ED50D6187F1ED3212C6CB0D163CDAF9B55FAD4646A341D08A505CB598B20F427AD2F6B4CBCFBEAA78B9D9FF4069D1FF849275B1
311
A6FBB94F2C8020F990C787E0E596452E8FA072DD72133F504B03041400060808000E5ADC4055019EA25F0000007C00000007000000636E782E786D6C4DCB3B0E80201045D1AD90E915ED2CF8AC45050C11660C8261F98AB1B07AC9C97D42D718D865D3E909258CFD00CCE24AC6E326A164D74DC0B4128928FF326038472BA1
311
3128B1252AC747C6BAB984FC68F0B87FE8960A5C09FE86CFB69FBA01504B03041400060808000E5ADC40ACE1BD1C66010000020300000C0000006662782F636F72652E786D6C8D52ED8E8230107C95A6FFA114D103536AF0A24F702F50A1728DD092D2121FFF960FC37931E642026567676776801DEE6D8306697B65748E69
311
18612475692AA5EB1C7B770D528C0E9C5963DCAF368CB468658EC732E6ACB6C6774BA934DA49EDA0AA4D2597A2E87BE9302A1B38E4B82FBF652B42E11D74F4B7B013E54DD432A421C0D0C759EF2C1840B3C878C7FC7AB93332D739F35E550BAA2A505357252DE64596159B34DD06279A9C83E4782A82EC731707C74D42D36D
311
F1712E68CAC848E6CCA9F6E1AEB4523859611E47340EA25D10A75F94EEE96E1F67F0BA8F2246C6F62792EFAA7F92BCD26E132F76675A8F39052313F0675B88C8A15E0CE0877046C610E13125FC1C340402213B71691E7BDCA034C8D2199B005219BF428368BC04D5084D1723330A93A701B0D9CB39F19B39EF67C00714BA06
311
6BC2C1F1E2DDA8CE66D5258A4EDA607077A48D6D45B39A9B2DAEF755E825BD348DB1FF61936555B28449C6BF97FF00504B03041400060808000E5ADC401BD8C1FC7E0000009D0000000B0000006662782F636E782E786D6C4DCCD10E82201886E15B61FF399916421BE088E43E5CA263213482D6E5A7CD838EBEEDD9B79777
311
9FC5A3B74D2F178380FA700464C33D8E2ECC024A9E3003D4499E62CC7F37406158AC808D41F239C5F2DC69B4D3507C5ED5BBF0D8515155ABB621585DF50D9F1921F8D2128D9939E99EF4B43186422579F52BADBB85E517504B03041400060808000E5ADC402005C8642C01000014020000310000006662782F413741314136
311
32352D414243442D343835352D393635432D3846334345354537324646372F636F72652E786D6C8D51CB6EC32010FC158B537AF00327384E8489DC34F982FE0001E2A2C460F1A8F2F95D6A476A6FB9B030CCCC8E76E9E131DEB36FE5BCB6A643B8A850A68CB0529BA143315CF3166507469DB5E10F0D65868FAA4309468C0E
311
CEC669818435419900A8B1522D20F75E0594893B5C3AE4C5971A79C1630086BF151317373EA80217F00D3C467D7010209B9BA413B17EDBE3BEA949DEBF1F3FF24D4B48BE6BC8316FCFEBE3899CB6F5F9BCA5E52C6434462D17B99610475FB572AF9A2431A3418FCFF8C2291E9444ACAE709D574D5EB79F18EF71B3AF77F0DC
311
57152D13FD9F284EF24551D426ACEB25EE2CF388615ACE1F8C4A1B2FF76718F598AC0B59EAB7F24ABC215615155E93861018C04C85018067B3593C7DB00E06BCBA5D808DC96CDC6C182DD38EA0FC2E106ADA27FB01504B03041400060808000E5ADC40D4011A244C01000033030000300000006662782F4137413141363235
311
2D414243442D343835352D393635432D3846334345354537324646372F636E782E786D6CD593CD6EC32010845F05718F6DDCC84A234CA41EFA043DF48A6193D260B0F8A99AB7EF929034971C7AEC05D9B31F33AB91CD77DFB3255F10A2F16EA4ACE92801A7BC36EE30D29CF6AB0D253BC183F7E90EA3C4C919465A642AF821
311
F8BC5449C35E669B50B5C61DAB1820FA1C144494CB4D62BD92160DC0AD328A304FA035687203F1690F015741713A91F401E4F5E59DF8E913548ABC2D2E82B72543F072D6A43B881265658C238DEA0366D9C89CBC86786CB44CB261CD35EBC14EBF4EA45CB846E66048091F6939A9A81B35D8236F7128784C01DBAB503A2D40
311
855C166B944C58727B062F8CE0D9B834AC2B6BB0F880341B9ED66B343BCF044F66864AA8003281A6A2EF58BFEA8655BF79636CCB866DFF8CAFDBAEE36DC1059FBCB7F512DA40F00B51DE2570890AC6DB327E545FE5883601BBF6E1F48722B1809A7A69E7E6F19FFB69CFDF37D615F02F103F504B03041400060808000E5ADC
311
40ADE27A24A405000081100000340000006662782F41374131413632352D414243442D343835352D393635432D3846334345354537324646372F6F626A656374732E786D6CAD57D96EDB3814FD1541F332F3E045B69A2603458563D785D1A62D6AB4980703062D510A27D402924A9DF9FA3914295972EDD433E88B162E97F7
311
9E7BEEC2E0CD3EE3CE13159215F9ADEB0DC7AE43F3A888599EDEBA954A06D7AEF3260C4451A8CE32D7C949466F5D3DEC86412A8AAAB443314D48C5D5D1E8F2EE2F474634A7AE137122E5AD2BA3079A9121A9541153F9388C8922C334D90FBDA159D8179B0A523E1C092D89A0B982A618CF21C5314A79FDDFB13B0A83919E0F
311
03FDB4ABA6E7578D6A7BFAE7B35C2A92473F1C762466EAF98BB79357378357BE3F1DF857136F70B7BC5B0CBCD7D3F1FC6A3EBF99BDBDC1C1520948B29A089AB8E13B602358148CCC5418542C57D3895D621D3412F489694FB9E1C4F1829159D35A678D3CA57E54E4398D6AAC80466D9F151DD392E6317CCEA884661D84C6FD
311
5F4FE3D8999EEA7F7B6477F83204BA3B3A821ADD9B7757D362F7374C9097304848AA1968B0B4861AAE8E0F08EF8A82DB39269D8C282A18E10E673B41C4B31B62A95E12063D319AC9424783B6C00DE10533DDA70BC2E8E73C3FA5655271AE69EC8675146C112B54C95A33F60F1507EDBBC84027F84AB3E1DA1AA49E4BEA8637
311
8622D7476C32403A0927295C0E33F5CEE9E4C8D0B98ED3D5C20DDF2F77FBB58EDDD38797A228A9509A3EA056E3B8E6AD51B23A7917794E6F708F543980F205C87F44A81F5481DF04DBFB7BDF9EA204C96552880CBE71C6CE608CC7D8F1EAA7FEEE7C05A37673DF7BE7F084B33554BF00CFBE0D5D5F76E00C832710BE10536B
311
DA3A221C69E39EE5004893C4E10586908793DDDE0D57C872C8CAD84578E8C164A8FB84CF6064C52051D42775DE39B03C4A8B172468C05633126A18F25B050F7EFA219DD507DB65E7E07DF54BE83A5BACDFAF2B919088DEDB985ED084E54CA1C41D78D355A88779CFA247FAFCBD10310CFD11EF7517EFCC1E2581B6C65C039F
311
36395DFF1C4EEE1D10615F5AE87413FCE40418A10B6B47FE3D9311E59CE4B4A89A735FAC1F281B06621DEC9AC96D8139141690C6CC1CC5208A742458A9416CAB559B348767ACFBBAFA0846BAE1DDF307F2DCCD5EBB43EE8D0A5E88EDEE796BD2D249A8BFF5B96D31186929A07B1D244DFC5BD0B7314B924A22099EC0F5DB6A
311
DEF59D4E0B48118D54132D3EEC4770116149DBC845B5160495B4C8B70C75137177F280AE7C406A19500B3CA7B1A43CD932CEAB6C9B308E6AB4CD4879068EFFAFFFAECACA2DC98A2A576764F7544775E8EBDE63AFFC4E54F4E086EBFA3DB843EE8D697C860CBA969CC0AAE7DAF1E2CA5F4EFCF9C05F2E67037FECBF1ECC66AF
311
AF060BCF5F8E27E3BB997775D5F8C96812064DA9E94634BC84D216548259F77D5D217E6C1270C37BA2E4E69D09CFE6FD7535442F1C8CB007F5B2DD388B9FD0F7D1F8E7020E2B4F0A5A6525A719CD15D13174AF3FF817823EA3A78C195F6524A51748F9F46E7D640C462ED8F759C73BFD7EB4D78ECE75409E14A21EAA6C9713
311
C68F36A606C96199A716BFC627EDDB149AE657FF59C7A03395056731F260ECA4B4C8A84236BCA008898C4A50AFDBD3C7F6EE71C1EE27D3212AB2E3B4D1E481A049E61261016A5591EA8F3BBFA1A9D37DD5AD8B723B7CC4C3660AD701676E5D34E98A45540E7728D0BA15AA85834BDD4E1E8D3FC9538E5EDB6C6AFFDB5D1A9B
311
5E496E975CD23F59BB4C0AB706208D94E81BD010C13BB5326150EB66E7A3FF6478A38E43143E77956A6D390CB4C6D4C720448D51F6B68026E6D11EBD47A0BE6C9637ACD7F410B9E896F522098CD4812222AD6F0A5A3FABD26CF179840EC5597D724A5EA5F0E5E592068282CC950E70B008ACB0324BA240D5F99F9BCFA2C04D
311
3673960C14707EDF5F5FFDB199175956E4666833B3F76167FD80DB6DBC4172A0FA5A223793B137D9D4D7017B43D9EE88A44312CB470CC0B382B540F7DC0F5E9A3B23EA909968D78DB42B8E18BA5A38B6B0F9106AE9D2CDAD1A1C341E39751043FA4AA923A6BBA07CF14630AA974205815E3EFC17504B03041400060800000E
311
5ADC40000000000000000000000000350000006662782F41374131413632352D414243442D343835352D393635432D3846334345354537324646372F76657274696365732E62696E504B03041400060808000E5ADC40F270F1330600000004000000360000006662782F41374131413632352D414243442D343835352D3936
311
35432D3846334345354537324646372F747269616E676C65732E62696E636660600000504B03041400060800000E5ADC40000000000000000000000000370000006662782F41374131413632352D414243442D343835352D393635432D3846334345354537324646372F617474726962757465732E62696E504B0304140006
311
0808000E5ADC40D5987DFC8F00000041010000360000006662782F41374131413632352D414243442D343835352D393635432D3846334345354537324646372F6469726563746F72792E786D6C858F410EC2201045AF4266AF15DDB800BA74E7C21B903225242D6328188F2FA5C4183471359997F9FF81E89FF3C41E181647
311
5E02DF1F80A11FC8386F25A438EECEC07A250251FC3803E6F58C12560C4AD840E95E91C151A72936F496F35732D860FE635F62C8F2DA16B505C545B74125BAA2FA9E05D7CC053D063734D5C7665FD55B6B8D15D5E9BFEAFD8490FFA45E504B03041400060808000E5ADC40892BA34FFC000000A00100003B0000006662782F
311
41374131413632352D414243442D343835352D393635432D3846334345354537324646372F7265736F75726365732F636F72652E786D6C8D504B6E833010BD0A9ABD011B4A011947A44A4ED00B586642AD041BF953F5F835814AEDAE1B8FE77D344F8F9FBE9647F689CE6B6B06A07909191A65276DE60162B89116B293E0CE
311
DAF04B0699910B0EB0C120F8EC6C5C0F485913D084841A3BE1014AEF3140A61EE93380571FB8C85CC69014FE9EAF52DDE58C39CD139D7482FBE052806C3FB2BD201C7A1B9D42CF8B9D153C463D1D1A3DA59BFAA6D18118BB6EACDAB626175A5F497DBE8CA47B6B183957356D5FC6D7EB485B5E6C66C1835E7E322A8732E004
311
82959491B221AC7DA7B4A74DCFBAB4F665C98B4DFEC714D7E99FA6A84DA8D81177B779103405791282175B5F693CCB4C73EB567C03504B010214000A00000800000E5ADC403DEE336E79000000790000001B00000000000000000000000000000000006175746F6465736B2D64657369676E2D7061636B6167652E786D6C50
311
4B010214001400060808000E5ADC40D486FD9CA0000000F40000001300000000000000000000000000B20000005B436F6E74656E745F54797065735D2E786D6C504B010214001400060808000E5ADC409A808DD7E90000007C010000080000000000000000000000000083010000636F72652E786D6C504B01021400140006
311
0808000E5ADC4055019EA25F0000007C000000070000000000000000000000000092020000636E782E786D6C504B010214001400060808000E5ADC40ACE1BD1C66010000020300000C00000000000000000000000000160300006662782F636F72652E786D6C504B010214001400060808000E5ADC401BD8C1FC7E0000009D
311
0000000B00000000000000000000000000A60400006662782F636E782E786D6C504B010214001400060808000E5ADC402005C8642C0100001402000031000000000000000000000000004D0500006662782F41374131413632352D414243442D343835352D393635432D3846334345354537324646372F636F72652E786D6C
311
504B010214001400060808000E5ADC40D4011A244C010000330300003000000000000000000000000000C80600006662782F41374131413632352D414243442D343835352D393635432D3846334345354537324646372F636E782E786D6C504B010214001400060808000E5ADC40ADE27A24A4050000811000003400000000
311
000000000000000000620800006662782F41374131413632352D414243442D343835352D393635432D3846334345354537324646372F6F626A656374732E786D6C504B010214001400060800000E5ADC400000000000000000000000003500000000000000000000000000580E00006662782F41374131413632352D414243
311
442D343835352D393635432D3846334345354537324646372F76657274696365732E62696E504B010214001400060808000E5ADC40F270F13306000000040000003600000000000000000000000000AB0E00006662782F41374131413632352D414243442D343835352D393635432D3846334345354537324646372F747269
311
616E676C65732E62696E504B010214001400060800000E5ADC400000000000000000000000003700000000000000000000000000050F00006662782F41374131413632352D414243442D343835352D393635432D3846334345354537324646372F617474726962757465732E62696E504B010214001400060808000E5ADC40
311
D5987DFC8F0000004101000036000000000000000000000000005A0F00006662782F41374131413632352D414243442D343835352D393635432D3846334345354537324646372F6469726563746F72792E786D6C504B010214001400060808000E5ADC40892BA34FFC000000A00100003B000000000000000000000000003D
311
1000006662782F41374131413632352D414243442D343835352D393635432D3846334345354537324646372F7265736F75726365732F636F72652E786D6C504B0506000000000E000E0080040000921100000000
310
504B03040A00000800000E5ADC403DEE336E79000000790000001B0000006175746F6465736B2D64657369676E2D7061636B6167652E786D6C3C3F786D6C2076657273696F6E3D22312E302220656E636F64696E673D227574662D3822203F3E3C666F726D6174733E3C666F726D61743E687474703A2F2F736368656D612E
310
6175746F6465736B2E636F6D2F64657369676E2D7061636B6167652F323030393C2F666F726D61743E3C2F666F726D6174733E504B03041400060808000E5ADC40D486FD9CA0000000F4000000130000005B436F6E74656E745F54797065735D2E786D6C7D8EC10E82300C865F65E91D8A1E8C310C0EEA1BF002731658846E
310
D98AC1B77784ABF1D8FE5FBFBF75BBCE937A534CCEB38643598122B6FEE978D0B0485F9C41B54DDD7D022595594E1A469170414C76A4D9A4D207E29CF43ECE46F218070CC6BECC4078ACAA135ACF422C856C0E68EA1BF5669944DDD7BCDE7B1F8E415D77AECB980613C2E4AC91FC167A2B244592486606FC29C8FD7F045B9A
310
EF7053A7E60B504B03041400060808000E5ADC40153BA01BE80000007C01000008000000636F72652E786D6C8D90D18E832010457F85CC3B0AAC31AE411AADDD2FD81F20402D690523B0E9E7175B9BECBEED0B335CEE6126971FEEF30DFD983558EF3AA00501649CF2DABAA98314CFB80174107CF53EFEB2017272361D6C32
310
083EAD3E2DBBA4BC8BC6C5AC3AAFCD2ECA104C04A46EB9E920A88B99652153CC8E702D16A9AE7232057D77194EC96AF41A6275FECF9EAD59411C4F23A99ABEC1743CD6B822F9187ADAE3AF7E1C6A56D1A1EA4FBCDC60C1A39DDFF3D56A64341A042394615263D67C53DAD2BA659FF9DA12C2CBCDFE074A8BFE2794AC8B1F6C
310
5FF7850510342FF27C10BCDCB2C8E51954AE5B6EE201504B03041400060808000E5ADC4055019EA25F0000007C00000007000000636E782E786D6C4DCB3B0E80201045D1AD90E915ED2CF8AC45050C11660C8261F98AB1B07AC9C97D42D718D865D3E909258CFD00CCE24AC6E326A164D74DC0B4128928FF326038472BA131
310
28B1252AC747C6BAB984FC68F0B87FE8960A5C09FE86CFB69FBA01504B03041400060808000E5ADC40C10FE32B63010000020300000C0000006662782F636F72652E786D6C8D52596E833014BC8AE57FB04D11A2917144969EA01770C0A12860232F28C7EF6389D2545114213DCCBC65E60DE6DB6BDFA15159D71A5D601653
310
8C94AE4CDDEAA6C0C19FA31CA3ADE0D618FFA70C232D7B55E009C68237D68461852AA3BDD21E506D6AB582D239E531AA3A3814D8553FAA97B10C1E2ADC251E6475918D8A590C69A813DC790B02D04232452CCEA72B270B2E78086DBD66DB1AD8DA73AB2C16FBE381A6799947ECB0CFA29442D895AC8CBECAC32E4B52B64BCB
310
232753B3E0BEED6FEA2AABA457351609654944B328C9BF19DBB06C937CC2E786524EA6F287A630D46F368556FB8F6495BBB4392C18089913FFB6058B3C7272043D4470329908AFD9E147A3C11030D9CB5377DBE302D0A82A6F6C0A99DA847B6A945D50C04AD1FC70B26461F23C00367B3A277931E7F50CF8815237204D7A38
310
9E829FD8F9C2BA5A31281B8DFE8AB4B1BDECEEE21689F778277ADA5E99CED877BAC9BA2A59CD24D3ED15BF504B03041400060808000E5ADC4060B3C3687E0000009D0000000B0000006662782F636E782E786D6C4DCCD10A83201886E15B91FFDCA5CDCC811A23E77DC4B288990EA76397BF1A1DECE883878F57769FD5A3B7
310
4BAF250605F44400B9708FE3126605254F5800EAB44C31E6BF1BA030AC4EC1CEA0E59C62791E34BA69283E6FEA97F038B016FDB96ED80573CA38662DE5F86A4D8F5B631A2BD88D5841A0D2B2FA95B6DDC3FA0B504B03041400060808000E5ADC40CEB7363C2A01000014020000310000006662782F32384333323534392D36
310
3134362D343731362D414644432D3744443546383445304638302F636F72652E786D6C8D51CB6EC32010FC158B537AC006ECD84E8489AAA4F982FE00B1898B1283C5A3CAE777A91DA9BDE5C2C230333BDAE587C774CFBE95F3DA9A0ED19CA04C99DE0EDA8C1D8AE18A5B941D0477D6863F34941939A90E2518093E3A1BE715
310
EAAD09CA04408D1DD40A4AEF5540597F874B877CFFA52699CB1880E16FF92CFB9B1C554E73F8069EE03E3808902D4DD289046B8F25DB563B5CD3AAC655436BFC7E3E1D71733A6DCF6DF541CE2DE1C522143C463DAC723D401C7DD5CABD6A92C482073D3DE3F74EC9A006D013CA30A9316B3F29DDD37ACF76F0DC13E89CE8FF
310
44711E5E14456D42C9D6B88BCC234179B17C083ED878B93FC3A8C76C5DC852BF8D57FD1B122427B46A086B4A5E2C54180078D6D5EAE9837530E0CDED02EC7235AE2BC18BB42328BF0B849AF6297E00504B03041400060808000E5ADC40B2A6D5335301000033030000300000006662782F32384333323534392D363134362D
310
343731362D414644432D3744443546383445304638302F636E782E786D6CBD93CD6EC32010845F0571F76F222B8D30917AE813F4D02B864D4A83C1E2A76ADEBE4B42D25C72A854F582ECD96166F5C966BBAFD9904FF0413B3BD2AE6E29012B9DD2F630D214F7D586921D67DEB97867A3C48A19469A65CAD9C1BBB41449C15E
310
24135135DA1E8BE821B8E4250494F34D629C140603C05609459827500A14B919F1690F1E5741713A91F80EE4E5F98DB8E903640CACC9299C35B983B37C96A63B1325D28810461AE43BCCA216293A05E1582B1145DDD5D7AE073BFD24917CE15A99BC26B97CA4F9A4BC6C542347D6E090B3103DD22BA6785A8072B12C464B11
310
117273365E3C9C256DE3B02E5E8DE03DBA57FDB0D960D879C659D4331487F4202228CAFBB6EBAB76A8FACD6BD76DBB61DB3FE1EBB66D5993ED9C4DCE99720963C0BB85486723D84879C79A3C7E84AFF888D21E593B7FFA054804505A2F746E197FC9A71B56EBF53FF269CEDF37E2F2F817F06F504B03041400060808000E5A
310
DC40F76E0795650700009A1B0000340000006662782F32384333323534392D363134362D343731362D414644432D3744443546383445304638302F6F626A656374732E786D6CED59DD73A33812FF5728EE65EFC1186C2733B9226C39F666CAB597DDA9F5CED63DB88A924126BA0841492213DF5F7FAD0F301093E0DBDCDB3E
310
D880905ADDBFFE5413FEF89253E71973410A76EB069EEF3A9825454A5876EB56F230F9EC3A3F46212F0AD99AE63A0CE5F8D655C36E1466BCA84A3B94E203AAA8EC8DDEDFFDCB110966D875128A84B87545F28873E4A14A1629164F5E8A24F2B2C38B17786662976CC651F9D8235A228E99044E619C0115C73015741F7D771A
310
8553F53E0AD5BF9D351F356B313C6BAAA5EE724998908825AF58EA91998F62691E2CD63FCDAE6E26578BC57CB2B89E0593BBFBBBF524F834F757D7ABD5CDF2A71B606F5F14D4CA94E212B314F47774A3209CAA378DE81681735C27056338D14002545AAC3E4182056CD582CFEF3E064AA2D66B2D61EB79A1DE5B165AC3F32E
310
95A159E380E8D00541EC76B5C4F5B52D5FB1FF37082EC61825175802B74272D0AE85878357B8911F4ECD6814EE4FBA20C2C991C49C20EA50B2E788835260AA9A1285668125A39C8303294749A035675E776D0B3CF37DD739C7E5A1A25479861B69C78AC1FDB0149A33F21FCC4FDCB791019E40DA8A30F9D972298F2576A39B
310
70AA07A3505DE633FBD200E91C28CA8446C4BCED09BA52AEBF59BBD1CFF7FB97AD0A07E7372F7951622E95D1293D6ABEC090ED55A164B70D46694E2D00610CA876E50994DF00F95F207A9C5801BD71F2B27859D8B99223260E05CF41378EEF4C7CF8F39D40FFABFBD65D386D1677B5378427B8A982EAF39FC7B32B83C6CAF2
310
DF82330A9FC1E00B3EB7AFB609A260CF0F840140CA481C5AC01084F6C3FEC58D36103821D0C32A44A3004406769FE1369C5A3227ADD4EE65BD8E01A2768FF91825016CDA22818D013D7D81ECC1497252535BC42178AF3EC45C97EBEDCFDB8A1F50821FAC4FAFF1813022216B9E67A8837947A2277CFC5EF014047D8DF7B68D
310
776EB71280B6C25C019FD520A887D3CE9D0D125897152ADC84EFEC0042A85CDDA2FF40448229450C1755BD6F13DD94A1361E6F6B06379A1988E7B39E0973FC4C5455014E739AD16114F27EC249A94074A32F46B226687A03D27DDBFC0216D9CC1F98B561107A19A2BFEBA07506878E65D7485B201A81F7A7709E14B4E0F1FE
310
189B48E7422D016C74BDE58F0E5188F546498A0A7890F6BB3AA46446DA382587432520AE9E61F18FCDAA6D0EBE370FAE9CF67FCF1917106DC17711B77ED7DB232639CA707C40E9D076EDDD1ADA42931C20CDF181825CE499C8638C64ECA738BB049A8B88DF7C28F58C1642108605E4ABB3E0B7D1F03D0824469B35CB4AAB3D
310
A08988732C11BD04014566005C9D76748D9B40E9F03E8F8DF5BEA5B136D1FF93457004B564C16202A528E49077190FBC2B88215D740DCA3D7CC1DA6ADA5A0C5A4109911CE3EF98648FF212D40DF901DC13389254322E4A9480598F20FBCA5794527BBCEF51F2A4F2479C54F4A30C44607A8809A5551EC38F3038798C71ED26
310
30BD89428BB8897D12E750942159F1319B5C5FF9AFF63135433F04B6363A100A613BCE5139807A2720EA7AC469C0B7D40794BAAFF232467951B15186E2CDFBDE64C9F7D5AAC88EE457958A5036D6842DC128244C3659B58ED960EA3AB0821BE940758C05CA4B6A4E61EF249EA0F1264D7970036EFDF46337C8A1F01BD05E3B
310
A22E6A182C8F9DC2407C47327974A3ADBE4EEEA0FE4E717A4AF575ADD9AE00013115C92B4EAC8ABE6DA0BCB1359A1B3D2029765F4CD6ADAFDF361E743FC229AC81DAA559B85140E79849A42A930775437F4310823B34CCF846E5D44BA82CD354578D88DE93217576CA88CEA639F1CA47CC8A1C7E6C475842AB14EF502A9EE2
310
0749E32D51AC5B29BD9CD418BF29E0AF5FB63D78606484485F558187BFF7D6DAD1952A97CE12918F55BE67884010EC889619DD7825CBAC466A2D375775A680BA0B0CCCAA78F1D7C9A2DD8EF8EB649159C3F853278BBBE33FD1B1DD1769A5F344D9F545C780263F292A1F710CD06D87866A93454C32B7F25B678A2128D6517E
310
743556070D437088E3FF396B0F6541B35D8FFFCBB276F0AAE2B828AB7426AB2ED599CA75D3CE61FEFA7A713F5BAC268BFBFBE564E12F3E4D96CB4FD79375B0B8F767FEDD32B8BE6ED0D48E1A854D30D3B90B9E4D50AB87D593C500BAB2A2A02485D37CEA641862BE8433FD88F639CFB180E4D96E76A7B6293F62F5B3E9734A
310
B4A7B8E6E4114183980A48EB805195C8EEB8F337684D4A3868DFBAD034F29EE0CF5AA5EB40E6B975A15520498285B78736936AE869E2907275EEB7C4001FC4329512CDA2E6B959A5B0E984FF66CA983460E5EAF430A0702BA1FBD5E95068DE2C4FC94582D7EC3848C2EDBE9250AD19594E038D307A9B93FA8D6C94B027BBF5
310
0BB8EEDB62059E9ED34164D42783378DC0509D48C433DDEF568C599696EBAF53E8B3399B5F9D925619E8723CA509C760CC952AA8C08AC02A2CCD124930D5D53F765F79019F7872475745CE0F2F9FAFFFBE5B15795E3033B45BC2A92C850F45CEF6113EFBA43B281EB06AAE8BDDCC0F663BDDD4B67DF6788F04F65455040375
310
31A104E9991CD8E5AB06956D5F4E952A7AD3376BC706516806183B7AD5E3351FB91CF021F53945798CF6F35ADA37FBDA533D156C8243473AFA2F504B03041400060800000E5ADC40000000000000000000000000350000006662782F32384333323534392D363134362D343731362D414644432D3744443546383445304638
310
302F76657274696365732E62696E504B03041400060808000E5ADC40F270F1330600000004000000360000006662782F32384333323534392D363134362D343731362D414644432D3744443546383445304638302F747269616E676C65732E62696E636660600000504B03041400060800000E5ADC40000000000000000000
310
000000370000006662782F32384333323534392D363134362D343731362D414644432D3744443546383445304638302F617474726962757465732E62696E504B03041400060808000E5ADC40D5987DFC8F00000041010000360000006662782F32384333323534392D363134362D343731362D414644432D37444435463834
310
45304638302F6469726563746F72792E786D6C858F410EC2201045AF4266AF15DDB800BA74E7C21B903225242D6328188F2FA5C4183471359997F9FF81E89FF3C41E1816475E02DF1F80A11FC8386F25A438EECEC07A250251FC3803E6F58C12560C4AD840E95E91C151A72936F496F35732D860FE635F62C8F2DA16B505C5
310
45B74125BAA2FA9E05D7CC053D063734D5C7665FD55B6B8D15D5E9BFEAFD8490FFA45E504B03041400060808000E5ADC40E55A346BFB000000A00100003B0000006662782F32384333323534392D363134362D343731362D414644432D3744443546383445304638302F7265736F75726365732F636F72652E786D6C8D504B
310
6E833010BD0A9A3D60BB8852641C41484FD00B586642AC041BF953F5F835814AEDAE9B19FB7D344F8F9FBE9647F689CE6B6B3AA005810C8DB293367307315CF306B293E0CEDAF04B0699910B76B0C120F8EC6C5C0F485913D084841A3BE1014AEF3140A61EE9D18157375C642163480A7F2F56A9EE72C68216894E3AC17D70
310
2940B61FD9260887DE46A7D0F37267058F514F87464FE9A6BE6A7420CE9791544DFF9AD3F15CE7154963E8699FBFF7E350B38A0E557FE1E566163CE8E527A37228034E2018A12C2775CE9A0F4A5B5AB7EC2D7D5B4278B9C9FF98E23AFDD314B5092FEC88BBDB3C089A823C09C1CBADAFB49E65A6BD752BBE01504B01021400
310
0A00000800000E5ADC403DEE336E79000000790000001B00000000000000000000000000000000006175746F6465736B2D64657369676E2D7061636B6167652E786D6C504B010214001400060808000E5ADC40D486FD9CA0000000F40000001300000000000000000000000000B20000005B436F6E74656E745F5479706573
310
5D2E786D6C504B010214001400060808000E5ADC40153BA01BE80000007C010000080000000000000000000000000083010000636F72652E786D6C504B010214001400060808000E5ADC4055019EA25F0000007C000000070000000000000000000000000091020000636E782E786D6C504B010214001400060808000E5ADC
310
40C10FE32B63010000020300000C00000000000000000000000000150300006662782F636F72652E786D6C504B010214001400060808000E5ADC4060B3C3687E0000009D0000000B00000000000000000000000000A20400006662782F636E782E786D6C504B010214001400060808000E5ADC40CEB7363C2A010000140200
310
003100000000000000000000000000490500006662782F32384333323534392D363134362D343731362D414644432D3744443546383445304638302F636F72652E786D6C504B010214001400060808000E5ADC40B2A6D53353010000330300003000000000000000000000000000C20600006662782F32384333323534392D
310
363134362D343731362D414644432D3744443546383445304638302F636E782E786D6C504B010214001400060808000E5ADC40F76E0795650700009A1B00003400000000000000000000000000630800006662782F32384333323534392D363134362D343731362D414644432D3744443546383445304638302F6F626A6563
310
74732E786D6C504B010214001400060800000E5ADC4000000000000000000000000035000000000000000000000000001A1000006662782F32384333323534392D363134362D343731362D414644432D3744443546383445304638302F76657274696365732E62696E504B010214001400060808000E5ADC40F270F1330600
310
00000400000036000000000000000000000000006D1000006662782F32384333323534392D363134362D343731362D414644432D3744443546383445304638302F747269616E676C65732E62696E504B010214001400060800000E5ADC400000000000000000000000003700000000000000000000000000C7100000666278
310
2F32384333323534392D363134362D343731362D414644432D3744443546383445304638302F617474726962757465732E62696E504B010214001400060808000E5ADC40D5987DFC8F0000004101000036000000000000000000000000001C1100006662782F32384333323534392D363134362D343731362D414644432D37
310
44443546383445304638302F6469726563746F72792E786D6C504B010214001400060808000E5ADC40E55A346BFB000000A00100003B00000000000000000000000000FF1100006662782F32384333323534392D363134362D343731362D414644432D3744443546383445304638302F7265736F75726365732F636F72652E
310
786D6C504B0506000000000E000E0080040000531300000000
  0
XRECORD
  5
17
102
{ACAD_REACTORS
330
12
102
}
330
12
100
AcDbXrecord
280
     1
270
     1
271
     1
  0
XRECORD
  5
16
102
{ACAD_REACTORS
330
12
102
}
330
12
100
AcDbXrecord
280
     1
270
     1
271
     1
  0
XRECORD
  5
18
102
{ACAD_REACTORS
330
12
102
}
330
12
100
AcDbXrecord
280
     1
270
     1
271
     1
  0
XRECORD
  5
15
102
{ACAD_REACTORS
330
12
102
}
330
12
100
AcDbXrecord
280
     1
270
     1
271
     1
  0
XRECORD
  5
24
102
{ACAD_REACTORS
330
22
102
}
330
22
100
AcDbXrecord
280
     1
270
     1
271
     1
  0
XRECORD
  5
23
102
{ACAD_REACTORS
330
22
102
}
330
22
100
AcDbXrecord
280
     1
270
     1
271
     1
  0
XRECORD
  5
BA
102
{ACAD_REACTORS
330
22
102
}
330
22
100
AcDbXrecord
280
     1
 70
     1
 90
1959938040
 71
     1
  1
49857500-1279-4ACA-BD20-7792E46A9A6B
311
504B03040A00000800000E5ADC403DEE336E79000000790000001B0000006175746F6465736B2D64657369676E2D7061636B6167652E786D6C3C3F786D6C2076657273696F6E3D22312E302220656E636F64696E673D227574662D3822203F3E3C666F726D6174733E3C666F726D61743E687474703A2F2F736368656D612E
311
6175746F6465736B2E636F6D2F64657369676E2D7061636B6167652F323030393C2F666F726D61743E3C2F666F726D6174733E504B03041400060808000E5ADC40D486FD9CA0000000F4000000130000005B436F6E74656E745F54797065735D2E786D6C7D8EC10E82300C865F65E91D8A1E8C310C0EEA1BF002731658846E
311
D98AC1B77784ABF1D8FE5FBFBF75BBCE937A534CCEB38643598122B6FEE978D0B0485F9C41B54DDD7D022595594E1A469170414C76A4D9A4D207E29CF43ECE46F218070CC6BECC4078ACAA135ACF422C856C0E68EA1BF5669944DDD7BCDE7B1F8E415D77AECB980613C2E4AC91FC167A2B244592486606FC29C8FD7F045B9A
311
EF7053A7E60B504B03041400060808000E5ADC40BCA8511EE80000007C01000008000000636F72652E786D6C8D505B6EC32010BC0ADA7F6CA00E892D4C14ABEE097A0104C44189C13250F5F8C57948ED5FBF767776667734E2F83DDFD0975DA30BBE075A1140D6EB609C9F7AC8E98C0F808E52AC21A45F34405ECDB6870D06
311
29A635E4E509E9E093F5A9A03E18FB04558C3601D2B7D2F410F5C5CEAA52391546BC568BD25735D98ABEBA22CED919F478E24CB9E7CECEAE20E947C329E323A6A713C1CD6E37E276DC0F781886B1DD73DEB4F45DD49B588AE4E6D77FBD5A95AC01C908659870CC0E9F94769477AC2D634788A837FA1F515ECC3F45D9F9F4C6
311
9E761FB258BC1623F78514F5964529F7A04ADD72933F504B03041400060808000E5ADC4055019EA25F0000007C00000007000000636E782E786D6C4DCB3B0E80201045D1AD90E915ED2CF8AC45050C11660C8261F98AB1B07AC9C97D42D718D865D3E909258CFD00CCE24AC6E326A164D74DC0B4128928FF326038472BA131
311
28B1252AC747C6BAB984FC68F0B87FE8960A5C09FE86CFB69FBA01504B03041400060808000E5ADC40AAECFE6365010000020300000C0000006662782F636F72652E786D6C8D525B6E833010BC8AE57F634C0979C8380A2A3D412FE0804351C046C646397E97474453455184046667676776801F6F6D830665FBDAE814B320
311
C448E9C294B5AE52ECDD85EC303A0A6E8D717FDA30D2B255291ECB58F0CA1ADF2DA5C268A7B483AA36A55A8AB2EF95C3A868E090E2BEF851AD0CA477D0D15F834E165759A9800500439FE0BDB36000CD22E31D8BCBF9C6E95C17DCFBBA5CD0BA04B5FA522B8B05FB8A1316253961A75348E2CD2627FB7C9B912CCBF2FD3649
311
E23DFBE474240BEEEAF6EEAEB04A3A556211852C226142A2DD376307961CA23DBC1EC290D3B1FD81E4BBF24D92AFB5FB8816BB33AD07AF606402FE6D0B1139D4CB01FC50C1E918223CA6841F838640206427CFCD7D8F2B940655386363404AE35768908D57A01AA2E9E2744661F23400367B3A277A31E7F50CF8805257604D
311
3A389EBD1BD5F9ACBA44D1294B067743DAD85636ABB9D9E27A5F859ED20BD318FB0E9B2EABD2254C3AFEBDE217504B03041400060808000E5ADC40019AD8147E0000009D0000000B0000006662782F636E782E786D6C4DCCD10A83201886E15B91FFDC65D89603352AED3E6259C84C87E9D8E5AF46073BFAE0E1E3E5CD6775
311
E86DE2668317505E0820E31F61B27E1190D38C19A046F21842FABB01F2E36A041C0C922F31E4D7499399C7ECD2AECEFAE7894ADF14539AE0BEA71A57654BF17D683B4C081BEAEE5A2BAA29149217BFD2BE47587E01504B03041400060808000E5ADC40E816015B2C01000014020000310000006662782F4445364438444530
311
2D434333452D343141332D394641422D3030384637423537443345332F636F72652E786D6C8D51DB8EC22014FC15C293FB400B6DADD5508CDAFA05FB0308E8122D345C367EFED26D4D76DF7CE1C0303367720EDD3F8707F856CE6B6B5A48320C8132C24A6D6E2D8CE18A1A08F68C3A6BC31F1A04860FAA85130C19BD391BC7
311
0512D6046542428D956A01B9F72A40201EE9D2422FBED4C0331E4362F87B367271E73795912C7D271EA33EB81400CC4DA613B2AEAFBBA6EB313A9DCA1E55E450A2EDF970441837E7CD71BDE9CABEA4F92C6434462D17B996298EBE6AE5DE3599C48C063DBCE20BA7785012B2029302E11A15CD27213B52EF8A6D7AEE30A6F9
311
44FF278AA37C5314B50965B1C49D651E3242F3F9835169E3E5F10AA39EA375014CFD565E890FC8708649596CB67545F3999A06903CEB6AF1F4C1BA34E0D5FD92D8643D1BD715A3F9B4A3547E1798EAB44FF603504B03041400060808000E5ADC40D4011A244C01000033030000300000006662782F44453644384445302D43
311
4333452D343141332D394641422D3030384637423537443345332F636E782E786D6CD593CD6EC32010845F05718F6DDCC84A234CA41EFA043DF48A6193D260B0F8A99AB7EF929034971C7AEC05D9B31F33AB91CD77DFB3255F10A2F16EA4ACE92801A7BC36EE30D29CF6AB0D253BC183F7E90EA3C4C919465A642AF821F8BC
311
5449C35E669B50B5C61DAB1820FA1C144494CB4D62BD92160DC0AD328A304FA035687203F1690F015741713A91F401E4F5E59DF8E913548ABC2D2E82B72543F072D6A43B881265658C238DEA0366D9C89CBC86786CB44CB261CD35EBC14EBF4EA45CB846E66048091F6939A9A81B35D8236F7128784C01DBAB503A2D40855C
311
166B944C58727B062F8CE0D9B834AC2B6BB0F880341B9ED66B343BCF044F66864AA8003281A6A2EF58BFEA8655BF79636CCB866DFF8CAFDBAEE36DC1059FBCB7F512DA40F00B51DE2570890AC6DB327E545FE5883601BBF6E1F48722B1809A7A69E7E6F19FFB69CFDF37D615F02F103F504B03041400060808000E5ADC4082
311
174DB1A505000080100000340000006662782F44453644384445302D434333452D343141332D394641422D3030384637423537443345332F6F626A656374732E786D6CAD57DB6EDB3810FD1541FBB2FBE08B6CE7E285A2C2B19BC228D216355AEC4300839228851B4A14282A71F6EBF750A464C9B553EFA22F96450D873367
311
CE5CE8BFDB65DC79A6B26422BF71BDE1D875681E8998E5E98D5BA96470ED3AEF025F0AA13A62AE93938CDEB87AD90DFC548AAAB04B314D48C5D5C1EADDED5F4E19D19CBA4EC44959DEB865F4483332249512312D9F863151649826BBA13734827DB5A924C5E381D282489A2B588AF51C5A1C6394D77F1DBBA3C01FE9EF81AF
311
7FADD4F4B4D4A8F6A77F3ECB4B45F2E887C30ED44CBDD9EAFDE4623EB898CDA683D9E5C41BDCDEDDAE06DED574BCBC5C2EE78BF7731C5C2A094DD612491337F8006C248BFC91F914F815CBD57462456C8046923E331D293798389E3F3232AD77D6C963E64722CF69546305346AFFACEA9816348F1173464B58D64168DC7FF5
311
348E9DCF53FD6E8FEC2E9F874077474751637BF3EC5A2AC2BFE142790E83644935030D96D651C3D5F11EE150086EBFB1D2C988A29211EE70164A225FDD00A25A24F07B6A3493A5CE06ED811B200AE6739F2E48A39FF3FC989549C5B9A6B11BD459B045AE5055D696B17FA8DC5BDF45063621569A0DD7D621F55A5037981B8A
311
5C1FB0C900E9249CA40839DCD43BA7930347973A4FD72B37F87817EE363A778F1F5E485150A9347D40AD2670CD53A3646DF2CE8A9CDEE01E98B207E52B90FF8454DF9B82B849B69BED66F61425495E264266888D33760663FC8C1DAFFED5FF3BFFFC51BBB91FBD537822D81AAA5F8067DF876E2C3B7006FE33082FE4D4BAB6
311
890847D9B8673900D22471B8C012EA7012EEDC608D2A87AA8C5D84071E5C86B9CFF8EB8FAC1A148AFAA4CE3307960765F18C020DD86A46C20C437E6BE03E4E3F94B3FA602B760ADE8B5F42D7C56AF37153C98444F4DEE6F48A262C670A2D6ECF9BAE413DCC7B1E3DD1D717216338FA23DE9B2EDE993DAA04DA1A730D7CDAD4
311
74FDB23FB97740847DA9D0E5C6FFC909704237D68EFE7B5646947392535135E7BED93FD0360CC43AD93593DB06B36F2C208DF972908368D291648506B1ED566DD11C9EF0EEDBFA131809792E42C2F742E1BEF446820BB90D5FB7A62A1D45FA7B9FDA168291D602B6D739D2A4BFC57C1BB324A94AD4C023B07E5F2FBBA1D355
311
0115A2D16A926506F7915B445ACE367AD1AC25412315F996A16D22ED8E1ED0D50F442D016A85A72C2E294FB68CF32ADB268CA3196D33529C80E3FFDB1F5659B12599A872754277CF743487BEED3DF2962F44458F6EB0A99F835B94DE98C6FB30F784752B3982552FB4B3F9F5C5D5C5783CF02657F3C16CB15C0C6E5793F1E0
311
EA6A3E793FBB5CCC1797B74D9C8CF2C06F3A4D37A111257436BF92CC86EFDB1AE9636B801BDC13553E7C30D9D93CBFAD871885FD11F6A05DB61B17F133C63E1AFF5CC15EF2A8A27556709AD15C119D42F7FA0FFF4A3066F48C31EBEB8CA4F40C2D9F3F6C0E9CC1CA19FBBEE874A72F077BEDEA5227E45125EAB1CAC29C307E
311
B03135480E8B3CB5F83531699FA6CF34AFFACD0606836929388B51066327A522A30AC5F08C1E24335A827ADD913EB6578F33763F9B01519190D3C6924782199997480B50AB8A547FDDF90D339D1EAB6E5C74DBE1137E6CA5701D70E6C6C58CAE5844CB6188FEAC27A15A39B8D41DE431F7933CE518B5CDA6F6BDDDA5B1E975
311
E456E49CF1C9FA652AB8750065A4C0D8807908D1A98D09FCDA36FB3DFA4F8E37E63844E16F58A9D697FD42EB4C7D0C52D438652F0B98619EECD13B24EADB6E79C35AA687C85997AC374960B40E1491697D51D0F6599316AB2F230C28CEFAB353F02A452CCFD734901464AE748283456085D5591005AA2EFF7CF822052EB299
311
73C74001E7F7DDF5E51F0F4B916522374B0F0B7B1D76368FB8DCC60F280E54DF4ACA87C9D89B3CD4B7017B41D986A4A44312974F584064256B81EE851FBC345746F421F3A1951BE9501C3074BD726C639B41A9A54BB7B66A703077E4D4410EE91BA5CE98AE40F1E68560548BC20489513EF817504B03041400060800000E5A
311
DC40000000000000000000000000350000006662782F44453644384445302D434333452D343141332D394641422D3030384637423537443345332F76657274696365732E62696E504B03041400060808000E5ADC40F270F1330600000004000000360000006662782F44453644384445302D434333452D343141332D394641
311
422D3030384637423537443345332F747269616E676C65732E62696E636660600000504B03041400060800000E5ADC40000000000000000000000000370000006662782F44453644384445302D434333452D343141332D394641422D3030384637423537443345332F617474726962757465732E62696E504B030414000608
311
08000E5ADC40D5987DFC8F00000041010000360000006662782F44453644384445302D434333452D343141332D394641422D3030384637423537443345332F6469726563746F72792E786D6C858F410EC2201045AF4266AF15DDB800BA74E7C21B903225242D6328188F2FA5C4183471359997F9FF81E89FF3C41E1816475E
311
02DF1F80A11FC8386F25A438EECEC07A250251FC3803E6F58C12560C4AD840E95E91C151A72936F496F35732D860FE635F62C8F2DA16B505C545B74125BAA2FA9E05D7CC053D063734D5C7665FD55B6B8D15D5E9BFEAFD8490FFA45E504B03041400060808000E5ADC40AF037F86FC000000A00100003B0000006662782F44
311
453644384445302D434333452D343141332D394641422D3030384637423537443345332F7265736F75726365732F636F72652E786D6C8D504B6EC32010BD0A628F6DA8E3C416268A15F704BD00C2130725068B4FD5E31762576A77DD30CCFB689E1E3F7F2D4FF409CE6B6B7A4C8B0A2330CA4EDACC3D8EE1464E189D0577D6
311
865F328C8C5CA0C719C682CFCEC675879435014C48A8B113ECA0F41E0246EA993E3DF6EA0E8B2C640C49E11FC52AD543CE50D022D14927B80F2E0540DB91FC62E1C0DBE814785E6EACE031EA69D7E829DDD4370D0E0BFA5E37943557422F978AD487C348DAF138906118C6F6D834754BAFBCCC66C1835E7E322A0732C08405
311
AB28235543D8E983D28E361D6BD3DA55152FB3FC8F29AED33F4D519BF0C6F6B89BCDA7AC29C88B10BCCC7DA5F12A33CDDCADF806504B010214000A00000800000E5ADC403DEE336E79000000790000001B00000000000000000000000000000000006175746F6465736B2D64657369676E2D7061636B6167652E786D6C504B
311
010214001400060808000E5ADC40D486FD9CA0000000F40000001300000000000000000000000000B20000005B436F6E74656E745F54797065735D2E786D6C504B010214001400060808000E5ADC40BCA8511EE80000007C010000080000000000000000000000000083010000636F72652E786D6C504B0102140014000608
311
08000E5ADC4055019EA25F0000007C000000070000000000000000000000000091020000636E782E786D6C504B010214001400060808000E5ADC40AAECFE6365010000020300000C00000000000000000000000000150300006662782F636F72652E786D6C504B010214001400060808000E5ADC40019AD8147E0000009D00
311
00000B00000000000000000000000000A40400006662782F636E782E786D6C504B010214001400060808000E5ADC40E816015B2C0100001402000031000000000000000000000000004B0500006662782F44453644384445302D434333452D343141332D394641422D3030384637423537443345332F636F72652E786D6C50
311
4B010214001400060808000E5ADC40D4011A244C010000330300003000000000000000000000000000C60600006662782F44453644384445302D434333452D343141332D394641422D3030384637423537443345332F636E782E786D6C504B010214001400060808000E5ADC4082174DB1A505000080100000340000000000
311
0000000000000000600800006662782F44453644384445302D434333452D343141332D394641422D3030384637423537443345332F6F626A656374732E786D6C504B010214001400060800000E5ADC400000000000000000000000003500000000000000000000000000570E00006662782F44453644384445302D43433345
311
2D343141332D394641422D3030384637423537443345332F76657274696365732E62696E504B010214001400060808000E5ADC40F270F13306000000040000003600000000000000000000000000AA0E00006662782F44453644384445302D434333452D343141332D394641422D3030384637423537443345332F74726961
311
6E676C65732E62696E504B010214001400060800000E5ADC400000000000000000000000003700000000000000000000000000040F00006662782F44453644384445302D434333452D343141332D394641422D3030384637423537443345332F617474726962757465732E62696E504B010214001400060808000E5ADC40D5
311
987DFC8F000000410100003600000000000000000000000000590F00006662782F44453644384445302D434333452D343141332D394641422D3030384637423537443345332F6469726563746F72792E786D6C504B010214001400060808000E5ADC40AF037F86FC000000A00100003B000000000000000000000000003C10
311
00006662782F44453644384445302D434333452D343141332D394641422D3030384637423537443345332F7265736F75726365732F636F72652E786D6C504B0506000000000E000E0080040000911100000000
310
504B03040A00000800000E5ADC403DEE336E79000000790000001B0000006175746F6465736B2D64657369676E2D7061636B6167652E786D6C3C3F786D6C2076657273696F6E3D22312E302220656E636F64696E673D227574662D3822203F3E3C666F726D6174733E3C666F726D61743E687474703A2F2F736368656D612E
310
6175746F6465736B2E636F6D2F64657369676E2D7061636B6167652F323030393C2F666F726D61743E3C2F666F726D6174733E504B03041400060808000E5ADC40D486FD9CA0000000F4000000130000005B436F6E74656E745F54797065735D2E786D6C7D8EC10E82300C865F65E91D8A1E8C310C0EEA1BF002731658846E
310
D98AC1B77784ABF1D8FE5FBFBF75BBCE937A534CCEB38643598122B6FEE978D0B0485F9C41B54DDD7D022595594E1A469170414C76A4D9A4D207E29CF43ECE46F218070CC6BECC4078ACAA135ACF422C856C0E68EA1BF5669944DDD7BCDE7B1F8E415D77AECB980613C2E4AC91FC167A2B244592486606FC29C8FD7F045B9A
310
EF7053A7E60B504B03041400060808000E5ADC40697DF694EA0000007C01000008000000636F72652E786D6C8D90D18E832010457FC5CC3B0AD476AD411A6DF50BF60708504B5AC1086CF6F3175B9BECBEEDD30C977B6626979DBEA747F6A5176F9C6D80E418326DA553C68E0DC47045156427CE16E7C22F1B64564CBA8155
310
06CEC6C5C57993A4B341DB9054EB94DE44E1BD0E90C9476A1AF0F2A627918B1892C3DFF359C8BB18754EDE5D8263342A7B2D312ACD3357A317E06555ED8F65DB2272EECEA81C2E3D6A07FA813A8C2FC3B0EBF65DDFB36285390B667AEF978B16412BE014138AF001D1EA93909A1C6A7A4CCF1A6356ACF63F509CD53FA1686C
310
D8D1EDDC17E6819374C8F383B362CD22956750A9AEB9F11F504B03041400060808000E5ADC4055019EA25F0000007C00000007000000636E782E786D6C4DCB3B0E80201045D1AD90E915ED2CF8AC45050C11660C8261F98AB1B07AC9C97D42D718D865D3E909258CFD00CCE24AC6E326A164D74DC0B4128928FF326038472B
310
A13128B1252AC747C6BAB984FC68F0B87FE8960A5C09FE86CFB69FBA01504B03041400060808000E5ADC40CEDA750066010000020300000C0000006662782F636F72652E786D6C8D52ED8E8230107C95A6FFA180E8A12935A2F204F702152AD7082D292DF1F16FF9309C17630C09949D9D9DD901BABF3735EA85E9A456290E
310
FD0023A10A5D4A55A5D8D9AB9760B467D4686DFFB461A47823523C9431A395D1AE9D4B855656280B55A54B311779D7098B5151C321C55DF1231AEE7367A1A3BBF92D2F6EBC127EE8030C7D8C76D6800134890C77CCAE973B25539D51E76439A3B204357995C2601627C97A1B1F0E5E78CC8E5E9C9FCEDE218FBEBC2C084E79
310
BECAD6D9F94CC94066D4CAE6E1AE30825B5162160561E4051B2F4ABEC370176E76D1165E774140C9D0FE44726DF921C9496557D16C77A2759885606404FE6D0B1159D4F11EFC1046C910223CC6849F8386402064CB2FF5638F1B947A51586D62404AED16A8E7B513A01AA0F1A2644261F23800367B39277A33E7FD0CF8805C
310
55608D5B385E9C1DD4E9A43A47D10AE3F5F68E94360DAF177393C5E5BE08BDA417BAD6E61336995725739864F87BD92F504B03041400060808000E5ADC402C11CCCF7E0000009D0000000B0000006662782F636E782E786D6C4DCCD10A83201886E15B91FFDC35B77F56A046B2BA8F581692E9703A76F9ABD1C18E3E78F878
310
45F3591D799BF8B2C14B60A73310E31F61B47E9690D3442B208D123184F47703E287D548D819949863C8CF8346330DD9A54D9DF5CB81C87BD47764B4EA7947519717DAB2EE46B966BCC5BAC6F2CAA050A2F895B6DDC3EA0B504B03041400060808000E5ADC4007832DC92B01000014020000310000006662782F3436463442
310
4434312D384636452D344237322D413145352D3642313641343939343733312F636F72652E786D6C8D51CB6EC32010FC15C4293DD8069B1227C244899A7C417F80D8244589C1E251E5F3BBD48ED4DE726161776676D815BBC77847DFDA07E36C87694930D2B67783B1D70EA778295A8C765278E7E21F1846568DBAC3398DA5
310
B87A97A625D53B1BB58D90B56ED04B5285A02346FD1D2E1D0EFD971E55A9520444B89593EA6FEAAA4B5A4219705284E8C1009A9BE4134BC64FECF0C168D19EF8B16087755DECE9F1BDE007CAF76CB361EB868A6A264A91921916BA19C08EB918ED5F15C96429A2199FF67BAF55D4039635A175417851B79F946E29DFD61B78
310
6E09115586FF23A5697891948C8D4DBDD89D69014BF8CD5C906270E97C7F9AD18FC9F98872BF55D0FD1B96A424943564DD7051CD5018006872B66886E83C0C78753B033A8F290B732645957704E1778110F33EE50F504B03041400060808000E5ADC40B2A6D5335301000033030000300000006662782F3436463442443431
310
2D384636452D344237322D413145352D3642313641343939343733312F636E782E786D6CBD93CD6EC32010845F0571F76F222B8D30917AE813F4D02B864D4A83C1E2A76ADEBE4B42D25C72A854F582ECD96166F5C966BBAFD9904FF0413B3BD2AE6E29012B9DD2F630D214F7D586921D67DEB97867A3C48A19469A65CAD9C1
310
BBB41449C15E24135135DA1E8BE821B8E4250494F34D629C140603C05609459827500A14B919F1690F1E5741713A91F80EE4E5F98DB8E903640CACC9299C35B983B37C96A63B1325D28810461AE43BCCA216293A05E1582B1145DDD5D7AE073BFD24917CE15A99BC26B97CA4F9A4BC6C542347D6E090B3103DD22BA6785A80
310
72B12C464B11117273365E3C9C256DE3B02E5E8DE03DBA57FDB0D960D879C659D4331487F4202228CAFBB6EBAB76A8FACD6BD76DBB61DB3FE1EBB66D5993ED9C4DCE99720963C0BB85486723D84879C79A3C7E84AFF888D21E593B7FFA054804505A2F746E197FC9A71B56EBF53FF269CEDF37E2F2F817F06F504B03041400
310
060808000E5ADC4074B686ED61070000991B0000340000006662782F34364634424434312D384636452D344237322D413145352D3642313641343939343733312F6F626A656374732E786D6CED595B8FA33614FE2B88BEB40F2121C95C52315499CCEE2A5ACDEEAAE9567D88841C7018778C41B6994B7F7D8F2F1060C20C69
310
A76F7D4800631F9FF39DAB0FC12F4F19751E3017246757AEEF4D5C07B3384F084BAFDC52EE4797AEF34B18F03C978D69AEC35086AF5C35EC8641CAF3B2B04309DEA392CACEE8C7EB3F1C1163865D27A648882B57C47738431E2A659E6071EF2548222FDD3F79BE6726B6C9A61C15771DA205E29849E014C61950710C537EFB
310
71E28EC360ACDE8781FAB7B3668366CDFB678DB5D46D2E091312B1F8054B1D32B3412CCDFCF9CD87E9D96274369FCF46F3F3A93FBAFE787D33F22F6693D5F96AB5587E58007BBB3CA756A604179825A0BF6737F483B17A538B6E1138C6759C3386630D2440A5C5EA122458C0560DF826ED475F49D478AD256C3CCFD57BCB42
310
6378D6A6D2376B18102DBA2088DDAE92B8BA36E5CB777F82E0628851728125702B2407ED5A783878851B4E82B1190D83DD4117443819929813441D4A761C71500A4C5553C2C02CB06494737020E52809B4E6CCEBB66D8167BEED3AC7B8DC97942ACF7043ED5811B81F96427346FEC2FCC07D1319E009A42D099397964BF95C
310
60375C04633D1806EA329BDA970648674F512A3422E66D47D09572FDF58D1B7EFEB87BDAA870707CF382E705E652199DD2A3E60B0CD95E154A765B7F90E6D40210C6806A571E40F91590FF02D1E3C00AE88D93A7F9D3DCCE951C31B1CF7906BA7126CE68027F13C7D7FFEABE71178CEBC56DEDF5E1096EAAA0BAFCF778B665
310
D05859FE1B7086C103187CCE67F6D5264614ECF996300048198943731882D0BEDF3DB9E11A0227047A588568E883C8C0EE03DC06634BE6A095CABDACD73140D4EE311BA224804D5B24B0D1A3A74F903D38890F6A6A8AD807EFD9BB98EBF266F37953F23D8AF1ADF5E91BBC278C48C89AC7196A61DE92E81E3F3FE63C01415F
310
E2BD69E29DD9AD04A0AD3057C0A71508EAE1B0736B8318D6A5B90A37C11B3B80102A5737E8DF1211634A11C37959ED5B473765A8B5C7DB9AC10DA706E2D9B463C21C3F10555580D31C66B41885BC1F73522810DDF09391AC0E9A5E8F74DFD75FC022EBF93DB3D60C422F43F4371DB48EE0D0B2EC0A690B442DF0EE10CEE39C
310
E63CDA3D4726D2B9504B001B6D6FF9BD451462BD5192A2021EA4FDAE0A29A991364AC87E5F0A88AB4758FC7DBD6A9AC3C49BF9674EF3BFE38C7388B6E0BB885BBFEBEC11910CA538DAA3A46FBBE66E356DA149F690E6784F412EF240E47384643449707A0A3427115FBC2BF594E642108605E4ABA3E037D1987810488C362B
310
9695563B4013116558227A0A028A4C0FB83AEDE81A3786D2E16D1E6BEB7D4D634DA2FF91457004B564CE2202A528E4903719F7BD3388216D740DCA1D7CC1DA2ADA5A0C5A4209113F478F98A477F214D40DF91EDC6338929432CA0B1483590F20FBC25794523BBCEF507CAFF2471497F4BD0C4460BA8F08A56516C18F303879
310
0C71ED3A30BD8A4283B8897D126750942159F2219B9C9F4D5EEC636A866E086C6CB42714C27694A1A207F55640D4F58853836FA9F7287557664584B2BC64830CC59B75BDC992EFAA55911DC8AF2A15A16CAC085B82614098ACB36A15B3C1D475600537D281EA3912282BA83985BD9178FCDA9B34E5DE0DB8F5D3F7DD2083C2
310
AF477BCD883AAF60B03CB60A03F188647CE7861B7D1D5D43FD9DE0E490EAAB5AB3590102622A92979C58157D5F4379636B3437BC45526C3F99AC5B5DBFAF3DE87E04635803B54BBD70AD80CE3093485526B7EA86FE8A2004B76898F1B5CAA9A750592689AE1A11FD48FAD4D92A235A9B66C42BEE30CB33F8B12D61312D13BC
310
4589B88F6E258D3644B16EA5F4325261FCAA805F3F6D3AF0C0C80091BEA9020F3F76D6DAD1952A978E12917765B6638840106C89961ADD78054BAD462A2DD75775A680BA0B0CCCAA78FEFFC9A2D98EF8FF64915AC3F877270B9AEF103D449B46368F95599F740AA8D393A2F21EA700DD75A8A9D649C4E4722BBEF5A5086262
310
15E407176355CC3004FB38FEC749BB2F099AED3AFC9F96B4FD1705C74949A5355935A98E14AEEB560A5B5C9E5D409933F2A7178BD17CB95A8EAE6FA693D1C5C562FA617EBE5C2CCFAF6B34B59F86411DCB74EA826713D3AA61F5643180A6ACC82949E0309F382986902FE1483FA07BCE332C2077367BDD89EDC90F58FD60DA
310
9C12ED28AE38B943D01FA602B23A6054C6B23DEEFC009D4909E7EC2B177A46DE3DFC59AB741D483C572E740A2489B1F076D06552FD3C4D1C32AE4EFD9618E08358AA32A259543FD7AB1436ADE85F4F199205AC5CAD1606D46D0534BF5A0D0ACD9BE5293E49F08A1D0749B8DD95128A3523CB61A016466F7350BF918D12766F
310
B77E02D77D5D2CDFD3735A880CFA62F0AA1118AA238978AADBDD8A31CBD2F2E6DB18DA6CCEFAAB53D032055D0EA734E2188CB954F51458115885A5592009A6BAFA79FB8DE7F08527737451E4FCF87479FED376956759CECCD0760987B204BE13399B3BF8EA936CA176C0AAB72EB6D3893FDDEA9EB66DB3473B24B0A78A2218
310
A86A092548C7E4C02E5FF4A76CF772AC54D199BEBE716C10855E80B1A3172D5EF38DCB011F525F5394C7683FAFA47DB5AD3DD653C1263834A4C3BF01504B03041400060800000E5ADC40000000000000000000000000350000006662782F34364634424434312D384636452D344237322D413145352D364231364134393934
310
3733312F76657274696365732E62696E504B03041400060808000E5ADC40F270F1330600000004000000360000006662782F34364634424434312D384636452D344237322D413145352D3642313641343939343733312F747269616E676C65732E62696E636660600000504B03041400060800000E5ADC4000000000000000
310
0000000000370000006662782F34364634424434312D384636452D344237322D413145352D3642313641343939343733312F617474726962757465732E62696E504B03041400060808000E5ADC40D5987DFC8F00000041010000360000006662782F34364634424434312D384636452D344237322D413145352D3642313641
310
343939343733312F6469726563746F72792E786D6C858F410EC2201045AF4266AF15DDB800BA74E7C21B903225242D6328188F2FA5C4183471359997F9FF81E89FF3C41E1816475E02DF1F80A11FC8386F25A438EECEC07A250251FC3803E6F58C12560C4AD840E95E91C151A72936F496F35732D860FE635F62C8F2DA16B5
310
05C545B74125BAA2FA9E05D7CC053D063734D5C7665FD55B6B8D15D5E9BFEAFD8490FFA45E504B03041400060808000E5ADC40D4B49555FD000000A00100003B0000006662782F34364634424434312D384636452D344237322D413145352D3642313641343939343733312F7265736F75726365732F636F72652E786D6C8D
310
50596EC32010BD8A35FFD84096DA16268A93F804BD00C29314258688A5EAF18B63576AFFFAC3306FD13C3D71F89A1EC527FA609CED8095140AB4DA8DC6DE3A48F14A6A280E5278E7E22F1914564DD8C10C831437EFD27385B4B3116DCCA87523AEA00A012314FA913F1D04FD81932A558A5911EEE553E9BBBA61C9CA4C679D
310
1421FA1CA0588ECC2F488FC125AF31886A61A548C98CABC68CF9A6B91AF420B775BD6BB6C786B0537F22DBE17C21C781BF919ED2F3306CFA5D7FB9886A364B11CDF493517B541147909C324EE89EF0FA9DB196ED5BDEE4B5A55454B3FC8F293DC77F9A92B171C3D7B88B2D806439C88B90A29AFBCAE355669E73B7F21B504B
310
010214000A00000800000E5ADC403DEE336E79000000790000001B00000000000000000000000000000000006175746F6465736B2D64657369676E2D7061636B6167652E786D6C504B010214001400060808000E5ADC40D486FD9CA0000000F40000001300000000000000000000000000B20000005B436F6E74656E745F54
310
797065735D2E786D6C504B010214001400060808000E5ADC40697DF694EA0000007C010000080000000000000000000000000083010000636F72652E786D6C504B010214001400060808000E5ADC4055019EA25F0000007C000000070000000000000000000000000093020000636E782E786D6C504B010214001400060808
310
000E5ADC40CEDA750066010000020300000C00000000000000000000000000170300006662782F636F72652E786D6C504B010214001400060808000E5ADC402C11CCCF7E0000009D0000000B00000000000000000000000000A70400006662782F636E782E786D6C504B010214001400060808000E5ADC4007832DC92B0100
310
001402000031000000000000000000000000004E0500006662782F34364634424434312D384636452D344237322D413145352D3642313641343939343733312F636F72652E786D6C504B010214001400060808000E5ADC40B2A6D53353010000330300003000000000000000000000000000C80600006662782F3436463442
310
4434312D384636452D344237322D413145352D3642313641343939343733312F636E782E786D6C504B010214001400060808000E5ADC4074B686ED61070000991B00003400000000000000000000000000690800006662782F34364634424434312D384636452D344237322D413145352D3642313641343939343733312F6F
310
626A656374732E786D6C504B010214001400060800000E5ADC4000000000000000000000000035000000000000000000000000001C1000006662782F34364634424434312D384636452D344237322D413145352D3642313641343939343733312F76657274696365732E62696E504B010214001400060808000E5ADC40F270
310
F133060000000400000036000000000000000000000000006F1000006662782F34364634424434312D384636452D344237322D413145352D3642313641343939343733312F747269616E676C65732E62696E504B010214001400060800000E5ADC400000000000000000000000003700000000000000000000000000C91000
310
006662782F34364634424434312D384636452D344237322D413145352D3642313641343939343733312F617474726962757465732E62696E504B010214001400060808000E5ADC40D5987DFC8F0000004101000036000000000000000000000000001E1100006662782F34364634424434312D384636452D344237322D4131
310
45352D3642313641343939343733312F6469726563746F72792E786D6C504B010214001400060808000E5ADC40D4B49555FD000000A00100003B00000000000000000000000000011200006662782F34364634424434312D384636452D344237322D413145352D3642313641343939343733312F7265736F75726365732F63
310
6F72652E786D6C504B0506000000000E000E0080040000571300000000
  0
XRECORD
  5
27
102
{ACAD_REACTORS
330
22
102
}
330
22
100
AcDbXrecord
280
     1
270
     1
271
     1
  0
XRECORD
  5
26
102
{ACAD_REACTORS
330
22
102
}
330
22
100
AcDbXrecord
280
     1
270
     1
271
     1
  0
XRECORD
  5
28
102
{ACAD_REACTORS
330
22
102
}
330
22
100
AcDbXrecord
280
     1
270
     1
271
     1
  0
XRECORD
  5
25
102
{ACAD_REACTORS
330
22
102
}
330
22
100
AcDbXrecord
280
     1
270
     1
271
     1
  0
XRECORD
  5
889
102
{ACAD_REACTORS
330
888
102
}
330
888
100
AcDbXrecord
280
     1
102
ACAD_ROUNDTRIP_2012_MLEADER_STYLE
298
     1
  0
CELLSTYLEMAP
  5
887
102
{ACAD_REACTORS
330
886
102
}
330
886
100
AcDbCellStyleMap
 90
        3
300
CELLSTYLE
  1
TABLEFORMAT_BEGIN
 90
        5
170
     1
 91
        0
 92
    32768
 62
   257
 93
        1
300
CONTENTFORMAT
  1
CONTENTFORMAT_BEGIN
 90
        0
 91
        0
 92
      512
 93
        0
300

 40
0.0
140
1.0
 94
        5
 62
     0
340
55
144
0.25
309
CONTENTFORMAT_END
171
     0
 94
        0
309
TABLEFORMAT_END
  1
CELLSTYLE_BEGIN
 90
        1
 91
        1
300
_TITLE
309
CELLSTYLE_END
300
CELLSTYLE
  1
TABLEFORMAT_BEGIN
 90
        5
170
     1
 91
        0
 92
        0
 62
   257
 93
        1
300
CONTENTFORMAT
  1
CONTENTFORMAT_BEGIN
 90
        0
 91
        0
 92
      512
 93
        0
300

 40
0.0
140
1.0
 94
        5
 62
     0
340
55
144
0.18
309
CONTENTFORMAT_END
171
     0
 94
        0
309
TABLEFORMAT_END
  1
CELLSTYLE_BEGIN
 90
        2
 91
        1
300
_HEADER
309
CELLSTYLE_END
300
CELLSTYLE
  1
TABLEFORMAT_BEGIN
 90
        5
170
     1
 91
        0
 92
        0
 62
   257
 93
        1
300
CONTENTFORMAT
  1
CONTENTFORMAT_BEGIN
 90
        0
 91
        0
 92
      512
 93
        0
300

 40
0.0
140
1.0
 94
        2
 62
     0
340
55
144
0.18
309
CONTENTFORMAT_END
171
     0
 94
        0
309
TABLEFORMAT_END
  1
CELLSTYLE_BEGIN
 90
        3
 91
        2
300
_DATA
309
CELLSTYLE_END
  0
ENDSEC
  0
EOF