0
SECTION
  2
HEADER
  9
$ACADVER
  1
AC1015
  9
$ACADMAINTVER
 70
    18
  9
$DWGCODEPAGE
  3
ANSI_1252
  9
$INSBASE
 10
0.0
 20
0.0
 30
0.0
  9
$EXTMIN
 10
0.0
 20
0.0
 30
0.0
  9
$EXTMAX
 10
68.0
 20
44.0
 30
0.0
  9
$LIMMIN
 10
0.0
 20
0.0
  9
$LIMMAX
 10
68.0
 20
44.0
  9
$ORTHOMODE
 70
     0
  9
$REGENMODE
 70
     1
  9
$FILLMODE
 70
     1
  9
$QTEXTMODE
 70
     0
  9
$MIRRTEXT
 70
     0
  9
$LTSCALE
 40
4.0
  9
$ATTMODE
 70
     1
  9
$TEXTSIZE
 40
0.2
  9
$TRACEWID
 40
0.05
  9
$TEXTSTYLE
  7
Standard
  9
$CLAYER
  8
0
  9
$CELTYPE
  6
ByLayer
  9
$CECOLOR
 62
   256
  9
$CELTSCALE
 40
1.0
  9
$DISPSILH
 70
     0
  9
$DIMSCALE
 40
1.0
  9
$DIMASZ
 40
0.0708661417322835
  9
$DIMEXO
 40
0.0625
  9
$DIMDLI
 40
0.38
  9
$DIMRND
 40
0.0
  9
$DIMDLE
 40
0.0
  9
$DIMEXE
 40
0.18
  9
$DIMTP
 40
0.0
  9
$DIMTM
 40
0.0
  9
$DIMTXT
 40
0.0708661417322835
  9
$DIMCEN
 40
0.09
  9
$DIMTSZ
 40
0.0
  9
$DIMTOL
 70
     0
  9
$DIMLIM
 70
     0
  9
$DIMTIH
 70
     1
  9
$DIMTOH
 70
     1
  9
$DIMSE1
 70
     0
  9
$DIMSE2
 70
     0
  9
$DIMTAD
 70
     0
  9
$DIMZIN
 70
     0
  9
$DIMBLK
  1

  9
$DIMASO
 70
     1
  9
$DIMSHO
 70
     1
  9
$DIMPOST
  1

  9
$DIMAPOST
  1

  9
$DIMALT
 70
     0
  9
$DIMALTD
 70
     2
  9
$DIMALTF
 40
25.4
  9
$DIMLFAC
 40
1.0
  9
$DIMTOFL
 70
     0
  9
$DIMTVP
 40
0.0
  9
$DIMTIX
 70
     0
  9
$DIMSOXD
 70
     0
  9
$DIMSAH
 70
     0
  9
$DIMBLK1
  1

  9
$DIMBLK2
  1

  9
$DIMSTYLE
  2
STANDARD
  9
$DIMCLRD
 70
     0
  9
$DIMCLRE
 70
     0
  9
$DIMCLRT
 70
     0
  9
$DIMTFAC
 40
1.0
  9
$DIMGAP
 40
0.09
  9
$DIMJUST
 70
     0
  9
$DIMSD1
 70
     0
  9
$DIMSD2
 70
     0
  9
$DIMTOLJ
 70
     1
  9
$DIMTZIN
 70
     0
  9
$DIMALTZ
 70
     0
  9
$DIMALTTZ
 70
     0
  9
$DIMUPT
 70
     0
  9
$DIMDEC
 70
     4
  9
$DIMTDEC
 70
     4
  9
$DIMALTU
 70
     2
  9
$DIMALTTD
 70
     2
  9
$DIMTXSTY
  7
Standard
  9
$DIMAUNIT
 70
     0
  9
$DIMADEC
 70
     0
  9
$DIMALTRND
 40
0.0
  9
$DIMAZIN
 70
     0
  9
$DIMDSEP
 70
    46
  9
$DIMATFIT
 70
     3
  9
$DIMFRAC
 70
     0
  9
$DIMLDRBLK
  1

  9
$DIMLUNIT
 70
     2
  9
$DIMLWD
 70
    -2
  9
$DIMLWE
 70
    -2
  9
$DIMTMOVE
 70
     0
  9
$LUNITS
 70
     2
  9
$LUPREC
 70
     4
  9
$SKETCHINC
 40
0.1
  9
$FILLETRAD
 40
0.0
  9
$AUNITS
 70
     0
  9
$AUPREC
 70
     0
  9
$MENU
  1
.
  9
$ELEVATION
 40
0.0
  9
$PELEVATION
 40
0.0
  9
$THICKNESS
 40
0.0
  9
$LIMCHECK
 70
     0
  9
$CHAMFERA
 40
0.0
  9
$CHAMFERB
 40
0.0
  9
$CHAMFERC
 40
0.0
  9
$CHAMFERD
 40
0.0
  9
$SKPOLY
 70
     0
  9
$TDCREATE
 40
2455944.479296273
  9
$TDUCREATE
 40
2455944.729296273
  9
$TDUPDATE
 40
2455944.479296447
  9
$TDUUPDATE
 40
2455944.729296447
  9
$TDINDWG
 40
0.0000374306
  9
$TDUSRTIMER
 40
0.0000374306
  9
$USRTIMER
 70
     1
  9
$ANGBASE
 50
0.0
  9
$ANGDIR
 70
     0
  9
$PDMODE
 70
     0
  9
$PDSIZE
 40
0.0
  9
$PLINEWID
 40
0.0
  9
$SPLFRAME
 70
     0
  9
$SPLINETYPE
 70
     6
  9
$SPLINESEGS
 70
     8
  9
$HANDSEED
  5
D32
  9
$SURFTAB1
 70
     6
  9
$SURFTAB2
 70
     6
  9
$SURFTYPE
 70
     6
  9
$SURFU
 70
     6
  9
$SURFV
 70
     6
  9
$UCSBASE
  2

  9
$UCSNAME
  2

  9
$UCSORG
 10
0.0
 20
0.0
 30
0.0
  9
$UCSXDIR
 10
1.0
 20
0.0
 30
0.0
  9
$UCSYDIR
 10
0.0
 20
1.0
 30
0.0
  9
$UCSORTHOREF
  2

  9
$UCSORTHOVIEW
 70
     0
  9
$UCSORGTOP
 10
0.0
 20
0.0
 30
0.0
  9
$UCSORGBOTTOM
 10
0.0
 20
0.0
 30
0.0
  9
$UCSORGLEFT
 10
0.0
 20
0.0
 30
0.0
  9
$UCSORGRIGHT
 10
0.0
 20
0.0
 30
0.0
  9
$UCSORGFRONT
 10
0.0
 20
0.0
 30
0.0
  9
$UCSORGBACK
 10
0.0
 20
0.0
 30
0.0
  9
$PUCSBASE
  2

  9
$PUCSNAME
  2

  9
$PUCSORG
 10
0.0
 20
0.0
 30
0.0
  9
$PUCSXDIR
 10
1.0
 20
0.0
 30
0.0
  9
$PUCSYDIR
 10
0.0
 20
1.0
 30
0.0
  9
$PUCSORTHOREF
  2

  9
$PUCSORTHOVIEW
 70
     0
  9
$PUCSORGTOP
 10
0.0
 20
0.0
 30
0.0
  9
$PUCSORGBOTTOM
 10
0.0
 20
0.0
 30
0.0
  9
$PUCSORGLEFT
 10
0.0
 20
0.0
 30
0.0
  9
$PUCSORGRIGHT
 10
0.0
 20
0.0
 30
0.0
  9
$PUCSORGFRONT
 10
0.0
 20
0.0
 30
0.0
  9
$PUCSORGBACK
 10
0.0
 20
0.0
 30
0.0
  9
$USERI1
 70
     0
  9
$USERI2
 70
     0
  9
$USERI3
 70
     0
  9
$USERI4
 70
     0
  9
$USERI5
 70
     0
  9
$USERR1
 40
0.0
  9
$USERR2
 40
0.0
  9
$USERR3
 40
0.0
  9
$USERR4
 40
0.0
  9
$USERR5
 40
0.0
  9
$WORLDVIEW
 70
     1
  9
$SHADEDGE
 70
     3
  9
$SHADEDIF
 70
    70
  9
$TILEMODE
 70
     1
  9
$MAXACTVP
 70
    64
  9
$PINSBASE
 10
0.0
 20
0.0
 30
0.0
  9
$PLIMCHECK
 70
     0
  9
$PEXTMIN
 10
0.0
 20
0.0
 30
0.0
  9
$PEXTMAX
 10
68.0
 20
44.0
 30
0.0
  9
$PLIMMIN
 10
0.0
 20
0.0
  9
$PLIMMAX
 10
68.0
 20
44.0
  9
$UNITMODE
 70
     0
  9
$VISRETAIN
 70
     1
  9
$PLINEGEN
 70
     0
  9
$PSLTSCALE
 70
     1
  9
$TREEDEPTH
 70
  3020
  9
$CMLSTYLE
  2
Standard
  9
$CMLJUST
 70
     0
  9
$CMLSCALE
 40
1.0
  9
$PROXYGRAPHICS
 70
     1
  9
$MEASUREMENT
 70
     0
  9
$CELWEIGHT
370
    -1
  9
$ENDCAPS
280
     0
  9
$JOINSTYLE
280
     0
  9
$LWDISPLAY
290
     0
  9
$INSUNITS
 70
     1
  9
$HYPERLINKBASE
  1

  9
$STYLESHEET
  1

  9
$XEDIT
290
     1
  9
$CEPSNTYPE
380
     0
  9
$PSTYLEMODE
290
     1
  9
$FINGERPRINTGUID
  2
{43AB305B-3037-4DEC-BAF0-6FB11CD9EBF8}
  9
$VERSIONGUID
  2
{C4FF884E-68C5-4728-9688-9C672F188381}
  9
$EXTNAMES
290
     1
  9
$PSVPSCALE
 40
0.0
  9
$OLESTARTUP
290
     0
  0
ENDSEC
  0
SECTION
  2
CLASSES
  0
CLASS
  1
ACDBDICTIONARYWDFLT
  2
AcDbDictionaryWithDefault
  3
ObjectDBX Classes
 90
        0
280
     0
281
     0
  0
CLASS
  1
MATERIAL
  2
AcDbMaterial
  3
ObjectDBX Classes
 90
     1153
280
     0
281
     0
  0
CLASS
  1
VISUALSTYLE
  2
AcDbVisualStyle
  3
ObjectDBX Classes
 90
     4095
280
     0
281
     0
  0
CLASS
  1
SCALE
  2
AcDbScale
  3
ObjectDBX Classes
 90
     1153
280
     0
281
     0
  0
CLASS
  1
TABLESTYLE
  2
AcDbTableStyle
  3
ObjectDBX Classes
 90
     4095
280
     0
281
     0
  0
CLASS
  1
MLEADERSTYLE
  2
AcDbMLeaderStyle
  3
ACDB_MLEADERSTYLE_CLASS
 90
     4095
280
     0
281
     0
  0
CLASS
  1
DICTIONARYVAR
  2
AcDbDictionaryVar
  3
ObjectDBX Classes
 90
        0
280
     0
281
     0
  0
CLASS
  1
CELLSTYLEMAP
  2
AcDbCellStyleMap
  3
ObjectDBX Classes
 90
     1152
280
     0
281
     0
  0
CLASS
  1
ACDBPLACEHOLDER
  2
AcDbPlaceHolder
  3
ObjectDBX Classes
 90
        0
280
     0
281
     0
  0
CLASS
  1
LAYOUT
  2
AcDbLayout
  3
ObjectDBX Classes
 90
        0
280
     0
281
     0
  0
ENDSEC
  0
SECTION
  2
TABLES
  0
TABLE
  2
VPORT
  5
8
330
0
100
AcDbSymbolTable
 70
     1
  0
VPORT
  5
57
330
8
100
AcDbSymbolTableRecord
100
AcDbViewportTableRecord
  2
*Active
 70
     0
 10
0.0
 20
0.0
 11
1.0
 21
1.0
 12
34.0
 22
22.0
 13
0.0
 23
0.0
 14
1.0
 24
1.0
 15
0.0
 25
0.0
 16
0.0
 26
0.0
 36
1.0
 17
0.0
 27
0.0
 37
0.0
 40
44.0
 41
1.545454545454545
 42
50.0
 43
0.0
 44
0.0
 50
0.0
 51
0.0
 71
     0
 72
   100
 73
     1
 74
     1
 75
     0
 76
     0
 77
     0
 78
     0
281
     0
 65
     1
110
0.0
120
0.0
130
0.0
111
1.0
121
0.0
131
0.0
112
0.0
122
1.0
132
0.0
 79
     0
146
0.0
  0
ENDTAB
  0
TABLE
  2
LTYPE
  5
5
330
0
100
AcDbSymbolTable
 70
    59
  0
LTYPE
  5
5B
330
5
100
AcDbSymbolTableRecord
100
AcDbLinetypeTableRecord
  2
ByBlock
 70
     0
  3

 72
    65
 73
     0
 40
0.0
  0
LTYPE
  5
5C
330
5
100
AcDbSymbolTableRecord
100
AcDbLinetypeTableRecord
  2
ByLayer
 70
     0
  3

 72
    65
 73
     0
 40
0.0
  0
LTYPE
  5
5D
330
5
100
AcDbSymbolTableRecord
100
AcDbLinetypeTableRecord
  2
Continuous
 70
     0
  3
Solid line
 72
    65
 73
     0
 40
0.0
  0
LTYPE
  5
DD
330
5
100
AcDbSymbolTableRecord
100
AcDbLinetypeTableRecord
  2
BY_STANDARD
 70
     0
  3
By Standard ____________    ____    ____   _
 72
    65
 73
     6
 40
1.240299999999999
 49
0.6614
 74
     0
 49
-0.0827
 74
     0
 49
0.1654
 74
     0
 49
-0.0827
 74
     0
 49
0.1654
 74
     0
 49
-0.0827
 74
     0
  0
LTYPE
  5
DE
330
5
100
AcDbSymbolTableRecord
100
AcDbLinetypeTableRecord
  2
CHAIN
 70
     0
  3
Chain ____ _ ____ _ ____ _ ____ _ ____ _ ____
 72
    65
 73
     4
 40
0.7087
 49
0.4724000000000001
 74
     0
 49
-0.0591
 74
     0
 49
0.1181
 74
     0
 49
-0.0591
 74
     0
  0
LTYPE
  5
DF
330
5
100
AcDbSymbolTableRecord
100
AcDbLinetypeTableRecord
  2
DASH_DOT
 70
     0
  3
Dash dot __ . __ . __ . __ . __ . __ . __ . __
 72
    65
 73
     4
 40
0.37
 49
0.24
 74
     0
 49
-0.06
 74
     0
 49
0.01
 74
     0
 49
-0.06
 74
     0
  0
LTYPE
  5
E0
330
5
100
AcDbSymbolTableRecord
100
AcDbLinetypeTableRecord
  2
DOUBLE_DASH_DOT
 70
     0
  3
Double-Dash Dot __ __ . __ __ . __ __ . __ _
 72
    65
 73
     6
 40
0.4398
 49
0.24
 74
     0
 49
-0.06
 74
     0
 49
0.0098
 74
     0
 49
-0.06
 74
     0
 49
0.01
 74
     0
 49
-0.06
 74
     0
  0
LTYPE
  5
E1
330
5
100
AcDbSymbolTableRecord
100
AcDbLinetypeTableRecord
  2
DASH_TRIPLE_DOT
 70
     0
  3
Dash Triple-Dot _ . . . _ . . . _ . . . _
 72
    65
 73
     8
 40
0.51
 49
0.24
 74
     0
 49
-0.06
 74
     0
 49
0.01
 74
     0
 49
-0.06
 74
     0
 49
0.01
 74
     0
 49
-0.06
 74
     0
 49
0.01
 74
     0
 49
-0.06
 74
     0
  0
LTYPE
  5
E2
330
5
100
AcDbSymbolTableRecord
100
AcDbLinetypeTableRecord
  2
DASHED
 70
     0
  3
Dashed __ __ __ __ __ __ __ __ __ __ __ __ __ _
 72
    65
 73
     2
 40
0.2067
 49
0.1654
 74
     0
 49
-0.0413
 74
     0
  0
LTYPE
  5
E3
330
5
100
AcDbSymbolTableRecord
100
AcDbLinetypeTableRecord
  2
DASH_DOUBLE_DOT
 70
     0
  3
Dash Double-Dot __ . . __ . . __ . . __ . .
 72
    65
 73
     6
 40
0.4398
 49
0.24
 74
     0
 49
-0.06
 74
     0
 49
0.0098
 74
     0
 49
-0.06
 74
     0
 49
0.01
 74
     0
 49
-0.06
 74
     0
  0
LTYPE
  5
E4
330
5
100
AcDbSymbolTableRecord
100
AcDbLinetypeTableRecord
  2
DASHED_SPACE
 70
     0
  3
Dashed Space __ __ __ __ __ __ __ __ __ __ __ _
 72
    65
 73
     2
 40
0.2067
 49
0.1654
 74
     0
 49
-0.0413
 74
     0
  0
LTYPE
  5
E5
330
5
100
AcDbSymbolTableRecord
100
AcDbLinetypeTableRecord
  2
DOTTED
 70
     0
  3
Dotted . . . . . . . . . . . . . . . . . . . . 
 72
    65
 73
     2
 40
0.0482
 49
0.0069
 74
     0
 49
-0.0413
 74
     0
  0
LTYPE
  5
E6
330
5
100
AcDbSymbolTableRecord
100
AcDbLinetypeTableRecord
  2
DOUBLE_DASH_CHAIN
 70
     0
  3
Double-Dash Chain ______  __  __  ______  __  _
 72
    65
 73
     6
 40
1.240299999999999
 49
0.6614
 74
     0
 49
-0.0827
 74
     0
 49
0.1654
 74
     0
 49
-0.0827
 74
     0
 49
0.1654
 74
     0
 49
-0.0827
 74
     0
  0
LTYPE
  5
E8
330
5
100
AcDbSymbolTableRecord
100
AcDbLinetypeTableRecord
  2
DOUBLE_DASH_DOUBLE_DOT
 70
     0
  3
Double-Dash Double-dot _ _ . . _ _ . . _
 72
    65
 73
     8
 40
0.7400000000000001
 49
0.24
 74
     0
 49
-0.06
 74
     0
 49
0.24
 74
     0
 49
-0.06
 74
     0
 49
0.01
 74
     0
 49
-0.06
 74
     0
 49
0.01
 74
     0
 49
-0.06
 74
     0
  0
LTYPE
  5
E9
330
5
100
AcDbSymbolTableRecord
100
AcDbLinetypeTableRecord
  2
DOUBLE_DASH_TRIPLE_DOT
 70
     0
  3
Double Dash Triple Dot __ __ . . . __ __ . .
 72
    65
 73
    10
 40
0.8100000000000001
 49
0.24
 74
     0
 49
-0.06
 74
     0
 49
0.24
 74
     0
 49
-0.06
 74
     0
 49
0.01
 74
     0
 49
-0.06
 74
     0
 49
0.01
 74
     0
 49
-0.06
 74
     0
 49
0.01
 74
     0
 49
-0.06
 74
     0
  0
LTYPE
  5
EA
330
5
100
AcDbSymbolTableRecord
100
AcDbLinetypeTableRecord
  2
LONG_DASH_DOTTED
 70
     0
  3
Long Dash Dotted ____ . ____ . ____ . ____ . _
 72
    65
 73
     4
 40
0.3543
 49
0.2362
 74
     0
 49
-0.0295
 74
     0
 49
0.0591
 74
     0
 49
-0.0295
 74
     0
  0
LTYPE
  5
EB
330
5
100
AcDbSymbolTableRecord
100
AcDbLinetypeTableRecord
  2
LONG_DASH_DOUBLE_DOT
 70
     0
  3
Long Dash Double Dot ________  .  .  ________  
 72
    65
 73
     6
 40
0.6799999999999999
 49
0.48
 74
     0
 49
-0.06
 74
     0
 49
0.01
 74
     0
 49
-0.06
 74
     0
 49
0.01
 74
     0
 49
-0.06
 74
     0
  0
LTYPE
  5
EC
330
5
100
AcDbSymbolTableRecord
100
AcDbLinetypeTableRecord
  2
LONG_DASH_TRIPLE_DOT
 70
     0
  3
Long Dash Triple Dot ____ ... ____ ... ____
 72
    65
 73
     8
 40
0.3689
 49
0.2362
 74
     0
 49
-0.0295
 74
     0
 49
0.0049
 74
     0
 49
-0.0295
 74
     0
 49
0.0049
 74
     0
 49
-0.0295
 74
     0
 49
0.0049
 74
     0
 49
-0.0295
 74
     0
  0
LTYPE
  5
ED
330
5
100
AcDbSymbolTableRecord
100
AcDbLinetypeTableRecord
  2
BORDER
 70
     0
  3
Border __ __ . __ __ . __ __ . __ __ . __ __ .
 72
    65
 73
     6
 40
1.75
 49
0.5
 74
     0
 49
-0.25
 74
     0
 49
0.5
 74
     0
 49
-0.25
 74
     0
 49
0.0
 74
     0
 49
-0.25
 74
     0
  0
LTYPE
  5
EE
330
5
100
AcDbSymbolTableRecord
100
AcDbLinetypeTableRecord
  2
BORDER2
 70
     0
  3
Border (.5x) __.__.__.__.__.__.__.__.__.__.__.
 72
    65
 73
     6
 40
0.875
 49
0.25
 74
     0
 49
-0.125
 74
     0
 49
0.25
 74
     0
 49
-0.125
 74
     0
 49
0.0
 74
     0
 49
-0.125
 74
     0
  0
LTYPE
  5
EF
330
5
100
AcDbSymbolTableRecord
100
AcDbLinetypeTableRecord
  2
BORDERX2
 70
     0
  3
Border (2x) ____  ____  .  ____  ____  .  ___
 72
    65
 73
     6
 40
3.5
 49
1.0
 74
     0
 49
-0.5
 74
     0
 49
1.0
 74
     0
 49
-0.5
 74
     0
 49
0.0
 74
     0
 49
-0.5
 74
     0
  0
LTYPE
  5
F0
330
5
100
AcDbSymbolTableRecord
100
AcDbLinetypeTableRecord
  2
CENTER
 70
     0
  3
Center ____ _ ____ _ ____ _ ____ _ ____ _ ____
 72
    65
 73
     4
 40
2.0
 49
1.25
 74
     0
 49
-0.25
 74
     0
 49
0.25
 74
     0
 49
-0.25
 74
     0
  0
LTYPE
  5
F1
330
5
100
AcDbSymbolTableRecord
100
AcDbLinetypeTableRecord
  2
CENTER2
 70
     0
  3
Center (.5x) ___ _ ___ _ ___ _ ___ _ ___ _ ___
 72
    65
 73
     4
 40
1.125
 49
0.75
 74
     0
 49
-0.125
 74
     0
 49
0.125
 74
     0
 49
-0.125
 74
     0
  0
LTYPE
  5
F2
330
5
100
AcDbSymbolTableRecord
100
AcDbLinetypeTableRecord
  2
CENTERX2
 70
     0
  3
Center (2x) ________  __  ________  __  _____
 72
    65
 73
     4
 40
4.0
 49
2.5
 74
     0
 49
-0.5
 74
     0
 49
0.5
 74
     0
 49
-0.5
 74
     0
  0
LTYPE
  5
F3
330
5
100
AcDbSymbolTableRecord
100
AcDbLinetypeTableRecord
  2
DASHDOT2
 70
     0
  3
Dash dot (.5x) _._._._._._._._._._._._._._._.
 72
    65
 73
     4
 40
0.5
 49
0.25
 74
     0
 49
-0.125
 74
     0
 49
0.0
 74
     0
 49
-0.125
 74
     0
  0
LTYPE
  5
F4
330
5
100
AcDbSymbolTableRecord
100
AcDbLinetypeTableRecord
  2
DASHDOTX2
 70
     0
  3
Dash dot (2x) ____  .  ____  .  ____  .  ___
 72
    65
 73
     4
 40
2.0
 49
1.0
 74
     0
 49
-0.5
 74
     0
 49
0.0
 74
     0
 49
-0.5
 74
     0
  0
LTYPE
  5
F6
330
5
100
AcDbSymbolTableRecord
100
AcDbLinetypeTableRecord
  2
DASHED2
 70
     0
  3
Dashed (.5x) _ _ _ _ _ _ _ _ _ _ _ _ _ _ _ _ _
 72
    65
 73
     2
 40
0.375
 49
0.25
 74
     0
 49
-0.125
 74
     0
  0
LTYPE
  5
F7
330
5
100
AcDbSymbolTableRecord
100
AcDbLinetypeTableRecord
  2
DASHEDX2
 70
     0
  3
Dashed (2x) ____  ____  ____  ____  ____  ___
 72
    65
 73
     2
 40
1.5
 49
1.0
 74
     0
 49
-0.5
 74
     0
  0
LTYPE
  5
F8
330
5
100
AcDbSymbolTableRecord
100
AcDbLinetypeTableRecord
  2
DIVIDE
 70
     0
  3
Divide ____ . . ____ . . ____ . . ____ . . ____
 72
    65
 73
     6
 40
1.25
 49
0.5
 74
     0
 49
-0.25
 74
     0
 49
0.0
 74
     0
 49
-0.25
 74
     0
 49
0.0
 74
     0
 49
-0.25
 74
     0
  0
LTYPE
  5
F9
330
5
100
AcDbSymbolTableRecord
100
AcDbLinetypeTableRecord
  2
DIVIDE2
 70
     0
  3
Divide (.5x) __..__..__..__..__..__..__..__.._
 72
    65
 73
     6
 40
0.625
 49
0.25
 74
     0
 49
-0.125
 74
     0
 49
0.0
 74
     0
 49
-0.125
 74
     0
 49
0.0
 74
     0
 49
-0.125
 74
     0
  0
LTYPE
  5
FA
330
5
100
AcDbSymbolTableRecord
100
AcDbLinetypeTableRecord
  2
DIVIDEX2
 70
     0
  3
Divide (2x) ________  .  .  ________  .  .  _
 72
    65
 73
     6
 40
2.5
 49
1.0
 74
     0
 49
-0.5
 74
     0
 49
0.0
 74
     0
 49
-0.5
 74
     0
 49
0.0
 74
     0
 49
-0.5
 74
     0
  0
LTYPE
  5
FB
330
5
100
AcDbSymbolTableRecord
100
AcDbLinetypeTableRecord
  2
DOT
 70
     0
  3
Dot . . . . . . . . . . . . . . . . . . . . . .
 72
    65
 73
     2
 40
0.25
 49
0.0
 74
     0
 49
-0.25
 74
     0
  0
LTYPE
  5
FC
330
5
100
AcDbSymbolTableRecord
100
AcDbLinetypeTableRecord
  2
DOT2
 70
     0
  3
Dot (.5x) .....................................
 72
    65
 73
     2
 40
0.125
 49
0.0
 74
     0
 49
-0.125
 74
     0
  0
LTYPE
  5
FD
330
5
100
AcDbSymbolTableRecord
100
AcDbLinetypeTableRecord
  2
DOTX2
 70
     0
  3
Dot (2x) .  .  .  .  .  .  .  .  .  .  .  .  . 
 72
    65
 73
     2
 40
0.5
 49
0.0
 74
     0
 49
-0.5
 74
     0
  0
LTYPE
  5
FE
330
5
100
AcDbSymbolTableRecord
100
AcDbLinetypeTableRecord
  2
HIDDEN
 70
     0
  3
Hidden __ __ __ __ __ __ __ __ __ __ __ __ __ _
 72
    65
 73
     2
 40
0.375
 49
0.25
 74
     0
 49
-0.125
 74
     0
  0
LTYPE
  5
FF
330
5
100
AcDbSymbolTableRecord
100
AcDbLinetypeTableRecord
  2
HIDDEN2
 70
     0
  3
Hidden (.5x) _ _ _ _ _ _ _ _ _ _ _ _ _ _ _ _ _
 72
    65
 73
     2
 40
0.1875
 49
0.125
 74
     0
 49
-0.0625
 74
     0
  0
LTYPE
  5
100
330
5
100
AcDbSymbolTableRecord
100
AcDbLinetypeTableRecord
  2
HIDDENX2
 70
     0
  3
Hidden (2x) ____ ____ ____ ____ ____ ____ ____
 72
    65
 73
     2
 40
0.75
 49
0.5
 74
     0
 49
-0.25
 74
     0
  0
LTYPE
  5
101
330
5
100
AcDbSymbolTableRecord
100
AcDbLinetypeTableRecord
  2
PHANTOM
 70
     0
  3
Phantom ______  __  __  ______  __  __  ______
 72
    65
 73
     6
 40
2.5
 49
1.25
 74
     0
 49
-0.25
 74
     0
 49
0.25
 74
     0
 49
-0.25
 74
     0
 49
0.25
 74
     0
 49
-0.25
 74
     0
  0
LTYPE
  5
102
330
5
100
AcDbSymbolTableRecord
100
AcDbLinetypeTableRecord
  2
PHANTOM2
 70
     0
  3
Phantom (.5x) ___ _ _ ___ _ _ ___ _ _ ___ _ _
 72
    65
 73
     6
 40
1.25
 49
0.625
 74
     0
 49
-0.125
 74
     0
 49
0.125
 74
     0
 49
-0.125
 74
     0
 49
0.125
 74
     0
 49
-0.125
 74
     0
  0
LTYPE
  5
103
330
5
100
AcDbSymbolTableRecord
100
AcDbLinetypeTableRecord
  2
PHANTOMX2
 70
     0
  3
Phantom (2x) ____________    ____    ____   _
 72
    65
 73
     6
 40
5.0
 49
2.5
 74
     0
 49
-0.5
 74
     0
 49
0.5
 74
     0
 49
-0.5
 74
     0
 49
0.5
 74
     0
 49
-0.5
 74
     0
  0
LTYPE
  5
104
330
5
100
AcDbSymbolTableRecord
100
AcDbLinetypeTableRecord
  2
ACAD_ISO02W100
 70
     0
  3
ISO dash __ __ __ __ __ __ __ __ __ __ __ __ __
 72
    65
 73
     2
 40
0.59
 49
0.47
 74
     0
 49
-0.12
 74
     0
  0
LTYPE
  5
105
330
5
100
AcDbSymbolTableRecord
100
AcDbLinetypeTableRecord
  2
ACAD_ISO03W100
 70
     0
  3
ISO dash space __    __    __    __    __    __
 72
    65
 73
     2
 40
1.179999999999999
 49
0.47
 74
     0
 49
-0.71
 74
     0
  0
LTYPE
  5
106
330
5
100
AcDbSymbolTableRecord
100
AcDbLinetypeTableRecord
  2
ACAD_ISO04W100
 70
     0
  3
ISO long-dash dot ____ . ____ . ____ . ____ . _
 72
    65
 73
     4
 40
1.179999999999999
 49
0.9399999999999998
 74
     0
 49
-0.12
 74
     0
 49
0.0
 74
     0
 49
-0.12
 74
     0
  0
LTYPE
  5
107
330
5
100
AcDbSymbolTableRecord
100
AcDbLinetypeTableRecord
  2
ACAD_ISO05W100
 70
     0
  3
ISO long-dash double-dot ____ .. ____ .. ____ .
 72
    65
 73
     6
 40
1.299999999999999
 49
0.9399999999999998
 74
     0
 49
-0.12
 74
     0
 49
0.0
 74
     0
 49
-0.12
 74
     0
 49
0.0
 74
     0
 49
-0.12
 74
     0
  0
LTYPE
  5
108
330
5
100
AcDbSymbolTableRecord
100
AcDbLinetypeTableRecord
  2
ACAD_ISO06W100
 70
     0
  3
ISO long-dash triple-dot ____ ... ____ ... ____
 72
    65
 73
     8
 40
1.419999999999999
 49
0.9399999999999998
 74
     0
 49
-0.12
 74
     0
 49
0.0
 74
     0
 49
-0.12
 74
     0
 49
0.0
 74
     0
 49
-0.12
 74
     0
 49
0.0
 74
     0
 49
-0.12
 74
     0
  0
LTYPE
  5
109
330
5
100
AcDbSymbolTableRecord
100
AcDbLinetypeTableRecord
  2
ACAD_ISO07W100
 70
     0
  3
ISO dot . . . . . . . . . . . . . . . . . . . .
 72
    65
 73
     2
 40
0.12
 49
0.0
 74
     0
 49
-0.12
 74
     0
  0
LTYPE
  5
10A
330
5
100
AcDbSymbolTableRecord
100
AcDbLinetypeTableRecord
  2
ACAD_ISO08W100
 70
     0
  3
ISO long-dash short-dash ____ __ ____ __ ____ _
 72
    65
 73
     4
 40
0.95
 49
0.47
 74
     0
 49
-0.12
 74
     0
 49
0.24
 74
     0
 49
-0.12
 74
     0
  0
LTYPE
  5
10B
330
5
100
AcDbSymbolTableRecord
100
AcDbLinetypeTableRecord
  2
ACAD_ISO09W100
 70
     0
  3
ISO long-dash double-short-dash ____ __ __ ____
 72
    65
 73
     6
 40
1.31
 49
0.47
 74
     0
 49
-0.12
 74
     0
 49
0.24
 74
     0
 49
-0.12
 74
     0
 49
0.24
 74
     0
 49
-0.12
 74
     0
  0
LTYPE
  5
10C
330
5
100
AcDbSymbolTableRecord
100
AcDbLinetypeTableRecord
  2
ACAD_ISO10W100
 70
     0
  3
ISO dash dot __ . __ . __ . __ . __ . __ . __ .
 72
    65
 73
     4
 40
0.71
 49
0.47
 74
     0
 49
-0.12
 74
     0
 49
0.0
 74
     0
 49
-0.12
 74
     0
  0
LTYPE
  5
10D
330
5
100
AcDbSymbolTableRecord
100
AcDbLinetypeTableRecord
  2
ACAD_ISO11W100
 70
     0
  3
ISO double-dash dot __ __ . __ __ . __ __ . __ 
 72
    65
 73
     6
 40
1.299999999999999
 49
0.47
 74
     0
 49
-0.12
 74
     0
 49
0.47
 74
     0
 49
-0.12
 74
     0
 49
0.0
 74
     0
 49
-0.12
 74
     0
  0
LTYPE
  5
10E
330
5
100
AcDbSymbolTableRecord
100
AcDbLinetypeTableRecord
  2
ACAD_ISO12W100
 70
     0
  3
ISO dash double-dot __ . . __ . . __ . . __ . .
 72
    65
 73
     6
 40
0.8299999999999998
 49
0.47
 74
     0
 49
-0.12
 74
     0
 49
0.0
 74
     0
 49
-0.12
 74
     0
 49
0.0
 74
     0
 49
-0.12
 74
     0
  0
LTYPE
  5
10F
330
5
100
AcDbSymbolTableRecord
100
AcDbLinetypeTableRecord
  2
ACAD_ISO13W100
 70
     0
  3
ISO double-dash double-dot __ __ . . __ __ . . 
 72
    65
 73
     8
 40
1.419999999999999
 49
0.47
 74
     0
 49
-0.12
 74
     0
 49
0.47
 74
     0
 49
-0.12
 74
     0
 49
0.0
 74
     0
 49
-0.12
 74
     0
 49
0.0
 74
     0
 49
-0.12
 74
     0
  0
LTYPE
  5
110
330
5
100
AcDbSymbolTableRecord
100
AcDbLinetypeTableRecord
  2
ACAD_ISO14W100
 70
     0
  3
ISO dash triple-dot __ . . . __ . . . __ . . . 
 72
    65
 73
     8
 40
0.95
 49
0.47
 74
     0
 49
-0.12
 74
     0
 49
0.0
 74
     0
 49
-0.12
 74
     0
 49
0.0
 74
     0
 49
-0.12
 74
     0
 49
0.0
 74
     0
 49
-0.12
 74
     0
  0
LTYPE
  5
111
330
5
100
AcDbSymbolTableRecord
100
AcDbLinetypeTableRecord
  2
ACAD_ISO15W100
 70
     0
  3
ISO double-dash triple-dot __ __ . . . __ __ . 
 72
    65
 73
    10
 40
1.539999999999999
 49
0.47
 74
     0
 49
-0.12
 74
     0
 49
0.47
 74
     0
 49
-0.12
 74
     0
 49
0.0
 74
     0
 49
-0.12
 74
     0
 49
0.0
 74
     0
 49
-0.12
 74
     0
 49
0.0
 74
     0
 49
-0.12
 74
     0
  0
LTYPE
  5
114
330
5
100
AcDbSymbolTableRecord
100
AcDbLinetypeTableRecord
  2
FENCELINE1
 70
     0
  3
Fenceline circle ----0-----0----0-----0----0---
 72
    65
 73
     4
 40
1.45
 49
0.25
 74
     0
 49
-0.1
 74
     4
 75
   133
340
113
 46
0.1
 50
0.0
 44
-0.1
 45
0.0
 49
-0.1
 74
     0
 49
1.0
 74
     0
  0
LTYPE
  5
115
330
5
100
AcDbSymbolTableRecord
100
AcDbLinetypeTableRecord
  2
FENCELINE2
 70
     0
  3
Fenceline square ----[]-----[]----[]-----[]----
 72
    65
 73
     4
 40
1.45
 49
0.25
 74
     0
 49
-0.1
 74
     4
 75
   132
340
113
 46
0.1
 50
0.0
 44
-0.1
 45
0.0
 49
-0.1
 74
     0
 49
1.0
 74
     0
  0
LTYPE
  5
116
330
5
100
AcDbSymbolTableRecord
100
AcDbLinetypeTableRecord
  2
TRACKS
 70
     0
  3
Tracks -|-|-|-|-|-|-|-|-|-|-|-|-|-|-|-|-|-|-|-|
 72
    65
 73
     2
 40
0.3
 49
0.15
 74
     4
 75
   130
340
113
 46
0.25
 50
0.0
 44
0.0
 45
0.0
 49
0.15
 74
     0
  0
LTYPE
  5
117
330
5
100
AcDbSymbolTableRecord
100
AcDbLinetypeTableRecord
  2
BATTING
 70
     0
  3
Batting SSSSSSSSSSSSSSSSSSSSSSSSSSSSSSSSSSSSSSS
 72
    65
 73
     4
 40
0.4001000000000001
 49
0.0001
 74
     0
 49
-0.1
 74
     4
 75
   134
340
113
 46
0.1
 50
0.0
 44
-0.1
 45
0.0
 49
-0.2
 74
     4
 75
   134
340
113
 46
0.1
 50
180.0
 44
0.1
 45
0.0
 49
-0.1
 74
     0
  0
LTYPE
  5
118
330
5
100
AcDbSymbolTableRecord
100
AcDbLinetypeTableRecord
  2
HOT_WATER_SUPPLY
 70
     0
  3
Hot water supply ---- HW ---- HW ---- HW ----
 72
    65
 73
     3
 40
0.9
 49
0.5
 74
     0
 49
-0.2
 74
     2
 75
     0
340
55
 46
0.1
 50
0.0
 44
-0.1
 45
-0.05
  9
HW
 49
-0.2
 74
     0
  0
LTYPE
  5
119
330
5
100
AcDbSymbolTableRecord
100
AcDbLinetypeTableRecord
  2
GAS_LINE
 70
     0
  3
Gas line ----GAS----GAS----GAS----GAS----GAS---
 72
    65
 73
     3
 40
0.95
 49
0.5
 74
     0
 49
-0.2
 74
     2
 75
     0
340
55
 46
0.1
 50
0.0
 44
-0.1
 45
-0.05
  9
GAS
 49
-0.25
 74
     0
  0
LTYPE
  5
11A
330
5
100
AcDbSymbolTableRecord
100
AcDbLinetypeTableRecord
  2
ZIGZAG
 70
     0
  3
Zig zag /\/\/\/\/\/\/\/\/\/\/\/\/\/\/\/\/\/\/\/
 72
    65
 73
     4
 40
0.8001000000000001
 49
0.0001
 74
     0
 49
-0.2
 74
     4
 75
   131
340
113
 46
0.2
 50
0.0
 44
-0.2
 45
0.0
 49
-0.4
 74
     4
 75
   131
340
113
 46
0.2
 50
180.0
 44
0.2
 45
0.0
 49
-0.2
 74
     0
  0
ENDTAB
  0
TABLE
  2
LAYER
  5
2
330
0
100
AcDbSymbolTable
 70
    27
  0
LAYER
  5
54
330
2
100
AcDbSymbolTableRecord
100
AcDbLayerTableRecord
  2
0
 70
     0
 62
     7
  6
Continuous
370
    18
390
F
  0
LAYER
  5
75
330
2
100
AcDbSymbolTableRecord
100
AcDbLayerTableRecord
  2
Symbol (ANSI)
 70
     0
 62
     7
  6
Continuous
370
    18
390
F
  0
LAYER
  5
124
330
2
100
AcDbSymbolTableRecord
100
AcDbLayerTableRecord
  2
Dimension (ANSI)
 70
     0
 62
     7
  6
Continuous
370
    13
390
F
  0
LAYER
  5
126
330
2
100
AcDbSymbolTableRecord
100
AcDbLayerTableRecord
  2
Hidden (ANSI)
 70
     0
 62
     7
  6
DASHED
370
    15
390
F
  0
LAYER
  5
12F
330
2
100
AcDbSymbolTableRecord
100
AcDbLayerTableRecord
  2
Visible (ANSI)
 70
     0
 62
     7
  6
Continuous
370
    13
390
F
  0
LAYER
  5
130
330
2
100
AcDbSymbolTableRecord
100
AcDbLayerTableRecord
  2
Visible Narrow (ANSI)
 70
     0
 62
     7
  6
Continuous
370
    18
390
F
  0
LAYER
  5
209
330
2
100
AcDbSymbolTableRecord
100
AcDbLayerTableRecord
  2
Defpoints
 70
     0
 62
     7
  6
Continuous
290
     0
370
    -3
390
F
  0
ENDTAB
  0
TABLE
  2
STYLE
  5
3
330
0
100
AcDbSymbolTable
 70
    18
  0
STYLE
  5
55
330
3
100
AcDbSymbolTableRecord
100
AcDbTextStyleTableRecord
  2
Standard
 70
     0
 40
0.0
 41
1.0
 50
0.0
 71
     0
 42
0.2
  3
txt
  4

  0
STYLE
  5
5A
330
3
100
AcDbSymbolTableRecord
100
AcDbTextStyleTableRecord
  2
Annotative
 70
     0
 40
0.0
 41
1.0
 50
0.0
 71
     0
 42
0.2
  3
txt
  4

1001
AcadAnnotative
1000
AnnotativeData
1002
{
1070
     1
1070
     1
1002
}
  0
STYLE
  5
76
330
3
100
AcDbSymbolTableRecord
100
AcDbTextStyleTableRecord
  2
Note Text (ANSI)
 70
     0
 40
0.0
 41
1.0
 50
0.0
 71
     0
 42
0.2
  3
TAHOMA.TTF
  4

1001
ACAD
1000
Tahoma
1071
      256
  0
STYLE
  5
78
330
3
100
AcDbSymbolTableRecord
100
AcDbTextStyleTableRecord
  2
SANSSERIF
 70
     0
 40
0.125
 41
1.0
 50
0.0
 71
     0
 42
0.125
  3
sas_____.pfb
  4

  0
STYLE
  5
113
330
3
100
AcDbSymbolTableRecord
100
AcDbTextStyleTableRecord
  2

 70
     1
 40
0.0
 41
1.0
 50
0.0
 71
     0
 42
0.2
  3
ltypeshp.shx
  4

  0
STYLE
  5
134
330
3
100
AcDbSymbolTableRecord
100
AcDbTextStyleTableRecord
  2
ITALICC_120
 70
     0
 40
0.0
 41
1.0
 50
0.0
 71
     0
 42
0.2
  3
italicc.shx
  4

  0
STYLE
  5
135
330
3
100
AcDbSymbolTableRecord
100
AcDbTextStyleTableRecord
  2
Label Text (ANSI)
 70
     0
 40
0.0
 41
1.0
 50
0.0
 71
     0
 42
0.2
  3
TAHOMA.TTF
  4

1001
ACAD
1000
Tahoma
1071
      256
  0
STYLE
  5
136
330
3
100
AcDbSymbolTableRecord
100
AcDbTextStyleTableRecord
  2
ROMANS
 70
     0
 40
0.0
 41
1.0
 50
0.0
 71
     0
 42
0.2
  3
romans.shx
  4

  0
STYLE
  5
137
330
3
100
AcDbSymbolTableRecord
100
AcDbTextStyleTableRecord
  2
SANSSERIF_114
 70
     0
 40
0.0
 41
1.0
 50
0.0
 71
     0
 42
0.2
  3
TAHOMA.TTF
  4

1001
ACAD
1000
Tahoma
1071
      256
  0
STYLE
  5
138
330
3
100
AcDbSymbolTableRecord
100
AcDbTextStyleTableRecord
  2
SANSSERIF_117
 70
     0
 40
0.0
 41
1.0
 50
0.0
 71
     0
 42
0.2
  3
TAHOMA.TTF
  4

1001
ACAD
1000
Tahoma
1071
      256
  0
STYLE
  5
139
330
3
100
AcDbSymbolTableRecord
100
AcDbTextStyleTableRecord
  2
STANDARDAM_ANSI
 70
     0
 40
0.0
 41
1.0
 50
0.0
 71
     0
 42
0.2
  3
txt.shx
  4

  0
STYLE
  5
13A
330
3
100
AcDbSymbolTableRecord
100
AcDbTextStyleTableRecord
  2
StandardAM_ANSI$0
 70
     0
 40
0.0
 41
1.0
 50
0.0
 71
     0
 42
0.2
  3
txt.shx
  4

  0
STYLE
  5
13B
330
3
100
AcDbSymbolTableRecord
100
AcDbTextStyleTableRecord
  2
STANDARDAM_ANSI$3
 70
     0
 40
0.0
 41
1.0
 50
0.0
 71
     0
 42
0.2
  3
txt.shx
  4

  0
STYLE
  5
13C
330
3
100
AcDbSymbolTableRecord
100
AcDbTextStyleTableRecord
  2
STANDARDAM_ANSI$4
 70
     0
 40
0.0
 41
1.0
 50
0.0
 71
     0
 42
0.2
  3
txt.shx
  4

  0
STYLE
  5
13D
330
3
100
AcDbSymbolTableRecord
100
AcDbTextStyleTableRecord
  2
STANDARDAM_ANSI$7
 70
     0
 40
0.0
 41
1.0
 50
0.0
 71
     0
 42
0.2
  3
txt.shx
  4

  0
STYLE
  5
13E
330
3
100
AcDbSymbolTableRecord
100
AcDbTextStyleTableRecord
  2
STANDARDAM_ANSI$SF
 70
     0
 40
0.0
 41
1.0
 50
0.0
 71
     0
 42
0.2
  3
txt.shx
  4

  0
STYLE
  5
13F
330
3
100
AcDbSymbolTableRecord
100
AcDbTextStyleTableRecord
  2
STANDARDAM_ANSI$SH
 70
     0
 40
0.0
 41
1.0
 50
0.0
 71
     0
 42
0.2
  3
txt.shx
  4

  0
STYLE
  5
140
330
3
100
AcDbSymbolTableRecord
100
AcDbTextStyleTableRecord
  2
STANDARDSTANDARD
 70
     0
 40
0.0
 41
1.0
 50
0.0
 71
     0
 42
0.2
  3
txt.shx
  4

  0
ENDTAB
  0
TABLE
  2
VIEW
  5
6
330
0
100
AcDbSymbolTable
 70
     0
  0
ENDTAB
  0
TABLE
  2
UCS
  5
7
330
0
100
AcDbSymbolTable
 70
     0
  0
ENDTAB
  0
TABLE
  2
APPID
  5
9
330
0
100
AcDbSymbolTable
 70
     4
  0
APPID
  5
56
330
9
100
AcDbSymbolTableRecord
100
AcDbRegAppTableRecord
  2
ACAD
 70
     0
  0
APPID
  5
5E
330
9
100
AcDbSymbolTableRecord
100
AcDbRegAppTableRecord
  2
AcadAnnotative
 70
     0
  0
APPID
  5
B1F
330
9
100
AcDbSymbolTableRecord
100
AcDbRegAppTableRecord
  2
ACAD_DSTYLE_DIMRADIAL_EXTENSION
 70
     0
  0
APPID
  5
D27
330
9
100
AcDbSymbolTableRecord
100
AcDbRegAppTableRecord
  2
ACAD_MLEADERVER
 70
     0
  0
ENDTAB
  0
TABLE
  2
DIMSTYLE
  5
A
330
0
100
AcDbSymbolTable
 70
    27
100
AcDbDimStyleTable
 71
     2
340
155
340
58
  0
DIMSTYLE
105
58
330
A
100
AcDbSymbolTableRecord
100
AcDbDimStyleTableRecord
  2
STANDARD
 70
     0
 41
0.1800000071525573
 42
0.0625
140
0.1800000071525574
144
1.0
147
0.0900000035762787
176
   256
177
   256
178
   256
274
     3
340
55
371
    -1
372
    -1
  0
DIMSTYLE
105
59
330
A
100
AcDbSymbolTableRecord
100
AcDbDimStyleTableRecord
  2
Annotative
 70
     0
340
55
1001
AcadAnnotative
1000
AnnotativeData
1002
{
1070
     1
1070
     1
1002
}
  0
DIMSTYLE
105
141
330
A
100
AcDbSymbolTableRecord
100
AcDbDimStyleTableRecord
  2
AM_ANSI
 70
     0
  4
 mm
 40
4.0
 41
0.119999997317791
 42
0.05
 43
0.5
 44
0.1
 45
0.00000001
 78
     4
 79
     2
140
0.1200000047683716
146
0.7099999453624112
147
0.0599999986588955
176
   256
177
   256
178
     2
284
     4
340
139
371
    -1
372
    -1
  0
DIMSTYLE
105
142
330
A
100
AcDbSymbolTableRecord
100
AcDbDimStyleTableRecord
  2
AM_ANSI$7
 70
     0
  4
 mm
 40
4.0
 41
0.119999997317791
 42
0.05
 43
0.5
 44
0.1
 45
0.00000001
 78
     4
 79
     2
140
0.1200000047683716
146
0.7099999453624112
147
0.0599999986588955
176
   256
177
   256
178
     2
284
     4
340
139
371
    -1
372
    -1
  0
DIMSTYLE
105
143
330
A
100
AcDbSymbolTableRecord
100
AcDbDimStyleTableRecord
  2
AM_ANSI$0
 70
     0
  4
 mm
 40
4.0
 41
0.119999997317791
 42
0.05
 43
0.5
 44
0.1
 45
0.00000001
 78
     4
 79
     2
140
0.1200000047683716
146
0.7099999453624112
147
0.0599999986588955
176
   256
177
   256
178
     2
284
     4
340
13A
371
    -1
372
    -1
  0
DIMSTYLE
105
144
330
A
100
AcDbSymbolTableRecord
100
AcDbDimStyleTableRecord
  2
AM_ANSI$0$7
 70
     0
  4
 mm
 40
4.0
 41
0.119999997317791
 42
0.05
 43
0.5
 44
0.1
 45
0.00000001
 78
     4
 79
     2
140
0.1200000047683716
146
0.7099999453624112
147
0.0599999986588955
176
   256
177
   256
178
     2
284
     4
340
13A
371
    -1
372
    -1
  0
DIMSTYLE
105
145
330
A
100
AcDbSymbolTableRecord
100
AcDbDimStyleTableRecord
  2
AM_ANSI$3
 70
     0
  4
 mm
 40
4.0
 41
0.119999997317791
 42
0.05
 43
0.5
 44
0.1
 45
0.00000001
 78
     4
 79
     2
140
0.1200000047683716
146
0.7099999453624112
147
0.0599999986588955
176
   256
177
   256
178
     2
284
     4
340
13B
371
    -1
372
    -1
  0
DIMSTYLE
105
146
330
A
100
AcDbSymbolTableRecord
100
AcDbDimStyleTableRecord
  2
AM_ANSI$3$7
 70
     0
  4
 mm
 40
4.0
 41
0.119999997317791
 42
0.05
 43
0.5
 44
0.1
 45
0.00000001
 78
     4
 79
     2
140
0.1200000047683716
146
0.7099999453624112
147
0.0599999986588955
176
   256
177
   256
178
     2
284
     4
340
13B
371
    -1
372
    -1
  0
DIMSTYLE
105
147
330
A
100
AcDbSymbolTableRecord
100
AcDbDimStyleTableRecord
  2
AM_ANSI$4
 70
     0
  4
 mm
 40
4.0
 41
0.119999997317791
 42
0.05
 43
0.5
 44
0.1
 45
0.00000001
 78
     4
 79
     2
140
0.1200000047683716
146
0.7099999453624112
147
0.0599999986588955
176
   256
177
   256
178
     2
284
     4
340
13C
371
    -1
372
    -1
  0
DIMSTYLE
105
148
330
A
100
AcDbSymbolTableRecord
100
AcDbDimStyleTableRecord
  2
AM_ANSI$4$7
 70
     0
  4
 mm
 40
4.0
 41
0.119999997317791
 42
0.05
 43
0.5
 44
0.1
 45
0.00000001
 78
     4
 79
     2
140
0.1200000047683716
146
0.7099999453624112
147
0.0599999986588955
176
   256
177
   256
178
     2
284
     4
340
13C
371
    -1
372
    -1
  0
DIMSTYLE
105
149
330
A
100
AcDbSymbolTableRecord
100
AcDbDimStyleTableRecord
  2
AM_ANSI$SF
 70
     0
  4
 mm
 40
4.0
 41
0.119999997317791
 42
0.05
 43
0.5
 44
0.1
 45
0.00000001
 75
     1
 76
     1
 78
     4
 79
     2
140
0.1200000047683716
146
0.7099999453624112
147
0.0599999986588955
176
   256
177
   256
178
     2
284
     4
340
13E
371
    -1
372
    -1
  0
DIMSTYLE
105
14A
330
A
100
AcDbSymbolTableRecord
100
AcDbDimStyleTableRecord
  2
AM_ANSI$SF$7
 70
     0
  4
 mm
 40
4.0
 41
0.119999997317791
 42
0.05
 43
0.5
 44
0.1
 45
0.00000001
 75
     1
 76
     1
 78
     4
 79
     2
140
0.1200000047683716
146
0.7099999453624112
147
0.0599999986588955
176
   256
177
   256
178
     2
284
     4
340
13E
371
    -1
372
    -1
  0
DIMSTYLE
105
14B
330
A
100
AcDbSymbolTableRecord
100
AcDbDimStyleTableRecord
  2
AM_ANSI$SH
 70
     0
  4
 mm
 40
4.0
 41
0.119999997317791
 42
0.05
 43
0.5
 44
0.1
 45
0.00000001
 75
     1
 76
     1
 78
     4
 79
     2
140
0.1200000047683716
146
0.7099999453624112
147
0.0599999986588955
176
   256
177
   256
178
     2
284
     4
340
13F
371
    -1
372
    -1
  0
DIMSTYLE
105
14C
330
A
100
AcDbSymbolTableRecord
100
AcDbDimStyleTableRecord
  2
AM_ANSI$SH$7
 70
     0
  4
 mm
 40
4.0
 41
0.119999997317791
 42
0.05
 43
0.5
 44
0.1
 45
0.00000001
 75
     1
 76
     1
 78
     4
 79
     2
140
0.1200000047683716
146
0.7099999453624112
147
0.0599999986588955
176
   256
177
   256
178
     2
284
     4
340
13F
371
    -1
372
    -1
  0
DIMSTYLE
105
14D
330
A
100
AcDbSymbolTableRecord
100
AcDbDimStyleTableRecord
  2
Architectural (ANSI)
 70
     0
 40
4.0
 41
0.0984251946210861
 43
0.2362204724409449
 44
0.125
 45
0.00000001
 46
0.3937007874015748
 78
     3
 79
     3
140
0.1200000047683716
147
0.031496062992126
171
     1
176
   256
177
   256
178
   256
272
     2
274
     1
276
     2
277
     4
284
    12
285
     4
286
    12
340
76
371
    -1
372
    -1
  0
DIMSTYLE
105
14E
330
A
100
AcDbSymbolTableRecord
100
AcDbDimStyleTableRecord
  2
Architectural (ANSI)$7
 70
     0
 40
4.0
 41
0.0984251946210861
 43
0.2362204724409449
 44
0.125
 45
0.00000001
 46
0.3937007874015748
 78
     3
 79
     3
140
0.1200000047683716
147
0.031496062992126
171
     1
176
   256
177
   256
178
   256
272
     2
274
     1
276
     2
277
     4
284
    12
285
     4
286
    12
340
76
371
    -1
372
    -1
  0
DIMSTYLE
105
14F
330
A
100
AcDbSymbolTableRecord
100
AcDbDimStyleTableRecord
  2
Default - Fraction (ANSI)
 70
     0
 40
4.0
 41
0.0984251946210861
 43
0.2362204724409449
 44
0.125
 45
0.00000001
 46
0.3937007874015748
 79
     3
140
0.1200000047683716
147
0.031496062992126
171
     1
176
   256
177
   256
178
   256
272
     2
274
     1
276
     2
277
     5
284
    12
285
     4
286
    12
340
76
371
    -1
372
    -1
  0
DIMSTYLE
105
150
330
A
100
AcDbSymbolTableRecord
100
AcDbDimStyleTableRecord
  2
Default - Fraction (ANSI)$7
 70
     0
 40
4.0
 41
0.0984251946210861
 43
0.2362204724409449
 44
0.125
 45
0.00000001
 46
0.3937007874015748
 79
     3
140
0.1200000047683716
147
0.031496062992126
171
     1
176
   256
177
   256
178
   256
272
     2
274
     1
276
     2
277
     5
284
    12
285
     4
286
    12
340
76
371
    -1
372
    -1
  0
DIMSTYLE
105
151
330
A
100
AcDbSymbolTableRecord
100
AcDbDimStyleTableRecord
  2
Default - mm (ANSI)
 70
     0
 40
4.0
 41
0.0984251946210861
 42
0.063
 43
0.2362204724409449
 44
0.125
 45
0.00000001
 46
0.3937007874015748
 73
     0
 78
     4
 79
     1
140
0.1200000047683716
143
1.0
144
25.4
147
0.031496062992126
171
     1
176
   256
177
   256
178
   256
179
     1
271
     2
272
     2
274
     1
284
     4
285
     4
340
76
371
    -1
372
    -1
  0
DIMSTYLE
105
152
330
A
100
AcDbSymbolTableRecord
100
AcDbDimStyleTableRecord
  2
Default - mm (ANSI)$7
 70
     0
 40
4.0
 41
0.0984251946210861
 42
0.063
 43
0.2362204724409449
 44
0.125
 45
0.00000001
 46
0.3937007874015748
 73
     0
 78
     4
 79
     1
140
0.1200000047683716
143
1.0
144
25.4
147
0.031496062992126
171
     1
176
   256
177
   256
178
   256
179
     1
271
     2
272
     2
274
     1
284
     4
285
     4
340
76
371
    -1
372
    -1
  0
DIMSTYLE
105
153
330
A
100
AcDbSymbolTableRecord
100
AcDbDimStyleTableRecord
  2
Default - mm [in] (ANSI)
 70
     0
  4
 in
 40
4.0
 41
0.0984251946210861
 42
0.063
 43
0.25
 44
0.125
 45
0.00000001
 46
0.3937007874015748
 73
     0
 78
     4
 79
     1
140
0.1200000047683716
143
0.03937
144
25.4
147
0.031496062992126
170
     1
171
     3
176
   256
177
   256
178
   256
179
     1
271
     2
272
     2
274
     3
284
     4
285
     4
286
     4
340
76
371
    -1
372
    -1
  0
DIMSTYLE
105
154
330
A
100
AcDbSymbolTableRecord
100
AcDbDimStyleTableRecord
  2
Default - mm [in] (ANSI)$7
 70
     0
  4
 in
 40
4.0
 41
0.0984251946210861
 42
0.063
 43
0.25
 44
0.125
 45
0.00000001
 46
0.3937007874015748
 73
     0
 78
     4
 79
     1
140
0.1200000047683716
143
0.03937
144
25.4
147
0.031496062992126
170
     1
171
     3
176
   256
177
   256
178
   256
179
     1
271
     2
272
     2
274
     3
284
     4
285
     4
286
     4
340
76
371
    -1
372
    -1
  0
DIMSTYLE
105
155
102
{ACAD_REACTORS
330
207
330
2F4
330
3DE
330
4DC
330
5DC
330
6C6
330
7B0
330
89C
330
99C
330
A86
330
B40
330
BF9
102
}
330
A
100
AcDbSymbolTableRecord
100
AcDbDimStyleTableRecord
  2
Default (ANSI)
 70
     0
 40
4.0
 41
0.0984251946210861
 43
0.2362204724409449
 44
0.125
 45
0.00000001
 46
0.3937007874015748
 79
     1
140
0.1200000047683716
147
0.031496062992126
171
     1
176
   256
177
   256
178
   256
271
     2
272
     2
274
     1
284
     4
285
     4
340
76
371
    -1
372
    -1
  0
DIMSTYLE
105
156
330
A
100
AcDbSymbolTableRecord
100
AcDbDimStyleTableRecord
  2
Default (ANSI)$7
 70
     0
 40
4.0
 41
0.0984251946210861
 43
0.2362204724409449
 44
0.125
 45
0.00000001
 46
0.3937007874015748
 79
     1
140
0.1200000047683716
147
0.031496062992126
171
     1
176
   256
177
   256
178
   256
271
     2
272
     2
274
     1
284
     4
285
     4
340
76
371
    -1
372
    -1
  0
DIMSTYLE
105
157
330
A
100
AcDbSymbolTableRecord
100
AcDbDimStyleTableRecord
  2
Alternate (ANSI)
 70
     0
 40
4.0
 41
0.0979999974370003
340
55
342
158
  0
DIMSTYLE
105
16A
330
A
100
AcDbSymbolTableRecord
100
AcDbDimStyleTableRecord
  2
Datum (ANSI)
 70
     0
 40
4.0
 41
0.0979999974370003
340
55
342
158
  0
DIMSTYLE
105
179
330
A
100
AcDbSymbolTableRecord
100
AcDbDimStyleTableRecord
  2
Large (ANSI)
 70
     0
 40
4.0
 41
0.1959999948740005
340
55
342
158
  0
ENDTAB
  0
TABLE
  2
BLOCK_RECORD
  5
1
330
0
100
AcDbSymbolTable
 70
    16
  0
BLOCK_RECORD
  5
6C
330
1
100
AcDbSymbolTableRecord
100
AcDbBlockTableRecord
  2
*Model_Space
340
6F
  0
BLOCK_RECORD
  5
68
330
1
100
AcDbSymbolTableRecord
100
AcDbBlockTableRecord
  2
*Paper_Space
340
6B
  0
BLOCK_RECORD
  5
70
330
1
100
AcDbSymbolTableRecord
100
AcDbBlockTableRecord
  2
*Paper_Space0
340
73
  0
BLOCK_RECORD
  5
158
330
1
100
AcDbSymbolTableRecord
100
AcDbBlockTableRecord
  2
_Closed
340
0
  0
BLOCK_RECORD
  5
15F
330
1
100
AcDbSymbolTableRecord
100
AcDbBlockTableRecord
  2
DatumFilled45
340
0
  0
BLOCK_RECORD
  5
16B
330
1
100
AcDbSymbolTableRecord
100
AcDbBlockTableRecord
  2
Filled-1
340
0
  0
BLOCK_RECORD
  5
20A
330
1
100
AcDbSymbolTableRecord
100
AcDbBlockTableRecord
  2
*D4
340
0
  0
BLOCK_RECORD
  5
2F5
330
1
100
AcDbSymbolTableRecord
100
AcDbBlockTableRecord
  2
*D5
340
0
  0
BLOCK_RECORD
  5
3DF
330
1
100
AcDbSymbolTableRecord
100
AcDbBlockTableRecord
  2
*D6
340
0
  0
BLOCK_RECORD
  5
4DD
330
1
100
AcDbSymbolTableRecord
100
AcDbBlockTableRecord
  2
*D7
340
0
  0
BLOCK_RECORD
  5
5DD
330
1
100
AcDbSymbolTableRecord
100
AcDbBlockTableRecord
  2
*D8
340
0
  0
BLOCK_RECORD
  5
6C7
330
1
100
AcDbSymbolTableRecord
100
AcDbBlockTableRecord
  2
*D9
340
0
  0
BLOCK_RECORD
  5
7B1
330
1
100
AcDbSymbolTableRecord
100
AcDbBlockTableRecord
  2
*D10
340
0
  0
BLOCK_RECORD
  5
89D
330
1
100
AcDbSymbolTableRecord
100
AcDbBlockTableRecord
  2
*D11
340
0
  0
BLOCK_RECORD
  5
99D
330
1
100
AcDbSymbolTableRecord
100
AcDbBlockTableRecord
  2
*D12
340
0
  0
BLOCK_RECORD
  5
A87
330
1
100
AcDbSymbolTableRecord
100
AcDbBlockTableRecord
  2
*D13
340
0
  0
BLOCK_RECORD
  5
B41
330
1
100
AcDbSymbolTableRecord
100
AcDbBlockTableRecord
  2
*D14
340
0
  0
BLOCK_RECORD
  5
BFA
330
1
100
AcDbSymbolTableRecord
100
AcDbBlockTableRecord
  2
*D15
340
0
  0
ENDTAB
  0
ENDSEC
  0
SECTION
  2
BLOCKS
  0
BLOCK
  5
6D
330
6C
100
AcDbEntity
  8
0
100
AcDbBlockBegin
  2
*Model_Space
 70
     0
 10
0.0
 20
0.0
 30
0.0
  3
*Model_Space
  1

  0
ENDBLK
  5
6E
330
6C
100
AcDbEntity
  8
0
100
AcDbBlockEnd
  0
BLOCK
  5
69
330
68
100
AcDbEntity
 67
     1
  8
0
100
AcDbBlockBegin
  2
*Paper_Space
 70
     0
 10
0.0
 20
0.0
 30
0.0
  3
*Paper_Space
  1

  0
ENDBLK
  5
6A
330
68
100
AcDbEntity
 67
     1
  8
0
100
AcDbBlockEnd
  0
BLOCK
  5
71
330
70
100
AcDbEntity
 67
     1
  8
0
100
AcDbBlockBegin
  2
*Paper_Space0
 70
     0
 10
0.0
 20
0.0
 30
0.0
  3
*Paper_Space0
  1

  0
ENDBLK
  5
72
330
70
100
AcDbEntity
 67
     1
  8
0
100
AcDbBlockEnd
  0
BLOCK
  5
15D
330
158
100
AcDbEntity
  8
0
100
AcDbBlockBegin
  2
_Closed
 70
     0
 10
0.0
 20
0.0
 30
0.0
  3
_Closed
  1

  0
LINE
  5
159
330
158
100
AcDbEntity
  8
0
  6
ByBlock
 62
     0
370
    -2
100
AcDbLine
 10
-1.0
 20
0.1666666666666666
 30
0.0
 11
0.0
 21
0.0
 31
0.0
  0
LINE
  5
15A
330
158
100
AcDbEntity
  8
0
  6
ByBlock
 62
     0
370
    -2
100
AcDbLine
 10
0.0
 20
0.0
 30
0.0
 11
-1.0
 21
-0.1666666666666666
 31
0.0
  0
LINE
  5
15B
330
158
100
AcDbEntity
  8
0
  6
ByBlock
 62
     0
370
    -2
100
AcDbLine
 10
-1.0
 20
0.1666666666666666
 30
0.0
 11
-1.0
 21
-0.1666666666666666
 31
0.0
  0
LINE
  5
15C
330
158
100
AcDbEntity
  8
0
  6
ByBlock
 62
     0
370
    -2
100
AcDbLine
 10
0.0
 20
0.0
 30
0.0
 11
-1.0
 21
0.0
 31
0.0
  0
ENDBLK
  5
15E
330
158
100
AcDbEntity
  8
0
100
AcDbBlockEnd
  0
BLOCK
  5
160
330
15F
100
AcDbEntity
  8
0
100
AcDbBlockBegin
  2
DatumFilled45
 70
     0
 10
0.0
 20
0.0
 30
0.0
  3
DatumFilled45
  1

  0
POLYLINE
  5
162
330
15F
100
AcDbEntity
  8
0
 62
     0
100
AcDb2dPolyline
 66
     1
 10
0.0
 20
0.0
 30
0.0
 70
   128
  0
VERTEX
  5
163
330
162
100
AcDbEntity
  8
0
 62
     0
100
AcDbVertex
100
AcDb2dVertex
 10
0.0
 20
0.9999999999999998
 30
0.0
  0
VERTEX
  5
164
330
162
100
AcDbEntity
  8
0
 62
     0
100
AcDbVertex
100
AcDb2dVertex
 10
0.0
 20
-0.9999999999999998
 30
0.0
  0
VERTEX
  5
166
330
162
100
AcDbEntity
  8
0
 62
     0
100
AcDbVertex
100
AcDb2dVertex
 10
-0.9999999999999998
 20
0.0
 30
0.0
  0
VERTEX
  5
167
330
162
100
AcDbEntity
  8
0
 62
     0
100
AcDbVertex
100
AcDb2dVertex
 10
0.0
 20
0.9999999999999998
 30
0.0
  0
SEQEND
  5
165
330
162
100
AcDbEntity
  8
0
 62
     0
  0
SOLID
  5
169
330
15F
100
AcDbEntity
  8
0
 62
     0
100
AcDbTrace
 10
0.0
 20
0.9999999999999998
 30
0.0
 11
0.0
 21
-0.9999999999999998
 31
0.0
 12
-0.9999999999999998
 22
0.0
 32
0.0
 13
0.0
 23
0.9999999999999998
 33
0.0
  0
ENDBLK
  5
161
330
15F
100
AcDbEntity
  8
0
100
AcDbBlockEnd
  0
BLOCK
  5
16C
330
16B
100
AcDbEntity
  8
0
100
AcDbBlockBegin
  2
Filled-1
 70
     0
 10
0.0
 20
0.0
 30
0.0
  3
Filled-1
  1

  0
LINE
  5
16E
330
16B
100
AcDbEntity
  8
0
 62
     0
100
AcDbLine
 10
-0.9999999999999998
 20
0.0
 30
0.0
 11
0.0
 21
0.0
 31
0.0
  0
POLYLINE
  5
16F
330
16B
100
AcDbEntity
  8
0
 62
     0
100
AcDb2dPolyline
 66
     1
 10
0.0
 20
0.0
 30
0.0
 70
   128
  0
VERTEX
  5
170
330
16F
100
AcDbEntity
  8
0
 62
     0
100
AcDbVertex
100
AcDb2dVertex
 10
-0.9999999999999998
 20
-0.0994897959183674
 30
0.0
  0
VERTEX
  5
171
330
16F
100
AcDbEntity
  8
0
 62
     0
100
AcDbVertex
100
AcDb2dVertex
 10
0.0
 20
0.0
 30
0.0
  0
VERTEX
  5
173
330
16F
100
AcDbEntity
  8
0
 62
     0
100
AcDbVertex
100
AcDb2dVertex
 10
-0.9999999999999998
 20
0.0994897959183674
 30
0.0
  0
VERTEX
  5
174
330
16F
100
AcDbEntity
  8
0
 62
     0
100
AcDbVertex
100
AcDb2dVertex
 10
-0.9999999999999998
 20
-0.0994897959183674
 30
0.0
  0
SEQEND
  5
172
330
16F
100
AcDbEntity
  8
0
 62
     0
  0
SOLID
  5
175
330
16B
100
AcDbEntity
  8
0
 62
     0
100
AcDbTrace
 10
-0.9999999999999998
 20
-0.0994897959183674
 30
0.0
 11
0.0
 21
0.0
 31
0.0
 12
-0.9999999999999998
 22
0.0994897959183674
 32
0.0
 13
-0.9999999999999998
 23
-0.0994897959183674
 33
0.0
  0
LINE
  5
176
330
16B
100
AcDbEntity
  8
0
 62
     0
100
AcDbLine
 10
-0.9999999999999998
 20
-0.0994897959183674
 30
0.0
 11
0.0
 21
0.0
 31
0.0
  0
LINE
  5
177
330
16B
100
AcDbEntity
  8
0
 62
     0
100
AcDbLine
 10
0.0
 20
0.0
 30
0.0
 11
-0.9999999999999998
 21
0.0994897959183674
 31
0.0
  0
LINE
  5
178
330
16B
100
AcDbEntity
  8
0
 62
     0
100
AcDbLine
 10
-0.9999999999999998
 20
0.0994897959183674
 30
0.0
 11
-0.9999999999999998
 21
-0.0994897959183674
 31
0.0
  0
ENDBLK
  5
16D
330
16B
100
AcDbEntity
  8
0
100
AcDbBlockEnd
  0
BLOCK
  5
20B
330
20A
100
AcDbEntity
  8
0
100
AcDbBlockBegin
  2
*D4
 70
     1
 10
0.0
 20
0.0
 30
0.0
  3
*D4
  1

  0
LINE
  5
2EA
330
20A
100
AcDbEntity
  8
Dimension (ANSI)
100
AcDbLine
 10
13.47700743317448
 20
11.96179796782023
 30
0.0
 11
7.714395411795238
 21
11.96179796782023
 31
0.0
  0
LINE
  5
2EB
330
20A
100
AcDbEntity
  8
Dimension (ANSI)
100
AcDbLine
 10
13.47700743317447
 20
34.16179796782023
 30
0.0
 11
7.714395411795243
 21
34.16179796782023
 31
0.0
  0
LINE
  5
2EC
330
20A
100
AcDbEntity
  8
Dimension (ANSI)
100
AcDbLine
 10
8.214395411795239
 20
12.35549874630457
 30
0.0
 11
8.214395411795241
 21
22.6858204218346
 31
0.0
  0
LINE
  5
2ED
330
20A
100
AcDbEntity
  8
Dimension (ANSI)
100
AcDbLine
 10
8.214395411795242
 20
33.76809718933588
 30
0.0
 11
8.214395411795241
 21
23.43777551380585
 31
0.0
  0
SOLID
  5
2EE
330
20A
100
AcDbEntity
  8
Dimension (ANSI)
100
AcDbTrace
 10
8.148778615381182
 20
12.35549874630457
 30
0.0
 11
8.280012208209296
 21
12.35549874630457
 31
0.0
 12
8.214395411795237
 22
11.96179796782023
 32
0.0
 13
8.214395411795237
 23
11.96179796782023
 33
0.0
  0
SOLID
  5
2EF
330
20A
100
AcDbEntity
  8
Dimension (ANSI)
100
AcDbTrace
 10
8.148778615381186
 20
33.76809718933588
 30
0.0
 11
8.280012208209299
 21
33.76809718933588
 31
0.0
 12
8.214395411795242
 22
34.16179796782023
 32
0.0
 13
8.214395411795242
 23
34.16179796782023
 33
0.0
  0
MTEXT
  5
2F0
330
20A
100
AcDbEntity
  8
Dimension (ANSI)
100
AcDbMText
 10
7.424603573830132
 20
23.31179126183735
 30
0.0
 40
0.4800000190734864
 41
0.0
 71
     1
 72
     1
  1
\A1;22.20
  7
Note Text (ANSI)
 73
     1
 44
1.0
1001
ACAD
1000
MTEXTBEGIN
1070
    73
1070
     1
1070
    44
1040
1.0
1070
    74
1070
     0
1000
MTEXTEND
  0
POINT
  5
2F1
330
20A
100
AcDbEntity
  8
Defpoints
 62
     0
100
AcDbPoint
 10
13.72700743317448
 20
11.96179796782023
 30
0.0
  0
POINT
  5
2F2
330
20A
100
AcDbEntity
  8
Defpoints
 62
     0
100
AcDbPoint
 10
13.72700743317447
 20
34.16179796782023
 30
0.0
  0
POINT
  5
2F3
330
20A
100
AcDbEntity
  8
Defpoints
 62
     0
100
AcDbPoint
 10
8.214395411795242
 20
34.16179796782023
 30
0.0
  0
ENDBLK
  5
20C
330
20A
100
AcDbEntity
  8
0
100
AcDbBlockEnd
  0
BLOCK
  5
2F6
330
2F5
100
AcDbEntity
  8
0
100
AcDbBlockBegin
  2
*D5
 70
     1
 10
0.0
 20
0.0
 30
0.0
  3
*D5
  1

  0
LINE
  5
3D4
330
2F5
100
AcDbEntity
  8
Dimension (ANSI)
100
AcDbLine
 10
13.22700743317448
 20
33.91179796782023
 30
0.0
 11
13.22700743317448
 21
39.35864836152101
 31
0.0
  0
LINE
  5
3D5
330
2F5
100
AcDbEntity
  8
Dimension (ANSI)
100
AcDbLine
 10
27.42700743317448
 20
33.91179796782024
 30
0.0
 11
27.42700743317448
 21
39.35864836152101
 31
0.0
  0
LINE
  5
3D6
330
2F5
100
AcDbEntity
  8
Dimension (ANSI)
100
AcDbLine
 10
13.62070821165882
 20
38.85864836152101
 30
0.0
 11
19.43008963814738
 21
38.85864836152101
 31
0.0
  0
LINE
  5
3D7
330
2F5
100
AcDbEntity
  8
Dimension (ANSI)
100
AcDbLine
 10
27.03330665469014
 20
38.85864836152101
 30
0.0
 11
21.22392522820157
 21
38.85864836152101
 31
0.0
  0
SOLID
  5
3D8
330
2F5
100
AcDbEntity
  8
Dimension (ANSI)
100
AcDbTrace
 10
13.62070821165882
 20
38.92426515793507
 30
0.0
 11
13.62070821165882
 21
38.79303156510696
 31
0.0
 12
13.22700743317448
 22
38.85864836152101
 32
0.0
 13
13.22700743317448
 23
38.85864836152101
 33
0.0
  0
SOLID
  5
3D9
330
2F5
100
AcDbEntity
  8
Dimension (ANSI)
100
AcDbTrace
 10
27.03330665469014
 20
38.92426515793507
 30
0.0
 11
27.03330665469014
 21
38.79303156510696
 31
0.0
 12
27.42700743317448
 22
38.85864836152101
 32
0.0
 13
27.42700743317448
 23
38.85864836152101
 33
0.0
  0
MTEXT
  5
3DA
330
2F5
100
AcDbEntity
  8
Dimension (ANSI)
100
AcDbMText
 10
19.55607389011588
 20
39.10864165553813
 30
0.0
 40
0.4800000190734864
 41
0.0
 71
     1
 72
     1
  1
\A1;14.20
  7
Note Text (ANSI)
 73
     1
 44
1.0
1001
ACAD
1000
MTEXTBEGIN
1070
    73
1070
     1
1070
    44
1040
1.0
1070
    74
1070
     0
1000
MTEXTEND
  0
POINT
  5
3DB
330
2F5
100
AcDbEntity
  8
Defpoints
 62
     0
100
AcDbPoint
 10
13.22700743317448
 20
33.66179796782023
 30
0.0
  0
POINT
  5
3DC
330
2F5
100
AcDbEntity
  8
Defpoints
 62
     0
100
AcDbPoint
 10
27.42700743317448
 20
33.66179796782024
 30
0.0
  0
POINT
  5
3DD
330
2F5
100
AcDbEntity
  8
Defpoints
 62
     0
100
AcDbPoint
 10
27.42700743317448
 20
38.85864836152101
 30
0.0
  0
ENDBLK
  5
2F7
330
2F5
100
AcDbEntity
  8
0
100
AcDbBlockEnd
  0
BLOCK
  5
3E0
330
3DF
100
AcDbEntity
  8
0
100
AcDbBlockBegin
  2
*D6
 70
     1
 10
0.0
 20
0.0
 30
0.0
  3
*D6
  1

  0
LINE
  5
4D1
330
3DF
100
AcDbEntity
  8
Dimension (ANSI)
100
AcDbLine
 10
13.49700743317448
 20
12.48179796782023
 30
0.0
 11
12.01440045653624
 21
12.48179796782023
 31
0.0
  0
LINE
  5
4D2
330
3DF
100
AcDbEntity
  8
Dimension (ANSI)
100
AcDbLine
 10
13.49700743317448
 20
13.23179796782023
 30
0.0
 11
12.01440045653624
 21
13.23179796782023
 31
0.0
  0
LINE
  5
4D3
330
3DF
100
AcDbEntity
  8
Dimension (ANSI)
100
AcDbLine
 10
12.51440045653624
 20
13.62549874630457
 30
0.0
 11
12.51440045653624
 21
14.01919952478892
 31
0.0
  0
LINE
  5
4D4
330
3DF
100
AcDbEntity
  8
Dimension (ANSI)
100
AcDbLine
 10
12.51440045653624
 20
12.08809718933588
 30
0.0
 11
12.51440045653624
 21
11.33526597544097
 31
0.0
  0
LINE
  5
4D5
330
3DF
100
AcDbEntity
  8
Dimension (ANSI)
100
AcDbLine
 10
12.51440045653624
 20
11.33526597544097
 30
0.0
 11
12.1206996780519
 21
11.33526597544097
 31
0.0
  0
SOLID
  5
4D6
330
3DF
100
AcDbEntity
  8
Dimension (ANSI)
100
AcDbTrace
 10
12.44878366012219
 20
13.62549874630457
 30
0.0
 11
12.5800172529503
 21
13.62549874630457
 31
0.0
 12
12.51440045653624
 22
13.23179796782023
 32
0.0
 13
12.51440045653624
 23
13.23179796782023
 33
0.0
  0
SOLID
  5
4D7
330
3DF
100
AcDbEntity
  8
Dimension (ANSI)
100
AcDbTrace
 10
12.44878366012219
 20
12.08809718933588
 30
0.0
 11
12.5800172529503
 21
12.08809718933588
 31
0.0
 12
12.51440045653624
 22
12.48179796782023
 32
0.0
 13
12.51440045653624
 23
12.48179796782023
 33
0.0
  0
MTEXT
  5
4D8
330
3DF
100
AcDbEntity
  8
Dimension (ANSI)
100
AcDbMText
 10
10.77488999144667
 20
11.58509808745034
 30
0.0
 40
0.4800000190734864
 41
0.0
 71
     1
 72
     1
  1
\A1;0.75
  7
Note Text (ANSI)
 73
     1
 44
1.0
1001
ACAD
1000
MTEXTBEGIN
1070
    73
1070
     1
1070
    44
1040
1.0
1070
    74
1070
     0
1000
MTEXTEND
  0
POINT
  5
4D9
330
3DF
100
AcDbEntity
  8
Defpoints
 62
     0
100
AcDbPoint
 10
13.74700743317448
 20
12.48179796782023
 30
0.0
  0
POINT
  5
4DA
330
3DF
100
AcDbEntity
  8
Defpoints
 62
     0
100
AcDbPoint
 10
13.74700743317448
 20
13.23179796782023
 30
0.0
  0
POINT
  5
4DB
330
3DF
100
AcDbEntity
  8
Defpoints
 62
     0
100
AcDbPoint
 10
12.51440045653624
 20
13.23179796782023
 30
0.0
  0
ENDBLK
  5
3E1
330
3DF
100
AcDbEntity
  8
0
100
AcDbBlockEnd
  0
BLOCK
  5
4DE
330
4DD
100
AcDbEntity
  8
0
100
AcDbBlockBegin
  2
*D7
 70
     1
 10
0.0
 20
0.0
 30
0.0
  3
*D7
  1

  0
LINE
  5
5D1
330
4DD
100
AcDbEntity
  8
Dimension (ANSI)
100
AcDbLine
 10
27.17700743317448
 20
34.16179796782023
 30
0.0
 11
36.31887283413252
 21
34.16179796782023
 31
0.0
  0
LINE
  5
5D2
330
4DD
100
AcDbEntity
  8
Dimension (ANSI)
100
AcDbLine
 10
27.15700743317448
 20
33.64179796782023
 30
0.0
 11
36.31887283413252
 21
33.64179796782023
 31
0.0
  0
LINE
  5
5D3
330
4DD
100
AcDbEntity
  8
Dimension (ANSI)
100
AcDbLine
 10
35.81887283413252
 20
34.55549874630457
 30
0.0
 11
35.81887283413252
 21
34.94919952478892
 31
0.0
  0
LINE
  5
5D4
330
4DD
100
AcDbEntity
  8
Dimension (ANSI)
100
AcDbLine
 10
35.81887283413252
 20
33.24809718933589
 30
0.0
 11
35.81887283413252
 21
32.49497424121112
 31
0.0
  0
LINE
  5
5D5
330
4DD
100
AcDbEntity
  8
Dimension (ANSI)
100
AcDbLine
 10
35.81887283413252
 20
32.49497424121112
 30
0.0
 11
35.42517205564818
 21
32.49497424121112
 31
0.0
  0
SOLID
  5
5D6
330
4DD
100
AcDbEntity
  8
Dimension (ANSI)
100
AcDbTrace
 10
35.75325603771847
 20
34.55549874630457
 30
0.0
 11
35.88448963054658
 21
34.55549874630457
 31
0.0
 12
35.81887283413252
 22
34.16179796782023
 32
0.0
 13
35.81887283413252
 23
34.16179796782023
 33
0.0
  0
SOLID
  5
5D7
330
4DD
100
AcDbEntity
  8
Dimension (ANSI)
100
AcDbTrace
 10
35.75325603771847
 20
33.24809718933589
 30
0.0
 11
35.88448963054658
 21
33.24809718933589
 31
0.0
 12
35.81887283413252
 22
33.64179796782023
 32
0.0
 13
35.81887283413252
 23
33.64179796782023
 33
0.0
  0
MTEXT
  5
5D8
330
4DD
100
AcDbEntity
  8
Dimension (ANSI)
100
AcDbMText
 10
34.07388218077951
 20
32.74496753522824
 30
0.0
 40
0.4800000190734864
 41
0.0
 71
     1
 72
     1
  1
\A1;0.52
  7
Note Text (ANSI)
 73
     1
 44
1.0
1001
ACAD
1000
MTEXTBEGIN
1070
    73
1070
     1
1070
    44
1040
1.0
1070
    74
1070
     0
1000
MTEXTEND
  0
POINT
  5
5D9
330
4DD
100
AcDbEntity
  8
Defpoints
 62
     0
100
AcDbPoint
 10
26.92700743317448
 20
34.16179796782023
 30
0.0
  0
POINT
  5
5DA
330
4DD
100
AcDbEntity
  8
Defpoints
 62
     0
100
AcDbPoint
 10
26.90700743317449
 20
33.64179796782023
 30
0.0
  0
POINT
  5
5DB
330
4DD
100
AcDbEntity
  8
Defpoints
 62
     0
100
AcDbPoint
 10
35.81887283413252
 20
33.64179796782023
 30
0.0
  0
ENDBLK
  5
4DF
330
4DD
100
AcDbEntity
  8
0
100
AcDbBlockEnd
  0
BLOCK
  5
5DE
330
5DD
100
AcDbEntity
  8
0
100
AcDbBlockBegin
  2
*D8
 70
     1
 10
0.0
 20
0.0
 30
0.0
  3
*D8
  1

  0
LINE
  5
6BC
330
5DD
100
AcDbEntity
  8
Dimension (ANSI)
100
AcDbLine
 10
27.42700743317448
 20
33.91179796782024
 30
0.0
 11
27.42700743317448
 21
37.31140426703283
 31
0.0
  0
LINE
  5
6BD
330
5DD
100
AcDbEntity
  8
Dimension (ANSI)
100
AcDbLine
 10
26.90700743317449
 20
33.89179796782023
 30
0.0
 11
26.90700743317449
 21
37.31140426703283
 31
0.0
  0
LINE
  5
6BE
330
5DD
100
AcDbEntity
  8
Dimension (ANSI)
100
AcDbLine
 10
26.51330665469014
 20
36.81140426703283
 30
0.0
 11
26.1196058762058
 21
36.81140426703283
 31
0.0
  0
LINE
  5
6BF
330
5DD
100
AcDbEntity
  8
Dimension (ANSI)
100
AcDbLine
 10
27.82070821165883
 20
36.81140426703283
 30
0.0
 11
28.42041285696795
 21
36.81140426703283
 31
0.0
  0
SOLID
  5
6C0
330
5DD
100
AcDbEntity
  8
Dimension (ANSI)
100
AcDbTrace
 10
26.51330665469014
 20
36.87702106344688
 30
0.0
 11
26.51330665469014
 21
36.74578747061878
 31
0.0
 12
26.90700743317449
 22
36.81140426703283
 32
0.0
 13
26.90700743317449
 23
36.81140426703283
 33
0.0
  0
SOLID
  5
6C1
330
5DD
100
AcDbEntity
  8
Dimension (ANSI)
100
AcDbTrace
 10
27.82070821165883
 20
36.87702106344688
 30
0.0
 11
27.82070821165883
 21
36.74578747061878
 31
0.0
 12
27.42700743317448
 22
36.81140426703283
 32
0.0
 13
27.42700743317448
 23
36.81140426703283
 33
0.0
  0
MTEXT
  5
6C2
330
5DD
100
AcDbEntity
  8
Dimension (ANSI)
100
AcDbMText
 10
28.54639710893645
 20
37.06139756104994
 30
0.0
 40
0.4800000190734864
 41
0.0
 71
     1
 72
     1
  1
\A1;0.52
  7
Note Text (ANSI)
 73
     1
 44
1.0
1001
ACAD
1000
MTEXTBEGIN
1070
    73
1070
     1
1070
    44
1040
1.0
1070
    74
1070
     0
1000
MTEXTEND
  0
POINT
  5
6C3
330
5DD
100
AcDbEntity
  8
Defpoints
 62
     0
100
AcDbPoint
 10
27.42700743317448
 20
33.66179796782024
 30
0.0
  0
POINT
  5
6C4
330
5DD
100
AcDbEntity
  8
Defpoints
 62
     0
100
AcDbPoint
 10
26.90700743317449
 20
33.64179796782023
 30
0.0
  0
POINT
  5
6C5
330
5DD
100
AcDbEntity
  8
Defpoints
 62
     0
100
AcDbPoint
 10
26.90700743317449
 20
36.81140426703283
 30
0.0
  0
ENDBLK
  5
5DF
330
5DD
100
AcDbEntity
  8
0
100
AcDbBlockEnd
  0
BLOCK
  5
6C8
330
6C7
100
AcDbEntity
  8
0
100
AcDbBlockBegin
  2
*D9
 70
     1
 10
0.0
 20
0.0
 30
0.0
  3
*D9
  1

  0
LINE
  5
7A6
330
6C7
100
AcDbEntity
  8
Dimension (ANSI)
100
AcDbLine
 10
13.49700743317448
 20
12.48179796782023
 30
0.0
 11
9.467479874119369
 21
12.48179796782023
 31
0.0
  0
LINE
  5
7A7
330
6C7
100
AcDbEntity
  8
Dimension (ANSI)
100
AcDbLine
 10
13.49700743317448
 20
33.64179796782023
 30
0.0
 11
9.467479874119373
 21
33.64179796782023
 31
0.0
  0
LINE
  5
7A8
330
6C7
100
AcDbEntity
  8
Dimension (ANSI)
100
AcDbLine
 10
9.967479874119369
 20
12.87549874630457
 30
0.0
 11
9.967479874119371
 21
26.72476665085887
 31
0.0
  0
LINE
  5
7A9
330
6C7
100
AcDbEntity
  8
Dimension (ANSI)
100
AcDbLine
 10
9.967479874119373
 20
33.24809718933588
 30
0.0
 11
9.967479874119371
 21
27.47672174283012
 31
0.0
  0
SOLID
  5
7AA
330
6C7
100
AcDbEntity
  8
Dimension (ANSI)
100
AcDbTrace
 10
9.901863077705312
 20
12.87549874630457
 30
0.0
 11
10.03309667053343
 21
12.87549874630457
 31
0.0
 12
9.967479874119369
 22
12.48179796782023
 32
0.0
 13
9.967479874119369
 23
12.48179796782023
 33
0.0
  0
SOLID
  5
7AB
330
6C7
100
AcDbEntity
  8
Dimension (ANSI)
100
AcDbTrace
 10
9.901863077705316
 20
33.24809718933588
 30
0.0
 11
10.03309667053343
 21
33.24809718933588
 31
0.0
 12
9.967479874119373
 22
33.64179796782023
 32
0.0
 13
9.967479874119373
 23
33.64179796782023
 33
0.0
  0
MTEXT
  5
7AC
330
6C7
100
AcDbEntity
  8
Dimension (ANSI)
100
AcDbMText
 10
8.99748655149202
 20
27.35073749086162
 30
0.0
 40
0.4800000190734864
 41
0.0
 71
     1
 72
     1
  1
\A1;21.160
  7
Note Text (ANSI)
 73
     1
 44
1.0
1001
ACAD
1000
MTEXTBEGIN
1070
    73
1070
     1
1070
    44
1040
1.0
1070
    74
1070
     0
1000
MTEXTEND
  0
POINT
  5
7AD
330
6C7
100
AcDbEntity
  8
Defpoints
 62
     0
100
AcDbPoint
 10
13.74700743317448
 20
12.48179796782023
 30
0.0
  0
POINT
  5
7AE
330
6C7
100
AcDbEntity
  8
Defpoints
 62
     0
100
AcDbPoint
 10
13.74700743317448
 20
33.64179796782023
 30
0.0
  0
POINT
  5
7AF
330
6C7
100
AcDbEntity
  8
Defpoints
 62
     0
100
AcDbPoint
 10
9.967479874119373
 20
33.64179796782023
 30
0.0
  0
ENDBLK
  5
6C9
330
6C7
100
AcDbEntity
  8
0
100
AcDbBlockEnd
  0
BLOCK
  5
7B2
330
7B1
100
AcDbEntity
  8
0
100
AcDbBlockBegin
  2
*D10
 70
     1
 10
0.0
 20
0.0
 30
0.0
  3
*D10
  1

  0
LINE
  5
890
330
7B1
100
AcDbEntity
  8
Dimension (ANSI)
100
AcDbLine
 10
42.67605812948623
 20
34.41179796782023
 30
0.0
 11
42.67605812948623
 21
37.02400269222968
 31
0.0
  0
LINE
  5
891
330
7B1
100
AcDbEntity
  8
Dimension (ANSI)
100
AcDbLine
 10
43.45005812948637
 20
32.69379796782023
 30
0.0
 11
43.45005812948637
 21
37.02400269222968
 31
0.0
  0
LINE
  5
892
330
7B1
100
AcDbEntity
  8
Dimension (ANSI)
100
AcDbLine
 10
43.84375890797072
 20
36.52400269222968
 30
0.0
 11
44.23745968645507
 21
36.52400269222968
 31
0.0
  0
LINE
  5
893
330
7B1
100
AcDbEntity
  8
Dimension (ANSI)
100
AcDbLine
 10
42.28235735100189
 20
36.52400269222968
 30
0.0
 11
41.68523161781673
 21
36.52400269222968
 31
0.0
  0
SOLID
  5
894
330
7B1
100
AcDbEntity
  8
Dimension (ANSI)
100
AcDbTrace
 10
43.84375890797072
 20
36.58961948864373
 30
0.0
 11
43.84375890797072
 21
36.45838589581563
 31
0.0
 12
43.45005812948637
 22
36.52400269222968
 32
0.0
 13
43.45005812948637
 23
36.52400269222968
 33
0.0
  0
SOLID
  5
895
330
7B1
100
AcDbEntity
  8
Dimension (ANSI)
100
AcDbTrace
 10
42.28235735100189
 20
36.58961948864373
 30
0.0
 11
42.28235735100189
 21
36.45838589581563
 31
0.0
 12
42.67605812948623
 22
36.52400269222968
 32
0.0
 13
42.67605812948623
 23
36.52400269222968
 33
0.0
  0
MTEXT
  5
896
330
7B1
100
AcDbEntity
  8
Dimension (ANSI)
100
AcDbMText
 10
40.32878391870014
 20
36.77383480423905
 30
0.0
 40
0.4800000190734864
 41
0.0
 71
     1
 72
     1
  1
\A1;0.77
  7
Note Text (ANSI)
 73
     1
 44
1.0
1001
ACAD
1000
MTEXTBEGIN
1070
    73
1070
     1
1070
    44
1040
1.0
1070
    74
1070
     0
1000
MTEXTEND
  0
POINT
  5
897
330
7B1
100
AcDbEntity
  8
Defpoints
 62
     0
100
AcDbPoint
 10
42.67605812948623
 20
34.16179796782023
 30
0.0
  0
POINT
  5
898
330
7B1
100
AcDbEntity
  8
Defpoints
 62
     0
100
AcDbPoint
 10
43.45005812948637
 20
32.44379796782023
 30
0.0
  0
POINT
  5
899
330
7B1
100
AcDbEntity
  8
Defpoints
 62
     0
100
AcDbPoint
 10
43.45005812948637
 20
36.52400269222968
 30
0.0
  0
ENDBLK
  5
7B3
330
7B1
100
AcDbEntity
  8
0
100
AcDbBlockEnd
  0
BLOCK
  5
89E
330
89D
100
AcDbEntity
  8
0
100
AcDbBlockBegin
  2
*D11
 70
     1
 10
0.0
 20
0.0
 30
0.0
  3
*D11
  1

  0
LINE
  5
991
330
89D
100
AcDbEntity
  8
Dimension (ANSI)
100
AcDbLine
 10
27.17700743317448
 20
11.96179796782023
 30
0.0
 11
29.15574604162678
 21
11.96179796782023
 31
0.0
  0
LINE
  5
992
330
89D
100
AcDbEntity
  8
Dimension (ANSI)
100
AcDbLine
 10
27.67700743317448
 20
12.46179796782023
 30
0.0
 11
29.15574604162678
 21
12.46179796782023
 31
0.0
  0
LINE
  5
993
330
89D
100
AcDbEntity
  8
Dimension (ANSI)
100
AcDbLine
 10
28.65574604162679
 20
11.56809718933588
 30
0.0
 11
28.65574604162679
 21
11.17439641085154
 31
0.0
  0
LINE
  5
994
330
89D
100
AcDbEntity
  8
Dimension (ANSI)
100
AcDbLine
 10
28.65574604162679
 20
12.85549874630457
 30
0.0
 11
28.65574604162679
 21
13.60832996019948
 31
0.0
  0
LINE
  5
995
330
89D
100
AcDbEntity
  8
Dimension (ANSI)
100
AcDbLine
 10
28.65574604162679
 20
13.60832996019948
 30
0.0
 11
29.04944682011113
 21
13.60832996019948
 31
0.0
  0
SOLID
  5
996
330
89D
100
AcDbEntity
  8
Dimension (ANSI)
100
AcDbTrace
 10
28.59012924521273
 20
11.56809718933588
 30
0.0
 11
28.72136283804085
 21
11.56809718933588
 31
0.0
 12
28.65574604162679
 22
11.96179796782023
 32
0.0
 13
28.65574604162679
 23
11.96179796782023
 33
0.0
  0
SOLID
  5
997
330
89D
100
AcDbEntity
  8
Dimension (ANSI)
100
AcDbTrace
 10
28.59012924521273
 20
12.85549874630457
 30
0.0
 11
28.72136283804085
 21
12.85549874630457
 31
0.0
 12
28.65574604162679
 22
12.46179796782023
 32
0.0
 13
28.65574604162679
 23
12.46179796782023
 33
0.0
  0
MTEXT
  5
998
330
89D
100
AcDbEntity
  8
Dimension (ANSI)
100
AcDbMText
 10
29.17543107207963
 20
13.85816207220885
 30
0.0
 40
0.4800000190734864
 41
0.0
 71
     1
 72
     1
  1
\A1;0.50
  7
Note Text (ANSI)
 73
     1
 44
1.0
1001
ACAD
1000
MTEXTBEGIN
1070
    73
1070
     1
1070
    44
1040
1.0
1070
    74
1070
     0
1000
MTEXTEND
  0
POINT
  5
999
330
89D
100
AcDbEntity
  8
Defpoints
 62
     0
100
AcDbPoint
 10
26.92700743317448
 20
11.96179796782023
 30
0.0
  0
POINT
  5
99A
330
89D
100
AcDbEntity
  8
Defpoints
 62
     0
100
AcDbPoint
 10
27.42700743317448
 20
12.46179796782023
 30
0.0
  0
POINT
  5
99B
330
89D
100
AcDbEntity
  8
Defpoints
 62
     0
100
AcDbPoint
 10
28.65574604162679
 20
12.46179796782023
 30
0.0
  0
ENDBLK
  5
89F
330
89D
100
AcDbEntity
  8
0
100
AcDbBlockEnd
  0
BLOCK
  5
99E
330
99D
100
AcDbEntity
  8
0
100
AcDbBlockBegin
  2
*D12
 70
     1
 10
0.0
 20
0.0
 30
0.0
  3
*D12
  1

  0
LINE
  5
A7C
330
99D
100
AcDbEntity
  8
Dimension (ANSI)
100
AcDbLine
 10
27.42700743317448
 20
12.21179796782023
 30
0.0
 11
27.42700743317448
 21
9.099593243410783
 31
0.0
  0
LINE
  5
A7D
330
99D
100
AcDbEntity
  8
Dimension (ANSI)
100
AcDbLine
 10
26.92700743317448
 20
11.71179796782023
 30
0.0
 11
26.92700743317448
 21
9.099593243410783
 31
0.0
  0
LINE
  5
A7E
330
99D
100
AcDbEntity
  8
Dimension (ANSI)
100
AcDbLine
 10
27.82070821165883
 20
9.599593243410783
 30
0.0
 11
28.21440899014317
 21
9.599593243410783
 31
0.0
  0
LINE
  5
A7F
330
99D
100
AcDbEntity
  8
Dimension (ANSI)
100
AcDbLine
 10
26.53330665469014
 20
9.599593243410783
 30
0.0
 11
25.93473028343525
 21
9.599593243410783
 31
0.0
  0
SOLID
  5
A80
330
99D
100
AcDbEntity
  8
Dimension (ANSI)
100
AcDbTrace
 10
27.82070821165883
 20
9.66521003982484
 30
0.0
 11
27.82070821165883
 21
9.533976446996726
 31
0.0
 12
27.42700743317448
 22
9.599593243410783
 32
0.0
 13
27.42700743317448
 23
9.599593243410783
 33
0.0
  0
SOLID
  5
A81
330
99D
100
AcDbEntity
  8
Dimension (ANSI)
100
AcDbTrace
 10
26.53330665469014
 20
9.66521003982484
 30
0.0
 11
26.53330665469014
 21
9.533976446996726
 31
0.0
 12
26.92700743317448
 22
9.599593243410783
 32
0.0
 13
26.92700743317448
 23
9.599593243410783
 33
0.0
  0
MTEXT
  5
A82
330
99D
100
AcDbEntity
  8
Dimension (ANSI)
100
AcDbMText
 10
24.58118386045813
 20
9.849425355420153
 30
0.0
 40
0.4800000190734864
 41
0.0
 71
     1
 72
     1
  1
\A1;0.50
  7
Note Text (ANSI)
 73
     1
 44
1.0
1001
ACAD
1000
MTEXTBEGIN
1070
    73
1070
     1
1070
    44
1040
1.0
1070
    74
1070
     0
1000
MTEXTEND
  0
POINT
  5
A83
330
99D
100
AcDbEntity
  8
Defpoints
 62
     0
100
AcDbPoint
 10
27.42700743317448
 20
12.46179796782023
 30
0.0
  0
POINT
  5
A84
330
99D
100
AcDbEntity
  8
Defpoints
 62
     0
100
AcDbPoint
 10
26.92700743317448
 20
11.96179796782023
 30
0.0
  0
POINT
  5
A85
330
99D
100
AcDbEntity
  8
Defpoints
 62
     0
100
AcDbPoint
 10
26.92700743317448
 20
9.599593243410783
 30
0.0
  0
ENDBLK
  5
99F
330
99D
100
AcDbEntity
  8
0
100
AcDbBlockEnd
  0
BLOCK
  5
A88
330
A87
100
AcDbEntity
  8
0
100
AcDbBlockBegin
  2
*D13
 70
     1
 10
0.0
 20
0.0
 30
0.0
  3
*D13
  1

  0
LINE
  5
B38
330
A87
100
AcDbEntity
  8
Dimension (ANSI)
100
AcDbLine
 10
10.06225959496368
 20
37.84683245763029
 30
0.0
 11
10.55219759064586
 21
37.84683245763029
 31
0.0
  0
LINE
  5
B39
330
A87
100
AcDbEntity
  8
Dimension (ANSI)
100
AcDbLine
 10
10.55219759064586
 20
37.84683245763029
 30
0.0
 11
13.35759339482288
 21
34.15434786681158
 31
0.0
  0
MTEXT
  5
B3A
102
{ACAD_XDICTIONARY
360
D2E
102
}
330
A87
100
AcDbEntity
  8
Dimension (ANSI)
100
AcDbMText
 10
9.936275342995182
 20
38.21284993355799
 30
0.0
 40
0.4800000190734864
 41
0.0
 71
     3
 72
     1
  1
\A1;\U+22050.50{\PTYP.(4PL.)}
  7
Note Text (ANSI)
 73
     1
 44
1.0
1001
ACAD
1000
MTEXTBEGIN
1070
    73
1070
     1
1070
    44
1040
1.0
1070
    74
1070
     0
1000
MTEXTEND
  0
SOLID
  5
B3B
330
A87
100
AcDbEntity
  8
Dimension (ANSI)
100
AcDbTrace
 10
13.4098410904888
 20
34.19404348708946
 30
0.0
 11
13.30534569915697
 21
34.11465224653369
 31
0.0
 12
13.59576711649018
 22
33.84086169281609
 32
0.0
 13
13.59576711649018
 23
33.84086169281609
 33
0.0
  0
LINE
  5
B3C
330
A87
100
AcDbEntity
  8
Dimension (ANSI)
100
AcDbLine
 10
13.38700743317447
 20
33.64179796782021
 30
0.0
 11
14.10700743317447
 21
33.6417979678202
 31
0.0
  0
LINE
  5
B3D
330
A87
100
AcDbEntity
  8
Dimension (ANSI)
100
AcDbLine
 10
13.74700743317447
 20
33.28179796782021
 30
0.0
 11
13.74700743317447
 21
34.00179796782021
 31
0.0
  0
POINT
  5
B3E
330
A87
100
AcDbEntity
  8
Defpoints
 62
     0
100
AcDbPoint
 10
13.59576711649018
 20
33.84086169281609
 30
0.0
  0
POINT
  5
B3F
330
A87
100
AcDbEntity
  8
Defpoints
 62
     0
100
AcDbPoint
 10
13.89824774985876
 20
33.44273424282433
 30
0.0
  0
ENDBLK
  5
A89
330
A87
100
AcDbEntity
  8
0
100
AcDbBlockEnd
  0
BLOCK
  5
B42
330
B41
100
AcDbEntity
  8
0
100
AcDbBlockBegin
  2
*D14
 70
     1
 10
0.0
 20
0.0
 30
0.0
  3
*D14
  1

  0
LINE
  5
BF1
330
B41
100
AcDbEntity
  8
Dimension (ANSI)
100
AcDbLine
 10
15.5315102664802
 20
10.24454979378962
 30
0.0
 11
15.04164932787253
 21
10.24454979378962
 31
0.0
  0
LINE
  5
BF2
330
B41
100
AcDbEntity
  8
Dimension (ANSI)
100
AcDbLine
 10
15.04164932787253
 20
10.24454979378962
 30
0.0
 11
13.96569579999472
 21
12.72719787173122
 31
0.0
  0
MTEXT
  5
BF3
102
{ACAD_XDICTIONARY
360
D30
102
}
330
B41
100
AcDbEntity
  8
Dimension (ANSI)
100
AcDbMText
 10
15.6574945184487
 20
10.61056726971733
 30
0.0
 40
0.4800000190734864
 41
0.0
 71
     1
 72
     1
  1
\A1;\U+22050.31{\PTYP. (4PL.)}
  7
Note Text (ANSI)
 73
     1
 44
1.0
1001
ACAD
1000
MTEXTBEGIN
1070
    73
1070
     1
1070
    44
1040
1.0
1070
    74
1070
     0
1000
MTEXTEND
  0
SOLID
  5
BF4
330
B41
100
AcDbEntity
  8
Dimension (ANSI)
100
AcDbTrace
 10
14.02590162762686
 20
12.75329044329429
 30
0.0
 11
13.90548997236259
 21
12.70110530016816
 31
0.0
 12
13.80914037061633
 22
13.08843283752402
 32
0.0
 13
13.80914037061633
 23
13.08843283752402
 33
0.0
  0
LINE
  5
BF5
330
B41
100
AcDbEntity
  8
Dimension (ANSI)
100
AcDbLine
 10
13.38700743317448
 20
13.23179796782023
 30
0.0
 11
14.10700743317448
 21
13.23179796782023
 31
0.0
  0
LINE
  5
BF6
330
B41
100
AcDbEntity
  8
Dimension (ANSI)
100
AcDbLine
 10
13.74700743317448
 20
12.87179796782023
 30
0.0
 11
13.74700743317448
 21
13.59179796782023
 31
0.0
  0
POINT
  5
BF7
330
B41
100
AcDbEntity
  8
Defpoints
 62
     0
100
AcDbPoint
 10
13.80914037061633
 20
13.08843283752402
 30
0.0
  0
POINT
  5
BF8
330
B41
100
AcDbEntity
  8
Defpoints
 62
     0
100
AcDbPoint
 10
13.68487449573264
 20
13.37516309811644
 30
0.0
  0
ENDBLK
  5
B43
330
B41
100
AcDbEntity
  8
0
100
AcDbBlockEnd
  0
BLOCK
  5
BFB
330
BFA
100
AcDbEntity
  8
0
100
AcDbBlockBegin
  2
*D15
 70
     1
 10
0.0
 20
0.0
 30
0.0
  3
*D15
  1

  0
LINE
  5
CD9
330
BFA
100
AcDbEntity
  8
Dimension (ANSI)
100
AcDbLine
 10
26.90700743317449
 20
33.89179796782023
 30
0.0
 11
26.90700743317449
 21
37.31140426703284
 31
0.0
  0
LINE
  5
CDA
330
BFA
100
AcDbEntity
  8
Dimension (ANSI)
100
AcDbLine
 10
13.74700743317448
 20
33.89179796782022
 30
0.0
 11
13.74700743317448
 21
37.31140426703284
 31
0.0
  0
LINE
  5
CDB
330
BFA
100
AcDbEntity
  8
Dimension (ANSI)
100
AcDbLine
 10
26.51330665469014
 20
36.81140426703284
 30
0.0
 11
21.22650414032555
 21
36.81140426703284
 31
0.0
  0
LINE
  5
CDC
330
BFA
100
AcDbEntity
  8
Dimension (ANSI)
100
AcDbLine
 10
14.14070821165883
 20
36.81140426703284
 30
0.0
 11
19.42751072602342
 21
36.81140426703284
 31
0.0
  0
SOLID
  5
CDD
330
BFA
100
AcDbEntity
  8
Dimension (ANSI)
100
AcDbTrace
 10
26.51330665469014
 20
36.8770210634469
 30
0.0
 11
26.51330665469014
 21
36.74578747061879
 31
0.0
 12
26.90700743317449
 22
36.81140426703284
 32
0.0
 13
26.90700743317449
 23
36.81140426703284
 33
0.0
  0
SOLID
  5
CDE
330
BFA
100
AcDbEntity
  8
Dimension (ANSI)
100
AcDbTrace
 10
14.14070821165883
 20
36.8770210634469
 30
0.0
 11
14.14070821165883
 21
36.74578747061879
 31
0.0
 12
13.74700743317448
 22
36.81140426703284
 32
0.0
 13
13.74700743317448
 23
36.81140426703284
 33
0.0
  0
MTEXT
  5
CDF
330
BFA
100
AcDbEntity
  8
Dimension (ANSI)
100
AcDbMText
 10
19.55349497799192
 20
37.06139756104996
 30
0.0
 40
0.4800000190734864
 41
0.0
 71
     1
 72
     1
  1
\A1;13.16
  7
Note Text (ANSI)
 73
     1
 44
1.0
1001
ACAD
1000
MTEXTBEGIN
1070
    73
1070
     1
1070
    44
1040
1.0
1070
    74
1070
     0
1000
MTEXTEND
  0
POINT
  5
CE0
330
BFA
100
AcDbEntity
  8
Defpoints
 62
     0
100
AcDbPoint
 10
26.90700743317449
 20
33.64179796782023
 30
0.0
  0
POINT
  5
CE1
330
BFA
100
AcDbEntity
  8
Defpoints
 62
     0
100
AcDbPoint
 10
13.74700743317448
 20
33.64179796782023
 30
0.0
  0
POINT
  5
CE2
330
BFA
100
AcDbEntity
  8
Defpoints
 62
     0
100
AcDbPoint
 10
13.74700743317448
 20
36.81140426703284
 30
0.0
  0
ENDBLK
  5
BFC
330
BFA
100
AcDbEntity
  8
0
100
AcDbBlockEnd
  0
ENDSEC
  0
SECTION
  2
ENTITIES
  0
MTEXT
  5
74
330
6C
100
AcDbEntity
  8
Symbol (ANSI)
100
AcDbMText
 10
36.1517279807078
 20
10.30300542382513
 30
0.0
 40
0.5600000178720068
 41
20.6734839011365
 71
     1
 72
     1
  1
PART#: NP2416C\P(DATA SUBJECT TO CHANGE WITHOUT NOTICE)\PTHIS DRAWING AND COMPONENTS OF ARE\PPROPERTY OF HUBBELL INC. WIEGMANN\P 
  7
Note Text (ANSI)
 73
     2
 44
1.093904256820678
1001
ACAD
1000
MTEXTBEGIN
1070
    73
1070
     2
1070
    44
1040
1.093904256820678
1070
    74
1070
     0
1000
MTEXTEND
  0
TEXT
  5
77
330
6C
100
AcDbEntity
  8
0
100
AcDbText
 10
55.32930437780049
 20
7.09567270147491
 30
0.0
 40
0.389347742874474
  1
HUBBELL
  7
SANSSERIF
100
AcDbText
  0
POLYLINE
  5
79
330
6C
100
AcDbEntity
  8
0
100
AcDb2dPolyline
 66
     1
 10
0.0
 20
0.0
 30
0.0
  0
VERTEX
  5
7A
330
79
100
AcDbEntity
  8
0
100
AcDbVertex
100
AcDb2dVertex
 10
55.53102275420601
 20
6.903313119485829
 30
0.0
 42
0.0538548888021971
  0
VERTEX
  5
7B
330
79
100
AcDbEntity
  8
0
100
AcDbVertex
100
AcDb2dVertex
 10
55.67123316171397
 20
6.79349660382325
 30
0.0
 42
0.0762621633615686
 70
     2
 50
328.0963691854962
  0
VERTEX
  5
7C
330
79
100
AcDbEntity
  8
0
100
AcDbVertex
100
AcDb2dVertex
 10
56.01389961848862
 20
6.646760426060417
 30
0.0
 42
0.0631748622128167
 50
328.0963691854962
  0
VERTEX
  5
7D
330
79
100
AcDbEntity
  8
0
100
AcDbVertex
100
AcDb2dVertex
 10
56.45949599140924
 20
6.590233845982382
 30
0.0
 42
0.0631748622128144
  0
VERTEX
  5
7E
330
79
100
AcDbEntity
  8
0
100
AcDbVertex
100
AcDb2dVertex
 10
56.90509236432987
 20
6.646760426060417
 30
0.0
 42
0.0762621633615716
  0
VERTEX
  5
7F
330
79
100
AcDbEntity
  8
0
100
AcDbVertex
100
AcDb2dVertex
 10
57.24775882110449
 20
6.79349660382325
 30
0.0
 42
0.0538548888021992
 70
     2
 50
31.90363081450366
  0
VERTEX
  5
80
330
79
100
AcDbEntity
  8
0
100
AcDbVertex
100
AcDb2dVertex
 10
57.38796922861247
 20
6.903313119485829
 30
0.0
 42
0.1478388992712208
 50
31.90363081450366
  0
SEQEND
  5
81
330
79
100
AcDbEntity
  8
0
  0
POLYLINE
  5
82
330
6C
100
AcDbEntity
  8
0
100
AcDb2dPolyline
 66
     1
 10
0.0
 20
0.0
 30
0.0
  0
VERTEX
  5
83
330
82
100
AcDbEntity
  8
0
100
AcDbVertex
100
AcDb2dVertex
 10
55.78808996391792
 20
6.945738635384742
 30
0.0
 42
0.0708473647366734
  0
VERTEX
  5
84
330
82
100
AcDbEntity
  8
0
100
AcDbVertex
100
AcDb2dVertex
 10
55.91519644162409
 20
6.79349660382325
 30
0.0
 42
0.0943474025114784
 70
     2
 50
317.9633854595613
  0
VERTEX
  5
85
330
82
100
AcDbEntity
  8
0
100
AcDbVertex
100
AcDb2dVertex
 10
56.16134515957755
 20
6.644088114489917
 30
0.0
 42
0.0895889244631754
 50
317.9633854595613
  0
VERTEX
  5
86
330
82
100
AcDbEntity
  8
0
100
AcDbVertex
100
AcDb2dVertex
 10
56.45949599140924
 20
6.590233845982382
 30
0.0
 42
0.0895889244631755
  0
VERTEX
  5
87
330
82
100
AcDbEntity
  8
0
100
AcDbVertex
100
AcDb2dVertex
 10
56.75764682324093
 20
6.644088114489917
 30
0.0
 42
0.0943474025114826
  0
VERTEX
  5
88
330
82
100
AcDbEntity
  8
0
100
AcDbVertex
100
AcDb2dVertex
 10
57.00379554119439
 20
6.79349660382325
 30
0.0
 42
0.0708473647366705
 70
     2
 50
42.03661454043863
  0
VERTEX
  5
89
330
82
100
AcDbEntity
  8
0
100
AcDbVertex
100
AcDb2dVertex
 10
57.13090201890053
 20
6.945738635384742
 30
0.0
 42
0.1080871028423927
 50
42.03661454043863
  0
SEQEND
  5
8A
330
82
100
AcDbEntity
  8
0
  0
POLYLINE
  5
8B
330
6C
100
AcDbEntity
  8
0
100
AcDb2dPolyline
 66
     1
 10
0.0
 20
0.0
 30
0.0
  0
VERTEX
  5
8C
330
8B
100
AcDbEntity
  8
0
100
AcDbVertex
100
AcDb2dVertex
 10
57.38167683881117
 20
7.671181672940932
 30
0.0
 42
0.0512131062417871
  0
VERTEX
  5
8D
330
8B
100
AcDbEntity
  8
0
100
AcDbVertex
100
AcDb2dVertex
 10
57.24775882110449
 20
7.77493601723286
 30
0.0
 42
0.0762621633615678
 70
     2
 50
148.0963691854963
  0
VERTEX
  5
8E
330
8B
100
AcDbEntity
  8
0
100
AcDbVertex
100
AcDb2dVertex
 10
56.90509236432987
 20
7.9216721949957
 30
0.0
 42
0.0631748622128132
 50
148.0963691854963
  0
VERTEX
  5
8F
330
8B
100
AcDbEntity
  8
0
100
AcDbVertex
100
AcDb2dVertex
 10
56.45949599140924
 20
7.978198775073735
 30
0.0
 42
0.0631748622128155
  0
SEQEND
  5
90
330
8B
100
AcDbEntity
  8
0
  0
POLYLINE
  5
91
330
6C
100
AcDbEntity
  8
0
100
AcDb2dPolyline
 66
     1
 10
0.0
 20
0.0
 30
0.0
  0
VERTEX
  5
92
330
91
100
AcDbEntity
  8
0
100
AcDbVertex
100
AcDb2dVertex
 10
57.12777643005849
 20
7.627697191432787
 30
0.0
 42
0.0687403046083495
  0
VERTEX
  5
93
330
91
100
AcDbEntity
  8
0
100
AcDbVertex
100
AcDb2dVertex
 10
57.00379554119439
 20
7.77493601723286
 30
0.0
 42
0.0943474025114827
 70
     2
 50
137.9633854595613
  0
VERTEX
  5
94
330
91
100
AcDbEntity
  8
0
100
AcDbVertex
100
AcDb2dVertex
 10
56.75764682324093
 20
7.924344506566193
 30
0.0
 42
0.0895889244631755
 50
137.9633854595613
  0
VERTEX
  5
95
330
91
100
AcDbEntity
  8
0
100
AcDbVertex
100
AcDb2dVertex
 10
56.45949599140924
 20
7.978198775073735
 30
0.0
 42
0.0895889244631779
  0
SEQEND
  5
96
330
91
100
AcDbEntity
  8
0
  0
LINE
  5
97
330
6C
100
AcDbEntity
  8
0
100
AcDbLine
 10
57.93878072877432
 20
8.171787152947068
 30
0.0
 11
54.98021125404422
 21
8.171787152947068
 31
0.0
  0
POLYLINE
  5
98
330
6C
100
AcDbEntity
  8
0
100
AcDb2dPolyline
 66
     1
 10
0.0
 20
0.0
 30
0.0
 70
     1
  0
VERTEX
  5
99
330
98
100
AcDbEntity
  8
0
100
AcDbVertex
100
AcDb2dVertex
 10
54.98021125404422
 20
7.284216310528051
 30
0.0
 42
0.1828233251715505
  0
VERTEX
  5
9A
330
98
100
AcDbEntity
  8
0
100
AcDbVertex
100
AcDb2dVertex
 10
55.06787968546742
 20
7.052467518600224
 30
0.0
 42
0.1025674015815553
  0
VERTEX
  5
9B
330
98
100
AcDbEntity
  8
0
100
AcDbVertex
100
AcDb2dVertex
 10
55.41348372231266
 20
6.793496603823314
 30
0.0
 42
0.0617587255956112
 70
     2
 50
334.8671392208401
  0
VERTEX
  5
9C
330
98
100
AcDbEntity
  8
0
100
AcDbVertex
100
AcDb2dVertex
 10
55.85962789604296
 20
6.647977443153187
 30
0.0
 42
0.0480192641995976
 50
334.8671392208401
  0
VERTEX
  5
9D
330
98
100
AcDbEntity
  8
0
100
AcDbVertex
100
AcDb2dVertex
 10
56.45949599140924
 20
6.590233845982382
 30
0.0
 42
0.0480192641995965
  0
VERTEX
  5
9E
330
98
100
AcDbEntity
  8
0
100
AcDbVertex
100
AcDb2dVertex
 10
57.05936408677555
 20
6.647977443153187
 30
0.0
 42
0.0617587255956115
  0
VERTEX
  5
9F
330
98
100
AcDbEntity
  8
0
100
AcDbVertex
100
AcDb2dVertex
 10
57.50550826050584
 20
6.793496603823314
 30
0.0
 42
0.1025674015815654
 70
     2
 50
25.13286077915987
  0
VERTEX
  5
A0
330
98
100
AcDbEntity
  8
0
100
AcDbVertex
100
AcDb2dVertex
 10
57.85111229735099
 20
7.052467518600224
 30
0.0
 42
0.18282332517157
 50
25.13286077915987
  0
VERTEX
  5
A1
330
98
100
AcDbEntity
  8
0
100
AcDbVertex
100
AcDb2dVertex
 10
57.93878072877432
 20
7.284216310528051
 30
0.0
 42
0.1828233251715568
  0
VERTEX
  5
A2
330
98
100
AcDbEntity
  8
0
100
AcDbVertex
100
AcDb2dVertex
 10
57.85111229735099
 20
7.515965102455893
 30
0.0
 42
0.102567401581563
  0
VERTEX
  5
A3
330
98
100
AcDbEntity
  8
0
100
AcDbVertex
100
AcDb2dVertex
 10
57.50550826050584
 20
7.774936017232782
 30
0.0
 42
0.0617587255956141
 70
     2
 50
154.86713922084
  0
VERTEX
  5
A4
330
98
100
AcDbEntity
  8
0
100
AcDbVertex
100
AcDb2dVertex
 10
57.05936408677555
 20
7.92045517790293
 30
0.0
 42
0.0480192641995983
 50
154.86713922084
  0
VERTEX
  5
A5
330
98
100
AcDbEntity
  8
0
100
AcDbVertex
100
AcDb2dVertex
 10
56.45949599140924
 20
7.978198775073735
 30
0.0
 42
0.0480192641995976
  0
VERTEX
  5
A6
330
98
100
AcDbEntity
  8
0
100
AcDbVertex
100
AcDb2dVertex
 10
55.85962789604296
 20
7.92045517790293
 30
0.0
 42
0.0617587255956112
  0
VERTEX
  5
A7
330
98
100
AcDbEntity
  8
0
100
AcDbVertex
100
AcDb2dVertex
 10
55.41348372231266
 20
7.774936017232782
 30
0.0
 42
0.1025674015815593
 70
     2
 50
205.1328607791599
  0
VERTEX
  5
A8
330
98
100
AcDbEntity
  8
0
100
AcDbVertex
100
AcDb2dVertex
 10
55.06787968546742
 20
7.515965102455893
 30
0.0
 42
0.1828233251715536
 50
205.1328607791599
  0
SEQEND
  5
A9
330
98
100
AcDbEntity
  8
0
  0
ARC
  5
AA
330
6C
100
AcDbEntity
  8
0
100
AcDbCircle
 10
54.98021125404422
 20
7.875930205474062
 30
0.0
 40
0.2958569474730044
100
AcDbArc
 50
90.0
 51
180.0
  0
LINE
  5
AB
330
6C
100
AcDbEntity
  8
0
100
AcDbLine
 10
54.68435430657121
 20
7.875930205474062
 30
0.0
 11
54.68435430657121
 21
6.692502415582033
 31
0.0
  0
ARC
  5
AC
330
6C
100
AcDbEntity
  8
0
100
AcDbCircle
 10
54.98021125404422
 20
6.692502415582033
 30
0.0
 40
0.2958569474730044
100
AcDbArc
 50
180.0
 51
270.0
  0
POLYLINE
  5
AD
330
6C
100
AcDbEntity
  8
0
100
AcDb2dPolyline
 66
     1
 10
0.0
 20
0.0
 30
0.0
  0
VERTEX
  5
AE
330
AD
100
AcDbEntity
  8
0
100
AcDbVertex
100
AcDb2dVertex
 10
56.15161926661701
 20
6.97942583396275
 30
0.0
 42
0.0570538596573184
  0
VERTEX
  5
AF
330
AD
100
AcDbEntity
  8
0
100
AcDbVertex
100
AcDb2dVertex
 10
56.21806680364821
 20
6.793496603823214
 30
0.0
 42
0.1038195938885091
 70
     2
 50
296.1967246921072
  0
VERTEX
  5
B0
330
AD
100
AcDbEntity
  8
0
100
AcDbVertex
100
AcDb2dVertex
 10
56.34424828410527
 20
6.632288262385564
 30
0.0
 42
0.1767522344444316
 50
296.1967246921072
  0
VERTEX
  5
B1
330
AD
100
AcDbEntity
  8
0
100
AcDbVertex
100
AcDb2dVertex
 10
56.45949599140924
 20
6.590233845982382
 30
0.0
 42
0.1767522344444399
  0
VERTEX
  5
B2
330
AD
100
AcDbEntity
  8
0
100
AcDbVertex
100
AcDb2dVertex
 10
56.57474369871327
 20
6.632288262385564
 30
0.0
 42
0.1038195938885123
  0
VERTEX
  5
B3
330
AD
100
AcDbEntity
  8
0
100
AcDbVertex
100
AcDb2dVertex
 10
56.70092517917024
 20
6.793496603823214
 30
0.0
 42
0.0570538596573163
 70
     2
 50
63.8032753078928
  0
VERTEX
  5
B4
330
AD
100
AcDbEntity
  8
0
100
AcDbVertex
100
AcDb2dVertex
 10
56.76737271620144
 20
6.97942583396275
 30
0.0
 42
0.0503013836282066
 50
63.8032753078928
  0
SEQEND
  5
B5
330
AD
100
AcDbEntity
  8
0
  0
POLYLINE
  5
B6
330
6C
100
AcDbEntity
  8
0
100
AcDb2dPolyline
 66
     1
 10
0.0
 20
0.0
 30
0.0
  0
VERTEX
  5
B7
330
B6
100
AcDbEntity
  8
0
100
AcDbVertex
100
AcDb2dVertex
 10
56.45949599140924
 20
7.978198775073735
 30
0.0
 42
0.1767522344444361
  0
VERTEX
  5
B8
330
B6
100
AcDbEntity
  8
0
100
AcDbVertex
100
AcDb2dVertex
 10
56.34424828410527
 20
7.936144358670517
 30
0.0
 42
0.1038195938884991
  0
VERTEX
  5
B9
330
B6
100
AcDbEntity
  8
0
100
AcDbVertex
100
AcDb2dVertex
 10
56.21806680364821
 20
7.774936017232882
 30
0.0
 42
0.0567223889277798
 70
     2
 50
243.8032753078928
  0
VERTEX
  5
BA
330
B6
100
AcDbEntity
  8
0
100
AcDbVertex
100
AcDb2dVertex
 10
56.15188069025186
 20
7.590123742857628
 30
0.0
 42
0.0503013836282199
 50
243.8032753078928
  0
SEQEND
  5
BB
330
B6
100
AcDbEntity
  8
0
  0
POLYLINE
  5
BC
330
6C
100
AcDbEntity
  8
0
100
AcDb2dPolyline
 66
     1
 10
0.0
 20
0.0
 30
0.0
  0
VERTEX
  5
BD
330
BC
100
AcDbEntity
  8
0
100
AcDbVertex
100
AcDb2dVertex
 10
56.45949599140924
 20
7.978198775073735
 30
0.0
 42
0.0895889244631779
  0
VERTEX
  5
BE
330
BC
100
AcDbEntity
  8
0
100
AcDbVertex
100
AcDb2dVertex
 10
56.16134515957755
 20
7.924344506566193
 30
0.0
 42
0.094347402511486
  0
VERTEX
  5
BF
330
BC
100
AcDbEntity
  8
0
100
AcDbVertex
100
AcDb2dVertex
 10
55.91519644162409
 20
7.77493601723286
 30
0.0
 42
0.0687403046083514
 70
     2
 50
222.0366145404387
  0
VERTEX
  5
C0
330
BC
100
AcDbEntity
  8
0
100
AcDbVertex
100
AcDb2dVertex
 10
55.79121555276
 20
7.627697191432787
 30
0.0
 42
0.1080871028423927
 50
222.0366145404387
  0
SEQEND
  5
C1
330
BC
100
AcDbEntity
  8
0
  0
POLYLINE
  5
C2
330
6C
100
AcDbEntity
  8
0
100
AcDb2dPolyline
 66
     1
 10
0.0
 20
0.0
 30
0.0
  0
VERTEX
  5
C3
330
C2
100
AcDbEntity
  8
0
100
AcDbVertex
100
AcDb2dVertex
 10
56.45949599140924
 20
7.978198775073735
 30
0.0
 42
0.0631748622128155
  0
VERTEX
  5
C4
330
C2
100
AcDbEntity
  8
0
100
AcDbVertex
100
AcDb2dVertex
 10
56.01389961848862
 20
7.9216721949957
 30
0.0
 42
0.0762621633615699
  0
VERTEX
  5
C5
330
C2
100
AcDbEntity
  8
0
100
AcDbVertex
100
AcDb2dVertex
 10
55.67123316171397
 20
7.77493601723286
 30
0.0
 42
0.0512131062417906
 70
     2
 50
211.9036308145036
  0
VERTEX
  5
C6
330
C2
100
AcDbEntity
  8
0
100
AcDbVertex
100
AcDb2dVertex
 10
55.53731514400731
 20
7.671181672940932
 30
0.0
 42
0.1478388992712295
 50
211.9036308145036
  0
SEQEND
  5
C7
330
C2
100
AcDbEntity
  8
0
  0
POLYLINE
  5
C8
330
6C
100
AcDbEntity
  8
0
100
AcDb2dPolyline
 66
     1
 10
0.0
 20
0.0
 30
0.0
  0
VERTEX
  5
C9
330
C8
100
AcDbEntity
  8
0
100
AcDbVertex
100
AcDb2dVertex
 10
56.76711129256666
 20
7.590123742857628
 30
0.0
 42
0.0567223889277601
  0
VERTEX
  5
CA
330
C8
100
AcDbEntity
  8
0
100
AcDbVertex
100
AcDb2dVertex
 10
56.70092517917024
 20
7.774936017232882
 30
0.0
 42
0.1038195938884991
 70
     2
 50
116.1967246921072
  0
VERTEX
  5
CB
330
C8
100
AcDbEntity
  8
0
100
AcDbVertex
100
AcDb2dVertex
 10
56.57474369871327
 20
7.936144358670517
 30
0.0
 42
0.1767522344444361
 50
116.1967246921072
  0
VERTEX
  5
CC
330
C8
100
AcDbEntity
  8
0
100
AcDbVertex
100
AcDb2dVertex
 10
56.45949599140924
 20
7.978198775073735
 30
0.0
 42
0.1767522344444361
  0
SEQEND
  5
CD
330
C8
100
AcDbEntity
  8
0
  0
ARC
  5
CE
330
6C
100
AcDbEntity
  8
0
100
AcDbCircle
 10
57.93878072877432
 20
7.875930205474062
 30
0.0
 40
0.2958569474730044
100
AcDbArc
 50
0.0
 51
90.0
  0
CIRCLE
  5
CF
330
6C
100
AcDbEntity
  8
0
100
AcDbCircle
 10
58.51369129234773
 20
8.019320903528054
 30
0.0
 40
0.1539693820188075
  0
TEXT
  5
D0
330
6C
100
AcDbEntity
  8
0
100
AcDbText
 10
58.41440149671919
 20
7.916398054188505
 30
0.0
 40
0.1807272542209781
  1
R
  7
SANSSERIF
100
AcDbText
  0
LINE
  5
D1
330
6C
100
AcDbEntity
  8
0
100
AcDbLine
 10
58.23463767624724
 20
6.692502415582033
 30
0.0
 11
58.23463767624724
 21
7.875930205474062
 31
0.0
  0
ARC
  5
D2
330
6C
100
AcDbEntity
  8
0
100
AcDbCircle
 10
57.93878072877432
 20
6.692502415582033
 30
0.0
 40
0.2958569474730044
100
AcDbArc
 50
270.0
 51
0.0
  0
LINE
  5
D3
330
6C
100
AcDbEntity
  8
0
100
AcDbLine
 10
54.98021125404422
 20
6.396645468109028
 30
0.0
 11
57.93878072877432
 21
6.396645468109028
 31
0.0
  0
LINE
  5
17A
330
6C
100
AcDbEntity
  8
Visible (ANSI)
100
AcDbLine
 10
27.42700743317448
 20
13.67979796782022
 30
0.0
 11
27.42700743317448
 21
32.44379796782023
 31
0.0
  0
LINE
  5
17B
330
6C
100
AcDbEntity
  8
Visible (ANSI)
100
AcDbLine
 10
27.42700743317449
 20
13.67979796782022
 30
0.0
 11
27.31765743317448
 21
13.67979796782022
 31
0.0
  0
LINE
  5
17C
330
6C
100
AcDbEntity
  8
Visible (ANSI)
100
AcDbLine
 10
27.42700743317449
 20
32.44379796782023
 30
0.0
 11
27.31765743317448
 21
32.44379796782023
 31
0.0
  0
LINE
  5
17D
330
6C
100
AcDbEntity
  8
Visible (ANSI)
100
AcDbLine
 10
27.31745743317449
 20
32.44399796782023
 30
0.0
 11
27.42700743317448
 21
32.44399796782023
 31
0.0
  0
LINE
  5
17E
330
6C
100
AcDbEntity
  8
Visible (ANSI)
100
AcDbLine
 10
27.31745743317449
 20
32.44379796782023
 30
0.0
 11
27.31745743317449
 21
32.44399796782023
 31
0.0
  0
LINE
  5
17F
330
6C
100
AcDbEntity
  8
Visible (ANSI)
100
AcDbLine
 10
27.31745743317449
 20
13.67959796782022
 30
0.0
 11
27.31745743317449
 21
13.67979796782022
 31
0.0
  0
LINE
  5
180
330
6C
100
AcDbEntity
  8
Visible (ANSI)
100
AcDbLine
 10
27.42700743317448
 20
13.67959796782022
 30
0.0
 11
27.31745743317449
 21
13.67959796782022
 31
0.0
  0
LINE
  5
181
330
6C
100
AcDbEntity
  8
Hidden (ANSI)
 48
1.080701231956481
100
AcDbLine
 10
27.33325743317448
 20
32.44379796782023
 30
0.0
 11
27.33325743317448
 21
13.67979796782022
 31
0.0
  0
LINE
  5
182
330
6C
100
AcDbEntity
  8
Visible (ANSI)
100
AcDbLine
 10
27.31745743317449
 20
13.67979796782022
 30
0.0
 11
27.31765743317448
 21
13.67979796782022
 31
0.0
  0
LINE
  5
183
330
6C
100
AcDbEntity
  8
Visible (ANSI)
100
AcDbLine
 10
27.31765743317448
 20
32.44379796782023
 30
0.0
 11
27.31745743317449
 21
32.44379796782023
 31
0.0
  0
LINE
  5
184
330
6C
100
AcDbEntity
  8
Visible (ANSI)
100
AcDbLine
 10
27.42700743317448
 20
33.66179796782024
 30
0.0
 11
27.42700743317448
 21
32.44399796782023
 31
0.0
  0
LINE
  5
185
330
6C
100
AcDbEntity
  8
Visible (ANSI)
100
AcDbLine
 10
13.72700743317447
 20
34.16179796782023
 30
0.0
 11
26.92700743317448
 21
34.16179796782023
 31
0.0
  0
LINE
  5
186
330
6C
100
AcDbEntity
  8
Visible (ANSI)
100
AcDbLine
 10
13.22700743317448
 20
32.44399796782023
 30
0.0
 11
13.22700743317448
 21
33.66179796782023
 31
0.0
  0
LINE
  5
187
330
6C
100
AcDbEntity
  8
Visible (ANSI)
100
AcDbLine
 10
13.22700743317448
 20
12.46179796782023
 30
0.0
 11
13.22700743317448
 21
13.67959796782023
 31
0.0
  0
LINE
  5
188
330
6C
100
AcDbEntity
  8
Visible (ANSI)
100
AcDbLine
 10
26.92700743317448
 20
11.96179796782023
 30
0.0
 11
13.72700743317448
 21
11.96179796782023
 31
0.0
  0
LINE
  5
189
330
6C
100
AcDbEntity
  8
Visible (ANSI)
100
AcDbLine
 10
27.42700743317448
 20
13.67959796782022
 30
0.0
 11
27.42700743317448
 21
12.46179796782023
 31
0.0
  0
LINE
  5
18A
330
6C
100
AcDbEntity
  8
Visible (ANSI)
100
AcDbLine
 10
26.92700743317448
 20
34.16179796782023
 30
0.0
 11
27.42700743317448
 21
33.66179796782024
 31
0.0
  0
LINE
  5
18B
330
6C
100
AcDbEntity
  8
Visible (ANSI)
100
AcDbLine
 10
13.22700743317448
 20
33.66179796782023
 30
0.0
 11
13.72700743317447
 21
34.16179796782023
 31
0.0
  0
LINE
  5
18C
330
6C
100
AcDbEntity
  8
Visible (ANSI)
100
AcDbLine
 10
13.22700743317448
 20
32.44399796782023
 30
0.0
 11
13.33655743317447
 21
32.44399796782023
 31
0.0
  0
LINE
  5
18D
330
6C
100
AcDbEntity
  8
Visible (ANSI)
100
AcDbLine
 10
13.33655743317447
 20
32.44399796782023
 30
0.0
 11
13.33655743317447
 21
32.44379796782022
 31
0.0
  0
LINE
  5
18E
330
6C
100
AcDbEntity
  8
Visible (ANSI)
100
AcDbLine
 10
13.33655743317447
 20
13.67979796782023
 30
0.0
 11
13.33655743317447
 21
13.67959796782023
 31
0.0
  0
LINE
  5
18F
330
6C
100
AcDbEntity
  8
Visible (ANSI)
100
AcDbLine
 10
13.33655743317447
 20
13.67959796782023
 30
0.0
 11
13.22700743317448
 21
13.67959796782023
 31
0.0
  0
LINE
  5
190
330
6C
100
AcDbEntity
  8
Visible (ANSI)
100
AcDbLine
 10
13.22700743317448
 20
32.44379796782022
 30
0.0
 11
13.22700743317448
 21
13.67979796782023
 31
0.0
  0
LINE
  5
191
330
6C
100
AcDbEntity
  8
Visible (ANSI)
100
AcDbLine
 10
13.22700743317448
 20
32.44379796782022
 30
0.0
 11
13.33635743317447
 21
32.44379796782022
 31
0.0
  0
LINE
  5
192
330
6C
100
AcDbEntity
  8
Visible (ANSI)
100
AcDbLine
 10
13.22700743317448
 20
13.67979796782023
 30
0.0
 11
13.33635743317447
 21
13.67979796782023
 31
0.0
  0
LINE
  5
193
330
6C
100
AcDbEntity
  8
Hidden (ANSI)
 48
1.080701231956481
100
AcDbLine
 10
13.32075743317449
 20
13.67979796782023
 30
0.0
 11
13.32075743317448
 21
32.44379796782022
 31
0.0
  0
LINE
  5
194
330
6C
100
AcDbEntity
  8
Visible (ANSI)
100
AcDbLine
 10
13.33655743317447
 20
32.44379796782022
 30
0.0
 11
13.33635743317447
 21
32.44379796782022
 31
0.0
  0
LINE
  5
195
330
6C
100
AcDbEntity
  8
Visible (ANSI)
100
AcDbLine
 10
13.33635743317447
 20
13.67979796782023
 30
0.0
 11
13.33655743317447
 21
13.67979796782023
 31
0.0
  0
LINE
  5
196
330
6C
100
AcDbEntity
  8
Visible (ANSI)
100
AcDbLine
 10
13.72700743317448
 20
11.96179796782023
 30
0.0
 11
13.22700743317448
 21
12.46179796782023
 31
0.0
  0
LINE
  5
197
330
6C
100
AcDbEntity
  8
Visible (ANSI)
100
AcDbLine
 10
27.42700743317448
 20
12.46179796782023
 30
0.0
 11
26.92700743317448
 21
11.96179796782023
 31
0.0
  0
CIRCLE
  5
198
330
6C
100
AcDbEntity
  8
Visible (ANSI)
100
AcDbCircle
 10
26.90700743317449
 20
33.64179796782023
 30
0.0
 40
0.25
  0
CIRCLE
  5
199
330
6C
100
AcDbEntity
  8
Visible (ANSI)
100
AcDbCircle
 10
13.74700743317448
 20
33.64179796782023
 30
0.0
 40
0.25
  0
CIRCLE
  5
19A
330
6C
100
AcDbEntity
  8
Visible (ANSI)
100
AcDbCircle
 10
13.74700743317448
 20
12.48179796782023
 30
0.0
 40
0.25
  0
CIRCLE
  5
19B
330
6C
100
AcDbEntity
  8
Visible (ANSI)
100
AcDbCircle
 10
26.90700743317449
 20
12.48179796782023
 30
0.0
 40
0.25
  0
CIRCLE
  5
19C
330
6C
100
AcDbEntity
  8
Visible (ANSI)
100
AcDbCircle
 10
26.90700743317449
 20
32.89179796782023
 30
0.0
 40
0.15625
  0
CIRCLE
  5
19D
330
6C
100
AcDbEntity
  8
Visible (ANSI)
100
AcDbCircle
 10
13.74700743317448
 20
32.89179796782022
 30
0.0
 40
0.15625
  0
CIRCLE
  5
19E
330
6C
100
AcDbEntity
  8
Visible (ANSI)
100
AcDbCircle
 10
13.74700743317448
 20
13.23179796782023
 30
0.0
 40
0.15625
  0
CIRCLE
  5
19F
330
6C
100
AcDbEntity
  8
Visible (ANSI)
100
AcDbCircle
 10
26.90700743317449
 20
13.23179796782023
 30
0.0
 40
0.15625
  0
LINE
  5
1A0
330
6C
100
AcDbEntity
  8
Visible (ANSI)
100
AcDbLine
 10
42.78540812948639
 20
13.67979796782022
 30
0.0
 11
43.45005812948638
 21
13.67979796782022
 31
0.0
  0
LINE
  5
1A1
330
6C
100
AcDbEntity
  8
Visible (ANSI)
100
AcDbLine
 10
43.45005812948638
 20
32.44379796782023
 30
0.0
 11
43.45005812948638
 21
13.67979796782022
 31
0.0
  0
LINE
  5
1A2
330
6C
100
AcDbEntity
  8
Visible (ANSI)
100
AcDbLine
 10
43.45005812948638
 20
32.44379796782023
 30
0.0
 11
42.78540812948639
 21
32.44379796782023
 31
0.0
  0
LINE
  5
1A3
330
6C
100
AcDbEntity
  8
Visible (ANSI)
100
AcDbLine
 10
42.78540812948639
 20
13.67979796782022
 30
0.0
 11
42.67605812948635
 21
13.67979796782022
 31
0.0
  0
LINE
  5
1A4
330
6C
100
AcDbEntity
  8
Visible (ANSI)
100
AcDbLine
 10
42.78540812948639
 20
32.44379796782023
 30
0.0
 11
42.67605812948635
 21
32.44379796782023
 31
0.0
  0
LINE
  5
1A5
330
6C
100
AcDbEntity
  8
Visible (ANSI)
100
AcDbLine
 10
42.67605812948636
 20
13.67979796782022
 30
0.0
 11
42.67605812948636
 21
32.44379796782023
 31
0.0
  0
LINE
  5
1A6
330
6C
100
AcDbEntity
  8
Visible (ANSI)
100
AcDbLine
 10
42.67605812948638
 20
32.44399796782023
 30
0.0
 11
42.76980812948639
 21
32.44399796782023
 31
0.0
  0
LINE
  5
1A7
330
6C
100
AcDbEntity
  8
Visible (ANSI)
100
AcDbLine
 10
42.76980812948635
 20
32.44399796782023
 30
0.0
 11
42.76980812948635
 21
32.44379796782023
 31
0.0
  0
LINE
  5
1A8
330
6C
100
AcDbEntity
  8
Visible (ANSI)
100
AcDbLine
 10
42.67605812948636
 20
32.44379796782023
 30
0.0
 11
42.67605812948636
 21
32.44399796782023
 31
0.0
  0
LINE
  5
1A9
330
6C
100
AcDbEntity
  8
Visible (ANSI)
100
AcDbLine
 10
42.76980812948635
 20
13.67979796782022
 30
0.0
 11
42.76980812948635
 21
13.67959796782022
 31
0.0
  0
LINE
  5
1AA
330
6C
100
AcDbEntity
  8
Visible (ANSI)
100
AcDbLine
 10
42.67605812948636
 20
13.67959796782022
 30
0.0
 11
42.67605812948636
 21
13.67979796782022
 31
0.0
  0
LINE
  5
1AB
330
6C
100
AcDbEntity
  8
Visible (ANSI)
100
AcDbLine
 10
42.76980812948639
 20
13.67959796782022
 30
0.0
 11
42.67605812948638
 21
13.67959796782022
 31
0.0
  0
LINE
  5
1AC
330
6C
100
AcDbEntity
  8
Hidden (ANSI)
 48
1.080701231956481
100
AcDbLine
 10
42.76980812948635
 20
32.44379796782023
 30
0.0
 11
42.76980812948635
 21
13.67979796782022
 31
0.0
  0
LINE
  5
1AD
330
6C
100
AcDbEntity
  8
Visible (ANSI)
100
AcDbLine
 10
42.76980812948639
 20
12.46179796782023
 30
0.0
 11
42.76980812948639
 21
13.67959796782022
 31
0.0
  0
LINE
  5
1AE
330
6C
100
AcDbEntity
  8
Visible (ANSI)
100
AcDbLine
 10
42.76980812948639
 20
32.44399796782023
 30
0.0
 11
42.76980812948639
 21
33.66179796782024
 31
0.0
  0
LINE
  5
1AF
330
6C
100
AcDbEntity
  8
Visible (ANSI)
100
AcDbLine
 10
42.67605812948638
 20
33.66179796782024
 30
0.0
 11
42.67605812948638
 21
32.44399796782023
 31
0.0
  0
LINE
  5
1B0
330
6C
100
AcDbEntity
  8
Visible (ANSI)
100
AcDbLine
 10
42.67605812948638
 20
13.67959796782022
 30
0.0
 11
42.67605812948638
 21
12.46179796782023
 31
0.0
  0
LINE
  5
1B1
330
6C
100
AcDbEntity
  8
Visible (ANSI)
100
AcDbLine
 10
42.76980812948623
 20
11.96179796782023
 30
0.0
 11
42.76980812948639
 21
12.46179796782023
 31
0.0
  0
LINE
  5
1B2
330
6C
100
AcDbEntity
  8
Visible (ANSI)
100
AcDbLine
 10
42.67605812948638
 20
12.46179796782023
 30
0.0
 11
42.67605812948623
 21
11.96179796782023
 31
0.0
  0
LINE
  5
1B3
330
6C
100
AcDbEntity
  8
Visible (ANSI)
100
AcDbLine
 10
42.67605812948623
 20
11.96179796782023
 30
0.0
 11
42.76980812948623
 21
11.96179796782023
 31
0.0
  0
LINE
  5
1B4
330
6C
100
AcDbEntity
  8
Visible (ANSI)
100
AcDbLine
 10
42.76980812948639
 20
12.46179796782023
 30
0.0
 11
42.67605812948638
 21
12.46179796782023
 31
0.0
  0
LINE
  5
1B5
330
6C
100
AcDbEntity
  8
Visible (ANSI)
100
AcDbLine
 10
42.76980812948639
 20
33.66179796782024
 30
0.0
 11
42.76980812948623
 21
34.16179796782023
 31
0.0
  0
LINE
  5
1B6
330
6C
100
AcDbEntity
  8
Visible (ANSI)
100
AcDbLine
 10
42.67605812948623
 20
34.16179796782023
 30
0.0
 11
42.67605812948638
 21
33.66179796782024
 31
0.0
  0
LINE
  5
1B7
330
6C
100
AcDbEntity
  8
Visible (ANSI)
100
AcDbLine
 10
42.67605812948638
 20
33.66179796782024
 30
0.0
 11
42.76980812948639
 21
33.66179796782024
 31
0.0
  0
LINE
  5
1B8
330
6C
100
AcDbEntity
  8
Visible (ANSI)
100
AcDbLine
 10
42.76980812948623
 20
34.16179796782023
 30
0.0
 11
42.67605812948623
 21
34.16179796782023
 31
0.0
  0
LINE
  5
1B9
330
6C
100
AcDbEntity
  8
Hidden (ANSI)
 48
0.0445413254201412
100
AcDbLine
 10
42.67605812948623
 20
33.89179796782024
 30
0.0
 11
42.76980812948623
 21
33.89179796782024
 31
0.0
  0
LINE
  5
1BA
330
6C
100
AcDbEntity
  8
Hidden (ANSI)
 48
0.0445413254201412
100
AcDbLine
 10
42.67605812948623
 20
33.39179796782023
 30
0.0
 11
42.76980812948623
 21
33.39179796782023
 31
0.0
  0
LINE
  5
1BB
330
6C
100
AcDbEntity
  8
Hidden (ANSI)
 48
0.0445413254201412
100
AcDbLine
 10
42.67605812948623
 20
12.73179796782023
 30
0.0
 11
42.76980812948623
 21
12.73179796782023
 31
0.0
  0
LINE
  5
1BC
330
6C
100
AcDbEntity
  8
Hidden (ANSI)
 48
0.0445413254201412
100
AcDbLine
 10
42.67605812948623
 20
12.23179796782023
 30
0.0
 11
42.76980812948623
 21
12.23179796782023
 31
0.0
  0
LINE
  5
1BD
330
6C
100
AcDbEntity
  8
Hidden (ANSI)
 48
0.0445413254201412
100
AcDbLine
 10
42.67605812948623
 20
33.04804796782024
 30
0.0
 11
42.76980812948623
 21
33.04804796782024
 31
0.0
  0
LINE
  5
1BE
330
6C
100
AcDbEntity
  8
Hidden (ANSI)
 48
0.0445413254201412
100
AcDbLine
 10
42.67605812948623
 20
32.73554796782023
 30
0.0
 11
42.76980812948623
 21
32.73554796782023
 31
0.0
  0
LINE
  5
1BF
330
6C
100
AcDbEntity
  8
Hidden (ANSI)
 48
0.0445413254201412
100
AcDbLine
 10
42.67605812948623
 20
13.38804796782023
 30
0.0
 11
42.76980812948623
 21
13.38804796782023
 31
0.0
  0
LINE
  5
1C0
330
6C
100
AcDbEntity
  8
Hidden (ANSI)
 48
0.0445413254201412
100
AcDbLine
 10
42.67605812948623
 20
13.07554796782023
 30
0.0
 11
42.76980812948623
 21
13.07554796782023
 31
0.0
  0
LINE
  5
1C1
330
6C
100
AcDbEntity
  8
Visible Narrow (ANSI)
100
AcDbLine
 10
63.60855433607062
 20
22.91688739771824
 30
0.0
 11
63.60855433607063
 21
34.42222808562736
 31
0.0
  0
ELLIPSE
  5
1C2
330
6C
100
AcDbEntity
  8
Visible (ANSI)
100
AcDbEllipse
 10
63.55056274117854
 20
22.95028253619563
 30
0.0
 11
0.0820125000000022
 21
0.0000000000000048
 31
0.0
210
0.0
220
0.0
230
1.0
 40
0.575861700985307
 41
3.926990816987242
 42
5.497787143782069
  0
LINE
  5
1C3
330
6C
100
AcDbEntity
  8
Visible (ANSI)
100
AcDbLine
 10
63.49246508026932
 20
34.42228916498442
 30
0.0
 11
63.49257155728326
 21
34.42235048101878
 31
0.0
  0
ELLIPSE
  5
1C4
330
6C
100
AcDbEntity
  8
Visible (ANSI)
100
AcDbEllipse
 10
63.55056274117857
 20
34.45562322410476
 30
0.0
 11
0.0820125000000279
 21
0.0000000000000048
 31
0.0
210
0.0
220
0.0
230
1.0
 40
0.5758617009853071
 41
3.926990816987217
 42
3.987598387465013
  0
ELLIPSE
  5
1C5
330
6C
100
AcDbEntity
  8
Visible (ANSI)
100
AcDbEllipse
 10
63.55056274117815
 20
34.45562322410501
 30
0.0
 11
0.0820125000006106
 21
-0.0000000000000001
 31
0.0
210
0.0
220
0.0
230
1.0
 40
0.5758617009853071
 41
5.36370066238374
 42
5.497787143781862
  0
LINE
  5
1C6
330
6C
100
AcDbEntity
  8
Visible Narrow (ANSI)
100
AcDbLine
 10
63.49257114628649
 20
22.91688739771823
 30
0.0
 11
63.49257114628651
 21
34.42222808562735
 31
0.0
  0
LINE
  5
1C7
330
6C
100
AcDbEntity
  8
Visible (ANSI)
100
AcDbLine
 10
63.55056274117857
 20
34.38895557921868
 30
0.0
 11
63.60028118673074
 21
34.41758652784471
 31
0.0
  0
LINE
  5
1C8
330
6C
100
AcDbEntity
  8
Visible (ANSI)
100
AcDbLine
 10
63.49246508026932
 20
34.42241179705315
 30
0.0
 11
63.55056274117857
 21
34.38895557921868
 31
0.0
  0
LINE
  5
1C9
330
6C
100
AcDbEntity
  8
Visible (ANSI)
100
AcDbLine
 10
63.49246508026932
 20
34.42228916498442
 30
0.0
 11
63.49246508026932
 21
34.42241179705315
 31
0.0
  0
LINE
  5
1CA
330
6C
100
AcDbEntity
  8
Visible (ANSI)
100
AcDbLine
 10
63.49246508026931
 20
22.91682584500657
 30
0.0
 11
63.49246508026931
 21
22.9169484770753
 31
0.0
  0
LINE
  5
1CB
330
6C
100
AcDbEntity
  8
Visible (ANSI)
100
AcDbLine
 10
63.49246508026931
 20
22.91682584500657
 30
0.0
 11
63.49257155728471
 21
22.91688716104178
 31
0.0
  0
LINE
  5
1CC
330
6C
100
AcDbEntity
  8
Visible (ANSI)
100
AcDbLine
 10
63.5995660995876
 20
22.91241236709674
 30
0.0
 11
63.60028118673073
 21
22.91200057579815
 31
0.0
  0
LINE
  5
1CD
330
6C
100
AcDbEntity
  8
Visible (ANSI)
100
AcDbLine
 10
63.55056274117856
 20
22.88336962717212
 30
0.0
 11
63.49246508026931
 21
22.91682584500657
 31
0.0
  0
LINE
  5
1CE
330
6C
100
AcDbEntity
  8
Visible (ANSI)
100
AcDbLine
 10
63.60028118673073
 20
22.91200057579815
 30
0.0
 11
63.55056274117856
 21
22.88336962717212
 31
0.0
  0
LINE
  5
1CF
330
6C
100
AcDbEntity
  8
Visible (ANSI)
100
AcDbLine
 10
63.60855433607062
 20
22.91688739771824
 30
0.0
 11
63.96103822765729
 21
23.11986937109733
 31
0.0
  0
LINE
  5
1D0
330
6C
100
AcDbEntity
  8
Visible (ANSI)
100
AcDbLine
 10
63.96103822765731
 20
34.62521005900644
 30
0.0
 11
63.96103822765729
 21
23.11986937109733
 31
0.0
  0
LINE
  5
1D1
330
6C
100
AcDbEntity
  8
Visible (ANSI)
100
AcDbLine
 10
63.96103822765731
 20
34.62521005900644
 30
0.0
 11
63.60855433607063
 21
34.42222808562736
 31
0.0
  0
LINE
  5
1D2
330
6C
100
AcDbEntity
  8
Visible (ANSI)
100
AcDbLine
 10
63.49246508026931
 20
22.9169484770753
 30
0.0
 11
63.49257114628649
 21
22.91688739771823
 31
0.0
  0
LINE
  5
1D3
330
6C
100
AcDbEntity
  8
Visible (ANSI)
100
AcDbLine
 10
63.91131978210511
 20
34.65384100763246
 30
0.0
 11
63.96103822765731
 21
34.62521005900644
 31
0.0
  0
LINE
  5
1D4
330
6C
100
AcDbEntity
  8
Visible (ANSI)
100
AcDbLine
 10
63.60028118673074
 20
34.47472579302804
 30
0.0
 11
63.91131978210511
 21
34.65384100763246
 31
0.0
  0
LINE
  5
1D5
330
6C
100
AcDbEntity
  8
Visible (ANSI)
100
AcDbLine
 10
63.49257114628651
 20
34.42222808562735
 30
0.0
 11
63.49246508026932
 21
34.42228916498442
 31
0.0
  0
ELLIPSE
  5
1D6
330
6C
100
AcDbEntity
  8
Visible (ANSI)
100
AcDbEllipse
 10
63.32450954206795
 20
35.310836315826
 30
0.0
 11
-0.0935685396720749
 21
0.1624843942772208
 31
0.0
210
0.0
220
0.0
230
1.0
 40
0.5780931159158121
 41
0.2678448778125038
 42
2.873747775777225
  0
ELLIPSE
  5
1D7
330
6C
100
AcDbEntity
  8
Visible (ANSI)
100
AcDbEllipse
 10
56.34536561175571
 20
39.32985801095572
 30
0.0
 11
-0.0935685396720754
 21
0.1624843942772216
 31
0.0
210
0.0
220
0.0
230
1.0
 40
0.5780931159158121
 41
0.2678448778125031
 42
2.873747775777225
  0
ELLIPSE
  5
1D8
330
6C
100
AcDbEntity
  8
Visible (ANSI)
100
AcDbEllipse
 10
56.34536561175569
 20
26.35538513970456
 30
0.0
 11
-0.0935685396720749
 21
0.1624843942772208
 31
0.0
210
0.0
220
0.0
230
1.0
 40
0.578093115915812
 41
0.2678448778125038
 42
2.873747775777225
  0
ELLIPSE
  5
1D9
330
6C
100
AcDbEntity
  8
Visible (ANSI)
100
AcDbEllipse
 10
63.32450954206794
 20
22.33636344457484
 30
0.0
 11
-0.0935685396720751
 21
0.1624843942772211
 31
0.0
210
0.0
220
0.0
230
1.0
 40
0.578093115915812
 41
0.2678448778125189
 42
2.873747775777233
  0
ELLIPSE
  5
1DA
330
6C
100
AcDbEntity
  8
Visible (ANSI)
100
AcDbEllipse
 10
63.32450954206795
 20
34.85096605810207
 30
0.0
 11
0.0584803372950525
 21
-0.1015527464232587
 31
0.0
210
0.0
220
0.0
230
1.0
 40
0.5780931159158121
 41
3.578838513251685
 42
5.845939447517012
  0
ELLIPSE
  5
1DB
330
6C
100
AcDbEntity
  8
Visible (ANSI)
100
AcDbEllipse
 10
56.34536561175571
 20
38.86998775323178
 30
0.0
 11
0.058480337295053
 21
-0.1015527464232596
 31
0.0
210
0.0
220
0.0
230
1.0
 40
0.578093115915812
 41
3.578838513251628
 42
5.845939447517012
  0
ELLIPSE
  5
1DC
330
6C
100
AcDbEntity
  8
Visible (ANSI)
100
AcDbEllipse
 10
56.34536561175569
 20
26.81525539742849
 30
0.0
 11
0.0584803372950529
 21
-0.1015527464232595
 31
0.0
210
0.0
220
0.0
230
0.9999999999999998
 40
0.5780931159158121
 41
3.578838513251628
 42
5.845939447517012
  0
ELLIPSE
  5
1DD
330
6C
100
AcDbEntity
  8
Visible (ANSI)
100
AcDbEllipse
 10
63.32450954206794
 20
22.79623370229877
 30
0.0
 11
0.0584803372950528
 21
-0.1015527464232594
 31
0.0
210
0.0
220
0.0
230
1.0
 40
0.5780931159158122
 41
3.578838513251657
 42
5.845939447517022
  0
ELLIPSE
  5
1DE
330
6C
100
AcDbEntity
  8
Visible (ANSI)
100
AcDbEllipse
 10
63.27479109651578
 20
35.28220536719997
 30
0.0
 11
-0.0935685396720749
 21
0.1624843942772208
 31
0.0
210
0.0
220
0.0
230
1.0
 40
0.5780931159158122
 41
0.0
 42
6.283185307179586
  0
ELLIPSE
  5
1DF
330
6C
100
AcDbEntity
  8
Visible (ANSI)
100
AcDbEllipse
 10
56.29564716620354
 20
39.30122706232969
 30
0.0
 11
-0.0935685396720749
 21
0.1624843942772208
 31
0.0
210
0.0
220
0.0
230
1.0
 40
0.5780931159158122
 41
0.0
 42
6.283185307179586
  0
ELLIPSE
  5
1E0
330
6C
100
AcDbEntity
  8
Visible (ANSI)
100
AcDbEllipse
 10
56.29564716620353
 20
26.32675419107853
 30
0.0
 11
-0.0935685396720749
 21
0.1624843942772208
 31
0.0
210
0.0
220
0.0
230
1.0
 40
0.5780931159158122
 41
0.0
 42
6.283185307179586
  0
ELLIPSE
  5
1E1
330
6C
100
AcDbEntity
  8
Visible (ANSI)
100
AcDbEllipse
 10
63.27479109651577
 20
22.30773249594881
 30
0.0
 11
-0.0935685396720749
 21
0.1624843942772208
 31
0.0
210
0.0
220
0.0
230
1.0
 40
0.5780931159158122
 41
0.0
 42
6.283185307179586
  0
ELLIPSE
  5
1E2
330
6C
100
AcDbEntity
  8
Visible (ANSI)
100
AcDbEllipse
 10
63.27479109651578
 20
34.82233510947605
 30
0.0
 11
-0.0584803372950468
 21
0.101552746423263
 31
0.0
210
0.0
220
0.0
230
1.0
 40
0.5780931159158122
 41
0.0
 42
6.283185307179586
  0
ELLIPSE
  5
1E3
330
6C
100
AcDbEntity
  8
Visible (ANSI)
100
AcDbEllipse
 10
56.29564716620354
 20
38.84135680460576
 30
0.0
 11
-0.0584803372950468
 21
0.101552746423263
 31
0.0
210
0.0
220
0.0
230
1.0
 40
0.5780931159158122
 41
0.0
 42
6.283185307179586
  0
ELLIPSE
  5
1E4
330
6C
100
AcDbEntity
  8
Visible (ANSI)
100
AcDbEllipse
 10
56.29564716620353
 20
26.78662444880246
 30
0.0
 11
-0.0584803372950468
 21
0.101552746423263
 31
0.0
210
0.0
220
0.0
230
1.0
 40
0.5780931159158122
 41
0.0
 42
6.283185307179586
  0
ELLIPSE
  5
1E5
330
6C
100
AcDbEntity
  8
Visible (ANSI)
100
AcDbEllipse
 10
63.27479109651577
 20
22.76760275367274
 30
0.0
 11
-0.0584803372950468
 21
0.101552746423263
 31
0.0
210
0.0
220
0.0
230
1.0
 40
0.5780931159158122
 41
0.0
 42
6.283185307179586
  0
LINE
  5
1E6
330
6C
100
AcDbEntity
  8
Visible (ANSI)
100
AcDbLine
 10
63.60028118673073
 20
22.16529390932322
 30
0.0
 11
63.60028118673073
 21
22.91200057579815
 31
0.0
  0
LINE
  5
1E7
330
6C
100
AcDbEntity
  8
Visible (ANSI)
100
AcDbLine
 10
63.33511614378575
 20
35.6235717588077
 30
0.0
 11
56.33475901003791
 21
39.6548093253512
 31
0.0
  0
LINE
  5
1E8
330
6C
100
AcDbEntity
  8
Visible (ANSI)
100
AcDbLine
 10
63.60028118673074
 20
34.41758652784471
 30
0.0
 11
63.60028118673074
 21
35.16429319431965
 31
0.0
  0
LINE
  5
1E9
330
6C
100
AcDbEntity
  8
Visible (ANSI)
100
AcDbLine
 10
63.55056274117857
 20
35.13566224569363
 30
0.0
 11
63.55056274117857
 21
34.38895557921868
 31
0.0
  0
LINE
  5
1EA
330
6C
100
AcDbEntity
  8
Visible (ANSI)
100
AcDbLine
 10
56.28504056448573
 20
39.62617837672516
 30
0.0
 11
63.28539769823358
 21
35.59494081018168
 31
0.0
  0
LINE
  5
1EB
330
6C
100
AcDbEntity
  8
Visible (ANSI)
100
AcDbLine
 10
56.01987552154074
 20
38.72558993110638
 30
0.0
 11
56.01987552154074
 21
39.47229659758131
 31
0.0
  0
LINE
  5
1EC
330
6C
100
AcDbEntity
  8
Visible (ANSI)
100
AcDbLine
 10
56.01987552154073
 20
26.47329731258488
 30
0.0
 11
56.01987552154073
 21
27.22000397905981
 31
0.0
  0
LINE
  5
1ED
330
6C
100
AcDbEntity
  8
Visible (ANSI)
100
AcDbLine
 10
63.28539769823357
 20
21.98278118155334
 30
0.0
 11
56.28504056448572
 21
26.01401874809682
 31
0.0
  0
LINE
  5
1EE
330
6C
100
AcDbEntity
  8
Visible (ANSI)
100
AcDbLine
 10
63.55056274117856
 20
22.88336962717212
 30
0.0
 11
63.55056274117855
 21
22.13666296069719
 31
0.0
  0
LINE
  5
1EF
330
6C
100
AcDbEntity
  8
Visible (ANSI)
100
AcDbLine
 10
63.33511614378573
 20
22.01141213017936
 30
0.0
 11
63.60028118673073
 21
22.16529390932322
 31
0.0
  0
LINE
  5
1F0
330
6C
100
AcDbEntity
  8
Visible (ANSI)
100
AcDbLine
 10
63.55056274117855
 20
22.13666296069719
 30
0.0
 11
63.28539769823357
 21
21.98278118155334
 31
0.0
  0
LINE
  5
1F1
330
6C
100
AcDbEntity
  8
Visible (ANSI)
100
AcDbLine
 10
63.28539769823357
 20
21.98278118155334
 30
0.0
 11
63.33511614378573
 21
22.01141213017936
 31
0.0
  0
LINE
  5
1F2
330
6C
100
AcDbEntity
  8
Visible (ANSI)
100
AcDbLine
 10
63.60028118673073
 20
22.16529390932322
 30
0.0
 11
63.55056274117855
 21
22.13666296069719
 31
0.0
  0
LINE
  5
1F3
330
6C
100
AcDbEntity
  8
Visible (ANSI)
100
AcDbLine
 10
63.60028118673074
 20
35.16429319431965
 30
0.0
 11
63.33511614378575
 21
35.6235717588077
 31
0.0
  0
LINE
  5
1F4
330
6C
100
AcDbEntity
  8
Visible (ANSI)
100
AcDbLine
 10
63.28539769823358
 20
35.59494081018168
 30
0.0
 11
63.55056274117857
 21
35.13566224569363
 31
0.0
  0
LINE
  5
1F5
330
6C
100
AcDbEntity
  8
Visible (ANSI)
100
AcDbLine
 10
63.55056274117857
 20
35.13566224569363
 30
0.0
 11
63.60028118673074
 21
35.16429319431965
 31
0.0
  0
LINE
  5
1F6
330
6C
100
AcDbEntity
  8
Visible (ANSI)
100
AcDbLine
 10
63.33511614378575
 20
35.6235717588077
 30
0.0
 11
63.28539769823358
 21
35.59494081018168
 31
0.0
  0
LINE
  5
1F7
330
6C
100
AcDbEntity
  8
Visible (ANSI)
100
AcDbLine
 10
56.01987552154074
 20
39.47229659758131
 30
0.0
 11
56.28504056448573
 21
39.62617837672516
 31
0.0
  0
LINE
  5
1F8
330
6C
100
AcDbEntity
  8
Visible (ANSI)
100
AcDbLine
 10
56.28504056448573
 20
39.62617837672516
 30
0.0
 11
56.33475901003791
 21
39.6548093253512
 31
0.0
  0
LINE
  5
1F9
330
6C
100
AcDbEntity
  8
Visible (ANSI)
100
AcDbLine
 10
56.01987552154074
 20
38.72558993110638
 30
0.0
 11
56.07797318244998
 21
38.69213371327192
 31
0.0
  0
LINE
  5
1FA
330
6C
100
AcDbEntity
  8
Visible (ANSI)
100
AcDbLine
 10
56.07797318244998
 20
38.69213371327192
 30
0.0
 11
56.07797318244998
 21
38.69201108120319
 31
0.0
  0
LINE
  5
1FB
330
6C
100
AcDbEntity
  8
Visible Narrow (ANSI)
100
AcDbLine
 10
56.07786711643281
 20
38.69207216056026
 30
0.0
 11
56.07786711643279
 21
27.18673147265116
 31
0.0
  0
LINE
  5
1FC
330
6C
100
AcDbEntity
  8
Visible (ANSI)
100
AcDbLine
 10
56.07797318244998
 20
27.18667039329409
 30
0.0
 11
56.07797318244998
 21
27.18654776122536
 31
0.0
  0
LINE
  5
1FD
330
6C
100
AcDbEntity
  8
Visible (ANSI)
100
AcDbLine
 10
56.07797318244998
 20
27.18654776122536
 30
0.0
 11
56.01987552154073
 21
27.22000397905981
 31
0.0
  0
ELLIPSE
  5
1FE
330
6C
100
AcDbEntity
  8
Visible (ANSI)
100
AcDbEllipse
 10
56.13585871132485
 20
38.72546729903765
 30
0.0
 11
-0.0820124999999793
 21
0.0000000000000001
 31
0.0
210
0.0
220
0.0
230
1.0
 40
0.575861700985307
 41
0.7247905929197636
 42
0.7853981633974545
  0
ELLIPSE
  5
1FF
330
6C
100
AcDbEntity
  8
Visible (ANSI)
100
AcDbEllipse
 10
56.13585871132485
 20
27.22012661112855
 30
0.0
 11
-0.0820124999999999
 21
0.000000000000002
 31
0.0
210
0.0
220
0.0
230
1.0
 40
0.5758617009852966
 41
0.0
 42
0.7853981633974776
  0
LINE
  5
200
330
6C
100
AcDbEntity
  8
Visible (ANSI)
100
AcDbLine
 10
56.01987552154073
 20
27.22000397905981
 30
0.0
 11
56.05384621132485
 21
27.23956639826255
 31
0.0
  0
LINE
  5
201
330
6C
100
AcDbEntity
  8
Visible (ANSI)
100
AcDbLine
 10
56.05384621132486
 20
38.70602751190364
 30
0.0
 11
56.05384621132485
 21
27.22012661112855
 31
0.0
  0
LINE
  5
202
330
6C
100
AcDbEntity
  8
Visible (ANSI)
100
AcDbLine
 10
56.07797318244998
 20
38.69201108120319
 30
0.0
 11
56.07786711643281
 21
38.69207216056026
 31
0.0
  0
LINE
  5
203
330
6C
100
AcDbEntity
  8
Visible (ANSI)
100
AcDbLine
 10
56.07786711643279
 20
27.18673147265116
 30
0.0
 11
56.07797318244998
 21
27.18667039329409
 31
0.0
  0
LINE
  5
204
330
6C
100
AcDbEntity
  8
Visible (ANSI)
100
AcDbLine
 10
56.27113406894052
 20
38.87015747353042
 30
0.0
 11
56.33275968729176
 21
38.90564530693845
 31
0.0
  0
LINE
  5
205
330
6C
100
AcDbEntity
  8
Visible (ANSI)
100
AcDbLine
 10
56.36022643530274
 20
38.86420045791654
 30
0.0
 11
56.29319348500717
 21
38.82559874913726
 31
0.0
  0
LINE
  5
206
330
6C
100
AcDbEntity
  8
Visible (ANSI)
100
AcDbLine
 10
56.28504056448572
 20
26.01401874809682
 30
0.0
 11
56.01987552154073
 21
26.47329731258488
 31
0.0
  0
DIMENSION
  5
207
330
6C
100
AcDbEntity
  8
Dimension (ANSI)
100
AcDbDimension
  2
*D4
 10
8.214395411795242
 20
34.16179796782023
 30
0.0
 11
8.214395411795237
 21
23.06179796782023
 31
0.0
 70
   160
  1
<>
 42
22.2
  3
Default (ANSI)
100
AcDbAlignedDimension
 13
13.72700743317448
 23
11.96179796782023
 33
0.0
 14
13.72700743317447
 24
34.16179796782023
 34
0.0
 50
90.0
100
AcDbRotatedDimension
1001
ACAD
1000
DSTYLE
1002
{
1070
   289
1070
     1
1070
   271
1070
     2
1070
   272
1070
     2
1070
    48
1040
0.0
1070
    47
1040
0.0
1002
}
  0
DIMENSION
  5
2F4
330
6C
100
AcDbEntity
  8
Dimension (ANSI)
100
AcDbDimension
  2
*D5
 10
27.42700743317448
 20
38.85864836152101
 30
0.0
 11
20.32700743317448
 21
38.85864836152101
 31
0.0
 70
   160
  1
<>
 42
14.2
  3
Default (ANSI)
100
AcDbAlignedDimension
 13
13.22700743317448
 23
33.66179796782023
 33
0.0
 14
27.42700743317448
 24
33.66179796782024
 34
0.0
100
AcDbRotatedDimension
1001
ACAD
1000
DSTYLE
1002
{
1070
   289
1070
     1
1070
    73
1070
     0
1070
    74
1070
     0
1070
   271
1070
     2
1070
   272
1070
     2
1070
    48
1040
0.0
1070
    47
1040
0.0
1002
}
  0
DIMENSION
  5
3DE
330
6C
100
AcDbEntity
  8
Dimension (ANSI)
100
AcDbDimension
  2
*D6
 10
12.51440045653624
 20
13.23179796782023
 30
0.0
 11
11.38480270876503
 21
11.33526597544097
 31
0.0
 70
   160
  1
<>
 42
0.75
  3
Default (ANSI)
100
AcDbAlignedDimension
 13
13.74700743317448
 23
12.48179796782023
 33
0.0
 14
13.74700743317448
 24
13.23179796782023
 34
0.0
 50
90.0
100
AcDbRotatedDimension
1001
ACAD
1000
DSTYLE
1002
{
1070
   289
1070
     1
1070
   271
1070
     2
1070
   272
1070
     2
1070
    48
1040
0.0
1070
    47
1040
0.0
1002
}
  0
DIMENSION
  5
4DC
330
6C
100
AcDbEntity
  8
Dimension (ANSI)
100
AcDbDimension
  2
*D7
 10
35.81887283413252
 20
33.64179796782023
 30
0.0
 11
34.68653499222959
 21
32.49497424121113
 31
0.0
 70
   160
  1
<>
 42
0.5199999999999961
  3
Default (ANSI)
100
AcDbAlignedDimension
 13
26.92700743317448
 23
34.16179796782023
 33
0.0
 14
26.90700743317449
 24
33.64179796782023
 34
0.0
 50
270.0
100
AcDbRotatedDimension
1001
ACAD
1000
DSTYLE
1002
{
1070
   289
1070
     1
1070
   271
1070
     2
1070
   272
1070
     2
1070
    48
1040
0.0
1070
    47
1040
0.0
1002
}
  0
DIMENSION
  5
5DC
330
6C
100
AcDbEntity
  8
Dimension (ANSI)
100
AcDbDimension
  2
*D8
 10
26.90700743317449
 20
36.81140426703283
 30
0.0
 11
29.15904992038653
 21
36.81140426703283
 31
0.0
 70
   160
  1
<>
 42
0.5199999999999961
  3
Default (ANSI)
100
AcDbAlignedDimension
 13
27.42700743317448
 23
33.66179796782024
 33
0.0
 14
26.90700743317449
 24
33.64179796782023
 34
0.0
 50
180.0
100
AcDbRotatedDimension
1001
ACAD
1000
DSTYLE
1002
{
1070
   289
1070
     1
1070
    73
1070
     0
1070
    74
1070
     0
1070
   271
1070
     2
1070
   272
1070
     2
1070
    48
1040
0.0
1070
    47
1040
0.0
1002
}
  0
DIMENSION
  5
6C6
330
6C
100
AcDbEntity
  8
Dimension (ANSI)
100
AcDbDimension
  2
*D9
 10
9.967479874119373
 20
33.64179796782023
 30
0.0
 11
9.967479874119367
 21
27.1007441968445
 31
0.0
 70
   160
  1
<>
 42
21.15999999999999
  3
Default (ANSI)
100
AcDbAlignedDimension
 13
13.74700743317448
 23
12.48179796782023
 33
0.0
 14
13.74700743317448
 24
33.64179796782023
 34
0.0
 50
90.0
100
AcDbRotatedDimension
1001
ACAD
1000
DSTYLE
1002
{
1070
   289
1070
     1
1070
   271
1070
     3
1070
   272
1070
     3
1070
    48
1040
0.0
1070
    47
1040
0.0
1002
}
  0
DIMENSION
  5
7B0
330
6C
100
AcDbEntity
  8
Dimension (ANSI)
100
AcDbDimension
  2
*D10
 10
43.45005812948637
 20
36.52400269222968
 30
0.0
 11
40.94401564227418
 21
36.52400269222968
 31
0.0
 70
   160
  1
<>
 42
0.7740000000001431
  3
Default (ANSI)
100
AcDbAlignedDimension
 13
42.67605812948623
 23
34.16179796782023
 33
0.0
 14
43.45005812948637
 24
32.44379796782023
 34
0.0
 50
180.0
100
AcDbRotatedDimension
1001
ACAD
1000
DSTYLE
1002
{
1070
   289
1070
     1
1070
    73
1070
     0
1070
    74
1070
     0
1070
   271
1070
     2
1070
   272
1070
     2
1070
    48
1040
0.0
1070
    47
1040
0.0
1002
}
  0
MTEXT
  5
89A
102
{ACAD_REACTORS
330
89B
102
}
330
6C
100
AcDbEntity
  8
Symbol (ANSI)
100
AcDbMText
 10
45.11015794055739
 20
26.49772169048806
 30
0.0
 40
0.4800000059323048
 41
1.963176689748688
 71
     1
 72
     1
  1
{12 GA.}
  7
Note Text (ANSI)
 73
     1
 44
1.0
1001
ACAD
1000
MTEXTBEGIN
1070
    73
1070
     1
1070
    44
1040
1.0
1070
    74
1070
     0
1000
MTEXTEND
  0
LEADER
  5
89B
330
6C
100
AcDbEntity
  8
Symbol (ANSI)
100
AcDbLeader
  3
Default (ANSI)$7
 73
     0
 74
     0
 75
     1
 40
0.499341846332532
 41
1.829093373848151
 76
     3
 10
43.45005812948637
 20
24.18987627849206
 30
0.0
 10
44.59047291010455
 20
26.25772168752191
 30
0.0
 10
44.98417368858889
 20
26.25772168752191
 30
0.0
340
89A
213
0.0
223
-0.2400000029661524
233
0.0
1001
ACAD
1000
DSTYLE
1002
{
1070
    77
1070
     0
1002
}
  0
DIMENSION
  5
89C
330
6C
100
AcDbEntity
  8
Dimension (ANSI)
100
AcDbDimension
  2
*D11
 10
28.65574604162679
 20
12.46179796782023
 30
0.0
 11
29.78921215758394
 21
13.60832996019948
 31
0.0
 70
   160
  1
<>
 42
0.5
  3
Default (ANSI)
100
AcDbAlignedDimension
 13
26.92700743317448
 23
11.96179796782023
 33
0.0
 14
27.42700743317448
 24
12.46179796782023
 34
0.0
 50
90.0
100
AcDbRotatedDimension
1001
ACAD
1000
DSTYLE
1002
{
1070
   289
1070
     1
1070
   271
1070
     2
1070
   272
1070
     2
1070
    48
1040
0.0
1070
    47
1040
0.0
1002
}
  0
DIMENSION
  5
99C
330
6C
100
AcDbEntity
  8
Dimension (ANSI)
100
AcDbDimension
  2
*D12
 10
26.92700743317448
 20
9.599593243410783
 30
0.0
 11
25.19496494596244
 21
9.599593243410783
 31
0.0
 70
   160
  1
<>
 42
0.5
  3
Default (ANSI)
100
AcDbAlignedDimension
 13
27.42700743317448
 23
12.46179796782023
 33
0.0
 14
26.92700743317448
 24
11.96179796782023
 34
0.0
 50
180.0
100
AcDbRotatedDimension
1001
ACAD
1000
DSTYLE
1002
{
1070
   289
1070
     1
1070
    73
1070
     0
1070
    74
1070
     0
1070
   271
1070
     2
1070
   272
1070
     2
1070
    48
1040
0.0
1070
    47
1040
0.0
1002
}
  0
DIMENSION
  5
A86
330
6C
100
AcDbEntity
  8
Dimension (ANSI)
100
AcDbDimension
  2
*D13
 10
13.89824774985876
 20
33.44273424282433
 30
0.0
 11
8.409720547614057
 21
37.84683245763029
 31
0.0
 70
   163
  1
<>{\PTYP.(4PL.)}
 71
     3
 42
0.5
  3
Default (ANSI)
100
AcDbDiametricDimension
 15
13.59576711649018
 25
33.84086169281609
 35
0.0
 40
0.0
1001
ACAD_DSTYLE_DIMRADIAL_EXTENSION
1070
   387
1070
     1
1070
   388
1040
0.0
1070
   390
1040
0.0
1001
ACAD
1000
DSTYLE
1002
{
1070
   145
1040
-0.25
1070
   144
1040
0.9999999999999928
1070
   271
1070
     2
1070
   272
1070
     2
1070
    48
1040
0.0
1070
    47
1040
0.0
1002
}
  0
DIMENSION
  5
B40
330
6C
100
AcDbEntity
  8
Dimension (ANSI)
100
AcDbDimension
  2
*D14
 10
13.68487449573264
 20
13.37516309811644
 30
0.0
 11
17.28720579878854
 21
10.24454979378962
 31
0.0
 70
   163
  1
<>{\PTYP. (4PL.)}
 42
0.3125
  3
Default (ANSI)
100
AcDbDiametricDimension
 15
13.80914037061633
 25
13.08843283752402
 35
0.0
 40
0.0
1001
ACAD_DSTYLE_DIMRADIAL_EXTENSION
1070
   387
1070
     1
1070
   388
1040
0.0
1070
   390
1040
0.0
1001
ACAD
1000
DSTYLE
1002
{
1070
   145
1040
-0.25
1070
   144
1040
0.9999999999999886
1070
   271
1070
     2
1070
   272
1070
     2
1070
    48
1040
0.0
1070
    47
1040
0.0
1002
}
  0
DIMENSION
  5
BF9
330
6C
100
AcDbEntity
  8
Dimension (ANSI)
100
AcDbDimension
  2
*D15
 10
13.74700743317448
 20
36.81140426703284
 30
0.0
 11
20.32700743317448
 21
36.81140426703284
 31
0.0
 70
   160
  1
<>
 42
13.16
  3
Default (ANSI)
100
AcDbAlignedDimension
 13
26.90700743317449
 23
33.64179796782023
 33
0.0
 14
13.74700743317448
 24
33.64179796782023
 34
0.0
 50
180.0
100
AcDbRotatedDimension
1001
ACAD
1000
DSTYLE
1002
{
1070
   289
1070
     1
1070
    73
1070
     0
1070
    74
1070
     0
1070
   271
1070
     2
1070
   272
1070
     2
1070
    48
1040
0.0
1070
    47
1040
0.0
1002
}
  0
ENDSEC
  0
SECTION
  2
OBJECTS
  0
DICTIONARY
  5
C
330
0
100
AcDbDictionary
281
     1
  3
ACAD_CIP_PREVIOUS_PRODUCT_INFO
350
CE3
  3
ACAD_COLOR
350
63
  3
ACAD_GROUP
350
D
  3
ACAD_LAYOUT
350
62
  3
ACAD_MATERIAL
350
10
  3
ACAD_MLEADERSTYLE
350
66
  3
ACAD_MLINESTYLE
350
5F
  3
ACAD_PLOTSETTINGS
350
61
  3
ACAD_PLOTSTYLENAME
350
E
  3
ACAD_SCALELIST
350
42
  3
ACAD_TABLESTYLE
350
64
  3
ACAD_VISUALSTYLE
350
29
  3
ACDB_RECOMPOSE_DATA
350
CF1
  3
AcDbVariableDictionary
350
D7
  3
DWGPROPS
350
CF2
  0
DICTIONARY
  5
D2E
330
B3A
100
AcDbDictionary
280
     1
281
     1
  3
ACAD_MTEXT_RT
360
D2F
  0
DICTIONARY
  5
D30
330
BF3
100
AcDbDictionary
280
     1
281
     1
  3
ACAD_MTEXT_RT
360
D31
  0
XRECORD
  5
CE3
102
{ACAD_REACTORS
330
C
102
}
330
C
100
AcDbXrecord
280
     1
300
INVNTOR
300
2012
300
85795PDSP_2012_0F
  0
DICTIONARY
  5
63
102
{ACAD_REACTORS
330
C
102
}
330
C
100
AcDbDictionary
281
     1
  0
DICTIONARY
  5
D
102
{ACAD_REACTORS
330
C
102
}
330
C
100
AcDbDictionary
281
     1
  0
DICTIONARY
  5
62
102
{ACAD_REACTORS
330
C
102
}
330
C
100
AcDbDictionary
281
     1
  3
Layout1
350
6B
  3
Layout2
350
73
  3
Model
350
6F
  0
DICTIONARY
  5
10
102
{ACAD_REACTORS
330
C
102
}
330
C
100
AcDbDictionary
281
     1
  3
ByBlock
350
19
  3
ByLayer
350
11
  3
Global
350
21
  0
DICTIONARY
  5
66
102
{ACAD_REACTORS
330
C
102
}
330
C
100
AcDbDictionary
281
     1
  3
Standard
350
67
  0
DICTIONARY
  5
5F
102
{ACAD_REACTORS
330
C
102
}
330
C
100
AcDbDictionary
281
     1
  3
Standard
350
60
  0
DICTIONARY
  5
61
102
{ACAD_REACTORS
330
C
102
}
330
C
100
AcDbDictionary
281
     1
  0
ACDBDICTIONARYWDFLT
  5
E
102
{ACAD_REACTORS
330
C
102
}
330
C
100
AcDbDictionary
281
     1
  3
Normal
350
F
100
AcDbDictionaryWithDefault
340
F
  0
DICTIONARY
  5
42
102
{ACAD_REACTORS
330
C
102
}
330
C
100
AcDbDictionary
281
     1
  3
A0
350
43
  3
A1
350
44
  3
A2
350
45
  3
A3
350
46
  3
A4
350
47
  3
A5
350
48
  3
A6
350
49
  3
A7
350
4A
  3
A8
350
4B
  3
A9
350
4C
  3
B0
350
4D
  3
B1
350
4E
  3
B2
350
4F
  3
B3
350
50
  3
B4
350
51
  3
B5
350
52
  3
B6
350
53
  0
DICTIONARY
  5
64
102
{ACAD_REACTORS
330
C
102
}
330
C
100
AcDbDictionary
281
     1
  3
Standard
350
65
  0
DICTIONARY
  5
29
102
{ACAD_REACTORS
330
C
102
}
330
C
100
AcDbDictionary
281
     1
  3
2dWireframe
350
2F
  3
Basic
350
2E
  3
Brighten
350
35
  3
ColorChange
350
39
  3
Conceptual
350
32
  3
Dim
350
34
  3
EdgeColorOff
350
41
  3
Facepattern
350
38
  3
Flat
350
2A
  3
FlatWithEdges
350
2B
  3
Gouraud
350
2C
  3
GouraudWithEdges
350
2D
  3
Hidden
350
31
  3
JitterOff
350
3F
  3
Linepattern
350
37
  3
OverhangOff
350
40
  3
Realistic
350
33
  3
Shaded
350
3E
  3
Shaded with edges
350
3D
  3
Shades of Gray
350
3A
  3
Sketchy
350
3B
  3
Thicken
350
36
  3
Wireframe
350
30
  3
X-Ray
350
3C
  0
XRECORD
  5
CF1
102
{ACAD_REACTORS
330
C
102
}
330
C
100
AcDbXrecord
280
     1
 90
        1
330
65
  0
DICTIONARY
  5
D7
102
{ACAD_REACTORS
330
C
102
}
330
C
100
AcDbDictionary
281
     1
  3
CANNOSCALE
350
DA
  3
CMLEADERSTYLE
350
D9
  3
CTABLESTYLE
350
D8
  3
DIMASSOC
350
CEB
  3
HIDETEXT
350
CEA
  3
INDEXCTL
350
CE9
  3
LAYEREVAL
350
CE6
  3
LAYERNOTIFY
350
CE7
  3
LIGHTINGUNITS
350
CE5
  3
MSLTSCALE
350
CE4
  3
SORTENTS
350
CE8
  3
XCLIPFRAME
350
CEC
  0
XRECORD
  5
CF2
102
{ACAD_REACTORS
330
C
102
}
330
C
100
AcDbXrecord
280
     1
  1
DWGPROPS COOKIE
  2

  3

  4
EC
  6

  7

  8

  9
-
300
Manager=
301
Company=
302
Category=
303
Part Number=NP2416C
304
Description=NPC PANEL MASTER VIEW
305
Project=
306
Designer=EC
307
Engineer=
308
Authority=
309
Cost Center=
 40
0.0000370717592593
 41
2455944.479296273
 42
2455944.479296447
  1

 90
       20
300
Vendor=
300
User Status=
300
Design Status=WorkInProgress
300
Checked by=JG
300
Date Checked=02/19/2009
300
Engr Approved by=
300
Mfg Approved by=
300
DWG. NO=
300
NUMBER OF SHEETS=1
300
DRAWING #=1
  0
XRECORD
  5
D2F
102
{ACAD_REACTORS
330
D2E
102
}
330
D2E
100
AcDbXrecord
280
     1
 40
29624.0
  1
\A1;\U+22050.50{\PTYP.(4PL.)}
  0
XRECORD
  5
D31
102
{ACAD_REACTORS
330
D30
102
}
330
D30
100
AcDbXrecord
280
     1
 40
30807.0
  1
\A1;\U+22050.31{\PTYP. (4PL.)}
  0
LAYOUT
  5
6B
102
{ACAD_XDICTIONARY
360
D28
102
}
102
{ACAD_REACTORS
330
62
102
}
330
62
100
AcDbPlotSettings
  1

  2

  4

  6

 40
0.0
 41
0.0
 42
0.0
 43
0.0
 44
0.0
 45
0.0
 46
0.0
 47
0.0
 48
0.0
 49
0.0
140
0.0
141
0.0
142
1.0
143
1.0
 70
   688
 72
     0
 73
     0
 74
     5
  7

 75
    16
147
1.0
148
0.0
149
0.0
100
AcDbLayout
  1
Layout1
 70
     1
 71
     1
 10
0.0
 20
0.0
 11
12.0
 21
9.0
 12
0.0
 22
0.0
 32
0.0
 14
0.0
 24
0.0
 34
0.0
 15
0.0
 25
0.0
 35
0.0
146
0.0
 13
0.0
 23
0.0
 33
0.0
 16
1.0
 26
0.0
 36
0.0
 17
0.0
 27
1.0
 37
0.0
 76
     0
330
68
  0
LAYOUT
  5
73
102
{ACAD_XDICTIONARY
360
D2C
102
}
102
{ACAD_REACTORS
330
62
102
}
330
62
100
AcDbPlotSettings
  1

  2

  4

  6

 40
0.0
 41
0.0
 42
0.0
 43
0.0
 44
0.0
 45
0.0
 46
0.0
 47
0.0
 48
0.0
 49
0.0
140
0.0
141
0.0
142
1.0
143
1.0
 70
   688
 72
     0
 73
     0
 74
     5
  7

 75
    16
147
1.0
148
0.0
149
0.0
100
AcDbLayout
  1
Layout2
 70
     1
 71
     2
 10
0.0
 20
0.0
 11
12.0
 21
9.0
 12
0.0
 22
0.0
 32
0.0
 14
0.0
 24
0.0
 34
0.0
 15
0.0
 25
0.0
 35
0.0
146
0.0
 13
0.0
 23
0.0
 33
0.0
 16
1.0
 26
0.0
 36
0.0
 17
0.0
 27
1.0
 37
0.0
 76
     0
330
70
  0
LAYOUT
  5
6F
102
{ACAD_XDICTIONARY
360
D2A
102
}
102
{ACAD_REACTORS
330
62
102
}
330
62
100
AcDbPlotSettings
  1

  2

  4

  6

 40
0.0
 41
0.0
 42
0.0
 43
0.0
 44
0.0
 45
0.0
 46
0.0
 47
0.0
 48
0.0
 49
0.0
140
0.0
141
0.0
142
1.0
143
1.0
 70
  1712
 72
     0
 73
     0
 74
     0
  7

 75
     0
147
1.0
148
0.0
149
0.0
100
AcDbLayout
  1
Model
 70
     1
 71
     0
 10
0.0
 20
0.0
 11
12.0
 21
9.0
 12
0.0
 22
0.0
 32
0.0
 14
0.0
 24
0.0
 34
0.0
 15
0.0
 25
0.0
 35
0.0
146
0.0
 13
0.0
 23
0.0
 33
0.0
 16
1.0
 26
0.0
 36
0.0
 17
0.0
 27
1.0
 37
0.0
 76
     0
330
6C
  0
MATERIAL
  5
19
102
{ACAD_XDICTIONARY
360
1A
102
}
102
{ACAD_REACTORS
330
10
102
}
330
10
100
AcDbMaterial
  1
ByBlock
 72
     0
 43
0.0208333333333333
 43
0.0
 43
0.0
 43
0.0
 43
0.0
 43
0.0208333333333333
 43
0.0
 43
0.0
 43
0.0
 43
0.0
 43
1.0
 43
0.0
 43
0.0
 43
0.0
 43
0.0
 43
1.0
 77
     0
 47
0.0208333333333333
 47
0.0
 47
0.0
 47
0.0
 47
0.0
 47
0.0208333333333333
 47
0.0
 47
0.0
 47
0.0
 47
0.0
 47
1.0
 47
0.0
 47
0.0
 47
0.0
 47
0.0
 47
1.0
171
     0
 49
0.0208333333333333
 49
0.0
 49
0.0
 49
0.0
 49
0.0
 49
0.0208333333333333
 49
0.0
 49
0.0
 49
0.0
 49
0.0
 49
1.0
 49
0.0
 49
0.0
 49
0.0
 49
0.0
 49
1.0
175
     0
142
0.0208333333333333
142
0.0
142
0.0
142
0.0
142
0.0
142
0.0208333333333333
142
0.0
142
0.0
142
0.0
142
0.0
142
1.0
142
0.0
142
0.0
142
0.0
142
0.0
142
1.0
179
     0
144
0.0208333333333333
144
0.0
144
0.0
144
0.0
144
0.0
144
0.0208333333333333
144
0.0
144
0.0
144
0.0
144
0.0
144
1.0
144
0.0
144
0.0
144
0.0
144
0.0
144
1.0
147
0.0208333333333333
147
0.0
147
0.0
147
0.0
147
0.0
147
0.0208333333333333
147
0.0
147
0.0
147
0.0
147
0.0
147
1.0
147
0.0
147
0.0
147
0.0
147
0.0
147
1.0
  0
MATERIAL
  5
11
102
{ACAD_XDICTIONARY
360
12
102
}
102
{ACAD_REACTORS
330
10
102
}
330
10
100
AcDbMaterial
  1
ByLayer
 72
     0
 43
0.0208333333333333
 43
0.0
 43
0.0
 43
0.0
 43
0.0
 43
0.0208333333333333
 43
0.0
 43
0.0
 43
0.0
 43
0.0
 43
1.0
 43
0.0
 43
0.0
 43
0.0
 43
0.0
 43
1.0
 77
     0
 47
0.0208333333333333
 47
0.0
 47
0.0
 47
0.0
 47
0.0
 47
0.0208333333333333
 47
0.0
 47
0.0
 47
0.0
 47
0.0
 47
1.0
 47
0.0
 47
0.0
 47
0.0
 47
0.0
 47
1.0
171
     0
 49
0.0208333333333333
 49
0.0
 49
0.0
 49
0.0
 49
0.0
 49
0.0208333333333333
 49
0.0
 49
0.0
 49
0.0
 49
0.0
 49
1.0
 49
0.0
 49
0.0
 49
0.0
 49
0.0
 49
1.0
175
     0
142
0.0208333333333333
142
0.0
142
0.0
142
0.0
142
0.0
142
0.0208333333333333
142
0.0
142
0.0
142
0.0
142
0.0
142
1.0
142
0.0
142
0.0
142
0.0
142
0.0
142
1.0
179
     0
144
0.0208333333333333
144
0.0
144
0.0
144
0.0
144
0.0
144
0.0208333333333333
144
0.0
144
0.0
144
0.0
144
0.0
144
1.0
144
0.0
144
0.0
144
0.0
144
0.0
144
1.0
147
0.0208333333333333
147
0.0
147
0.0
147
0.0
147
0.0
147
0.0208333333333333
147
0.0
147
0.0
147
0.0
147
0.0
147
1.0
147
0.0
147
0.0
147
0.0
147
0.0
147
1.0
  0
MATERIAL
  5
21
102
{ACAD_XDICTIONARY
360
22
102
}
102
{ACAD_REACTORS
330
10
102
}
330
10
100
AcDbMaterial
  1
Global
 72
     0
 43
0.0208333333333333
 43
0.0
 43
0.0
 43
0.0
 43
0.0
 43
0.0208333333333333
 43
0.0
 43
0.0
 43
0.0
 43
0.0
 43
1.0
 43
0.0
 43
0.0
 43
0.0
 43
0.0
 43
1.0
 77
     0
 47
0.0208333333333333
 47
0.0
 47
0.0
 47
0.0
 47
0.0
 47
0.0208333333333333
 47
0.0
 47
0.0
 47
0.0
 47
0.0
 47
1.0
 47
0.0
 47
0.0
 47
0.0
 47
0.0
 47
1.0
171
     0
 49
0.0208333333333333
 49
0.0
 49
0.0
 49
0.0
 49
0.0
 49
0.0208333333333333
 49
0.0
 49
0.0
 49
0.0
 49
0.0
 49
1.0
 49
0.0
 49
0.0
 49
0.0
 49
0.0
 49
1.0
175
     0
142
0.0208333333333333
142
0.0
142
0.0
142
0.0
142
0.0
142
0.0208333333333333
142
0.0
142
0.0
142
0.0
142
0.0
142
1.0
142
0.0
142
0.0
142
0.0
142
0.0
142
1.0
179
     0
144
0.0208333333333333
144
0.0
144
0.0
144
0.0
144
0.0
144
0.0208333333333333
144
0.0
144
0.0
144
0.0
144
0.0
144
1.0
144
0.0
144
0.0
144
0.0
144
0.0
144
1.0
147
0.0208333333333333
147
0.0
147
0.0
147
0.0
147
0.0
147
0.0208333333333333
147
0.0
147
0.0
147
0.0
147
0.0
147
1.0
147
0.0
147
0.0
147
0.0
147
0.0
147
1.0
  0
MLEADERSTYLE
  5
67
102
{ACAD_XDICTIONARY
360
CEF
102
}
102
{ACAD_REACTORS
330
66
102
}
330
66
100
AcDbMLeaderStyle
170
     2
171
     1
172
     0
 90
        2
 40
0.0
 41
0.0
173
     1
 91
-1056964608
340
5B
 92
       -2
290
     1
 42
0.09
291
     1
 43
0.36
  3
Standard
 44
0.18
300

342
55
174
     1
178
     6
175
     1
176
     0
 93
-1056964608
 45
0.18
292
     0
297
     0
 46
0.18
 94
-1056964608
 47
1.0
 49
1.0
140
1.0
293
     1
141
0.0
294
     1
177
     0
142
1.0
295
     0
296
     0
143
0.125
1001
ACAD_MLEADERVER
1070
     2
  0
MLINESTYLE
  5
60
102
{ACAD_REACTORS
330
5F
102
}
330
5F
100
AcDbMlineStyle
  2
STANDARD
 70
     0
  3

 62
   256
 51
90.0
 52
90.0
 71
     2
 49
0.5
 62
   256
  6
BYLAYER
 49
-0.5
 62
   256
  6
BYLAYER
  0
ACDBPLACEHOLDER
  5
F
102
{ACAD_REACTORS
330
E
102
}
330
E
  0
SCALE
  5
43
102
{ACAD_REACTORS
330
42
102
}
330
42
100
AcDbScale
 70
     0
300
1:1
140
1.0
141
1.0
290
     1
  0
SCALE
  5
44
102
{ACAD_REACTORS
330
42
102
}
330
42
100
AcDbScale
 70
     0
300
1/128" = 1'-0"
140
0.0078125
141
12.0
290
     0
  0
SCALE
  5
45
102
{ACAD_REACTORS
330
42
102
}
330
42
100
AcDbScale
 70
     0
300
1/64" = 1'-0"
140
0.015625
141
12.0
290
     0
  0
SCALE
  5
46
102
{ACAD_REACTORS
330
42
102
}
330
42
100
AcDbScale
 70
     0
300
1/32" = 1'-0"
140
0.03125
141
12.0
290
     0
  0
SCALE
  5
47
102
{ACAD_REACTORS
330
42
102
}
330
42
100
AcDbScale
 70
     0
300
1/16" = 1'-0"
140
0.0625
141
12.0
290
     0
  0
SCALE
  5
48
102
{ACAD_REACTORS
330
42
102
}
330
42
100
AcDbScale
 70
     0
300
3/32" = 1'-0"
140
0.09375
141
12.0
290
     0
  0
SCALE
  5
49
102
{ACAD_REACTORS
330
42
102
}
330
42
100
AcDbScale
 70
     0
300
1/8" = 1'-0"
140
0.125
141
12.0
290
     0
  0
SCALE
  5
4A
102
{ACAD_REACTORS
330
42
102
}
330
42
100
AcDbScale
 70
     0
300
3/16" = 1'-0"
140
0.1875
141
12.0
290
     0
  0
SCALE
  5
4B
102
{ACAD_REACTORS
330
42
102
}
330
42
100
AcDbScale
 70
     0
300
1/4" = 1'-0"
140
0.25
141
12.0
290
     0
  0
SCALE
  5
4C
102
{ACAD_REACTORS
330
42
102
}
330
42
100
AcDbScale
 70
     0
300
3/8" = 1'-0"
140
0.375
141
12.0
290
     0
  0
SCALE
  5
4D
102
{ACAD_REACTORS
330
42
102
}
330
42
100
AcDbScale
 70
     0
300
1/2" = 1'-0"
140
0.5
141
12.0
290
     0
  0
SCALE
  5
4E
102
{ACAD_REACTORS
330
42
102
}
330
42
100
AcDbScale
 70
     0
300
3/4" = 1'-0"
140
0.75
141
12.0
290
     0
  0
SCALE
  5
4F
102
{ACAD_REACTORS
330
42
102
}
330
42
100
AcDbScale
 70
     0
300
1" = 1'-0"
140
1.0
141
12.0
290
     0
  0
SCALE
  5
50
102
{ACAD_REACTORS
330
42
102
}
330
42
100
AcDbScale
 70
     0
300
1-1/2" = 1'-0"
140
1.5
141
12.0
290
     0
  0
SCALE
  5
51
102
{ACAD_REACTORS
330
42
102
}
330
42
100
AcDbScale
 70
     0
300
3" = 1'-0"
140
3.0
141
12.0
290
     0
  0
SCALE
  5
52
102
{ACAD_REACTORS
330
42
102
}
330
42
100
AcDbScale
 70
     0
300
6" = 1'-0"
140
6.0
141
12.0
290
     0
  0
SCALE
  5
53
102
{ACAD_REACTORS
330
42
102
}
330
42
100
AcDbScale
 70
     0
300
1'-0" = 1'-0"
140
12.0
141
12.0
290
     0
  0
TABLESTYLE
  5
65
102
{ACAD_XDICTIONARY
360
CED
102
}
102
{ACAD_REACTORS
330
64
102
}
330
64
100
AcDbTableStyle
  3
Standard
 70
     0
 71
     0
 40
0.06
 41
0.06
280
     0
281
     0
  7
Standard
140
0.18
170
     2
 62
     0
 63
     7
283
     0
274
    -2
284
     1
 64
     0
275
    -2
285
     1
 65
     0
276
    -2
286
     1
 66
     0
277
    -2
287
     1
 67
     0
278
    -2
288
     1
 68
     0
279
    -2
289
     1
 69
     0
  7
Standard
140
0.25
170
     5
 62
     0
 63
     7
283
     0
274
    -2
284
     1
 64
     0
275
    -2
285
     1
 65
     0
276
    -2
286
     1
 66
     0
277
    -2
287
     1
 67
     0
278
    -2
288
     1
 68
     0
279
    -2
289
     1
 69
     0
  7
Standard
140
0.18
170
     5
 62
     0
 63
     7
283
     0
274
    -2
284
     1
 64
     0
275
    -2
285
     1
 65
     0
276
    -2
286
     1
 66
     0
277
    -2
287
     1
 67
     0
278
    -2
288
     1
 68
     0
279
    -2
289
     1
 69
     0
  0
VISUALSTYLE
  5
2F
102
{ACAD_XDICTIONARY
360
D00
102
}
102
{ACAD_REACTORS
330
29
102
}
330
29
100
AcDbVisualStyle
  2
2dWireframe
 70
     4
 71
     0
 72
     2
 73
     0
 90
        0
 40
-0.6
 41
-30.0
 62
     5
 63
     7
 74
     1
 91
        4
 64
     7
 65
   257
 75
     1
175
     1
 42
1.0
 92
        0
 66
   257
 43
1.0
 76
     1
 77
     6
 78
     2
 67
     7
 79
     5
170
     0
171
     0
290
     0
174
     0
 93
        1
 44
0.0
173
     0
291
     0
 45
0.0
1001
ACAD
1000
AcDbSavedByObjectVersion
1070
     0
  0
VISUALSTYLE
  5
2E
102
{ACAD_XDICTIONARY
360
CFE
102
}
102
{ACAD_REACTORS
330
29
102
}
330
29
100
AcDbVisualStyle
  2
Basic
 70
     7
 71
     1
 72
     0
 73
     1
 90
        0
 40
-0.6
 41
-30.0
 62
     5
 63
     7
 74
     0
 91
        4
 64
     7
 65
   257
 75
     1
175
     1
 42
1.0
 92
        8
 66
     7
 43
1.0
 76
     1
 77
     6
 78
     2
 67
     7
 79
     5
170
     0
171
     0
290
     0
174
     0
 93
        1
 44
0.0
173
     0
291
     1
 45
0.0
1001
ACAD
1000
AcDbSavedByObjectVersion
1070
     0
  0
VISUALSTYLE
  5
35
102
{ACAD_XDICTIONARY
360
D0C
102
}
102
{ACAD_REACTORS
330
29
102
}
330
29
100
AcDbVisualStyle
  2
Brighten
 70
    12
 71
     2
 72
     2
 73
     0
 90
        0
 40
-0.6
 41
-30.0
 62
     5
 63
     7
 74
     1
 91
        4
 64
     7
 65
   257
 75
     1
175
     1
 42
1.0
 92
        8
 66
     7
 43
1.0
 76
     1
 77
     6
 78
     2
 67
     7
 79
     5
170
     0
171
     0
290
     0
174
     0
 93
        1
 44
50.0
173
     0
291
     1
 45
0.0
1001
ACAD
1000
AcDbSavedByObjectVersion
1070
     0
  0
VISUALSTYLE
  5
39
102
{ACAD_XDICTIONARY
360
D14
102
}
102
{ACAD_REACTORS
330
29
102
}
330
29
100
AcDbVisualStyle
  2
ColorChange
 70
    16
 71
     2
 72
     2
 73
     3
 90
        0
 40
-0.6
 41
-30.0
 62
     5
 63
     8
 74
     1
 91
        4
 64
     7
 65
   257
 75
     1
175
     1
 42
1.0
 92
        8
 66
     8
 43
1.0
 76
     1
 77
     6
 78
     2
 67
     7
 79
     5
170
     0
171
     0
290
     0
174
     0
 93
        1
 44
0.0
173
     0
291
     1
 45
0.0
1001
ACAD
1000
AcDbSavedByObjectVersion
1070
     0
  0
VISUALSTYLE
  5
32
102
{ACAD_XDICTIONARY
360
D06
102
}
102
{ACAD_REACTORS
330
29
102
}
330
29
100
AcDbVisualStyle
  2
Conceptual
 70
     9
 71
     3
 72
     2
 73
     0
 90
        0
 40
-0.6
 41
-30.0
 62
     5
 63
     7
 74
     2
 91
        2
 64
     7
 65
   257
 75
     1
175
     1
 42
179.0
 92
        8
 66
     7
 43
1.0
 76
     1
 77
     6
 78
     2
 67
     7
 79
     3
170
     0
171
     0
290
     0
174
     0
 93
        1
 44
0.0
173
     0
291
     0
 45
0.0
1001
ACAD
1000
AcDbSavedByObjectVersion
1070
     0
  0
VISUALSTYLE
  5
34
102
{ACAD_XDICTIONARY
360
D0A
102
}
102
{ACAD_REACTORS
330
29
102
}
330
29
100
AcDbVisualStyle
  2
Dim
 70
    11
 71
     2
 72
     2
 73
     0
 90
        0
 40
-0.6
 41
-30.0
 62
     5
 63
     7
 74
     1
 91
        4
 64
     7
 65
   257
 75
     1
175
     1
 42
1.0
 92
        8
 66
     7
 43
1.0
 76
     1
 77
     6
 78
     2
 67
     7
 79
     5
170
     0
171
     0
290
     0
174
     0
 93
        1
 44
-50.0
173
     0
291
     1
 45
0.0
1001
ACAD
1000
AcDbSavedByObjectVersion
1070
     0
  0
VISUALSTYLE
  5
41
102
{ACAD_XDICTIONARY
360
D24
102
}
102
{ACAD_REACTORS
330
29
102
}
330
29
100
AcDbVisualStyle
  2
EdgeColorOff
 70
    22
 71
     2
 72
     2
 73
     0
 90
        0
 40
-0.6
 41
-30.0
 62
     5
 63
     7
 74
     1
 91
        4
 64
     7
 65
   257
 75
     1
175
     1
 42
1.0
 92
        8
 66
     7
 43
1.0
 76
     1
 77
     6
 78
     2
 67
     7
 79
     5
170
     0
171
     0
290
     0
174
     0
 93
        1
 44
0.0
173
     0
291
     1
 45
0.0
1001
ACAD
1000
AcDbSavedByObjectVersion
1070
     0
  0
VISUALSTYLE
  5
38
102
{ACAD_XDICTIONARY
360
D12
102
}
102
{ACAD_REACTORS
330
29
102
}
330
29
100
AcDbVisualStyle
  2
Facepattern
 70
    15
 71
     2
 72
     2
 73
     0
 90
        0
 40
-0.6
 41
-30.0
 62
     5
 63
     7
 74
     1
 91
        4
 64
     7
 65
   257
 75
     1
175
     1
 42
1.0
 92
        8
 66
     7
 43
1.0
 76
     1
 77
     6
 78
     2
 67
     7
 79
     5
170
     0
171
     0
290
     0
174
     0
 93
        1
 44
0.0
173
     0
291
     1
 45
0.0
1001
ACAD
1000
AcDbSavedByObjectVersion
1070
     0
  0
VISUALSTYLE
  5
2A
102
{ACAD_XDICTIONARY
360
CF6
102
}
102
{ACAD_REACTORS
330
29
102
}
330
29
100
AcDbVisualStyle
  2
Flat
 70
     0
 71
     2
 72
     1
 73
     1
 90
        2
 40
-0.6
 41
30.0
 62
     5
 63
     7
 74
     0
 91
        0
 64
     7
 65
   257
 75
     1
175
     1
 42
1.0
 92
        8
 66
     7
 43
1.0
 76
     1
 77
     6
 78
     2
 67
     7
 79
     5
170
     0
171
     0
290
     0
174
     0
 93
       13
 44
0.0
173
     0
291
     1
 45
0.0
1001
ACAD
1000
AcDbSavedByObjectVersion
1070
     0
  0
VISUALSTYLE
  5
2B
102
{ACAD_XDICTIONARY
360
CF8
102
}
102
{ACAD_REACTORS
330
29
102
}
330
29
100
AcDbVisualStyle
  2
FlatWithEdges
 70
     1
 71
     2
 72
     1
 73
     1
 90
        2
 40
-0.6
 41
30.0
 62
     5
 63
     7
 74
     1
 91
        0
 64
     7
 65
   257
 75
     1
175
     1
 42
1.0
 92
        0
 66
   257
 43
1.0
 76
     1
 77
     6
 78
     2
 67
     7
 79
     5
170
     0
171
     0
290
     0
174
     0
 93
       13
 44
0.0
173
     0
291
     1
 45
0.0
1001
ACAD
1000
AcDbSavedByObjectVersion
1070
     0
  0
VISUALSTYLE
  5
2C
102
{ACAD_XDICTIONARY
360
CFA
102
}
102
{ACAD_REACTORS
330
29
102
}
330
29
100
AcDbVisualStyle
  2
Gouraud
 70
     2
 71
     2
 72
     2
 73
     1
 90
        2
 40
-0.6
 41
30.0
 62
     5
 63
     7
 74
     0
 91
        0
 64
     7
 65
   257
 75
     1
175
     1
 42
1.0
 92
        0
 66
     7
 43
1.0
 76
     1
 77
     6
 78
     2
 67
     7
 79
     5
170
     0
171
     0
290
     0
174
     0
 93
       13
 44
0.0
173
     0
291
     1
 45
0.0
1001
ACAD
1000
AcDbSavedByObjectVersion
1070
     0
  0
VISUALSTYLE
  5
2D
102
{ACAD_XDICTIONARY
360
CFC
102
}
102
{ACAD_REACTORS
330
29
102
}
330
29
100
AcDbVisualStyle
  2
GouraudWithEdges
 70
     3
 71
     2
 72
     2
 73
     1
 90
        2
 40
-0.6
 41
30.0
 62
     5
 63
     7
 74
     1
 91
        0
 64
     7
 65
   257
 75
     1
175
     1
 42
1.0
 92
        0
 66
   257
 43
1.0
 76
     1
 77
     6
 78
     2
 67
     7
 79
     5
170
     0
171
     0
290
     0
174
     0
 93
       13
 44
0.0
173
     0
291
     1
 45
0.0
1001
ACAD
1000
AcDbSavedByObjectVersion
1070
     0
  0
VISUALSTYLE
  5
31
102
{ACAD_XDICTIONARY
360
D04
102
}
102
{ACAD_REACTORS
330
29
102
}
330
29
100
AcDbVisualStyle
  2
Hidden
 70
     6
 71
     1
 72
     2
 73
     2
 90
        0
 40
-0.6
 41
-30.0
 62
     5
 63
     7
 74
     2
 91
        2
 64
     7
 65
   257
 75
     2
175
     1
 42
40.0
 92
        0
 66
   257
 43
1.0
 76
     1
 77
     6
 78
     2
 67
     7
 79
     3
170
     0
171
     0
290
     0
174
     0
 93
        1
 44
0.0
173
     0
291
     0
 45
0.0
1001
ACAD
1000
AcDbSavedByObjectVersion
1070
     0
  0
VISUALSTYLE
  5
3F
102
{ACAD_XDICTIONARY
360
D20
102
}
102
{ACAD_REACTORS
330
29
102
}
330
29
100
AcDbVisualStyle
  2
JitterOff
 70
    20
 71
     2
 72
     2
 73
     0
 90
        0
 40
-0.6
 41
-30.0
 62
     5
 63
     7
 74
     1
 91
        4
 64
     7
 65
   257
 75
     1
175
     1
 42
1.0
 92
       10
 66
     7
 43
1.0
 76
     1
 77
     6
 78
     2
 67
     7
 79
     5
170
     0
171
     0
290
     0
174
     0
 93
        1
 44
0.0
173
     0
291
     1
 45
0.0
1001
ACAD
1000
AcDbSavedByObjectVersion
1070
     0
  0
VISUALSTYLE
  5
37
102
{ACAD_XDICTIONARY
360
D10
102
}
102
{ACAD_REACTORS
330
29
102
}
330
29
100
AcDbVisualStyle
  2
Linepattern
 70
    14
 71
     2
 72
     2
 73
     0
 90
        0
 40
-0.6
 41
-30.0
 62
     5
 63
     7
 74
     1
 91
        4
 64
     7
 65
   257
 75
     7
175
     7
 42
1.0
 92
        8
 66
     7
 43
1.0
 76
     1
 77
     6
 78
     2
 67
     7
 79
     5
170
     0
171
     0
290
     0
174
     0
 93
        1
 44
0.0
173
     0
291
     1
 45
0.0
1001
ACAD
1000
AcDbSavedByObjectVersion
1070
     0
  0
VISUALSTYLE
  5
40
102
{ACAD_XDICTIONARY
360
D22
102
}
102
{ACAD_REACTORS
330
29
102
}
330
29
100
AcDbVisualStyle
  2
OverhangOff
 70
    21
 71
     2
 72
     2
 73
     0
 90
        0
 40
-0.6
 41
-30.0
 62
     5
 63
     7
 74
     1
 91
        4
 64
     7
 65
   257
 75
     1
175
     1
 42
1.0
 92
        9
 66
     7
 43
1.0
 76
     1
 77
     6
 78
     2
 67
     7
 79
     5
170
     0
171
     0
290
     0
174
     0
 93
        1
 44
0.0
173
     0
291
     1
 45
0.0
1001
ACAD
1000
AcDbSavedByObjectVersion
1070
     0
  0
VISUALSTYLE
  5
33
102
{ACAD_XDICTIONARY
360
D08
102
}
102
{ACAD_REACTORS
330
29
102
}
330
29
100
AcDbVisualStyle
  2
Realistic
 70
     8
 71
     2
 72
     3
 73
     0
 90
        2
 40
-0.6
 41
30.0
 62
     5
 63
     7
 74
     0
 91
        0
 64
     7
 65
   257
 75
     1
175
     1
 42
1.0
 92
        8
 66
   257
 43
1.0
 76
     1
 77
     6
 78
     2
 67
     7
 79
     3
170
     0
171
     0
290
     0
174
     0
 93
       13
 44
0.0
173
     0
291
     0
 45
0.0
1001
ACAD
1000
AcDbSavedByObjectVersion
1070
     0
  0
VISUALSTYLE
  5
3E
102
{ACAD_XDICTIONARY
360
D1E
102
}
102
{ACAD_REACTORS
330
29
102
}
330
29
100
AcDbVisualStyle
  2
Shaded
 70
    27
 71
     2
 72
     2
 73
     1
 90
        2
 40
-0.6
 41
30.0
 62
     5
 63
     7
 74
     0
 91
        4
 64
     7
 65
   257
 75
     1
175
     1
 42
1.0
 92
        8
 66
   257
 43
1.0
 76
     1
 77
     6
 78
     2
 67
     8
 79
     3
170
     0
171
     0
290
     0
174
     0
 93
        5
 44
0.0
173
     0
291
     0
 45
0.0
1001
ACAD
1000
AcDbSavedByObjectVersion
1070
     0
  0
VISUALSTYLE
  5
3D
102
{ACAD_XDICTIONARY
360
D1C
102
}
102
{ACAD_REACTORS
330
29
102
}
330
29
100
AcDbVisualStyle
  2
Shaded with edges
 70
    26
 71
     2
 72
     2
 73
     1
 90
        2
 40
-0.6
 41
30.0
 62
     5
 63
     7
 74
     1
 91
       10
 64
     7
 65
   257
 75
     2
175
     1
 42
1.0
 92
        8
 66
   257
 43
1.0
 76
     1
 77
     6
 78
     2
 67
     7
 79
     3
170
     0
171
     0
290
     0
174
     0
 93
        5
 44
0.0
173
     0
291
     0
 45
0.0
1001
ACAD
1000
AcDbSavedByObjectVersion
1070
     0
  0
VISUALSTYLE
  5
3A
102
{ACAD_XDICTIONARY
360
D16
102
}
102
{ACAD_REACTORS
330
29
102
}
330
29
100
AcDbVisualStyle
  2
Shades of Gray
 70
    23
 71
     2
 72
     2
 73
     3
 90
        0
 40
-0.6
 41
-30.0
 62
     5
 63
     7
 74
     2
 91
        2
 64
     7
 65
     7
 75
     1
175
     1
 42
40.0
 92
        8
 66
     7
 43
1.0
 76
     1
 77
     6
 78
     2
 67
     7
 79
     3
170
     0
171
     0
290
     0
174
     0
 93
        1
 44
0.0
173
     0
291
     0
 45
0.0
1001
ACAD
1000
AcDbSavedByObjectVersion
1070
     0
  0
VISUALSTYLE
  5
3B
102
{ACAD_XDICTIONARY
360
D18
102
}
102
{ACAD_REACTORS
330
29
102
}
330
29
100
AcDbVisualStyle
  2
Sketchy
 70
    24
 71
     1
 72
     2
 73
     2
 90
        0
 40
-0.6
 41
-30.0
 62
     5
 63
     7
 74
     2
 91
        2
 64
     7
 65
     7
 75
     1
175
     1
 42
40.0
 92
       11
 66
     7
 43
1.0
 76
     1
 77
     6
 78
     2
 67
     7
 79
     6
170
     0
171
     0
290
     0
174
     0
 93
        1
 44
0.0
173
     0
291
     0
 45
0.0
1001
ACAD
1000
AcDbSavedByObjectVersion
1070
     0
  0
VISUALSTYLE
  5
36
102
{ACAD_XDICTIONARY
360
D0E
102
}
102
{ACAD_REACTORS
330
29
102
}
330
29
100
AcDbVisualStyle
  2
Thicken
 70
    13
 71
     2
 72
     2
 73
     0
 90
        0
 40
-0.6
 41
-30.0
 62
     5
 63
     7
 74
     1
 91
        4
 64
     7
 65
   257
 75
     1
175
     1
 42
1.0
 92
       12
 66
     7
 43
1.0
 76
     1
 77
     6
 78
     2
 67
     7
 79
     5
170
     0
171
     0
290
     0
174
     0
 93
        1
 44
0.0
173
     0
291
     1
 45
0.0
1001
ACAD
1000
AcDbSavedByObjectVersion
1070
     0
  0
VISUALSTYLE
  5
30
102
{ACAD_XDICTIONARY
360
D02
102
}
102
{ACAD_REACTORS
330
29
102
}
330
29
100
AcDbVisualStyle
  2
Wireframe
 70
     5
 71
     0
 72
     2
 73
     0
 90
        0
 40
-0.6
 41
-30.0
 62
     5
 63
     7
 74
     1
 91
        4
 64
     7
 65
   257
 75
     1
175
     1
 42
1.0
 92
        0
 66
   257
 43
1.0
 76
     1
 77
     6
 78
     2
 67
     7
 79
     3
170
     0
171
     0
290
     0
174
     0
 93
        1
 44
0.0
173
     0
291
     0
 45
0.0
1001
ACAD
1000
AcDbSavedByObjectVersion
1070
     0
  0
VISUALSTYLE
  5
3C
102
{ACAD_XDICTIONARY
360
D1A
102
}
102
{ACAD_REACTORS
330
29
102
}
330
29
100
AcDbVisualStyle
  2
X-Ray
 70
    25
 71
     2
 72
     2
 73
     1
 90
        1
 40
0.5
 41
-30.0
 62
     5
 63
     7
 74
     1
 91
        0
 64
     7
 65
   257
 75
     1
175
     1
 42
1.0
 92
        8
 66
     7
 43
1.0
 76
     1
 77
     6
 78
     2
 67
     7
 79
     3
170
     0
171
     0
290
     0
174
     0
 93
       13
 44
0.0
173
     0
291
     0
 45
0.0
1001
ACAD
1000
AcDbSavedByObjectVersion
1070
     0
  0
DICTIONARYVAR
  5
DA
102
{ACAD_REACTORS
330
D7
102
}
330
D7
100
DictionaryVariables
280
     0
  1
1:1
  0
DICTIONARYVAR
  5
D9
102
{ACAD_REACTORS
330
D7
102
}
330
D7
100
DictionaryVariables
280
     0
  1
STANDARD
  0
DICTIONARYVAR
  5
D8
102
{ACAD_REACTORS
330
D7
102
}
330
D7
100
DictionaryVariables
280
     0
  1
STANDARD
  0
DICTIONARYVAR
  5
CEB
102
{ACAD_REACTORS
330
D7
102
}
330
D7
100
DictionaryVariables
280
     0
  1
1
  0
DICTIONARYVAR
  5
CEA
102
{ACAD_REACTORS
330
D7
102
}
330
D7
100
DictionaryVariables
280
     0
  1
1
  0
DICTIONARYVAR
  5
CE9
102
{ACAD_REACTORS
330
D7
102
}
330
D7
100
DictionaryVariables
280
     0
  1
0
  0
DICTIONARYVAR
  5
CE6
102
{ACAD_REACTORS
330
D7
102
}
330
D7
100
DictionaryVariables
280
     0
  1
0
  0
DICTIONARYVAR
  5
CE7
102
{ACAD_REACTORS
330
D7
102
}
330
D7
100
DictionaryVariables
280
     0
  1
0
  0
DICTIONARYVAR
  5
CE5
102
{ACAD_REACTORS
330
D7
102
}
330
D7
100
DictionaryVariables
280
     0
  1
2
  0
DICTIONARYVAR
  5
CE4
102
{ACAD_REACTORS
330
D7
102
}
330
D7
100
DictionaryVariables
280
     0
  1
1
  0
DICTIONARYVAR
  5
CE8
102
{ACAD_REACTORS
330
D7
102
}
330
D7
100
DictionaryVariables
280
     0
  1
127
  0
DICTIONARYVAR
  5
CEC
102
{ACAD_REACTORS
330
D7
102
}
330
D7
100
DictionaryVariables
280
     0
  1
2
  0
DICTIONARY
  5
D28
330
6B
100
AcDbDictionary
280
     1
281
     1
  3
ACAD_XREC_ROUNDTRIP
360
D29
  0
DICTIONARY
  5
D2C
330
73
100
AcDbDictionary
280
     1
281
     1
  3
ACAD_XREC_ROUNDTRIP
360
D2D
  0
DICTIONARY
  5
D2A
330
6F
100
AcDbDictionary
280
     1
281
     1
  3
ACAD_XREC_ROUNDTRIP
360
D2B
  0
DICTIONARY
  5
1A
330
19
100
AcDbDictionary
280
     1
281
     1
  3
ACAD_XREC_ROUNDTRIP
360
CF4
  3
BUMPTILE
360
1C
  3
DIFFUSETILE
360
1B
  3
OPACITYTILE
360
1F
  3
REFLECTIONTILE
360
1E
  3
REFRACTIONTILE
360
20
  3
SPECULARTILE
360
1D
  0
DICTIONARY
  5
12
330
11
100
AcDbDictionary
280
     1
281
     1
  3
ACAD_XREC_ROUNDTRIP
360
CF3
  3
BUMPTILE
360
14
  3
DIFFUSETILE
360
13
  3
FBXASSET
360
168
  3
OPACITYTILE
360
17
  3
REFLECTIONTILE
360
16
  3
REFRACTIONTILE
360
18
  3
SPECULARTILE
360
15
  0
DICTIONARY
  5
22
330
21
100
AcDbDictionary
280
     1
281
     1
  3
ACAD_XREC_ROUNDTRIP
360
CF5
  3
BUMPTILE
360
24
  3
DIFFUSETILE
360
23
  3
FBXASSET
360
11B
  3
OPACITYTILE
360
27
  3
REFLECTIONTILE
360
26
  3
REFRACTIONTILE
360
28
  3
SPECULARTILE
360
25
  0
DICTIONARY
  5
CEF
330
67
100
AcDbDictionary
280
     1
281
     1
  3
ACAD_XREC_ROUNDTRIP
360
CF0
  0
DICTIONARY
  5
CED
330
65
100
AcDbDictionary
280
     1
281
     1
  3
ACAD_ROUNDTRIP_2008_TABLESTYLE_CELLSTYLEMAP
360
CEE
  3
ACAD_XREC_ROUNDTRIP
360
D26
  0
DICTIONARY
  5
D00
330
2F
100
AcDbDictionary
280
     1
281
     1
  3
ACAD_XREC_ROUNDTRIP
360
D01
  0
DICTIONARY
  5
CFE
330
2E
100
AcDbDictionary
280
     1
281
     1
  3
ACAD_XREC_ROUNDTRIP
360
CFF
  0
DICTIONARY
  5
D0C
330
35
100
AcDbDictionary
280
     1
281
     1
  3
ACAD_XREC_ROUNDTRIP
360
D0D
  0
DICTIONARY
  5
D14
330
39
100
AcDbDictionary
280
     1
281
     1
  3
ACAD_XREC_ROUNDTRIP
360
D15
  0
DICTIONARY
  5
D06
330
32
100
AcDbDictionary
280
     1
281
     1
  3
ACAD_XREC_ROUNDTRIP
360
D07
  0
DICTIONARY
  5
D0A
330
34
100
AcDbDictionary
280
     1
281
     1
  3
ACAD_XREC_ROUNDTRIP
360
D0B
  0
DICTIONARY
  5
D24
330
41
100
AcDbDictionary
280
     1
281
     1
  3
ACAD_XREC_ROUNDTRIP
360
D25
  0
DICTIONARY
  5
D12
330
38
100
AcDbDictionary
280
     1
281
     1
  3
ACAD_XREC_ROUNDTRIP
360
D13
  0
DICTIONARY
  5
CF6
330
2A
100
AcDbDictionary
280
     1
281
     1
  3
ACAD_XREC_ROUNDTRIP
360
CF7
  0
DICTIONARY
  5
CF8
330
2B
100
AcDbDictionary
280
     1
281
     1
  3
ACAD_XREC_ROUNDTRIP
360
CF9
  0
DICTIONARY
  5
CFA
330
2C
100
AcDbDictionary
280
     1
281
     1
  3
ACAD_XREC_ROUNDTRIP
360
CFB
  0
DICTIONARY
  5
CFC
330
2D
100
AcDbDictionary
280
     1
281
     1
  3
ACAD_XREC_ROUNDTRIP
360
CFD
  0
DICTIONARY
  5
D04
330
31
100
AcDbDictionary
280
     1
281
     1
  3
ACAD_XREC_ROUNDTRIP
360
D05
  0
DICTIONARY
  5
D20
330
3F
100
AcDbDictionary
280
     1
281
     1
  3
ACAD_XREC_ROUNDTRIP
360
D21
  0
DICTIONARY
  5
D10
330
37
100
AcDbDictionary
280
     1
281
     1
  3
ACAD_XREC_ROUNDTRIP
360
D11
  0
DICTIONARY
  5
D22
330
40
100
AcDbDictionary
280
     1
281
     1
  3
ACAD_XREC_ROUNDTRIP
360
D23
  0
DICTIONARY
  5
D08
330
33
100
AcDbDictionary
280
     1
281
     1
  3
ACAD_XREC_ROUNDTRIP
360
D09
  0
DICTIONARY
  5
D1E
330
3E
100
AcDbDictionary
280
     1
281
     1
  3
ACAD_XREC_ROUNDTRIP
360
D1F
  0
DICTIONARY
  5
D1C
330
3D
100
AcDbDictionary
280
     1
281
     1
  3
ACAD_XREC_ROUNDTRIP
360
D1D
  0
DICTIONARY
  5
D16
330
3A
100
AcDbDictionary
280
     1
281
     1
  3
ACAD_XREC_ROUNDTRIP
360
D17
  0
DICTIONARY
  5
D18
330
3B
100
AcDbDictionary
280
     1
281
     1
  3
ACAD_XREC_ROUNDTRIP
360
D19
  0
DICTIONARY
  5
D0E
330
36
100
AcDbDictionary
280
     1
281
     1
  3
ACAD_XREC_ROUNDTRIP
360
D0F
  0
DICTIONARY
  5
D02
330
30
100
AcDbDictionary
280
     1
281
     1
  3
ACAD_XREC_ROUNDTRIP
360
D03
  0
DICTIONARY
  5
D1A
330
3C
100
AcDbDictionary
280
     1
281
     1
  3
ACAD_XREC_ROUNDTRIP
360
D1B
  0
XRECORD
  5
D29
102
{ACAD_REACTORS
330
D28
102
}
330
D28
100
AcDbXrecord
280
     1
102
SHADEPLOT
 70
     0
102
SHADEPLOTRESLEVEL
 70
     2
102
SHADEPLOTCUSTOMDPI
 70
   300
  0
XRECORD
  5
D2D
102
{ACAD_REACTORS
330
D2C
102
}
330
D2C
100
AcDbXrecord
280
     1
102
SHADEPLOT
 70
     0
102
SHADEPLOTRESLEVEL
 70
     2
102
SHADEPLOTCUSTOMDPI
 70
   300
  0
XRECORD
  5
D2B
102
{ACAD_REACTORS
330
D2A
102
}
330
D2A
100
AcDbXrecord
280
     1
102
SHADEPLOT
 70
     0
102
SHADEPLOTRESLEVEL
 70
     2
102
SHADEPLOTCUSTOMDPI
 70
   300
  0
XRECORD
  5
CF4
102
{ACAD_REACTORS
330
1A
102
}
330
1A
100
AcDbXrecord
280
     1
102
MATERIAL
148
0.0
149
0.0
149
0.0
 93
        0
 94
      127
282
     0
 72
     0
 77
     0
171
     0
175
     0
179
     0
273
     0
  0
XRECORD
  5
1C
102
{ACAD_REACTORS
330
1A
102
}
330
1A
100
AcDbXrecord
280
     1
270
     1
271
     1
  0
XRECORD
  5
1B
102
{ACAD_REACTORS
330
1A
102
}
330
1A
100
AcDbXrecord
280
     1
270
     1
271
     1
  0
XRECORD
  5
1F
102
{ACAD_REACTORS
330
1A
102
}
330
1A
100
AcDbXrecord
280
     1
270
     1
271
     1
  0
XRECORD
  5
1E
102
{ACAD_REACTORS
330
1A
102
}
330
1A
100
AcDbXrecord
280
     1
270
     1
271
     1
  0
XRECORD
  5
20
102
{ACAD_REACTORS
330
1A
102
}
330
1A
100
AcDbXrecord
280
     1
270
     1
271
     1
  0
XRECORD
  5
1D
102
{ACAD_REACTORS
330
1A
102
}
330
1A
100
AcDbXrecord
280
     1
270
     1
271
     1
  0
XRECORD
  5
CF3
102
{ACAD_REACTORS
330
12
102
}
330
12
100
AcDbXrecord
280
     1
102
MATERIAL
148
0.0
149
0.0
149
0.0
 93
        0
 94
      127
282
     0
 72
     0
 77
     0
171
     0
175
     0
179
     0
273
     0
  0
XRECORD
  5
14
102
{ACAD_REACTORS
330
12
102
}
330
12
100
AcDbXrecord
280
     1
270
     1
271
     1
  0
XRECORD
  5
13
102
{ACAD_REACTORS
330
12
102
}
330
12
100
AcDbXrecord
280
     1
270
     1
271
     1
  0
XRECORD
  5
168
102
{ACAD_REACTORS
330
12
102
}
330
12
100
AcDbXrecord
280
     1
 70
     1
 90
1959938040
 71
     1
  1
057AA4A5-E34E-44F5-84D5-CFE4DF961AE9
311
504B03040A0000080000C75B31403DEE336E79000000790000001B0000006175746F6465736B2D64657369676E2D7061636B6167652E786D6C3C3F786D6C2076657273696F6E3D22312E302220656E636F64696E673D227574662D3822203F3E3C666F726D6174733E3C666F726D61743E687474703A2F2F736368656D612E
311
6175746F6465736B2E636F6D2F64657369676E2D7061636B6167652F323030393C2F666F726D61743E3C2F666F726D6174733E504B0304140006080800C75B3140D486FD9CA0000000F4000000130000005B436F6E74656E745F54797065735D2E786D6C7D8EC10E82300C865F65E91D8A1E8C310C0EEA1BF002731658846E
311
D98AC1B77784ABF1D8FE5FBFBF75BBCE937A534CCEB38643598122B6FEE978D0B0485F9C41B54DDD7D022595594E1A469170414C76A4D9A4D207E29CF43ECE46F218070CC6BECC4078ACAA135ACF422C856C0E68EA1BF5669944DDD7BCDE7B1F8E415D77AECB980613C2E4AC91FC167A2B244592486606FC29C8FD7F045B9A
311
EF7053A7E60B504B0304140006080800C75B314062EA7956EC0000007C01000008000000636F72652E786D6C7590DD6EC3200C855F05F99E042769F32342B554DB13EC0510A1196A035180698F3FD2A6D27AB12B5BC7E7B3ADC34F3FF38D7CEBD51B677BC08C01D156B9D1D8A987182EB40172127C752EFCB101B172D63D6C
311
32083EAD2E2EBBA49C0DDA86A45A37EA5D94DEEB0044DD52D383575F7A96998C2139FC355BA4BACA4967F8EC121CA319C9E38819D33E73317A055157F5F086654BF1FC7EA01536036D87FA83627D6EDBA1198EAC39F07C83050F667EDE57AB96418F200A86056598FC9F885DC93A2C293B768CF17CB3BF407119FF83AA5728
311
1A1BCA627FF7817910981EB90F04CFB72C52B90795EA969BF805504B0304140006080800C75B314055019EA25F0000007C00000007000000636E782E786D6C4DCB3B0E80201045D1AD90E915ED2CF8AC45050C11660C8261F98AB1B07AC9C97D42D718D865D3E909258CFD00CCE24AC6E326A164D74DC0B4128928FF326038
311
472BA13128B1252AC747C6BAB984FC68F0B87FE8960A5C09FE86CFB69FBA01504B0304140006080800C75B3140F29C45F868010000020300000C0000006662782F636F72652E786D6C8D525B6E833010BC8AE57FB01DC8538EA312B527E8051CE35014B0911F28C7EFF288D254695421196B66677776801FAE6D837AED7C6D
311
CD1EB39462A48DB2656DAA3D8EE19C6C303A08EEAC0D3FCA3032B2D57B3CC058F0CAD9D8CD90B22668130035B6D43328BDD70123D5C0658FBDFAD2AD4C650C50E12F6927D545563A6529D05027B80F0E0CA069C87062713E5D399970C163ACCB99AD4B98569F6BEDB058E7EBE28D65DB841DDF9749CE3645B22DD61F095B1F
311
B7DB6253ACE866C9C920163CD4EDCD9D725A065D62B1A06C915006F59F8CED32BA635942573B4A3919CA1F44B12BFF12E58FA2589B902D66BB93CC63C1C0C848FCDA16220AC8CB1EFC10C1C91022BCC6841F83864020E4204FCD6D8F0B40BD56C1BA1C98D2C63BD5CB266A984AD1F87032B1D0796C009B3DEDB378D1E7750F
311
F880D254604D06B89E6218A6F369EA1C45A75DD2872B32D6B5B2B99B9B2CDECFFBA0A772651BEBFEA326F3AA640E930C7FAFF806504B0304140006080800C75B3140F63E84677E0000009D0000000B0000006662782F636E782E786D6C4DCCD10A83201886E15B91FFDCB5869A811A73CDFB886521990EA76397BF1A1DECE8
311
83878F57749FD5A3B74D2F178384FA740664C3238E2ECC124A9E3007D4299162CC7F37406158AD849D418939C5F23C68B4D3507CDED4BBB01C689AB6AFE9BDC19A3383C995DF706BC8051BC608A5BA374C33A894A87EA56DF7B0FA02504B0304140006080800C75B31404DD53EDC3001000014020000310000006662782F46
311
373944313545372D423836462D344138432D394634322D4636363435354244463642362F636F72652E786D6C8D51CB6EC32010FC158B537AC0063F881D61A2A6A9BFA03F4030495162B07854F9FC42ED48CDA1522F2C9A9D991DEDD2FD7DBA655FD23A65740F708E4026B530A3D2971E047F862DC8F68C5A63FC2F1AC8349F
311
640F120C18BD5813E61512467BA97D44B519E50A72E7A40799B8C54F0F9CF89413CF79F091E1AEF9CCC5955F648EF3D88E3C469DB73140B60C492F60C3B63BE2E67D0B0F2D1960FDDABEC16EA84B38105237CDE1389003A1C52264340435AE7235C638EAACA4FDAF491233EAD5F4882FACE45E8E80950897106188B71F18EF
311
2AB4C315446487102D12FD4914E6F12F51FD2C0A4AFBAA5CE32E320718A6C5D2607434E1747B8491F7D9589FA5791B27C50B602847B8434D55B7B458A87101D193D4ABA7F3C6C6056FAEA7C8C6CD624C6A468B74A3587E0E186BBA27FB06504B0304140006080800C75B3140FDEB9317500100003303000030000000666278
311
2F46373944313545372D423836462D344138432D394634322D4636363435354244463642362F636E782E786D6CC593CD6E022114855F85B09F1F74621BC360D2459FA08B6E11AE4A6560C24F53DFBE1745EBC645BBE9864CCE3D9C73F385E19BAFC9924F08D1783752D6F69480535E1BB71F694EBBE699928DE0C1FB7467A3
311
C4C909465A642AF83EF83C5749C34E669B50B5C61DAB1820FA1C144494CB4D62BD921603C035194598B6A035687233E2D70E02AE82E2F644D201C8EBCB3BF1DB0F5029F2AEA408DE950EC1CB599BEE4C94282B631C69540798642B73F21AE2B1D532C996B5D7AE073BFD249172E15A998321A57CA4E5A4A26ED42247DEE150
311
F09802D2ABA6749A810A39CFD62899107277365E3C8267E3D26AA85E83E003BAD96A390C18769E099ECC04D5A102C8049A8A45CF164DCF1AF6F4C6D87AD9AFD9B2E957EBBEE75DB10BBEF5DED64B1803C1CF447997C0252A18EFCAF811BEEA23DA0464EDC3E9172011406DBDD0B965FC3B9FE1EF7CBAF3FB465C01FF02F10D
311
504B0304140006080800C75B31403ADC95159B0500007B100000340000006662782F46373944313545372D423836462D344138432D394634322D4636363435354244463642362F6F626A656374732E786D6CAD575D8F9B3814FD2B887D0E8484B4332B862A934CAAA83B6DD5A8D53E8C14396018EF980FD9669AE9AFDF6330
311
04D2649A5DF505B0B1AFEF3DF7DC0F07EFF619B79EA990ACC86F6CCF19DB16CDA32266797A63572A195DD9D6BB301045A17ACB6C2B2719BDB1F5B41D06A928AAD24CC53421155747B3ABDBBF2D19D19CDA56C4899437B68C1E69461C52A922A6F2C98989224E9AEC1DCF69160EC5A682948F47424B2268AEA029E67348B11A
311
A5BCE1706CBB61E0EAFF61A09F66D5F4FC2AB7B667783ECBA52279F4D3614762A69EBFBC9BCCAE4733DF9F8EFC37136F74BBBA5D8EBCB7D3F1E2CD62713DBFBBC6C1520948329A089AD8E17B60235814B8CDAF30A858AEA613B3C438C815F499694FD9E1C4F202B759D359678C3CA57E54E4398D6AAC80466D9F111DD392E6
311
317CCEA884663D84C6C3A1A771ECFD9EEAB139B23F7D1902FD1D3D41ADEEEDBBAF69B1FB0726C84B182424D50C6CB03486365C1D1F10DE150537FF98B432A2A860845B9CED04112F7688A57A49180CC468260B1D0DDA023B84179ADF43BA208C7ECDF3535A2615E79AC6765847C116B14295AC35633FA83868DF47063AC157
311
9A0D57C620F552523BBC6E287275C4A606482BE12485CB61A6DE399D1C19BAD071BA5EDAE187D56EBFD1B17BFAF0521425154AD307D46A1DD7BE354A4627EF22CFE90DF6912A0750BE00F98F08F5832AF09B607B7FEF9B539420B94C0A91C137D6D81A8DF1185B5EFDD4DFBDAFC0ED360FBD770E4F385B43F51BF01CDAD0F7
311
650FCE307806E10B3135A66D22C29136EE590E8034492C5E600A7938D9EDED708D2C87AC8C5D84871E4C86BACFF80C5C230689A23EA9F7CE81E5515ABC204103B69A9150A321BF51F0E0A79FD2597DB059760EDED96FA1EB7CB9F9B0A94442227A6F627A49139633851277E04D5FA101E6038B9EE8CBF742C430F467BC377D
311
BC33739404DA1A730D7CDAE6743D389C3C3820C2BEB4D0E926F8C509304217D69EFC7B2623CA39C96951B5E7BE5A3F50361A8875B06B267705E65058409AE6CF510CA2484782951AC4AE5A7549D33963DDD7F54730D20E6F5FFE222FFDECB53BE4DEA8E085D8EE5EB64D5A3A09F5B721B70D06AE9602BAD741D2C6BF017D1B
311
B324A92492E0095CBFAD177DDFE9B48014D14A6DA2C587FD082E220C695BB9A8D682A09216F996A16E22EE4E1ED0970F480D036A81E7349694275BC679956D13C6518DB61929CFC0F1FFF5DF5559B9255951E5EA8CEC81EAA80E43DD07EC95DF898A1EED7053BF47B7C8BD318DCF9041D79213580D5C3B9EBD9DCFFDF96C74
311
37F5EF46BEBF9A8DAEFCE56CB458DDF9CBD5F51B0FFD53EBA7469330684B4D3FA2E12594B6A012CCB8EFEB1AF16392801DDE13251FDE37E1D9BEBFAE1DF4C2818B3DA897DDC679FC8CBE8FC6BF1670587952D03A2B39CD68AE888EA17BFDC1BF10F41903659AF97546527A81944FEF3747C660E6827D9F75BCD3EF477BCDEC
311
4207E44921EAB1CA763961FC6863DA20E994796AF06B7DD2BD9B42D30EF5C838069DA92C388B9107632BA5454615B2E10545486454827AFD9E3E36778F0B763F371DA2223B4E5B4D1E099A642E1116A05615A9E1BCF5079A3ADD57DDD828B7CE131E2653D816387363A349572CA2D2D9A140EB56A8160E2EF53B7934FE244F
311
397AED665337EE76696C0625B95B7249FF64EC6A52B8310069A444DF808608DEA99509835A37F33FFA4F86B7EA5844E17357A9CE96C344674C7D0C42B431CADC16D0C43C99A3F708D4D7CDF29C7ACD00918B6E59AF92A0913A5244A4F54D41EB67549A2F3FBBE850ACF527ABE4550A5F5E2E692428C85CE900078BC00A23B3
311
240A545DFCF9F05914B8C966D68A81020F8B22CB8ADC0CE6E6266C6D1E71AF8D1F9016A8BE90C887C9D89B3CD417017337D9EE88A40E89E51326E053C13A88078E07239BDB222A50F3A35BE76A271C7173BDB44C49F321D410A59F55352C6839726A217AF46552C74A7F41F9EA5DC0AD974205812E3EFC17504B0304140006
311
080000C75B3140000000000000000000000000350000006662782F46373944313545372D423836462D344138432D394634322D4636363435354244463642362F76657274696365732E62696E504B0304140006080800C75B3140F270F1330600000004000000360000006662782F46373944313545372D423836462D344138
311
432D394634322D4636363435354244463642362F747269616E676C65732E62696E636660600000504B0304140006080000C75B3140000000000000000000000000370000006662782F46373944313545372D423836462D344138432D394634322D4636363435354244463642362F617474726962757465732E62696E504B03
311
04140006080800C75B3140D5987DFC8F00000041010000360000006662782F46373944313545372D423836462D344138432D394634322D4636363435354244463642362F6469726563746F72792E786D6C858F410EC2201045AF4266AF15DDB800BA74E7C21B903225242D6328188F2FA5C4183471359997F9FF81E89FF3C4
311
1E1816475E02DF1F80A11FC8386F25A438EECEC07A250251FC3803E6F58C12560C4AD840E95E91C151A72936F496F35732D860FE635F62C8F2DA16B505C545B74125BAA2FA9E05D7CC053D063734D5C7665FD55B6B8D15D5E9BFEAFD8490FFA45E504B0304140006080800C75B3140714157CEFF000000A00100003B000000
311
6662782F46373944313545372D423836462D344138432D394634322D4636363435354244463642362F7265736F75726365732F636F72652E786D6C75905D6E83301084AF82F6DD600309041947256A4FD00B586643AC041BF9A7EAF16B02959A87BE78AD996FB4A3E5E7EFF9917DA1F3DA9A1E584E2143A3ECA8CDD4430C57
311
D2427616DC591BFE60901939630FAB0C824FCEC665979435014D48AAB123EEA2F41E0364EA913E3D7875C359E6328644F87BBE48759713E62C4F76E204F7C1A502D9B6647D4138F4363A859E179B2B788C7ADC193DA69DFAAAD18168EA667863554BD8E5FD406AD60EE434341F843597D3696887236D0FBC58C382073DFF76
311
540E65C01144495949284BFC27635D453B56117AEC28E5C58ABF84E232FE17AA5F43519B50957BDD2DE641B054E469085EACF74AE379CC34D7DB8A1F504B010214000A0000080000C75B31403DEE336E79000000790000001B00000000000000000000000000000000006175746F6465736B2D64657369676E2D7061636B61
311
67652E786D6C504B01021400140006080800C75B3140D486FD9CA0000000F40000001300000000000000000000000000B20000005B436F6E74656E745F54797065735D2E786D6C504B01021400140006080800C75B314062EA7956EC0000007C010000080000000000000000000000000083010000636F72652E786D6C504B
311
01021400140006080800C75B314055019EA25F0000007C000000070000000000000000000000000095020000636E782E786D6C504B01021400140006080800C75B3140F29C45F868010000020300000C00000000000000000000000000190300006662782F636F72652E786D6C504B01021400140006080800C75B3140F63E
311
84677E0000009D0000000B00000000000000000000000000AB0400006662782F636E782E786D6C504B01021400140006080800C75B31404DD53EDC30010000140200003100000000000000000000000000520500006662782F46373944313545372D423836462D344138432D394634322D4636363435354244463642362F63
311
6F72652E786D6C504B01021400140006080800C75B3140FDEB931750010000330300003000000000000000000000000000D10600006662782F46373944313545372D423836462D344138432D394634322D4636363435354244463642362F636E782E786D6C504B01021400140006080800C75B31403ADC95159B0500007B10
311
000034000000000000000000000000006F0800006662782F46373944313545372D423836462D344138432D394634322D4636363435354244463642362F6F626A656374732E786D6C504B01021400140006080000C75B314000000000000000000000000035000000000000000000000000005C0E00006662782F4637394431
311
3545372D423836462D344138432D394634322D4636363435354244463642362F76657274696365732E62696E504B01021400140006080800C75B3140F270F13306000000040000003600000000000000000000000000AF0E00006662782F46373944313545372D423836462D344138432D394634322D463636343535424446
311
3642362F747269616E676C65732E62696E504B01021400140006080000C75B31400000000000000000000000003700000000000000000000000000090F00006662782F46373944313545372D423836462D344138432D394634322D4636363435354244463642362F617474726962757465732E62696E504B01021400140006
311
080800C75B3140D5987DFC8F0000004101000036000000000000000000000000005E0F00006662782F46373944313545372D423836462D344138432D394634322D4636363435354244463642362F6469726563746F72792E786D6C504B01021400140006080800C75B3140714157CEFF000000A00100003B00000000000000
311
000000000000411000006662782F46373944313545372D423836462D344138432D394634322D4636363435354244463642362F7265736F75726365732F636F72652E786D6C504B0506000000000E000E0080040000991100000000
310
504B03040A0000080000C65B31403DEE336E79000000790000001B0000006175746F6465736B2D64657369676E2D7061636B6167652E786D6C3C3F786D6C2076657273696F6E3D22312E302220656E636F64696E673D227574662D3822203F3E3C666F726D6174733E3C666F726D61743E687474703A2F2F736368656D612E
310
6175746F6465736B2E636F6D2F64657369676E2D7061636B6167652F323030393C2F666F726D61743E3C2F666F726D6174733E504B0304140006080800C65B3140D486FD9CA0000000F4000000130000005B436F6E74656E745F54797065735D2E786D6C7D8EC10E82300C865F65E91D8A1E8C310C0EEA1BF002731658846E
310
D98AC1B77784ABF1D8FE5FBFBF75BBCE937A534CCEB38643598122B6FEE978D0B0485F9C41B54DDD7D022595594E1A469170414C76A4D9A4D207E29CF43ECE46F218070CC6BECC4078ACAA135ACF422C856C0E68EA1BF5669944DDD7BCDE7B1F8E415D77AECB980613C2E4AC91FC167A2B244592486606FC29C8FD7F045B9A
310
EF7053A7E60B504B0304140006080800C65B3140B8CCE3AEEA0000007C01000008000000636F72652E786D6C8D90416EC3201045AF82668F0DC6761C0B13B9AD72825E0001715062B00C543D7E71E248EDAEAB19FDF96F66F4F9E97BBEA32FB306EBDD00B420808C535E5B370D90E20577804E82AFDEC75F36404ECE66804D
310
06C1A7D5A765979477D1B89855E7B5D94519828980D43D3703047535B32C648AD9116EC522D54D4EA6A0AF2EC329598D9E47ACCEFBECC59A150461DD99B5ACC6E78FAAC675D51CF1F1DC8CF87D3C8C6F84B286B51D2F3758F068E7D77DB51A198D0651115A6142313D7C52DA33D2538649DB13C2CBCDFE074A8BFE2794AC8B
310
ACDADF7D620104CD8F3C0682975B16B93C82CA75CB4DFC00504B0304140006080800C65B314055019EA25F0000007C00000007000000636E782E786D6C4DCB3B0E80201045D1AD90E915ED2CF8AC45050C11660C8261F98AB1B07AC9C97D42D718D865D3E909258CFD00CCE24AC6E326A164D74DC0B4128928FF326038472B
310
A13128B1252AC747C6BAB984FC68F0B87FE8960A5C09FE86CFB69FBA01504B0304140006080800C65B314062508E1165010000020300000C0000006662782F636F72652E786D6C8D52ED8E8320107C15C27F04D47E06697A77E913DC0B50A59EA98241307DFC5B3F1AAF97A6694C90CCECECCE8E8AC3ADA951AF5D57599361
310
1E318CB4C96D519932C3C15FC816A38314CE5AFFA70C23A31A9DE101C65294CE867686726BBC361E50630B3D83AAEBB4C728AFE192E12EFFD18D8A54F050D15DA356E55755EA884740439D149D7760004D438613CBCBF926E8844B114255CC6C55C0B4EA526987254BB6A7649DA4E4F415A7248D573BB23BAD8EE4F3B8397E
310
309EAC92F556D0412C85AF9ABBBBDC69E5758165CC784C18277CF3CDF93E617B9E10B6DE3326E850FE200A6DF1A62854C627F16C7792755872303212FFB685883CEA540F7EA8147408115E63C28F41432010B257E7FABEC715A05EE7DEBA1498C28685EA551D344C65687C049D58E83C3680CD9EF6895FF479DD033EA03225
310
58531EAEE7E087E9629A3A47D16A477A7F43C6BA46D58BB9C9E2722E839ECA735B5BF78E9ACEABD2394C3AFCBDF217504B0304140006080800C65B3140FB08F6987D0000009D0000000B0000006662782F636E782E786D6C4DCCD10A83201886E15B91FFDCD2B269A08683ED3E6259C84C87D3D8E5AF46073BFAE0E1E395C3
310
67F568B3E9ED6250402B02C886479C5C5814943C630168D032C598FF6E80C2B85A050783964B8AE575D264E7B1F8BCAB77E179E28D12CE0537B8A3F71EB3FE4AB0608663D6504349DB5D784BA0D6B2FE95F63DC2FA0B504B0304140006080800C65B31406E4F62302901000014020000310000006662782F45313037373837
310
412D353146392D343942302D383441372D3432314131303335363733302F636F72652E786D6C8D51CB6EC32010FC15C4A93D608371EC24C244A9D47E417F806092A2C460F1A8F2F95D6A476A6FB9B068766676B42B0EF7E986BE4D88D6BB01B38A62649CF6A3759701E774265B8C0E5204EFD31F1A464E4D66C005C6525C82
310
CFF30A69EF92710950E747B3822A469330D237F80C38EA2F33A94AE5048C78AD66A5AFEA622A56411B7852C41420005A869417CB7746FB7EDB1FC9867DEC48BB7BA364DB1E7BD236ECC828DF743DA7A25E8452E46CC7556E478863CFD684674D8A588A64A7477C1D8C4A66C4B2A1AC219411D67F32B6E774CF38A1DD9EC2E4
310
42FF27CAF3F8A4285B9778B3C65D64114B26EAA521C5E8F3E9F60863EEB30F0995792FD1E8572C69451BBAE34DD78A7AA1C202C0B36B57CF987C8005BF5C4FC0E6AB71D74A51971B41F93D20D4724FF903504B0304140006080800C65B314072D2AAAA5401000033030000300000006662782F45313037373837412D353146
310
392D343942302D383441372D3432314131303335363733302F636E782E786D6CBD93CD6EC32010845F0571F70F71E4461126520F7D821E7AC5B04969305880ABE6EDBB2424CD25874A552FC89A1D66569F30DF7D4D967C4288C6BB81B2BAA5049CF2DAB8C34097B4AF3694EC040FDEA73B1B254E4E30D02C53C10FC12F7391
310
34ECE56213AAD6B863110344BF040511E57C9358AFA4C50070D582224C23680D9ADC8CF8B58780ABA0389E487A07F2F2FC46FCF8012A45DEE414C19BDC21783E4BD39D891265658C038DEA1D2659CB25790DF1586B9964CDEA6BD7839D7E9248BE70AD5C8221B97CA0F9A4A26C542347DEE050F09802D22BA6749A810A39CF
310
D62899107273365E3C822FC6A57E5DBC06C1077477AB7EB3C1B0F34CF06426280E154026D054AC5AB6AA5A56B1A757C6B65DBB655DD5F6DBB6E54DB60B3E7A6FCB258C81E067A2BC4BE012158C3779FC085FF1116D02B2F6E1F40B9008A0B45EE8DC32FE920FEBBBF5FA1FF934E7F78DB802FE05E21B504B03041400060808
310
00C65B3140E51810715A070000941B0000340000006662782F45313037373837412D353146392D343942302D383441372D3432314131303335363733302F6F626A656374732E786D6CED59DD73A33610FF5718FA6C6C627CBD74089DC44E6E3C6DEE6ECEBD4E1F32C3C8201335423092C8C5FDEBBBFA00033109EEA56FF760
310
03425AEDFEF6534BF8EB534E9D47CC0529D885EB7B33D7C12C2952C2B20BB792BBC97BD7F9350A7951C8D634D76128C717AE1A76A330E34555DAA114EF5045656FF4E6EA2F47249861D7492812E2C215C93DCE91872A59A4583C782992C8CB764F9EEF99895DB21947E57D8F688938661238857106541CC394DF7D9CB9D328
310
9CAAF751A8FEEDACF9A859C1F0ACA996BACB25614222963C63A947663E8AA5B91FACAECF16E7934510CC27C1BB337F727573B59AF83FCF67CB77CBE5F9E5F539B0B72D0A6A654A7189590AFADBBB911F4ED59B46748BC031AE9382319C6820012A2D569F20C102B66AC137EB3EFA4AA2D66B2D61EB3950EF2D0BADE17997CA
310
D0AC714074E8822076BB5AE2FADA96AFD8FE0D828B3146C90596C0AD901CB46BE1E1E0156E340BA766340AB7075D10E1E448624E107528D972C4412930554D8942B3C09251CEC18194A324D09A33AFBBB6059EF9BAEB1CE3725751AA3CC38DB463C5E07E580ACD19F907F303F76D64802790B6224CBEB75CCA7D89DDE83C9C
310
EAC1285497F9997D698074761465422362DEF6045D2AD75FAFDCE8B79BEDD3468583E39B97BC283197CAE8941E355F60C8F6AA50B2DBFAA334A71680300654BBF200CA1740FE23448F032BA0374E9E82A7C0CE951C31B12B780EBA7166CE64067F33C7D7FFEABE75174E9BC55DED0DE1096EAAA07AFFFD787665D05859FE5B
310
7046E123187CC1E7F6D5264114ECF9963000481989430B1882D0BEDB3EB9D11A0227047A588568E483C8C0EE23DC86534BE6A095DABDACD73140D4EE311FA324804D5B24B031A0A70F903D38490E6A6A8B3804EFE24DCCF572B5F96D53F11D4AF0ADF5E915DE11462464CDE30C7530EF48F480F7DF0A9E82A0CFF1DEB4F1CE
310
ED5602D056982BE0B31A04F570D8B9B34102EBB242859BF0951D400895AB5BF46F894830A588E1A2AAF76DA29B32D4C6E36DCDE0466706E2F959CF84397E24AAAA00A739CCE8300A793FE1A45420BAD10723591334BD01E9BEAE3F824536F30766AD19845E86E81F3A681DC1A163D935D2168846E0ED219C27052D78BCDDC7
310
26D2B9504B001B5D6FF9B3431462BD5192A2021EA4FDAE0E299991364EC96E570988AB4758FC73BD6C9BC3CC9BFB0BA7FDDF73C600A22DF82EE2D6EF7A7BC42447198E77281DDAAEBD5B435B689203A439DE51908B3C12B98F918C6729CE4E81E624E2E76F4A3DA38510846101F9EA28F86D34661E0412A3CD9A65A5D51ED0
310
44C43996889E8280223300AE4E3BBAC64DA074789DC7C67A5FD2589BE8FF64111C412D59B09840290A39E455C67D6F0131A48BAE41B9872F585B4D5B8B412B2821927DFC0D93EC5E9E82BA213F807B0247924AC645891230EB11649FF98A526A8FF72D4A1E54FE88938ABE9581084C7731A1B4CA63F81106278F31AEDD04A6
310
1751681137B14FE21C8A32242B3E6693778BD9B37D4CCDD00F81AD8D768442D88E73540EA0DE0988BA1E711AF02DF501A56EABBC8C515E546C94A178F3BE3759F27DB52AB223F955A522948D35614B300A09934D56AD633698BA0EACE0463A50ED6381F2929A53D82B89C76FBC49531EDC805B3F7DDB0D7228FC06B4D78EA8
310
410D83E5B15318886F4826F76EB4D1D7C915D4DF294E0FA9BEAE35DB152020A62279C58955D1D7359437B64673A35B24C5DD079375EBEBD7B507DD8F700A6BA0766916AE15D0396612A9CAE456DDD02F0842708786195FAB9C7A0A95CB34D55523A23764489D9D32A2B3694EBCF21EB322871FBB232CA1558AEF502A1EE25B
310
49E30D51AC5B29BD9CD418BF28E0A70F9B1E3C303242A4CFAAC0C3DF7A6BEDE852954B4789C8FB2ADF324420087644CB8C6EBC92655623B5969BAB3A5340DD050666551CFC3859B4DB113F4E1699358CEF3A595CED7F47FB765FA495CE1365D7271D039AFCA4A8BCC53140B71D1AAA4D1631C9DCCA6F9D2986A05847F9D1D5
310
581D340CC1218EFF73D61ECA8266BB1EFFA7656DFF59C5715256E94C565DAA2395EBBA9DC3668B9F2F2F83CBC5E47A1E5C4F82E06631791FAC1693E5CD75B0BA397FE74383B641533B6A1436C14CE72E783641AD1E564F1603E8CA8A8292144EF3A9936188F912CEF423DAE73CC7029267BBD99DDAA6FC88D58FA6CF29D196
310
E29A937B040D622A20AD03465522BBE3CE4FD09A9470D0BE70A169E43DC09FB54AD781CC73E142AB4092040B6F0B6D26D5D0D3C421E5EADC6F89013E88652A259A45CD73B34A61D309FFCD943169C0CAD5E96140E15642F7ABD3A1D0BC599E929304AFD9719084DB6D25A15A33B21C061A61F43607F51BD928610F76EB2770
310
DD97C5F23D3DA783C8A84F062F1A81A13A918867BADFAD18B32C5DAE3E4FA1CFE6AC3F3925AD32D0E5784A138EC1982B555081158155589A259260AACB5FEE3EF3023EF1E48EAE8AEE96459E17CC3E5CC2792C854F44CEE61E3EF8A477503660D55617776733FFEC4EB7B36D873DDE22813D550FC1405D4628117AC60616F9
310
AC35651B9753A584DEF4F5CAB1E113DA00C6829E7577CDE72D07BC477D4851BEA23DBC96F3C58EF6544F056BE0D08B8EFE05504B0304140006080000C65B3140000000000000000000000000350000006662782F45313037373837412D353146392D343942302D383441372D3432314131303335363733302F766572746963
310
65732E62696E504B0304140006080800C65B3140F270F1330600000004000000360000006662782F45313037373837412D353146392D343942302D383441372D3432314131303335363733302F747269616E676C65732E62696E636660600000504B0304140006080000C65B31400000000000000000000000003700000066
310
62782F45313037373837412D353146392D343942302D383441372D3432314131303335363733302F617474726962757465732E62696E504B0304140006080800C65B3140D5987DFC8F00000041010000360000006662782F45313037373837412D353146392D343942302D383441372D3432314131303335363733302F6469
310
726563746F72792E786D6C858F410EC2201045AF4266AF15DDB800BA74E7C21B903225242D6328188F2FA5C4183471359997F9FF81E89FF3C41E1816475E02DF1F80A11FC8386F25A438EECEC07A250251FC3803E6F58C12560C4AD840E95E91C151A72936F496F35732D860FE635F62C8F2DA16B505C545B74125BAA2FA9E
310
05D7CC053D063734D5C7665FD55B6B8D15D5E9BFEAFD8490FFA45E504B0304140006080800C65B314067A22916FC000000A00100003B0000006662782F45313037373837412D353146392D343942302D383441372D3432314131303335363733302F7265736F75726365732F636F72652E786D6C8D504B6E833010BD0A9ABD
310
C1C68124C838A2AD72825EC032136A25D8C89FAAC7AF09546A77DDCC8CDE47F3F4C4E56B7E149FE88371B607565228D06A371A3BF590E28D9CA0B848E19D8BBF64505835630F2B0C524CDEA56587B4B3116DCCA87523EEA00A012314FA918F1E82FEC059952AC5AC08F77251FAAE262C5999E9AC9322449F0314DB937582F4
310
185CF21A83A836568A94CCB86BCC987F9A9B410F92F2D395B79C93EB5B7D2087BA3993F3B519C8EB701C5E28E30D6F4FA25ACD524433FF64D41E55C411644D594D2823ECF8CE58C769C738A16D47A9A856F91F535AC67F9A92B191D77BDCCD1640B21CE4494851AD7DE5F52C33EFB55BF90D504B010214000A0000080000C6
310
5B31403DEE336E79000000790000001B00000000000000000000000000000000006175746F6465736B2D64657369676E2D7061636B6167652E786D6C504B01021400140006080800C65B3140D486FD9CA0000000F40000001300000000000000000000000000B20000005B436F6E74656E745F54797065735D2E786D6C504B
310
01021400140006080800C65B3140B8CCE3AEEA0000007C010000080000000000000000000000000083010000636F72652E786D6C504B01021400140006080800C65B314055019EA25F0000007C000000070000000000000000000000000093020000636E782E786D6C504B01021400140006080800C65B314062508E116501
310
0000020300000C00000000000000000000000000170300006662782F636F72652E786D6C504B01021400140006080800C65B3140FB08F6987D0000009D0000000B00000000000000000000000000A60400006662782F636E782E786D6C504B01021400140006080800C65B31406E4F62302901000014020000310000000000
310
00000000000000004C0500006662782F45313037373837412D353146392D343942302D383441372D3432314131303335363733302F636F72652E786D6C504B01021400140006080800C65B314072D2AAAA54010000330300003000000000000000000000000000C40600006662782F45313037373837412D353146392D3439
310
42302D383441372D3432314131303335363733302F636E782E786D6C504B01021400140006080800C65B3140E51810715A070000941B00003400000000000000000000000000660800006662782F45313037373837412D353146392D343942302D383441372D3432314131303335363733302F6F626A656374732E786D6C50
310
4B01021400140006080000C65B31400000000000000000000000003500000000000000000000000000121000006662782F45313037373837412D353146392D343942302D383441372D3432314131303335363733302F76657274696365732E62696E504B01021400140006080800C65B3140F270F133060000000400000036
310
00000000000000000000000000651000006662782F45313037373837412D353146392D343942302D383441372D3432314131303335363733302F747269616E676C65732E62696E504B01021400140006080000C65B31400000000000000000000000003700000000000000000000000000BF1000006662782F453130373738
310
37412D353146392D343942302D383441372D3432314131303335363733302F617474726962757465732E62696E504B01021400140006080800C65B3140D5987DFC8F000000410100003600000000000000000000000000141100006662782F45313037373837412D353146392D343942302D383441372D3432314131303335
310
363733302F6469726563746F72792E786D6C504B01021400140006080800C65B314067A22916FC000000A00100003B00000000000000000000000000F71100006662782F45313037373837412D353146392D343942302D383441372D3432314131303335363733302F7265736F75726365732F636F72652E786D6C504B0506
310
000000000E000E00800400004C1300000000
  0
XRECORD
  5
17
102
{ACAD_REACTORS
330
12
102
}
330
12
100
AcDbXrecord
280
     1
270
     1
271
     1
  0
XRECORD
  5
16
102
{ACAD_REACTORS
330
12
102
}
330
12
100
AcDbXrecord
280
     1
270
     1
271
     1
  0
XRECORD
  5
18
102
{ACAD_REACTORS
330
12
102
}
330
12
100
AcDbXrecord
280
     1
270
     1
271
     1
  0
XRECORD
  5
15
102
{ACAD_REACTORS
330
12
102
}
330
12
100
AcDbXrecord
280
     1
270
     1
271
     1
  0
XRECORD
  5
CF5
102
{ACAD_REACTORS
330
22
102
}
330
22
100
AcDbXrecord
280
     1
102
MATERIAL
148
0.0
149
0.0
149
0.0
 93
        0
 94
      127
282
     0
 72
     0
 77
     0
171
     0
175
     0
179
     0
273
     0
  0
XRECORD
  5
24
102
{ACAD_REACTORS
330
22
102
}
330
22
100
AcDbXrecord
280
     1
270
     1
271
     1
  0
XRECORD
  5
23
102
{ACAD_REACTORS
330
22
102
}
330
22
100
AcDbXrecord
280
     1
270
     1
271
     1
  0
XRECORD
  5
11B
102
{ACAD_REACTORS
330
22
102
}
330
22
100
AcDbXrecord
280
     1
 70
     1
 90
1959938040
 71
     1
  1
C80BF243-7C6A-4C6C-AF63-4FD3416AFA4D
311
504B03040A0000080000C65B31403DEE336E79000000790000001B0000006175746F6465736B2D64657369676E2D7061636B6167652E786D6C3C3F786D6C2076657273696F6E3D22312E302220656E636F64696E673D227574662D3822203F3E3C666F726D6174733E3C666F726D61743E687474703A2F2F736368656D612E
311
6175746F6465736B2E636F6D2F64657369676E2D7061636B6167652F323030393C2F666F726D61743E3C2F666F726D6174733E504B0304140006080800C65B3140D486FD9CA0000000F4000000130000005B436F6E74656E745F54797065735D2E786D6C7D8EC10E82300C865F65E91D8A1E8C310C0EEA1BF002731658846E
311
D98AC1B77784ABF1D8FE5FBFBF75BBCE937A534CCEB38643598122B6FEE978D0B0485F9C41B54DDD7D022595594E1A469170414C76A4D9A4D207E29CF43ECE46F218070CC6BECC4078ACAA135ACF422C856C0E68EA1BF5669944DDD7BCDE7B1F8E415D77AECB980613C2E4AC91FC167A2B244592486606FC29C8FD7F045B9A
311
EF7053A7E60B504B0304140006080800C65B3140A2FEE55AE90000007C01000008000000636F72652E786D6C8D90516EC3201044AF82F61F9BB59334B6309195C627E8051010172506CB40D5E317278ED4FEF56B47C33C7635FCF43DDDC9975982F5AE032C1810E394D7D68D1DA478A5472027C117EFE3AF18102727D3C16A
311
83E0E3E2D3BC59CABB685CCCAEF3DA6CA60CC14420EA9E4507417D9A491632C59C08B76296EA264753E04B653825ABC97389D5F93F7BB56601B167ECBD1970A07D7FECE9AEAE30ABDD850E43539FD9613837973D2F5758F068A7D77EB518198D065131AC28438A6F1F886DCD5AAC293BB48CF1728DFF81D2ACFF0925EB625D
311
6DE73EB10002F3218F07C1CBB58B3C1E45E5B9F6267E00504B0304140006080800C65B314055019EA25F0000007C00000007000000636E782E786D6C4DCB3B0E80201045D1AD90E915ED2CF8AC45050C11660C8261F98AB1B07AC9C97D42D718D865D3E909258CFD00CCE24AC6E326A164D74DC0B4128928FF326038472BA1
311
3128B1252AC747C6BAB984FC68F0B87FE8960A5C09FE86CFB69FBA01504B0304140006080800C65B31401C5F544965010000020300000C0000006662782F636F72652E786D6C8D52ED8E8230107C95A6FFA12DA8A7A6D4184F9EE05EA042E51AA125A5253EFE2D1F86F362CC85A434333BBBB303FC706F6AD42BD7696B32CC
311
628A9132852DB5A9321CFC35DA627410DC59EB7F95616464A3323CC058F0CAD9D0CE50618D57C6036A6CA96650769DF21815355C32DC15DFAA91B10C1E2ABA5BDCCAE2262B15B31868A813BCF30E0CA069C8706271BDDC399970C143D0E5CCEA12A6E9AB560E8B35A59FBB9CE5D1F1B83D46AB3461705B9DA33CDFA527BAC9
311
4FBBF39A93412CB8D7CDC35DE194F4AAC422A12C89288BD8C71763FB94EE591AD1CD9E524E86F2275168CB7F8A82363E4D66BB93ACC382819191F8B32D44E451277BF04304274388F01A137E0E1A028190BDBCD48F3D6E00F5AAF0D6AD80296D58A85ED641C1548AC687938985CE6303D8EC659FE44D9FF73DE0034A538135
311
E9E17A097E98CEA7A97314AD7251EFEFC858D7C87A3137595CCE65D04B79616BEBFEA326F3AA640E930C7FAFF801504B0304140006080800C65B3140D757703B7E0000009D0000000B0000006662782F636E782E786D6C4DCCD10A83201886E15B91FFDC95ADB21FD448C6EE239685CC349C8E5DFE6A74B0A30F1E3E5ED17F
311
5647DE26BE6CF012D8A50462FC234CD62F12729A6907A457228690FE6E40FCB81A090783124B0C793B6932F3985DDAD559FF3C5173CEDA466B8AD73BA375DD728A6C1828F25BA9B1EA58D520144A14BFD2BE47587D01504B0304140006080800C65B3140E5B532FB2A01000014020000310000006662782F42373731363542
311
422D393346312D343436372D393141412D3937443042393238313235392F636F72652E786D6C8D51CB6E833010FC15E4537A30788140888CA3A0AA5FD01F20B643AD041BF951E5F36B1722B5B75CBCD6ECCCEC68979E1EF33DFB96D629A37B04394199D4DC08A5A71E057FC507949D18B5C6F83F3494E971963D4A306274B2
311
262C1BC48DF652FB886A23E4068ECE498F327E8F9F1E39FE25E7311F838F0C77CB9791DFC649E690C776E431EABC8D01B275487A111BDA169AFD30E0AEFA005CD74D8B3B389F71D7BE93A12B0F50EE3B5AAC4246435062932B11E3A8AB92F655932466D4ABF9199F5B397A29102B0994980086F613E0589123549834474268
311
91E8FF4461112F8A82D2BE2AB7B8ABCC2106B4581B8C0A132EF76718F9588CF5599AB77392BF214672021D944D1D17B052E302A267536F9ECE1B1B17BCBB5D221BF6AB7153335AA41BC5F27BC058D33DD90F504B0304140006080800C65B3140147565BD4C01000033030000300000006662782F42373731363542422D3933
311
46312D343436372D393141412D3937443042393238313235392F636E782E786D6CD593CD6E022114855F85B09F1FD4D8C6309874D127E8A25B06AE8A3230E1A7A96FDF8BA275E3A2CB6EC8E4DCC339375F18BEFD9E2CF982108D7703656D4F0938E5B571FB81E6B46B5E29D90A1EBC4F0F364A9C9C60A045A682EF83CF7395
311
34EC64B609556BDCA98A01A2CF414144B9DC24D62B6931005C9351846904AD4193BB11BF7610701514C733490720EF6F9FC48F475029F2AEA408DE950EC1CB599B1E4C94282B631C68540798642B73F21AE2A9D532C996B5B7AE273BFD269172E156998321A57CA0E5A4A26ED42247DEE150F09802D2ABA6749E810A39CFD6
311
2899107277315E3D8267E3D27A55BD06C10774B3F572B5C2B0CB4CF06426A80E154026D0542C7AB6687AD6B0970FC636CB7EC3964DBFDEF43DEF8A5DF0D17B5B2F610C043F13E55D0297A860BC2BE367F8AA8F681390B50FE73F804400B5F54AE79EF19FF97497F78DB802FE05E207504B0304140006080800C65B3140F1A1
311
57A0980500007A100000340000006662782F42373731363542422D393346312D343436372D393141412D3937443042393238313235392F6F626A656374732E786D6CAD57DB6EDB3810FD1541FBEC8B6C374D168A0AC7AE0BA3485BD468B10F010C4AA2146E285120A9D4D9AFDF4389BAB976EA5DF4C5B2A8E170E6CC990BFD
311
77878C3BCF542A26F25BD71B4F5D87E69188599EDEBAA54E46D7AEF32EF0A510BA27E63A39C9E8AD6B96DDC04FA5280BBB14D384945C1FAD6EEEFE72544473EA3A11274ADDBA2A7AA4191993528B98AAA7714C3419A7C961EC8D6BC1A1DA5492E2F148694124CD352CC57A0E2D4E6D94377C9DBA93C09F98EF816F7EADD4FC
311
BCD4A4F267783ECB952679F4D361476AE6DE62FD7EF6E666F466B1988F1657336F74B7B95B8FBCB7F3E9EA6AB5BA59BEBFC1C14A4B68B296489AB8C107602359E44FEA4F815FB25CCF6756C4066822E9333391728399E3F9935AA6F5CE3A79CAFC48E4398D2AAC8046E59F551DD382E63162CEA882653D84A6C357CFE0D8FB
311
3C37EFF6C8FEF26508F477F41435B637CFBEA522FC1B2EA84B182415350CACB1B48ED65C9D7608874270FB8D2927239A4A46B8C35928897C7103881A91C01FA8314C96261B8C076E8028D49F8774411AFD9AE7A7AC4C4ACE0D8DDDA0CA823D72856A5559C6FEA1B2B3BE8F0C6C42AC0C1BAEAD43FAA5A06E705353E4FA884D
311
35904EC2498A90C34DB3733E3B727465F274BB76838F9BF0B033B97BFAF0428A824A6DE8036A35816B9E06256B937751E4CC06F7C8940E94AF40FE1352BD33057193ECB0382CEC295A925C254266888D33754653FC4C1DAFFA35FF7BFFFC49BB7918BD737822D806AADF80E7D0877E2C7B7006FE33082FE4DCBAB68B0847D9
311
B8673900322471B8C012EA70121EDC608B2A87AA8C5D84071E5C86B9CFF8EB4FAC1A148AEAA4DE3307964765F182020DD82A46C28C9AFCD6C02E4E3F95B3EA602B760EDE37BF85AECBF5EEE3AE940989E8BDCDE9354D58CE345A5CC79BBE4103CC071E3DD1971F42C670F467BC777DBC337B9402DA0673037CDAD474F3D29D
311
3C3820C2BE549872E3FFE20438611A6B4FFF3D5311E59CE45494CDB9AFF60FB48D1A6293EC86C96D83E91A0B48537F39CA4134E948B2C280D876ABB6688ECF78F76DFB098C843C1721E19D50D895DE487021F7E1CBBEAE4A2791FE3EA4B6856062B480ED558E34E96F31DFC72C494A851A7802D6EFDB553F74A62AA042345A
311
EB6459C07DE4169196B38D5E346B49D04845BE67689B48BB9307F4F503514B804AE1398B15E5C99E715E66FB847134A37D468A3370FC7FFBC3322BF6241365AECFE81E988EE630B47D405EF583E8E8D10D76D5737487D21BD3B80BF340D8B49213580D42BBBA9EDE6D66989CDEAEAE96A30526A6D1727385416AB39E2FBCAB
311
E566B9583771AA95077ED369FA098D28A1B3F9A564367CDFB6481F5B03DCE09E68F5F0A1CECEE6F96D3BC628EC4FB007EDB2DDB88C9F31F6D1F8D70A3AC9938AB659C16946734D4C0ADD9B3FFC2BC1983130A65EDF6624A51768F9FC6177E40C562ED8F7C5A43BFD71B4D7AEAE4C429E54A21FCB2CCC09E3471BD31AC97191
311
A716BF2626EDB3EE33CDAB79B381C160AA046731CA60ECA4546454A3185ED083644615A8D71FE9637BF5B860F7733D206A1272DA58F24830237385B400B5CA480FD79D3F30D399B1EAD645B71D3FE1C7560AD701676E5DCCE89A45548D43F467330955CAC1A5FE208FB99FE429C7A85D6F6ADFDB5D069B41476E452E199FAC
311
5F7505B70EA08C14181B300F213A9531815FD966BF47FFC9F1C61C8768FC0D4BDDFAD22DB4CE54C720456BA7EC650133CC933DFA80447DDD2D6F5CC90C10B9E892F52A096AAD234D645A5D148C7DD6A4E5FACB04038AB3FDEC14BC4C11CBCB358D2405994B93E06011586175164483AAAB3F1FBE48818B6CE66C1828F0B012
311
592672FBB2B4176167F7886B6DFC80B240CD7D443DCCA6DEECA1BA07D8ABC93E248A8E49AC9EB080984AD6423C083C18595F16D181EA0FADDCC404E1889BDBB5635BDA024A2D51FA55D5C0828923A70EB2C7DC254DAEF4058A57AF02934A1426480CF1C1BF504B0304140006080000C65B3140000000000000000000000000
311
350000006662782F42373731363542422D393346312D343436372D393141412D3937443042393238313235392F76657274696365732E62696E504B0304140006080800C65B3140F270F1330600000004000000360000006662782F42373731363542422D393346312D343436372D393141412D393744304239323831323539
311
2F747269616E676C65732E62696E636660600000504B0304140006080000C65B3140000000000000000000000000370000006662782F42373731363542422D393346312D343436372D393141412D3937443042393238313235392F617474726962757465732E62696E504B0304140006080800C65B3140D5987DFC8F000000
311
41010000360000006662782F42373731363542422D393346312D343436372D393141412D3937443042393238313235392F6469726563746F72792E786D6C858F410EC2201045AF4266AF15DDB800BA74E7C21B903225242D6328188F2FA5C4183471359997F9FF81E89FF3C41E1816475E02DF1F80A11FC8386F25A438EECE
311
C07A250251FC3803E6F58C12560C4AD840E95E91C151A72936F496F35732D860FE635F62C8F2DA16B505C545B74125BAA2FA9E05D7CC053D063734D5C7665FD55B6B8D15D5E9BFEAFD8490FFA45E504B0304140006080800C65B3140CA14B86BFB000000A00100003B0000006662782F42373731363542422D393346312D34
311
3436372D393141412D3937443042393238313235392F7265736F75726365732F636F72652E786D6C8D504B6E833010BD0A9ABDC186240DC83842299CA017B0CC84580936F2A7EAF16B0295DA5D3733A3F7D13C3D7EF99A9FD9273AAFAD6981E5143234CA8EDA4C2DC4702367C82E823B6BC32F196446CED8C20A83E093B371
311
D921654D4013126AEC883B28BDC700997AA6A305AFEE38CB5CC69014FE912F523DE48439CB139D7482FBE052806C7BB24E100EBD8D4EA1E7C5C60A1EA31E778D1ED34F7DD3E8401C297DAF07D693AE3B77E450952C5D879E0C435D5DE969B8D6FD9117AB59F0A0E79F8CCAA10C388228292B096584BD7D30D654B46115A1A7
311
86525EACF23FA6B88CFF34456D4255EE71379B07C15290172178B1F695D6ABCCB4D76EC537504B010214000A0000080000C65B31403DEE336E79000000790000001B00000000000000000000000000000000006175746F6465736B2D64657369676E2D7061636B6167652E786D6C504B01021400140006080800C65B3140D4
311
86FD9CA0000000F40000001300000000000000000000000000B20000005B436F6E74656E745F54797065735D2E786D6C504B01021400140006080800C65B3140A2FEE55AE90000007C010000080000000000000000000000000083010000636F72652E786D6C504B01021400140006080800C65B314055019EA25F0000007C
311
000000070000000000000000000000000092020000636E782E786D6C504B01021400140006080800C65B31401C5F544965010000020300000C00000000000000000000000000160300006662782F636F72652E786D6C504B01021400140006080800C65B3140D757703B7E0000009D0000000B000000000000000000000000
311
00A50400006662782F636E782E786D6C504B01021400140006080800C65B3140E5B532FB2A0100001402000031000000000000000000000000004C0500006662782F42373731363542422D393346312D343436372D393141412D3937443042393238313235392F636F72652E786D6C504B01021400140006080800C65B3140
311
147565BD4C010000330300003000000000000000000000000000C50600006662782F42373731363542422D393346312D343436372D393141412D3937443042393238313235392F636E782E786D6C504B01021400140006080800C65B3140F1A157A0980500007A10000034000000000000000000000000005F080000666278
311
2F42373731363542422D393346312D343436372D393141412D3937443042393238313235392F6F626A656374732E786D6C504B01021400140006080000C65B31400000000000000000000000003500000000000000000000000000490E00006662782F42373731363542422D393346312D343436372D393141412D39374430
311
42393238313235392F76657274696365732E62696E504B01021400140006080800C65B3140F270F133060000000400000036000000000000000000000000009C0E00006662782F42373731363542422D393346312D343436372D393141412D3937443042393238313235392F747269616E676C65732E62696E504B01021400
311
140006080000C65B31400000000000000000000000003700000000000000000000000000F60E00006662782F42373731363542422D393346312D343436372D393141412D3937443042393238313235392F617474726962757465732E62696E504B01021400140006080800C65B3140D5987DFC8F0000004101000036000000
311
000000000000000000004B0F00006662782F42373731363542422D393346312D343436372D393141412D3937443042393238313235392F6469726563746F72792E786D6C504B01021400140006080800C65B3140CA14B86BFB000000A00100003B000000000000000000000000002E1000006662782F42373731363542422D
311
393346312D343436372D393141412D3937443042393238313235392F7265736F75726365732F636F72652E786D6C504B0506000000000E000E0080040000821100000000
310
504B03040A0000080000C65B31403DEE336E79000000790000001B0000006175746F6465736B2D64657369676E2D7061636B6167652E786D6C3C3F786D6C2076657273696F6E3D22312E302220656E636F64696E673D227574662D3822203F3E3C666F726D6174733E3C666F726D61743E687474703A2F2F736368656D612E
310
6175746F6465736B2E636F6D2F64657369676E2D7061636B6167652F323030393C2F666F726D61743E3C2F666F726D6174733E504B0304140006080800C65B3140D486FD9CA0000000F4000000130000005B436F6E74656E745F54797065735D2E786D6C7D8EC10E82300C865F65E91D8A1E8C310C0EEA1BF002731658846E
310
D98AC1B77784ABF1D8FE5FBFBF75BBCE937A534CCEB38643598122B6FEE978D0B0485F9C41B54DDD7D022595594E1A469170414C76A4D9A4D207E29CF43ECE46F218070CC6BECC4078ACAA135ACF422C856C0E68EA1BF5669944DDD7BCDE7B1F8E415D77AECB980613C2E4AC91FC167A2B244592486606FC29C8FD7F045B9A
310
EF7053A7E60B504B0304140006080800C65B31405C5A2685EA0000007C01000008000000636F72652E786D6C8D90DD6EC3200C855F05F99E04927649234295ECE709F60208DC14B58128C0B4C71FE98FB4DDEDCAD6F1F96CEB88E3F77C255FB806EB5D0FBC6040D0696FAC9B7A48F1445B20472956EFE32F1B10A766EC6193
310
418A69F5697948DABB882E66D579830F5185801188BEE6A687A0CF38AB42A5981DE1522C4A5FD484057F76194EC91A723F624DDE674F16579063330CBCAE386DEAA1A5BBF6A3A1EDFE9DD1C3EBD00E6FE36164FB9D2837588A68E7E77DBDA28A6840568C579471CA9B4FCEBB9A75BCA6ECA5634C949BFD0F9416F34F285917
310
EBEAF1EE1D0B20797EE43690A2DCB2C8E51654AE5B6EF207504B0304140006080800C65B314055019EA25F0000007C00000007000000636E782E786D6C4DCB3B0E80201045D1AD90E915ED2CF8AC45050C11660C8261F98AB1B07AC9C97D42D718D865D3E909258CFD00CCE24AC6E326A164D74DC0B4128928FF326038472B
310
A13128B1252AC747C6BAB984FC68F0B87FE8960A5C09FE86CFB69FBA01504B0304140006080800C65B3140AAADE77166010000020300000C0000006662782F636F72652E786D6C8D52ED8E8230107C95A6FF4B5BD0034DADC1FB78827B815AAA4784D69496F8F8B70886F3628C2129CDCCCEEEEC80D85EDA06F5C677B5B31B
310
CC138691B1DA55B53D6E700C075260B495C23B17FE946164556B367880B11447EFE27982B4B3C1D800A875959940D5752660A41BB86C70A77F4CAB1215035474A7E4ACF4491D4DC213A0A14E8A2E783080C621C389E5617F1174C4A588B1AE26B6AE605A7DA88DC772979725CF524EF2AC2CC8A2F8CA49B1FC6464F55E16E5
310
C76EB563CB85A083588A50B73777DA1B154C8565CA784A18273CFFE67C9DB135CF087B5B3326E8507E278AE7EA4551AC6DC8D2C9EE28EBB0E460E44AFCDB16220AA8533DF8A152D02144785D13BE0F1A02819083DA37B73D4E00F54607E717C0542ECE54AF9A68602A43D747D09185CED706B0D9C33EE9933ECF7BC00754F6
310
08D65480EB3E8661BA18A74E519C8D277DB820EB7CAB9AD9DC68713EE7410FE5DA35CEBFA2A6D3AA740A930E7FAFFC05504B0304140006080800C65B31402E4484BF7D0000009D0000000B0000006662782F636E782E786D6C4DCCD10AC2201805E05791FFDED6DF562D50870B7D8FD1DC90390DD3E8F19BB18B6ECE818FC3
310
61DD6775E46DE2CB06CF010F4720C63FC268FDCC21A789B6403AC16208E96F06C40FABE15018049B63C8CF9D46330DD9A54D9DF5CB8E0D6A75AAEF17DAB425B4EC697F539A9E35EA1AF12A512AA804AB7E4F5B9763F105504B0304140006080800C65B3140D2B0040F2701000013020000310000006662782F343146453233
310
43362D343843362D344641422D423945462D3546314633313137413141452F636F72652E786D6C8D514B6EC32014BC0A62952EB0F9B8CE479828A9E213F402C4901425068B4F95E3176A476A77D9F0D0BC9979038FEF1FE31D7C6B1F8CB31D24158640DBC12963AF1D4CF1823610EC05F7CEC53F3408AC1C75070B0C05BF7A
310
97A6051A9C8DDAC68C5AA7F402CA10748460B8E74B07C3F0A54759C9143323DCAA490E3779D515A9723BF3040FD1E700601E524E281AD29F28FB6851B329477F38A2E3F6D4A3F79EF48C90F5811C4EBC9E8582A764D422372AC73117A3FDAB26452C7834E333FEE0B58C5A414131A1081344D69F84EC18DE118670BBC398D7
310
85FE4F9426F5A228191B195DE2CEB20005E1F5DC105CB974BE3FC3E8C7E47C0465DE2AE8E10D0A5C614A5BDA325ECFCCFCFE6CD9368B6588CEE7FF5DDDCE99CC16DFB611BC2E2BCAE5777FB996758A1F504B0304140006080800C65B314072D2AAAA5401000033030000300000006662782F34314645323343362D34384336
310
2D344641422D423945462D3546314633313137413141452F636E782E786D6CBD93CD6EC32010845F0571F70F71E4461126520F7D821E7AC5B04969305880ABE6EDBB2424CD25874A552FC89A1D66569F30DF7D4D967C4288C6BB81B2BAA5049CF2DAB8C34097B4AF3694EC040FDEA73B1B254E4E30D02C53C10FC12F739134
310
ECE56213AAD6B863110344BF040511E57C9358AFA4C50070D582224C23680D9ADC8CF8B58780ABA0389E487A07F2F2FC46FCF8012A45DEE414C19BDC21783E4BD39D891265658C038DEA1D2659CB25790DF1586B9964CDEA6BD7839D7E9248BE70AD5C8221B97CA0F9A4A26C542347DEE050F09802D22BA6749A810A39CFD6
310
2899107273365E3C822FC6A57E5DBC06C1077477AB7EB3C1B0F34CF06426280E154026D054AC5AB6AA5A56B1A757C6B65DBB655DD5F6DBB6E54DB60B3E7A6FCB258C81E067A2BC4BE012158C3779FC085FF1116D02B2F6E1F40B9008A0B45EE8DC32FE920FEBBBF5FA1FF934E7F78DB802FE05E21B504B0304140006080800
310
C65B3140C6B5C6EE57070000931B0000340000006662782F34314645323343362D343843362D344641422D423945462D3546314633313137413141452F6F626A656374732E786D6CED595B73A33614FE2B0C7D3636B1936E3A848E63373B9E4EB63B75B7D387CC3032C8448DB88C10D9A4BFBE9F84C0404C82BBE9DB3ED880
310
908ECEF9CE5507EFE7A7845B8F54142C4BAF6CD799D9164DC32C62697C6597723FF9605B3FFB9EC832D99A665B2949E895AD866DDF8B4556E66628A27B5272D91BBDB9FECB2A429A52DB0A39298A2BBB08EF69421C52CA2CA2C5831311499C78FFE4B84E35B14B361624BFEF11CD89A0A904A7184F41C5AA9872BB8F337BEA
310
7B53F5DEF7D4BF99351F356B313C6BAAA5EE72C9D24292347CC1528FCC7C144B7377B1FEE5ECFC7272BE58CC278B8B3377727D73BD9EB83FCE67AB8BD5EA72F9CB25D8DB651937324534A76904FD3DDBBEEB4DD59B467483C031AEC32C4D69A88104545AAC3E41460B6CD5826FD67D749544ADD75AC2D6F342BD372CB486E7
310
5D2A43B3C601D1A10B41CC76B5C4F5B52D5FB6FB1B8217638C52145482DB420A68D7C023E015B63FF3A6D5A8EFED0EBA60859510490523DCE26C2788805230554DF1BD6A8121A39C438094A524D09AAB5E776D0B9EF9B6EB1CE3725F72AE3CC3F6B56305703F2A0BCD19FB878A03F76D64C013A42D592A3F182EE5734E6DFF
310
D29BEA41DF5397F99979590169ED39890B8D48F5B627E84AB9FE666DFBBFDEEC9EB62A1C1CDF3C17594E855446A7F4A8F982219BAB42C96CEB8ED29C5A00612A50CDCA0328BF03F94F881E0756A037C19E164F0B33570A9216FB4C24D08D35B32633FCCD2C57FFABFBD69D376D1677B5378427DC5441F5E1DBF1ECCAA0B132
310
FCB7E0F4BD47187C26E6E6D536241CF67CCB5200A48CC4E2198610DAF7BB27DBDF207022D06315E1BE0B91C1EE236EBDA92173D04AED5EC6EB52206AF6988F511260D316093606F4F411D943B0F0A0A6B68843F09EBF8BB92ED7DB5FB7A5D89390DE1A9F5ED33D4B9944D63CCE5007F38E440FF4F96B262208FA12EF6D1BEF
310
C46C55006D85B9023EAE41500F879D3B1B845817672ADC786FEC002154AE6ED1BF654548392729CDCA7ADF26BA29436D3CDED40CB67F56413C3FEB99B0A08F4C5515709AC38C0EA3C8FBA160B902D1F63F56923541D31990EECBE6132CB2993F306B9322F4A684FFA183D6111C3A965D236D806804DE1DC27998F14C04BBE7
310
A08A74366A09B0D1F5963F3B4411EB2B25292AF020ED777548892B698388EDF76581B87A84C53F37ABB639CC9CB97B6EB5FF7BCEB840B485EF1261FCAEB747C01212D3604FA2A1EDDABB35B40B4D7280B4A07B0EB9D82393CF0191C12CA2F129D09C44FCF25DA9C73C2B0A96D202F9EA28F86D34660E0249A5CD9A65A5D51E
310
D0AC08122A093F05014566005C9D76748D1BA274789BC7C67A5FD3589BE8FF641182A096CCD280A114450E799371D739470CE9A25BA1DCC317D656D3D662F0122544F81C7CA52CBE97A7A05E911FC03DC491A49441969310663D82EC0B5F514AEDF1BE23E183CA1F4158F2F7329082F27DC0382F93003F96E2E431C6B59BC0
310
F42A0A2DE255EC93344151466429C66C72713E7BB14F5533F443606BA33DE308DB4142F201D43B0151D7235603BEA13EA0D45D99E40149B2321D6528CEBCEF4D867C5FAD8AEC487E55A988B2B1266C08FA1E4B659355EB980D53D781156EA403D573509024E7D529EC8DC4E336DEA4290F6E208C9FBEEF06090ABF01EDB523
310
EAA286C1F0D8290C8AAF4486F7B6BFD5D7C935EAEF884687545FD79AED0A1088A9485E0A6654F46583F2C6D468B67F4B6471F7B1CABAF5F5CBC641F7C39B620D6A9766E146019DD054125599DCAA1BFE3B4108EED0A8C6372AA79E42651945BA6A24FC860DA9B3534674364D9893DFD3344BF04BEF581AF232A277242A1E82
310
5BC9832D53AC1B299D84D518BF2AE06F1FB73D78303242A4CFAAC0A35F7B6BCDE84A954B4789C8FB32D9A584210876448B2BDD38791A1B8DD45A6EAEEA4C81BA0B066654BCF87EB268B723BE9F2C626318DF76B2E0D98EF043B46965F35099F549A780263D292AEF710AD05D87866A9344AA5C6EC437BE142026D6417E7431
310
56C78C8AE010C7FF39690F25C16ABB1EFFA7256DF745C1715252E94C564DAA2385EBA69DC2561F66D7376768CDFEB8BA584E1668C94E963717E8D4DEACE70BF76279B35CAC1B34B59FFA5E13CB74EAC27315D3EA61F564304053B6C8388B70988FAC9822E44B1CE94774CF45420BE4CE76AF3B323DF911AB1FAB36A7243B4E
310
6B4EEE09FAC3BC405607466528BBE3D60FE84C4A9CB3AF6CF48C9C07FC19ABB42D249E2B1B9D02C9425A383B7499543F4F1347C6D5A9DF10033E248D5546AC1635CFCD2A854D27FA3753C664012357A78581BA2D47F3ABD3A0D0BC199EC29304AFD9B188C4EDAE9428D62A590E038D307A9B83FA2BD9384B1FCCD64F70DDD7
310
C5721D3DA783C8A82F06AF1A41457522898875BB5B3166585AAE3F4FD166B336BF59392F63E8723CA589A030E652D553B0225885A1991309535DFD74F75964F8C29358BA28BA5B654992A5E66189E358842F44D6F61EDF7BA23B540D5475D58BBBB3997B76A7BBD9A6C11EEC48411D550E61A0AE2294083D638345BEE84C99
310
BEE55429A1377DB3B64CF84417A0B2A017CDDDEAEB9605EF51DF5194AF680FAFE57CB5A13DD553610D02AD68FF5F504B0304140006080000C65B3140000000000000000000000000350000006662782F34314645323343362D343843362D344641422D423945462D3546314633313137413141452F76657274696365732E62
310
696E504B0304140006080800C65B3140F270F1330600000004000000360000006662782F34314645323343362D343843362D344641422D423945462D3546314633313137413141452F747269616E676C65732E62696E636660600000504B0304140006080000C65B3140000000000000000000000000370000006662782F34
310
314645323343362D343843362D344641422D423945462D3546314633313137413141452F617474726962757465732E62696E504B0304140006080800C65B3140D5987DFC8F00000041010000360000006662782F34314645323343362D343843362D344641422D423945462D3546314633313137413141452F646972656374
310
6F72792E786D6C858F410EC2201045AF4266AF15DDB800BA74E7C21B903225242D6328188F2FA5C4183471359997F9FF81E89FF3C41E1816475E02DF1F80A11FC8386F25A438EECEC07A250251FC3803E6F58C12560C4AD840E95E91C151A72936F496F35732D860FE635F62C8F2DA16B505C545B74125BAA2FA9E05D7CC05
310
3D063734D5C7665FD55B6B8D15D5E9BFEAFD8490FFA45E504B0304140006080800C65B31404FF1081DFC000000A00100003B0000006662782F34314645323343362D343843362D344641422D423945462D3546314633313137413141452F7265736F75726365732F636F72652E786D6C8D50596E833010BD0A9A7F830D4921
310
C838822E27E8052C33A156828DBC543D7EED844AED5F7F66466FD13C3D7EFE5A6FC5273AAFAD198095140A34CACEDA2C03C470211D1467C19DB5E1970C0A23571C20C320F8E26CDC76485913D084841A3BE30E4AEF3140A16EE918C0AB0F5C652963480A7F2D37A9AE72C19295894E3AC17D702940F17892270887DE46A7D0
310
F3EAC10A1EA39E778D9ED34F7DD1E8404CED38B2A6A6A46DC68E1CBAB79674C7574A4ECF6337BE4CA7891E0FBCCA66C1835E7F322A8732E00CA2A6AC269411D6BE33D637B4670DA14F3DA5BCCAF23FA6B8CDFF34456D4253EF711F360F82A5207742F02AF795D6BDCCB473B7E21B504B010214000A0000080000C65B31403D
310
EE336E79000000790000001B00000000000000000000000000000000006175746F6465736B2D64657369676E2D7061636B6167652E786D6C504B01021400140006080800C65B3140D486FD9CA0000000F40000001300000000000000000000000000B20000005B436F6E74656E745F54797065735D2E786D6C504B01021400
310
140006080800C65B31405C5A2685EA0000007C010000080000000000000000000000000083010000636F72652E786D6C504B01021400140006080800C65B314055019EA25F0000007C000000070000000000000000000000000093020000636E782E786D6C504B01021400140006080800C65B3140AAADE771660100000203
310
00000C00000000000000000000000000170300006662782F636F72652E786D6C504B01021400140006080800C65B31402E4484BF7D0000009D0000000B00000000000000000000000000A70400006662782F636E782E786D6C504B01021400140006080800C65B3140D2B0040F270100001302000031000000000000000000
310
000000004D0500006662782F34314645323343362D343843362D344641422D423945462D3546314633313137413141452F636F72652E786D6C504B01021400140006080800C65B314072D2AAAA54010000330300003000000000000000000000000000C30600006662782F34314645323343362D343843362D344641422D42
310
3945462D3546314633313137413141452F636E782E786D6C504B01021400140006080800C65B3140C6B5C6EE57070000931B00003400000000000000000000000000650800006662782F34314645323343362D343843362D344641422D423945462D3546314633313137413141452F6F626A656374732E786D6C504B010214
310
00140006080000C65B314000000000000000000000000035000000000000000000000000000E1000006662782F34314645323343362D343843362D344641422D423945462D3546314633313137413141452F76657274696365732E62696E504B01021400140006080800C65B3140F270F13306000000040000003600000000
310
000000000000000000611000006662782F34314645323343362D343843362D344641422D423945462D3546314633313137413141452F747269616E676C65732E62696E504B01021400140006080000C65B31400000000000000000000000003700000000000000000000000000BB1000006662782F34314645323343362D34
310
3843362D344641422D423945462D3546314633313137413141452F617474726962757465732E62696E504B01021400140006080800C65B3140D5987DFC8F000000410100003600000000000000000000000000101100006662782F34314645323343362D343843362D344641422D423945462D354631463331313741314145
310
2F6469726563746F72792E786D6C504B01021400140006080800C65B31404FF1081DFC000000A00100003B00000000000000000000000000F31100006662782F34314645323343362D343843362D344641422D423945462D3546314633313137413141452F7265736F75726365732F636F72652E786D6C504B050600000000
310
0E000E0080040000481300000000
  0
XRECORD
  5
27
102
{ACAD_REACTORS
330
22
102
}
330
22
100
AcDbXrecord
280
     1
270
     1
271
     1
  0
XRECORD
  5
26
102
{ACAD_REACTORS
330
22
102
}
330
22
100
AcDbXrecord
280
     1
270
     1
271
     1
  0
XRECORD
  5
28
102
{ACAD_REACTORS
330
22
102
}
330
22
100
AcDbXrecord
280
     1
270
     1
271
     1
  0
XRECORD
  5
25
102
{ACAD_REACTORS
330
22
102
}
330
22
100
AcDbXrecord
280
     1
270
     1
271
     1
  0
XRECORD
  5
CF0
102
{ACAD_REACTORS
330
CEF
102
}
330
CEF
100
AcDbXrecord
280
     1
102
ACAD_ROUNDTRIP_2012_MLEADER_STYLE
298
     1
  0
CELLSTYLEMAP
  5
CEE
102
{ACAD_REACTORS
330
CED
102
}
330
CED
100
AcDbCellStyleMap
 90
        3
300
CELLSTYLE
  1
TABLEFORMAT_BEGIN
 90
        5
170
     1
 91
        0
 92
    32768
 62
   257
 93
        1
300
CONTENTFORMAT
  1
CONTENTFORMAT_BEGIN
 90
        0
 91
        0
 92
      512
 93
        0
300

 40
0.0
140
1.0
 94
        5
 62
     0
340
55
144
0.25
309
CONTENTFORMAT_END
171
     0
 94
        0
309
TABLEFORMAT_END
  1
CELLSTYLE_BEGIN
 90
        1
 91
        1
300
_TITLE
309
CELLSTYLE_END
300
CELLSTYLE
  1
TABLEFORMAT_BEGIN
 90
        5
170
     1
 91
        0
 92
        0
 62
   257
 93
        1
300
CONTENTFORMAT
  1
CONTENTFORMAT_BEGIN
 90
        0
 91
        0
 92
      512
 93
        0
300

 40
0.0
140
1.0
 94
        5
 62
     0
340
55
144
0.18
309
CONTENTFORMAT_END
171
     0
 94
        0
309
TABLEFORMAT_END
  1
CELLSTYLE_BEGIN
 90
        2
 91
        1
300
_HEADER
309
CELLSTYLE_END
300
CELLSTYLE
  1
TABLEFORMAT_BEGIN
 90
        5
170
     1
 91
        0
 92
        0
 62
   257
 93
        1
300
CONTENTFORMAT
  1
CONTENTFORMAT_BEGIN
 90
        0
 91
        0
 92
      512
 93
        0
300

 40
0.0
140
1.0
 94
        2
 62
     0
340
55
144
0.18
309
CONTENTFORMAT_END
171
     0
 94
        0
309
TABLEFORMAT_END
  1
CELLSTYLE_BEGIN
 90
        3
 91
        2
300
_DATA
309
CELLSTYLE_END
  0
XRECORD
  5
D26
102
{ACAD_REACTORS
330
CED
102
}
330
CED
100
AcDbXrecord
280
     1
102
ACAD_ROUNDTRIP_PRE2007_TABLESTYLE
 90
      512
 91
        0
  1

 92
      512
 93
        0
  2

 94
      512
 95
        0
  3

  0
XRECORD
  5
D01
102
{ACAD_REACTORS
330
D00
102
}
330
D00
100
AcDbXrecord
280
     1
102
RTVSPropertyOp0
 70
     1
102
RTVSPropertyOp1
 70
     1
102
RTVSPropertyOp2
 70
     1
102
RTVSPropertyOp3
 70
     1
102
RTVSPropertyOp4
 70
     1
102
RTVSPropertyOp5
 70
     1
102
RTVSPropertyOp6
 70
     1
102
RTVSPropertyOp7
 70
     1
102
RTVSPropertyOp8
 70
     1
102
RTVSPropertyOp9
 70
     1
102
RTVSPropertyOp10
 70
     1
102
RTVSPropertyOp11
 70
     1
102
RTVSPropertyOp12
 70
     1
102
RTVSPropertyOp13
 70
     1
102
RTVSPropertyOp14
 70
     1
102
RTVSPropertyOp15
 70
     1
102
RTVSPropertyOp16
 70
     1
102
RTVSPropertyOp17
 70
     1
102
RTVSPropertyOp18
 70
     1
102
RTVSPropertyOp19
 70
     1
102
RTVSPropertyOp20
 70
     1
102
RTVSPropertyOp21
 70
     1
102
RTVSPropertyOp22
 70
     1
102
RTVSPropertyOp23
 70
     1
102
RTVSPropertyOp24
 70
     1
102
RTVSPropertyOp25
 70
     1
102
RTVSPropertyOp26
 70
     1
102
RTVSPropertyOp27
 70
     1
102
RTVSPropertyOp28
 70
     1
102
RTVSPropertyOp29
 70
     1
102
RTVSPropertyOp30
 70
     1
102
RTVSPropertyOp31
 70
     1
102
RTVSPropertyOp32
 70
     1
  0
XRECORD
  5
CFF
102
{ACAD_REACTORS
330
CFE
102
}
330
CFE
100
AcDbXrecord
280
     1
102
RTVSPropertyOp0
 70
     1
102
RTVSPropertyOp1
 70
     1
102
RTVSPropertyOp2
 70
     1
102
RTVSPropertyOp3
 70
     1
102
RTVSPropertyOp4
 70
     1
102
RTVSPropertyOp5
 70
     1
102
RTVSPropertyOp6
 70
     1
102
RTVSPropertyOp7
 70
     1
102
RTVSPropertyOp8
 70
     1
102
RTVSPropertyOp9
 70
     1
102
RTVSPropertyOp10
 70
     1
102
RTVSPropertyOp11
 70
     1
102
RTVSPropertyOp12
 70
     1
102
RTVSPropertyOp13
 70
     1
102
RTVSPropertyOp14
 70
     1
102
RTVSPropertyOp15
 70
     1
102
RTVSPropertyOp16
 70
     1
102
RTVSPropertyOp17
 70
     1
102
RTVSPropertyOp18
 70
     1
102
RTVSPropertyOp19
 70
     1
102
RTVSPropertyOp20
 70
     1
102
RTVSPropertyOp21
 70
     1
102
RTVSPropertyOp22
 70
     1
102
RTVSPropertyOp23
 70
     1
102
RTVSPropertyOp24
 70
     1
102
RTVSPropertyOp25
 70
     1
102
RTVSPropertyOp26
 70
     1
102
RTVSPropertyOp27
 70
     1
102
RTVSPropertyOp28
 70
     1
102
RTVSPropertyOp29
 70
     1
102
RTVSPropertyOp30
 70
     1
102
RTVSPropertyOp31
 70
     1
102
RTVSPropertyOp32
 70
     1
  0
XRECORD
  5
D0D
102
{ACAD_REACTORS
330
D0C
102
}
330
D0C
100
AcDbXrecord
280
     1
102
RTVSPropertyOp0
 70
     1
102
RTVSPropertyOp1
 70
     1
102
RTVSPropertyOp2
 70
     1
102
RTVSPropertyOp3
 70
     1
102
RTVSPropertyOp4
 70
     1
102
RTVSPropertyOp5
 70
     1
102
RTVSPropertyOp6
 70
     1
102
RTVSPropertyOp7
 70
     1
102
RTVSPropertyOp8
 70
     1
102
RTVSPropertyOp9
 70
     1
102
RTVSPropertyOp10
 70
     1
102
RTVSPropertyOp11
 70
     1
102
RTVSPropertyOp12
 70
     1
102
RTVSPropertyOp13
 70
     1
102
RTVSPropertyOp14
 70
     1
102
RTVSPropertyOp15
 70
     1
102
RTVSPropertyOp16
 70
     1
102
RTVSPropertyOp17
 70
     1
102
RTVSPropertyOp18
 70
     1
102
RTVSPropertyOp19
 70
     1
102
RTVSPropertyOp20
 70
     1
102
RTVSPropertyOp21
 70
     1
102
RTVSPropertyOp22
 70
     1
102
RTVSPropertyOp23
 70
     1
102
RTVSPropertyOp24
 70
     1
102
RTVSPropertyOp25
 70
     1
102
RTVSPropertyOp26
 70
     1
102
RTVSPropertyOp27
 70
     1
102
RTVSPropertyOp28
 70
     1
102
RTVSPropertyOp29
 70
     1
102
RTVSPropertyOp30
 70
     1
102
RTVSPropertyOp31
 70
     1
102
RTVSPropertyOp32
 70
     1
  0
XRECORD
  5
D15
102
{ACAD_REACTORS
330
D14
102
}
330
D14
100
AcDbXrecord
280
     1
102
RTVSPropertyOp0
 70
     1
102
RTVSPropertyOp1
 70
     1
102
RTVSPropertyOp2
 70
     1
102
RTVSPropertyOp3
 70
     1
102
RTVSPropertyOp4
 70
     1
102
RTVSPropertyOp5
 70
     1
102
RTVSPropertyOp6
 70
     1
102
RTVSPropertyOp7
 70
     1
102
RTVSPropertyOp8
 70
     1
102
RTVSPropertyOp9
 70
     1
102
RTVSPropertyOp10
 70
     1
102
RTVSPropertyOp11
 70
     1
102
RTVSPropertyOp12
 70
     1
102
RTVSPropertyOp13
 70
     1
102
RTVSPropertyOp14
 70
     1
102
RTVSPropertyOp15
 70
     1
102
RTVSPropertyOp16
 70
     1
102
RTVSPropertyOp17
 70
     1
102
RTVSPropertyOp18
 70
     1
102
RTVSPropertyOp19
 70
     1
102
RTVSPropertyOp20
 70
     1
102
RTVSPropertyOp21
 70
     1
102
RTVSPropertyOp22
 70
     1
102
RTVSPropertyOp23
 70
     1
102
RTVSPropertyOp24
 70
     1
102
RTVSPropertyOp25
 70
     1
102
RTVSPropertyOp26
 70
     1
102
RTVSPropertyOp27
 70
     1
102
RTVSPropertyOp28
 70
     1
102
RTVSPropertyOp29
 70
     1
102
RTVSPropertyOp30
 70
     1
102
RTVSPropertyOp31
 70
     1
102
RTVSPropertyOp32
 70
     1
  0
XRECORD
  5
D07
102
{ACAD_REACTORS
330
D06
102
}
330
D06
100
AcDbXrecord
280
     1
102
RTVSPropertyOp0
 70
     1
102
RTVSPropertyOp1
 70
     1
102
RTVSPropertyOp2
 70
     1
102
RTVSPropertyOp3
 70
     1
102
RTVSPropertyOp4
 70
     1
102
RTVSPropertyOp5
 70
     1
102
RTVSPropertyOp6
 70
     1
102
RTVSPropertyOp7
 70
     1
102
RTVSPropertyOp8
 70
     1
102
RTVSPropertyOp9
 70
     1
102
RTVSPropertyOp10
 70
     1
102
RTVSPropertyOp11
 70
     1
102
RTVSPropertyOp12
 70
     1
102
RTVSPropertyOp13
 70
     1
102
RTVSPropertyOp14
 70
     1
102
RTVSPropertyOp15
 70
     1
102
RTVSPropertyOp16
 70
     1
102
RTVSPropertyOp17
 70
     1
102
RTVSPropertyOp18
 70
     1
102
RTVSPropertyOp19
 70
     1
102
RTVSPropertyOp20
 70
     1
102
RTVSPropertyOp21
 70
     1
102
RTVSPropertyOp22
 70
     1
102
RTVSPropertyOp23
 70
     1
102
RTVSPropertyOp24
 70
     1
102
RTVSPropertyOp25
 70
     1
102
RTVSPropertyOp26
 70
     1
102
RTVSPropertyOp27
 70
     1
102
RTVSPropertyOp28
 70
     1
102
RTVSPropertyOp29
 70
     1
102
RTVSPropertyOp30
 70
     1
102
RTVSPropertyOp31
 70
     1
102
RTVSPropertyOp32
 70
     1
  0
XRECORD
  5
D0B
102
{ACAD_REACTORS
330
D0A
102
}
330
D0A
100
AcDbXrecord
280
     1
102
RTVSPropertyOp0
 70
     1
102
RTVSPropertyOp1
 70
     1
102
RTVSPropertyOp2
 70
     1
102
RTVSPropertyOp3
 70
     1
102
RTVSPropertyOp4
 70
     1
102
RTVSPropertyOp5
 70
     1
102
RTVSPropertyOp6
 70
     1
102
RTVSPropertyOp7
 70
     1
102
RTVSPropertyOp8
 70
     1
102
RTVSPropertyOp9
 70
     1
102
RTVSPropertyOp10
 70
     1
102
RTVSPropertyOp11
 70
     1
102
RTVSPropertyOp12
 70
     1
102
RTVSPropertyOp13
 70
     1
102
RTVSPropertyOp14
 70
     1
102
RTVSPropertyOp15
 70
     1
102
RTVSPropertyOp16
 70
     1
102
RTVSPropertyOp17
 70
     1
102
RTVSPropertyOp18
 70
     1
102
RTVSPropertyOp19
 70
     1
102
RTVSPropertyOp20
 70
     1
102
RTVSPropertyOp21
 70
     1
102
RTVSPropertyOp22
 70
     1
102
RTVSPropertyOp23
 70
     1
102
RTVSPropertyOp24
 70
     1
102
RTVSPropertyOp25
 70
     1
102
RTVSPropertyOp26
 70
     1
102
RTVSPropertyOp27
 70
     1
102
RTVSPropertyOp28
 70
     1
102
RTVSPropertyOp29
 70
     1
102
RTVSPropertyOp30
 70
     1
102
RTVSPropertyOp31
 70
     1
102
RTVSPropertyOp32
 70
     1
  0
XRECORD
  5
D25
102
{ACAD_REACTORS
330
D24
102
}
330
D24
100
AcDbXrecord
280
     1
102
RTVSPropertyOp0
 70
     0
102
RTVSPropertyOp1
 70
     0
102
RTVSPropertyOp2
 70
     0
102
RTVSPropertyOp3
 70
     0
102
RTVSPropertyOp4
 70
     0
102
RTVSPropertyOp5
 70
     0
102
RTVSPropertyOp6
 70
     0
102
RTVSPropertyOp7
 70
     0
102
RTVSPropertyOp8
 70
     0
102
RTVSPropertyOp9
 70
     0
102
RTVSPropertyOp10
 70
     0
102
RTVSPropertyOp11
 70
     0
102
RTVSPropertyOp12
 70
     0
102
RTVSPropertyOp13
 70
     0
102
RTVSPropertyOp14
 70
     2
102
RTVSPropertyOp15
 70
     0
102
RTVSPropertyOp16
 70
     0
102
RTVSPropertyOp17
 70
     0
102
RTVSPropertyOp18
 70
     0
102
RTVSPropertyOp19
 70
     0
102
RTVSPropertyOp20
 70
     0
102
RTVSPropertyOp21
 70
     0
102
RTVSPropertyOp22
 70
     0
102
RTVSPropertyOp23
 70
     0
102
RTVSPropertyOp24
 70
     0
102
RTVSPropertyOp25
 70
     0
102
RTVSPropertyOp26
 70
     0
102
RTVSPropertyOp27
 70
     0
102
RTVSPropertyOp28
 70
     1
102
RTVSPropertyOp29
 70
     1
102
RTVSPropertyOp30
 70
     1
102
RTVSPropertyOp31
 70
     1
102
RTVSPropertyOp32
 70
     1
  0
XRECORD
  5
D13
102
{ACAD_REACTORS
330
D12
102
}
330
D12
100
AcDbXrecord
280
     1
102
RTVSPropertyOp0
 70
     1
102
RTVSPropertyOp1
 70
     1
102
RTVSPropertyOp2
 70
     1
102
RTVSPropertyOp3
 70
     1
102
RTVSPropertyOp4
 70
     1
102
RTVSPropertyOp5
 70
     1
102
RTVSPropertyOp6
 70
     1
102
RTVSPropertyOp7
 70
     1
102
RTVSPropertyOp8
 70
     1
102
RTVSPropertyOp9
 70
     1
102
RTVSPropertyOp10
 70
     1
102
RTVSPropertyOp11
 70
     1
102
RTVSPropertyOp12
 70
     1
102
RTVSPropertyOp13
 70
     1
102
RTVSPropertyOp14
 70
     1
102
RTVSPropertyOp15
 70
     1
102
RTVSPropertyOp16
 70
     1
102
RTVSPropertyOp17
 70
     1
102
RTVSPropertyOp18
 70
     1
102
RTVSPropertyOp19
 70
     1
102
RTVSPropertyOp20
 70
     1
102
RTVSPropertyOp21
 70
     1
102
RTVSPropertyOp22
 70
     1
102
RTVSPropertyOp23
 70
     1
102
RTVSPropertyOp24
 70
     1
102
RTVSPropertyOp25
 70
     1
102
RTVSPropertyOp26
 70
     1
102
RTVSPropertyOp27
 70
     1
102
RTVSPropertyOp28
 70
     1
102
RTVSPropertyOp29
 70
     1
102
RTVSPropertyOp30
 70
     1
102
RTVSPropertyOp31
 70
     1
102
RTVSPropertyOp32
 70
     1
  0
XRECORD
  5
CF7
102
{ACAD_REACTORS
330
CF6
102
}
330
CF6
100
AcDbXrecord
280
     1
102
RTVSPropertyOp0
 70
     1
102
RTVSPropertyOp1
 70
     1
102
RTVSPropertyOp2
 70
     1
102
RTVSPropertyOp3
 70
     1
102
RTVSPropertyOp4
 70
     1
102
RTVSPropertyOp5
 70
     1
102
RTVSPropertyOp6
 70
     1
102
RTVSPropertyOp7
 70
     1
102
RTVSPropertyOp8
 70
     1
102
RTVSPropertyOp9
 70
     1
102
RTVSPropertyOp10
 70
     1
102
RTVSPropertyOp11
 70
     1
102
RTVSPropertyOp12
 70
     1
102
RTVSPropertyOp13
 70
     1
102
RTVSPropertyOp14
 70
     1
102
RTVSPropertyOp15
 70
     1
102
RTVSPropertyOp16
 70
     1
102
RTVSPropertyOp17
 70
     1
102
RTVSPropertyOp18
 70
     1
102
RTVSPropertyOp19
 70
     1
102
RTVSPropertyOp20
 70
     1
102
RTVSPropertyOp21
 70
     1
102
RTVSPropertyOp22
 70
     1
102
RTVSPropertyOp23
 70
     1
102
RTVSPropertyOp24
 70
     1
102
RTVSPropertyOp25
 70
     1
102
RTVSPropertyOp26
 70
     1
102
RTVSPropertyOp27
 70
     1
102
RTVSPropertyOp28
 70
     1
102
RTVSPropertyOp29
 70
     1
102
RTVSPropertyOp30
 70
     1
102
RTVSPropertyOp31
 70
     1
102
RTVSPropertyOp32
 70
     1
  0
XRECORD
  5
CF9
102
{ACAD_REACTORS
330
CF8
102
}
330
CF8
100
AcDbXrecord
280
     1
102
RTVSPropertyOp0
 70
     1
102
RTVSPropertyOp1
 70
     1
102
RTVSPropertyOp2
 70
     1
102
RTVSPropertyOp3
 70
     1
102
RTVSPropertyOp4
 70
     1
102
RTVSPropertyOp5
 70
     1
102
RTVSPropertyOp6
 70
     1
102
RTVSPropertyOp7
 70
     1
102
RTVSPropertyOp8
 70
     1
102
RTVSPropertyOp9
 70
     1
102
RTVSPropertyOp10
 70
     1
102
RTVSPropertyOp11
 70
     1
102
RTVSPropertyOp12
 70
     1
102
RTVSPropertyOp13
 70
     1
102
RTVSPropertyOp14
 70
     1
102
RTVSPropertyOp15
 70
     1
102
RTVSPropertyOp16
 70
     1
102
RTVSPropertyOp17
 70
     1
102
RTVSPropertyOp18
 70
     1
102
RTVSPropertyOp19
 70
     1
102
RTVSPropertyOp20
 70
     1
102
RTVSPropertyOp21
 70
     1
102
RTVSPropertyOp22
 70
     1
102
RTVSPropertyOp23
 70
     1
102
RTVSPropertyOp24
 70
     1
102
RTVSPropertyOp25
 70
     1
102
RTVSPropertyOp26
 70
     1
102
RTVSPropertyOp27
 70
     1
102
RTVSPropertyOp28
 70
     1
102
RTVSPropertyOp29
 70
     1
102
RTVSPropertyOp30
 70
     1
102
RTVSPropertyOp31
 70
     1
102
RTVSPropertyOp32
 70
     1
  0
XRECORD
  5
CFB
102
{ACAD_REACTORS
330
CFA
102
}
330
CFA
100
AcDbXrecord
280
     1
102
RTVSPropertyOp0
 70
     1
102
RTVSPropertyOp1
 70
     1
102
RTVSPropertyOp2
 70
     1
102
RTVSPropertyOp3
 70
     1
102
RTVSPropertyOp4
 70
     1
102
RTVSPropertyOp5
 70
     1
102
RTVSPropertyOp6
 70
     1
102
RTVSPropertyOp7
 70
     1
102
RTVSPropertyOp8
 70
     1
102
RTVSPropertyOp9
 70
     1
102
RTVSPropertyOp10
 70
     1
102
RTVSPropertyOp11
 70
     1
102
RTVSPropertyOp12
 70
     1
102
RTVSPropertyOp13
 70
     1
102
RTVSPropertyOp14
 70
     1
102
RTVSPropertyOp15
 70
     1
102
RTVSPropertyOp16
 70
     1
102
RTVSPropertyOp17
 70
     1
102
RTVSPropertyOp18
 70
     1
102
RTVSPropertyOp19
 70
     1
102
RTVSPropertyOp20
 70
     1
102
RTVSPropertyOp21
 70
     1
102
RTVSPropertyOp22
 70
     1
102
RTVSPropertyOp23
 70
     1
102
RTVSPropertyOp24
 70
     1
102
RTVSPropertyOp25
 70
     1
102
RTVSPropertyOp26
 70
     1
102
RTVSPropertyOp27
 70
     1
102
RTVSPropertyOp28
 70
     1
102
RTVSPropertyOp29
 70
     1
102
RTVSPropertyOp30
 70
     1
102
RTVSPropertyOp31
 70
     1
102
RTVSPropertyOp32
 70
     1
  0
XRECORD
  5
CFD
102
{ACAD_REACTORS
330
CFC
102
}
330
CFC
100
AcDbXrecord
280
     1
102
RTVSPropertyOp0
 70
     1
102
RTVSPropertyOp1
 70
     1
102
RTVSPropertyOp2
 70
     1
102
RTVSPropertyOp3
 70
     1
102
RTVSPropertyOp4
 70
     1
102
RTVSPropertyOp5
 70
     1
102
RTVSPropertyOp6
 70
     1
102
RTVSPropertyOp7
 70
     1
102
RTVSPropertyOp8
 70
     1
102
RTVSPropertyOp9
 70
     1
102
RTVSPropertyOp10
 70
     1
102
RTVSPropertyOp11
 70
     1
102
RTVSPropertyOp12
 70
     1
102
RTVSPropertyOp13
 70
     1
102
RTVSPropertyOp14
 70
     1
102
RTVSPropertyOp15
 70
     1
102
RTVSPropertyOp16
 70
     1
102
RTVSPropertyOp17
 70
     1
102
RTVSPropertyOp18
 70
     1
102
RTVSPropertyOp19
 70
     1
102
RTVSPropertyOp20
 70
     1
102
RTVSPropertyOp21
 70
     1
102
RTVSPropertyOp22
 70
     1
102
RTVSPropertyOp23
 70
     1
102
RTVSPropertyOp24
 70
     1
102
RTVSPropertyOp25
 70
     1
102
RTVSPropertyOp26
 70
     1
102
RTVSPropertyOp27
 70
     1
102
RTVSPropertyOp28
 70
     1
102
RTVSPropertyOp29
 70
     1
102
RTVSPropertyOp30
 70
     1
102
RTVSPropertyOp31
 70
     1
102
RTVSPropertyOp32
 70
     1
  0
XRECORD
  5
D05
102
{ACAD_REACTORS
330
D04
102
}
330
D04
100
AcDbXrecord
280
     1
102
RTVSPropertyOp0
 70
     1
102
RTVSPropertyOp1
 70
     1
102
RTVSPropertyOp2
 70
     1
102
RTVSPropertyOp3
 70
     1
102
RTVSPropertyOp4
 70
     1
102
RTVSPropertyOp5
 70
     1
102
RTVSPropertyOp6
 70
     1
102
RTVSPropertyOp7
 70
     1
102
RTVSPropertyOp8
 70
     1
102
RTVSPropertyOp9
 70
     1
102
RTVSPropertyOp10
 70
     1
102
RTVSPropertyOp11
 70
     1
102
RTVSPropertyOp12
 70
     1
102
RTVSPropertyOp13
 70
     1
102
RTVSPropertyOp14
 70
     1
102
RTVSPropertyOp15
 70
     1
102
RTVSPropertyOp16
 70
     1
102
RTVSPropertyOp17
 70
     1
102
RTVSPropertyOp18
 70
     1
102
RTVSPropertyOp19
 70
     1
102
RTVSPropertyOp20
 70
     1
102
RTVSPropertyOp21
 70
     1
102
RTVSPropertyOp22
 70
     1
102
RTVSPropertyOp23
 70
     1
102
RTVSPropertyOp24
 70
     1
102
RTVSPropertyOp25
 70
     1
102
RTVSPropertyOp26
 70
     1
102
RTVSPropertyOp27
 70
     1
102
RTVSPropertyOp28
 70
     1
102
RTVSPropertyOp29
 70
     1
102
RTVSPropertyOp30
 70
     1
102
RTVSPropertyOp31
 70
     1
102
RTVSPropertyOp32
 70
     1
  0
XRECORD
  5
D21
102
{ACAD_REACTORS
330
D20
102
}
330
D20
100
AcDbXrecord
280
     1
102
RTVSPropertyOp0
 70
     0
102
RTVSPropertyOp1
 70
     0
102
RTVSPropertyOp2
 70
     0
102
RTVSPropertyOp3
 70
     0
102
RTVSPropertyOp4
 70
     0
102
RTVSPropertyOp5
 70
     0
102
RTVSPropertyOp6
 70
     0
102
RTVSPropertyOp7
 70
     0
102
RTVSPropertyOp8
 70
     0
102
RTVSPropertyOp9
 70
     0
102
RTVSPropertyOp10
 70
     0
102
RTVSPropertyOp11
 70
     0
102
RTVSPropertyOp12
 70
     0
102
RTVSPropertyOp13
 70
     0
102
RTVSPropertyOp14
 70
     2
102
RTVSPropertyOp15
 70
     0
102
RTVSPropertyOp16
 70
     0
102
RTVSPropertyOp17
 70
     0
102
RTVSPropertyOp18
 70
     0
102
RTVSPropertyOp19
 70
     0
102
RTVSPropertyOp20
 70
     0
102
RTVSPropertyOp21
 70
     0
102
RTVSPropertyOp22
 70
     0
102
RTVSPropertyOp23
 70
     0
102
RTVSPropertyOp24
 70
     0
102
RTVSPropertyOp25
 70
     0
102
RTVSPropertyOp26
 70
     0
102
RTVSPropertyOp27
 70
     0
102
RTVSPropertyOp28
 70
     1
102
RTVSPropertyOp29
 70
     1
102
RTVSPropertyOp30
 70
     1
102
RTVSPropertyOp31
 70
     1
102
RTVSPropertyOp32
 70
     1
  0
XRECORD
  5
D11
102
{ACAD_REACTORS
330
D10
102
}
330
D10
100
AcDbXrecord
280
     1
102
RTVSPropertyOp0
 70
     1
102
RTVSPropertyOp1
 70
     1
102
RTVSPropertyOp2
 70
     1
102
RTVSPropertyOp3
 70
     1
102
RTVSPropertyOp4
 70
     1
102
RTVSPropertyOp5
 70
     1
102
RTVSPropertyOp6
 70
     1
102
RTVSPropertyOp7
 70
     1
102
RTVSPropertyOp8
 70
     1
102
RTVSPropertyOp9
 70
     1
102
RTVSPropertyOp10
 70
     1
102
RTVSPropertyOp11
 70
     1
102
RTVSPropertyOp12
 70
     1
102
RTVSPropertyOp13
 70
     1
102
RTVSPropertyOp14
 70
     1
102
RTVSPropertyOp15
 70
     1
102
RTVSPropertyOp16
 70
     1
102
RTVSPropertyOp17
 70
     1
102
RTVSPropertyOp18
 70
     1
102
RTVSPropertyOp19
 70
     1
102
RTVSPropertyOp20
 70
     1
102
RTVSPropertyOp21
 70
     1
102
RTVSPropertyOp22
 70
     1
102
RTVSPropertyOp23
 70
     1
102
RTVSPropertyOp24
 70
     1
102
RTVSPropertyOp25
 70
     1
102
RTVSPropertyOp26
 70
     1
102
RTVSPropertyOp27
 70
     1
102
RTVSPropertyOp28
 70
     1
102
RTVSPropertyOp29
 70
     1
102
RTVSPropertyOp30
 70
     1
102
RTVSPropertyOp31
 70
     1
102
RTVSPropertyOp32
 70
     1
  0
XRECORD
  5
D23
102
{ACAD_REACTORS
330
D22
102
}
330
D22
100
AcDbXrecord
280
     1
102
RTVSPropertyOp0
 70
     0
102
RTVSPropertyOp1
 70
     0
102
RTVSPropertyOp2
 70
     0
102
RTVSPropertyOp3
 70
     0
102
RTVSPropertyOp4
 70
     0
102
RTVSPropertyOp5
 70
     0
102
RTVSPropertyOp6
 70
     0
102
RTVSPropertyOp7
 70
     0
102
RTVSPropertyOp8
 70
     0
102
RTVSPropertyOp9
 70
     0
102
RTVSPropertyOp10
 70
     0
102
RTVSPropertyOp11
 70
     0
102
RTVSPropertyOp12
 70
     0
102
RTVSPropertyOp13
 70
     0
102
RTVSPropertyOp14
 70
     2
102
RTVSPropertyOp15
 70
     0
102
RTVSPropertyOp16
 70
     0
102
RTVSPropertyOp17
 70
     0
102
RTVSPropertyOp18
 70
     0
102
RTVSPropertyOp19
 70
     0
102
RTVSPropertyOp20
 70
     0
102
RTVSPropertyOp21
 70
     0
102
RTVSPropertyOp22
 70
     0
102
RTVSPropertyOp23
 70
     0
102
RTVSPropertyOp24
 70
     0
102
RTVSPropertyOp25
 70
     0
102
RTVSPropertyOp26
 70
     0
102
RTVSPropertyOp27
 70
     0
102
RTVSPropertyOp28
 70
     1
102
RTVSPropertyOp29
 70
     1
102
RTVSPropertyOp30
 70
     1
102
RTVSPropertyOp31
 70
     1
102
RTVSPropertyOp32
 70
     1
  0
XRECORD
  5
D09
102
{ACAD_REACTORS
330
D08
102
}
330
D08
100
AcDbXrecord
280
     1
102
RTVSPropertyOp0
 70
     1
102
RTVSPropertyOp1
 70
     1
102
RTVSPropertyOp2
 70
     1
102
RTVSPropertyOp3
 70
     1
102
RTVSPropertyOp4
 70
     1
102
RTVSPropertyOp5
 70
     1
102
RTVSPropertyOp6
 70
     1
102
RTVSPropertyOp7
 70
     1
102
RTVSPropertyOp8
 70
     1
102
RTVSPropertyOp9
 70
     1
102
RTVSPropertyOp10
 70
     1
102
RTVSPropertyOp11
 70
     1
102
RTVSPropertyOp12
 70
     1
102
RTVSPropertyOp13
 70
     1
102
RTVSPropertyOp14
 70
     1
102
RTVSPropertyOp15
 70
     1
102
RTVSPropertyOp16
 70
     1
102
RTVSPropertyOp17
 70
     1
102
RTVSPropertyOp18
 70
     1
102
RTVSPropertyOp19
 70
     1
102
RTVSPropertyOp20
 70
     1
102
RTVSPropertyOp21
 70
     1
102
RTVSPropertyOp22
 70
     1
102
RTVSPropertyOp23
 70
     1
102
RTVSPropertyOp24
 70
     1
102
RTVSPropertyOp25
 70
     1
102
RTVSPropertyOp26
 70
     1
102
RTVSPropertyOp27
 70
     1
102
RTVSPropertyOp28
 70
     1
102
RTVSPropertyOp29
 70
     1
102
RTVSPropertyOp30
 70
     1
102
RTVSPropertyOp31
 70
     1
102
RTVSPropertyOp32
 70
     1
  0
XRECORD
  5
D1F
102
{ACAD_REACTORS
330
D1E
102
}
330
D1E
100
AcDbXrecord
280
     1
102
RTVSPropertyOp0
 70
     1
102
RTVSPropertyOp1
 70
     1
102
RTVSPropertyOp2
 70
     1
102
RTVSPropertyOp3
 70
     1
102
RTVSPropertyOp4
 70
     1
102
RTVSPropertyOp5
 70
     1
102
RTVSPropertyOp6
 70
     1
102
RTVSPropertyOp7
 70
     1
102
RTVSPropertyOp8
 70
     1
102
RTVSPropertyOp9
 70
     1
102
RTVSPropertyOp10
 70
     1
102
RTVSPropertyOp11
 70
     1
102
RTVSPropertyOp12
 70
     1
102
RTVSPropertyOp13
 70
     1
102
RTVSPropertyOp14
 70
     1
102
RTVSPropertyOp15
 70
     1
102
RTVSPropertyOp16
 70
     1
102
RTVSPropertyOp17
 70
     1
102
RTVSPropertyOp18
 70
     1
102
RTVSPropertyOp19
 70
     1
102
RTVSPropertyOp20
 70
     1
102
RTVSPropertyOp21
 70
     1
102
RTVSPropertyOp22
 70
     1
102
RTVSPropertyOp23
 70
     1
102
RTVSPropertyOp24
 70
     1
102
RTVSPropertyOp25
 70
     1
102
RTVSPropertyOp26
 70
     1
102
RTVSPropertyOp27
 70
     1
102
RTVSPropertyOp28
 70
     1
102
RTVSPropertyOp29
 70
     1
102
RTVSPropertyOp30
 70
     1
102
RTVSPropertyOp31
 70
     1
102
RTVSPropertyOp32
 70
     1
  0
XRECORD
  5
D1D
102
{ACAD_REACTORS
330
D1C
102
}
330
D1C
100
AcDbXrecord
280
     1
102
RTVSPropertyOp0
 70
     1
102
RTVSPropertyOp1
 70
     1
102
RTVSPropertyOp2
 70
     1
102
RTVSPropertyOp3
 70
     1
102
RTVSPropertyOp4
 70
     1
102
RTVSPropertyOp5
 70
     1
102
RTVSPropertyOp6
 70
     1
102
RTVSPropertyOp7
 70
     1
102
RTVSPropertyOp8
 70
     1
102
RTVSPropertyOp9
 70
     1
102
RTVSPropertyOp10
 70
     1
102
RTVSPropertyOp11
 70
     1
102
RTVSPropertyOp12
 70
     1
102
RTVSPropertyOp13
 70
     1
102
RTVSPropertyOp14
 70
     1
102
RTVSPropertyOp15
 70
     1
102
RTVSPropertyOp16
 70
     1
102
RTVSPropertyOp17
 70
     1
102
RTVSPropertyOp18
 70
     1
102
RTVSPropertyOp19
 70
     1
102
RTVSPropertyOp20
 70
     1
102
RTVSPropertyOp21
 70
     1
102
RTVSPropertyOp22
 70
     1
102
RTVSPropertyOp23
 70
     1
102
RTVSPropertyOp24
 70
     1
102
RTVSPropertyOp25
 70
     1
102
RTVSPropertyOp26
 70
     1
102
RTVSPropertyOp27
 70
     1
102
RTVSPropertyOp28
 70
     1
102
RTVSPropertyOp29
 70
     1
102
RTVSPropertyOp30
 70
     1
102
RTVSPropertyOp31
 70
     1
102
RTVSPropertyOp32
 70
     1
  0
XRECORD
  5
D17
102
{ACAD_REACTORS
330
D16
102
}
330
D16
100
AcDbXrecord
280
     1
102
RTVSPropertyOp0
 70
     1
102
RTVSPropertyOp1
 70
     1
102
RTVSPropertyOp2
 70
     1
102
RTVSPropertyOp3
 70
     1
102
RTVSPropertyOp4
 70
     1
102
RTVSPropertyOp5
 70
     1
102
RTVSPropertyOp6
 70
     1
102
RTVSPropertyOp7
 70
     1
102
RTVSPropertyOp8
 70
     1
102
RTVSPropertyOp9
 70
     1
102
RTVSPropertyOp10
 70
     1
102
RTVSPropertyOp11
 70
     1
102
RTVSPropertyOp12
 70
     1
102
RTVSPropertyOp13
 70
     1
102
RTVSPropertyOp14
 70
     1
102
RTVSPropertyOp15
 70
     1
102
RTVSPropertyOp16
 70
     1
102
RTVSPropertyOp17
 70
     1
102
RTVSPropertyOp18
 70
     1
102
RTVSPropertyOp19
 70
     1
102
RTVSPropertyOp20
 70
     1
102
RTVSPropertyOp21
 70
     1
102
RTVSPropertyOp22
 70
     1
102
RTVSPropertyOp23
 70
     1
102
RTVSPropertyOp24
 70
     1
102
RTVSPropertyOp25
 70
     1
102
RTVSPropertyOp26
 70
     1
102
RTVSPropertyOp27
 70
     1
102
RTVSPropertyOp28
 70
     1
102
RTVSPropertyOp29
 70
     1
102
RTVSPropertyOp30
 70
     1
102
RTVSPropertyOp31
 70
     1
102
RTVSPropertyOp32
 70
     1
  0
XRECORD
  5
D19
102
{ACAD_REACTORS
330
D18
102
}
330
D18
100
AcDbXrecord
280
     1
102
RTVSPropertyOp0
 70
     1
102
RTVSPropertyOp1
 70
     1
102
RTVSPropertyOp2
 70
     1
102
RTVSPropertyOp3
 70
     1
102
RTVSPropertyOp4
 70
     1
102
RTVSPropertyOp5
 70
     1
102
RTVSPropertyOp6
 70
     1
102
RTVSPropertyOp7
 70
     1
102
RTVSPropertyOp8
 70
     1
102
RTVSPropertyOp9
 70
     1
102
RTVSPropertyOp10
 70
     1
102
RTVSPropertyOp11
 70
     1
102
RTVSPropertyOp12
 70
     1
102
RTVSPropertyOp13
 70
     1
102
RTVSPropertyOp14
 70
     1
102
RTVSPropertyOp15
 70
     1
102
RTVSPropertyOp16
 70
     1
102
RTVSPropertyOp17
 70
     1
102
RTVSPropertyOp18
 70
     1
102
RTVSPropertyOp19
 70
     1
102
RTVSPropertyOp20
 70
     1
102
RTVSPropertyOp21
 70
     1
102
RTVSPropertyOp22
 70
     1
102
RTVSPropertyOp23
 70
     1
102
RTVSPropertyOp24
 70
     1
102
RTVSPropertyOp25
 70
     1
102
RTVSPropertyOp26
 70
     1
102
RTVSPropertyOp27
 70
     1
102
RTVSPropertyOp28
 70
     1
102
RTVSPropertyOp29
 70
     1
102
RTVSPropertyOp30
 70
     1
102
RTVSPropertyOp31
 70
     1
102
RTVSPropertyOp32
 70
     1
  0
XRECORD
  5
D0F
102
{ACAD_REACTORS
330
D0E
102
}
330
D0E
100
AcDbXrecord
280
     1
102
RTVSPropertyOp0
 70
     1
102
RTVSPropertyOp1
 70
     1
102
RTVSPropertyOp2
 70
     1
102
RTVSPropertyOp3
 70
     1
102
RTVSPropertyOp4
 70
     1
102
RTVSPropertyOp5
 70
     1
102
RTVSPropertyOp6
 70
     1
102
RTVSPropertyOp7
 70
     1
102
RTVSPropertyOp8
 70
     1
102
RTVSPropertyOp9
 70
     1
102
RTVSPropertyOp10
 70
     1
102
RTVSPropertyOp11
 70
     1
102
RTVSPropertyOp12
 70
     1
102
RTVSPropertyOp13
 70
     1
102
RTVSPropertyOp14
 70
     1
102
RTVSPropertyOp15
 70
     1
102
RTVSPropertyOp16
 70
     1
102
RTVSPropertyOp17
 70
     1
102
RTVSPropertyOp18
 70
     1
102
RTVSPropertyOp19
 70
     1
102
RTVSPropertyOp20
 70
     1
102
RTVSPropertyOp21
 70
     1
102
RTVSPropertyOp22
 70
     1
102
RTVSPropertyOp23
 70
     1
102
RTVSPropertyOp24
 70
     1
102
RTVSPropertyOp25
 70
     1
102
RTVSPropertyOp26
 70
     1
102
RTVSPropertyOp27
 70
     1
102
RTVSPropertyOp28
 70
     1
102
RTVSPropertyOp29
 70
     1
102
RTVSPropertyOp30
 70
     1
102
RTVSPropertyOp31
 70
     1
102
RTVSPropertyOp32
 70
     1
  0
XRECORD
  5
D03
102
{ACAD_REACTORS
330
D02
102
}
330
D02
100
AcDbXrecord
280
     1
102
RTVSPropertyOp0
 70
     1
102
RTVSPropertyOp1
 70
     1
102
RTVSPropertyOp2
 70
     1
102
RTVSPropertyOp3
 70
     1
102
RTVSPropertyOp4
 70
     1
102
RTVSPropertyOp5
 70
     1
102
RTVSPropertyOp6
 70
     1
102
RTVSPropertyOp7
 70
     1
102
RTVSPropertyOp8
 70
     1
102
RTVSPropertyOp9
 70
     1
102
RTVSPropertyOp10
 70
     1
102
RTVSPropertyOp11
 70
     1
102
RTVSPropertyOp12
 70
     1
102
RTVSPropertyOp13
 70
     1
102
RTVSPropertyOp14
 70
     1
102
RTVSPropertyOp15
 70
     1
102
RTVSPropertyOp16
 70
     1
102
RTVSPropertyOp17
 70
     1
102
RTVSPropertyOp18
 70
     1
102
RTVSPropertyOp19
 70
     1
102
RTVSPropertyOp20
 70
     1
102
RTVSPropertyOp21
 70
     1
102
RTVSPropertyOp22
 70
     1
102
RTVSPropertyOp23
 70
     1
102
RTVSPropertyOp24
 70
     1
102
RTVSPropertyOp25
 70
     1
102
RTVSPropertyOp26
 70
     1
102
RTVSPropertyOp27
 70
     1
102
RTVSPropertyOp28
 70
     1
102
RTVSPropertyOp29
 70
     1
102
RTVSPropertyOp30
 70
     1
102
RTVSPropertyOp31
 70
     1
102
RTVSPropertyOp32
 70
     1
  0
XRECORD
  5
D1B
102
{ACAD_REACTORS
330
D1A
102
}
330
D1A
100
AcDbXrecord
280
     1
102
RTVSPropertyOp0
 70
     1
102
RTVSPropertyOp1
 70
     1
102
RTVSPropertyOp2
 70
     1
102
RTVSPropertyOp3
 70
     1
102
RTVSPropertyOp4
 70
     1
102
RTVSPropertyOp5
 70
     1
102
RTVSPropertyOp6
 70
     1
102
RTVSPropertyOp7
 70
     1
102
RTVSPropertyOp8
 70
     1
102
RTVSPropertyOp9
 70
     1
102
RTVSPropertyOp10
 70
     1
102
RTVSPropertyOp11
 70
     1
102
RTVSPropertyOp12
 70
     1
102
RTVSPropertyOp13
 70
     1
102
RTVSPropertyOp14
 70
     1
102
RTVSPropertyOp15
 70
     1
102
RTVSPropertyOp16
 70
     1
102
RTVSPropertyOp17
 70
     1
102
RTVSPropertyOp18
 70
     1
102
RTVSPropertyOp19
 70
     1
102
RTVSPropertyOp20
 70
     1
102
RTVSPropertyOp21
 70
     1
102
RTVSPropertyOp22
 70
     1
102
RTVSPropertyOp23
 70
     1
102
RTVSPropertyOp24
 70
     1
102
RTVSPropertyOp25
 70
     1
102
RTVSPropertyOp26
 70
     1
102
RTVSPropertyOp27
 70
     1
102
RTVSPropertyOp28
 70
     1
102
RTVSPropertyOp29
 70
     1
102
RTVSPropertyOp30
 70
     1
102
RTVSPropertyOp31
 70
     1
102
RTVSPropertyOp32
 70
     1
  0
ENDSEC
  0
EOF