0
SECTION
  2
HEADER
  9
$ACADVER
  1
AC1018
  9
$ACADMAINTVER
 70
   104
  9
$DWGCODEPAGE
  3
ANSI_1252
  9
$AUTHOR
  1
EC
  9
$REVISIONNUMBER
  1
-
  9
$CUSTOMPROPERTYTAG
  1
Manager
  9
$CUSTOMPROPERTY
  1

  9
$CUSTOMPROPERTYTAG
  1
Company
  9
$CUSTOMPROPERTY
  1

  9
$CUSTOMPROPERTYTAG
  1
Category
  9
$CUSTOMPROPERTY
  1

  9
$CUSTOMPROPERTYTAG
  1
Part Number
  9
$CUSTOMPROPERTY
  1
N1P3030-S
  9
$CUSTOMPROPERTYTAG
  1
Description
  9
$CUSTOMPROPERTY
  1
N1P PANEL MASTER VIEW
  9
$CUSTOMPROPERTYTAG
  1
Project
  9
$CUSTOMPROPERTY
  1

  9
$CUSTOMPROPERTYTAG
  1
Designer
  9
$CUSTOMPROPERTY
  1
EC
  9
$CUSTOMPROPERTYTAG
  1
Engineer
  9
$CUSTOMPROPERTY
  1

  9
$CUSTOMPROPERTYTAG
  1
Authority
  9
$CUSTOMPROPERTY
  1

  9
$CUSTOMPROPERTYTAG
  1
Cost Center
  9
$CUSTOMPROPERTY
  1

  9
$CUSTOMPROPERTYTAG
  1
Vendor
  9
$CUSTOMPROPERTY
  1

  9
$CUSTOMPROPERTYTAG
  1
User Status
  9
$CUSTOMPROPERTY
  1

  9
$CUSTOMPROPERTYTAG
  1
Design Status
  9
$CUSTOMPROPERTY
  1
WorkInProgress
  9
$CUSTOMPROPERTYTAG
  1
Checked by
  9
$CUSTOMPROPERTY
  1
JG
  9
$CUSTOMPROPERTYTAG
  1
Date Checked
  9
$CUSTOMPROPERTY
  1
02/19/2009
  9
$CUSTOMPROPERTYTAG
  1
Engr Approved by
  9
$CUSTOMPROPERTY
  1

  9
$CUSTOMPROPERTYTAG
  1
Date Eng Approved
  9
$CUSTOMPROPERTY
  1
02/19/2009
  9
$CUSTOMPROPERTYTAG
  1
Mfg Approved by
  9
$CUSTOMPROPERTY
  1

  9
$CUSTOMPROPERTYTAG
  1
DWG. NO
  9
$CUSTOMPROPERTY
  1

  9
$CUSTOMPROPERTYTAG
  1
NUMBER OF SHEETS
  9
$CUSTOMPROPERTY
  1
1
  9
$CUSTOMPROPERTYTAG
  1
DRAWING #
  9
$CUSTOMPROPERTY
  1
1
  9
$INSBASE
 10
0.0
 20
0.0
 30
0.0
  9
$EXTMIN
 10
0.0
 20
0.0
 30
0.0
  9
$EXTMAX
 10
102.0
 20
66.0
 30
0.0
  9
$LIMMIN
 10
0.0
 20
0.0
  9
$LIMMAX
 10
102.0
 20
66.0
  9
$ORTHOMODE
 70
     0
  9
$REGENMODE
 70
     1
  9
$FILLMODE
 70
     1
  9
$QTEXTMODE
 70
     0
  9
$MIRRTEXT
 70
     0
  9
$LTSCALE
 40
6.0
  9
$ATTMODE
 70
     1
  9
$TEXTSIZE
 40
0.2
  9
$TRACEWID
 40
0.05
  9
$TEXTSTYLE
  7
Standard
  9
$CLAYER
  8
0
  9
$CELTYPE
  6
ByLayer
  9
$CECOLOR
 62
   256
  9
$CELTSCALE
 40
1.0
  9
$DISPSILH
 70
     0
  9
$DIMSCALE
 40
1.0
  9
$DIMASZ
 40
0.0708661417322835
  9
$DIMEXO
 40
0.0625
  9
$DIMDLI
 40
0.38
  9
$DIMRND
 40
0.0
  9
$DIMDLE
 40
0.0
  9
$DIMEXE
 40
0.18
  9
$DIMTP
 40
0.0
  9
$DIMTM
 40
0.0
  9
$DIMTXT
 40
0.0708661417322835
  9
$DIMCEN
 40
0.09
  9
$DIMTSZ
 40
0.0
  9
$DIMTOL
 70
     0
  9
$DIMLIM
 70
     0
  9
$DIMTIH
 70
     1
  9
$DIMTOH
 70
     1
  9
$DIMSE1
 70
     0
  9
$DIMSE2
 70
     0
  9
$DIMTAD
 70
     0
  9
$DIMZIN
 70
     0
  9
$DIMBLK
  1

  9
$DIMASO
 70
     1
  9
$DIMSHO
 70
     1
  9
$DIMPOST
  1

  9
$DIMAPOST
  1

  9
$DIMALT
 70
     0
  9
$DIMALTD
 70
     2
  9
$DIMALTF
 40
25.4
  9
$DIMLFAC
 40
1.0
  9
$DIMTOFL
 70
     0
  9
$DIMTVP
 40
0.0
  9
$DIMTIX
 70
     0
  9
$DIMSOXD
 70
     0
  9
$DIMSAH
 70
     0
  9
$DIMBLK1
  1

  9
$DIMBLK2
  1

  9
$DIMSTYLE
  2
STANDARD
  9
$DIMCLRD
 70
     0
  9
$DIMCLRE
 70
     0
  9
$DIMCLRT
 70
     0
  9
$DIMTFAC
 40
1.0
  9
$DIMGAP
 40
0.09
  9
$DIMJUST
 70
     0
  9
$DIMSD1
 70
     0
  9
$DIMSD2
 70
     0
  9
$DIMTOLJ
 70
     1
  9
$DIMTZIN
 70
     0
  9
$DIMALTZ
 70
     0
  9
$DIMALTTZ
 70
     0
  9
$DIMUPT
 70
     0
  9
$DIMDEC
 70
     4
  9
$DIMTDEC
 70
     4
  9
$DIMALTU
 70
     2
  9
$DIMALTTD
 70
     2
  9
$DIMTXSTY
  7
Standard
  9
$DIMAUNIT
 70
     0
  9
$DIMADEC
 70
     0
  9
$DIMALTRND
 40
0.0
  9
$DIMAZIN
 70
     0
  9
$DIMDSEP
 70
    46
  9
$DIMATFIT
 70
     3
  9
$DIMFRAC
 70
     0
  9
$DIMLDRBLK
  1

  9
$DIMLUNIT
 70
     2
  9
$DIMLWD
 70
    -2
  9
$DIMLWE
 70
    -2
  9
$DIMTMOVE
 70
     0
  9
$LUNITS
 70
     2
  9
$LUPREC
 70
     4
  9
$SKETCHINC
 40
0.1
  9
$FILLETRAD
 40
0.0
  9
$AUNITS
 70
     0
  9
$AUPREC
 70
     0
  9
$MENU
  1
.
  9
$ELEVATION
 40
0.0
  9
$PELEVATION
 40
0.0
  9
$THICKNESS
 40
0.0
  9
$LIMCHECK
 70
     0
  9
$CHAMFERA
 40
0.0
  9
$CHAMFERB
 40
0.0
  9
$CHAMFERC
 40
0.0
  9
$CHAMFERD
 40
0.0
  9
$SKPOLY
 70
     0
  9
$TDCREATE
 40
2456482.787143033
  9
$TDUCREATE
 40
2456482.557976366
  9
$TDUPDATE
 40
2456482.787143044
  9
$TDUUPDATE
 40
2456482.557976377
  9
$TDINDWG
 40
0.0000398611
  9
$TDUSRTIMER
 40
0.0000398611
  9
$USRTIMER
 70
     1
  9
$ANGBASE
 50
0.0
  9
$ANGDIR
 70
     0
  9
$PDMODE
 70
     0
  9
$PDSIZE
 40
0.0
  9
$PLINEWID
 40
0.0
  9
$SPLFRAME
 70
     0
  9
$SPLINETYPE
 70
     6
  9
$SPLINESEGS
 70
     8
  9
$HANDSEED
  5
CA5
  9
$SURFTAB1
 70
     6
  9
$SURFTAB2
 70
     6
  9
$SURFTYPE
 70
     6
  9
$SURFU
 70
     6
  9
$SURFV
 70
     6
  9
$UCSBASE
  2

  9
$UCSNAME
  2

  9
$UCSORG
 10
0.0
 20
0.0
 30
0.0
  9
$UCSXDIR
 10
1.0
 20
0.0
 30
0.0
  9
$UCSYDIR
 10
0.0
 20
1.0
 30
0.0
  9
$UCSORTHOREF
  2

  9
$UCSORTHOVIEW
 70
     0
  9
$UCSORGTOP
 10
0.0
 20
0.0
 30
0.0
  9
$UCSORGBOTTOM
 10
0.0
 20
0.0
 30
0.0
  9
$UCSORGLEFT
 10
0.0
 20
0.0
 30
0.0
  9
$UCSORGRIGHT
 10
0.0
 20
0.0
 30
0.0
  9
$UCSORGFRONT
 10
0.0
 20
0.0
 30
0.0
  9
$UCSORGBACK
 10
0.0
 20
0.0
 30
0.0
  9
$PUCSBASE
  2

  9
$PUCSNAME
  2

  9
$PUCSORG
 10
0.0
 20
0.0
 30
0.0
  9
$PUCSXDIR
 10
1.0
 20
0.0
 30
0.0
  9
$PUCSYDIR
 10
0.0
 20
1.0
 30
0.0
  9
$PUCSORTHOREF
  2

  9
$PUCSORTHOVIEW
 70
     0
  9
$PUCSORGTOP
 10
0.0
 20
0.0
 30
0.0
  9
$PUCSORGBOTTOM
 10
0.0
 20
0.0
 30
0.0
  9
$PUCSORGLEFT
 10
0.0
 20
0.0
 30
0.0
  9
$PUCSORGRIGHT
 10
0.0
 20
0.0
 30
0.0
  9
$PUCSORGFRONT
 10
0.0
 20
0.0
 30
0.0
  9
$PUCSORGBACK
 10
0.0
 20
0.0
 30
0.0
  9
$USERI1
 70
     0
  9
$USERI2
 70
     0
  9
$USERI3
 70
     0
  9
$USERI4
 70
     0
  9
$USERI5
 70
     0
  9
$USERR1
 40
0.0
  9
$USERR2
 40
0.0
  9
$USERR3
 40
0.0
  9
$USERR4
 40
0.0
  9
$USERR5
 40
0.0
  9
$WORLDVIEW
 70
     1
  9
$SHADEDGE
 70
     3
  9
$SHADEDIF
 70
    70
  9
$TILEMODE
 70
     1
  9
$MAXACTVP
 70
    64
  9
$PINSBASE
 10
0.0
 20
0.0
 30
0.0
  9
$PLIMCHECK
 70
     0
  9
$PEXTMIN
 10
0.0
 20
0.0
 30
0.0
  9
$PEXTMAX
 10
102.0
 20
66.0
 30
0.0
  9
$PLIMMIN
 10
0.0
 20
0.0
  9
$PLIMMAX
 10
102.0
 20
66.0
  9
$UNITMODE
 70
     0
  9
$VISRETAIN
 70
     1
  9
$PLINEGEN
 70
     0
  9
$PSLTSCALE
 70
     1
  9
$TREEDEPTH
 70
  3020
  9
$CMLSTYLE
  2
Standard
  9
$CMLJUST
 70
     0
  9
$CMLSCALE
 40
1.0
  9
$PROXYGRAPHICS
 70
     1
  9
$MEASUREMENT
 70
     0
  9
$CELWEIGHT
370
    -1
  9
$ENDCAPS
280
     0
  9
$JOINSTYLE
280
     0
  9
$LWDISPLAY
290
     0
  9
$INSUNITS
 70
     1
  9
$HYPERLINKBASE
  1

  9
$STYLESHEET
  1

  9
$XEDIT
290
     1
  9
$CEPSNTYPE
380
     0
  9
$PSTYLEMODE
290
     1
  9
$FINGERPRINTGUID
  2
{C06CC634-B597-48A8-950F-9C34075454B3}
  9
$VERSIONGUID
  2
{ABE0CCF7-FC6F-4C1A-BCD9-827CB25EC2B0}
  9
$EXTNAMES
290
     1
  9
$PSVPSCALE
 40
0.0
  9
$OLESTARTUP
290
     0
  9
$SORTENTS
280
   127
  9
$INDEXCTL
280
     0
  9
$HIDETEXT
280
     1
  9
$XCLIPFRAME
290
     0
  9
$HALOGAP
280
     0
  9
$OBSCOLOR
 70
   257
  9
$OBSLTYPE
280
     0
  9
$INTERSECTIONDISPLAY
280
     0
  9
$INTERSECTIONCOLOR
 70
   257
  9
$DIMASSOC
280
     1
  9
$PROJECTNAME
  1

  0
ENDSEC
  0
SECTION
  2
CLASSES
  0
CLASS
  1
ACDBDICTIONARYWDFLT
  2
AcDbDictionaryWithDefault
  3
ObjectDBX Classes
 90
        0
 91
        1
280
     0
281
     0
  0
CLASS
  1
MATERIAL
  2
AcDbMaterial
  3
ObjectDBX Classes
 90
     1153
 91
        3
280
     0
281
     0
  0
CLASS
  1
VISUALSTYLE
  2
AcDbVisualStyle
  3
ObjectDBX Classes
 90
     4095
 91
       24
280
     0
281
     0
  0
CLASS
  1
SCALE
  2
AcDbScale
  3
ObjectDBX Classes
 90
     1153
 91
       17
280
     0
281
     0
  0
CLASS
  1
TABLESTYLE
  2
AcDbTableStyle
  3
ObjectDBX Classes
 90
     4095
 91
        1
280
     0
281
     0
  0
CLASS
  1
MLEADERSTYLE
  2
AcDbMLeaderStyle
  3
ACDB_MLEADERSTYLE_CLASS
 90
     4095
 91
        1
280
     0
281
     0
  0
CLASS
  1
DICTIONARYVAR
  2
AcDbDictionaryVar
  3
ObjectDBX Classes
 90
        0
 91
        8
280
     0
281
     0
  0
CLASS
  1
CELLSTYLEMAP
  2
AcDbCellStyleMap
  3
ObjectDBX Classes
 90
     1152
 91
        1
280
     0
281
     0
  0
ENDSEC
  0
SECTION
  2
TABLES
  0
TABLE
  2
VPORT
  5
8
330
0
100
AcDbSymbolTable
 70
     1
  0
VPORT
  5
57
330
8
100
AcDbSymbolTableRecord
100
AcDbViewportTableRecord
  2
*Active
 70
     0
 10
0.0
 20
0.0
 11
1.0
 21
1.0
 12
51.0
 22
33.0
 13
0.0
 23
0.0
 14
1.0
 24
1.0
 15
0.0
 25
0.0
 16
0.0
 26
0.0
 36
1.0
 17
0.0
 27
0.0
 37
0.0
 40
66.0
 41
1.545454545454545
 42
50.0
 43
0.0
 44
0.0
 50
0.0
 51
0.0
 71
     0
 72
   100
 73
     1
 74
     1
 75
     0
 76
     0
 77
     0
 78
     0
281
     0
 65
     1
110
0.0
120
0.0
130
0.0
111
1.0
121
0.0
131
0.0
112
0.0
122
1.0
132
0.0
 79
     0
146
0.0
  0
ENDTAB
  0
TABLE
  2
LTYPE
  5
5
330
0
100
AcDbSymbolTable
 70
    59
  0
LTYPE
  5
5B
330
5
100
AcDbSymbolTableRecord
100
AcDbLinetypeTableRecord
  2
ByBlock
 70
     0
  3

 72
    65
 73
     0
 40
0.0
  0
LTYPE
  5
5C
330
5
100
AcDbSymbolTableRecord
100
AcDbLinetypeTableRecord
  2
ByLayer
 70
     0
  3

 72
    65
 73
     0
 40
0.0
  0
LTYPE
  5
5D
330
5
100
AcDbSymbolTableRecord
100
AcDbLinetypeTableRecord
  2
Continuous
 70
     0
  3
Solid line
 72
    65
 73
     0
 40
0.0
  0
LTYPE
  5
7C
330
5
100
AcDbSymbolTableRecord
100
AcDbLinetypeTableRecord
  2
BY_STANDARD
 70
     0
  3
By Standard ____________    ____    ____   _
 72
    65
 73
     6
 40
1.240299999999999
 49
0.6614
 74
     0
 49
-0.0827
 74
     0
 49
0.1654
 74
     0
 49
-0.0827
 74
     0
 49
0.1654
 74
     0
 49
-0.0827
 74
     0
  0
LTYPE
  5
7D
330
5
100
AcDbSymbolTableRecord
100
AcDbLinetypeTableRecord
  2
CHAIN
 70
     0
  3
Chain ____ _ ____ _ ____ _ ____ _ ____ _ ____
 72
    65
 73
     4
 40
0.7087
 49
0.4724000000000001
 74
     0
 49
-0.0591
 74
     0
 49
0.1181
 74
     0
 49
-0.0591
 74
     0
  0
LTYPE
  5
7E
330
5
100
AcDbSymbolTableRecord
100
AcDbLinetypeTableRecord
  2
DASH_DOT
 70
     0
  3
Dash dot __ . __ . __ . __ . __ . __ . __ . __
 72
    65
 73
     4
 40
0.37
 49
0.24
 74
     0
 49
-0.06
 74
     0
 49
0.01
 74
     0
 49
-0.06
 74
     0
  0
LTYPE
  5
7F
330
5
100
AcDbSymbolTableRecord
100
AcDbLinetypeTableRecord
  2
DOUBLE_DASH_DOT
 70
     0
  3
Double-Dash Dot __ __ . __ __ . __ __ . __ _
 72
    65
 73
     6
 40
0.4398
 49
0.24
 74
     0
 49
-0.06
 74
     0
 49
0.0098
 74
     0
 49
-0.06
 74
     0
 49
0.01
 74
     0
 49
-0.06
 74
     0
  0
LTYPE
  5
80
330
5
100
AcDbSymbolTableRecord
100
AcDbLinetypeTableRecord
  2
DASH_TRIPLE_DOT
 70
     0
  3
Dash Triple-Dot _ . . . _ . . . _ . . . _
 72
    65
 73
     8
 40
0.51
 49
0.24
 74
     0
 49
-0.06
 74
     0
 49
0.01
 74
     0
 49
-0.06
 74
     0
 49
0.01
 74
     0
 49
-0.06
 74
     0
 49
0.01
 74
     0
 49
-0.06
 74
     0
  0
LTYPE
  5
81
330
5
100
AcDbSymbolTableRecord
100
AcDbLinetypeTableRecord
  2
DASHED
 70
     0
  3
Dashed __ __ __ __ __ __ __ __ __ __ __ __ __ _
 72
    65
 73
     2
 40
0.2067
 49
0.1654
 74
     0
 49
-0.0413
 74
     0
  0
LTYPE
  5
82
330
5
100
AcDbSymbolTableRecord
100
AcDbLinetypeTableRecord
  2
DASH_DOUBLE_DOT
 70
     0
  3
Dash Double-Dot __ . . __ . . __ . . __ . .
 72
    65
 73
     6
 40
0.4398
 49
0.24
 74
     0
 49
-0.06
 74
     0
 49
0.0098
 74
     0
 49
-0.06
 74
     0
 49
0.01
 74
     0
 49
-0.06
 74
     0
  0
LTYPE
  5
83
330
5
100
AcDbSymbolTableRecord
100
AcDbLinetypeTableRecord
  2
DASHED_SPACE
 70
     0
  3
Dashed Space __ __ __ __ __ __ __ __ __ __ __ _
 72
    65
 73
     2
 40
0.2067
 49
0.1654
 74
     0
 49
-0.0413
 74
     0
  0
LTYPE
  5
84
330
5
100
AcDbSymbolTableRecord
100
AcDbLinetypeTableRecord
  2
DOTTED
 70
     0
  3
Dotted . . . . . . . . . . . . . . . . . . . . 
 72
    65
 73
     2
 40
0.0482
 49
0.0069
 74
     0
 49
-0.0413
 74
     0
  0
LTYPE
  5
85
330
5
100
AcDbSymbolTableRecord
100
AcDbLinetypeTableRecord
  2
DOUBLE_DASH_CHAIN
 70
     0
  3
Double-Dash Chain ______  __  __  ______  __  _
 72
    65
 73
     6
 40
1.240299999999999
 49
0.6614
 74
     0
 49
-0.0827
 74
     0
 49
0.1654
 74
     0
 49
-0.0827
 74
     0
 49
0.1654
 74
     0
 49
-0.0827
 74
     0
  0
LTYPE
  5
87
330
5
100
AcDbSymbolTableRecord
100
AcDbLinetypeTableRecord
  2
DOUBLE_DASH_DOUBLE_DOT
 70
     0
  3
Double-Dash Double-dot _ _ . . _ _ . . _
 72
    65
 73
     8
 40
0.7400000000000001
 49
0.24
 74
     0
 49
-0.06
 74
     0
 49
0.24
 74
     0
 49
-0.06
 74
     0
 49
0.01
 74
     0
 49
-0.06
 74
     0
 49
0.01
 74
     0
 49
-0.06
 74
     0
  0
LTYPE
  5
88
330
5
100
AcDbSymbolTableRecord
100
AcDbLinetypeTableRecord
  2
DOUBLE_DASH_TRIPLE_DOT
 70
     0
  3
Double Dash Triple Dot __ __ . . . __ __ . .
 72
    65
 73
    10
 40
0.8100000000000001
 49
0.24
 74
     0
 49
-0.06
 74
     0
 49
0.24
 74
     0
 49
-0.06
 74
     0
 49
0.01
 74
     0
 49
-0.06
 74
     0
 49
0.01
 74
     0
 49
-0.06
 74
     0
 49
0.01
 74
     0
 49
-0.06
 74
     0
  0
LTYPE
  5
89
330
5
100
AcDbSymbolTableRecord
100
AcDbLinetypeTableRecord
  2
LONG_DASH_DOTTED
 70
     0
  3
Long Dash Dotted ____ . ____ . ____ . ____ . _
 72
    65
 73
     4
 40
0.3543
 49
0.2362
 74
     0
 49
-0.0295
 74
     0
 49
0.0591
 74
     0
 49
-0.0295
 74
     0
  0
LTYPE
  5
8A
330
5
100
AcDbSymbolTableRecord
100
AcDbLinetypeTableRecord
  2
LONG_DASH_DOUBLE_DOT
 70
     0
  3
Long Dash Double Dot ________  .  .  ________  
 72
    65
 73
     6
 40
0.6799999999999999
 49
0.48
 74
     0
 49
-0.06
 74
     0
 49
0.01
 74
     0
 49
-0.06
 74
     0
 49
0.01
 74
     0
 49
-0.06
 74
     0
  0
LTYPE
  5
8B
330
5
100
AcDbSymbolTableRecord
100
AcDbLinetypeTableRecord
  2
LONG_DASH_TRIPLE_DOT
 70
     0
  3
Long Dash Triple Dot ____ ... ____ ... ____
 72
    65
 73
     8
 40
0.3689
 49
0.2362
 74
     0
 49
-0.0295
 74
     0
 49
0.0049
 74
     0
 49
-0.0295
 74
     0
 49
0.0049
 74
     0
 49
-0.0295
 74
     0
 49
0.0049
 74
     0
 49
-0.0295
 74
     0
  0
LTYPE
  5
8C
330
5
100
AcDbSymbolTableRecord
100
AcDbLinetypeTableRecord
  2
BORDER
 70
     0
  3
Border __ __ . __ __ . __ __ . __ __ . __ __ .
 72
    65
 73
     6
 40
1.75
 49
0.5
 74
     0
 49
-0.25
 74
     0
 49
0.5
 74
     0
 49
-0.25
 74
     0
 49
0.0
 74
     0
 49
-0.25
 74
     0
  0
LTYPE
  5
8D
330
5
100
AcDbSymbolTableRecord
100
AcDbLinetypeTableRecord
  2
BORDER2
 70
     0
  3
Border (.5x) __.__.__.__.__.__.__.__.__.__.__.
 72
    65
 73
     6
 40
0.875
 49
0.25
 74
     0
 49
-0.125
 74
     0
 49
0.25
 74
     0
 49
-0.125
 74
     0
 49
0.0
 74
     0
 49
-0.125
 74
     0
  0
LTYPE
  5
8E
330
5
100
AcDbSymbolTableRecord
100
AcDbLinetypeTableRecord
  2
BORDERX2
 70
     0
  3
Border (2x) ____  ____  .  ____  ____  .  ___
 72
    65
 73
     6
 40
3.5
 49
1.0
 74
     0
 49
-0.5
 74
     0
 49
1.0
 74
     0
 49
-0.5
 74
     0
 49
0.0
 74
     0
 49
-0.5
 74
     0
  0
LTYPE
  5
8F
330
5
100
AcDbSymbolTableRecord
100
AcDbLinetypeTableRecord
  2
CENTER
 70
     0
  3
Center ____ _ ____ _ ____ _ ____ _ ____ _ ____
 72
    65
 73
     4
 40
2.0
 49
1.25
 74
     0
 49
-0.25
 74
     0
 49
0.25
 74
     0
 49
-0.25
 74
     0
  0
LTYPE
  5
90
330
5
100
AcDbSymbolTableRecord
100
AcDbLinetypeTableRecord
  2
CENTER2
 70
     0
  3
Center (.5x) ___ _ ___ _ ___ _ ___ _ ___ _ ___
 72
    65
 73
     4
 40
1.125
 49
0.75
 74
     0
 49
-0.125
 74
     0
 49
0.125
 74
     0
 49
-0.125
 74
     0
  0
LTYPE
  5
91
330
5
100
AcDbSymbolTableRecord
100
AcDbLinetypeTableRecord
  2
CENTERX2
 70
     0
  3
Center (2x) ________  __  ________  __  _____
 72
    65
 73
     4
 40
4.0
 49
2.5
 74
     0
 49
-0.5
 74
     0
 49
0.5
 74
     0
 49
-0.5
 74
     0
  0
LTYPE
  5
92
330
5
100
AcDbSymbolTableRecord
100
AcDbLinetypeTableRecord
  2
DASHDOT2
 70
     0
  3
Dash dot (.5x) _._._._._._._._._._._._._._._.
 72
    65
 73
     4
 40
0.5
 49
0.25
 74
     0
 49
-0.125
 74
     0
 49
0.0
 74
     0
 49
-0.125
 74
     0
  0
LTYPE
  5
93
330
5
100
AcDbSymbolTableRecord
100
AcDbLinetypeTableRecord
  2
DASHDOTX2
 70
     0
  3
Dash dot (2x) ____  .  ____  .  ____  .  ___
 72
    65
 73
     4
 40
2.0
 49
1.0
 74
     0
 49
-0.5
 74
     0
 49
0.0
 74
     0
 49
-0.5
 74
     0
  0
LTYPE
  5
95
330
5
100
AcDbSymbolTableRecord
100
AcDbLinetypeTableRecord
  2
DASHED2
 70
     0
  3
Dashed (.5x) _ _ _ _ _ _ _ _ _ _ _ _ _ _ _ _ _
 72
    65
 73
     2
 40
0.375
 49
0.25
 74
     0
 49
-0.125
 74
     0
  0
LTYPE
  5
96
330
5
100
AcDbSymbolTableRecord
100
AcDbLinetypeTableRecord
  2
DASHEDX2
 70
     0
  3
Dashed (2x) ____  ____  ____  ____  ____  ___
 72
    65
 73
     2
 40
1.5
 49
1.0
 74
     0
 49
-0.5
 74
     0
  0
LTYPE
  5
97
330
5
100
AcDbSymbolTableRecord
100
AcDbLinetypeTableRecord
  2
DIVIDE
 70
     0
  3
Divide ____ . . ____ . . ____ . . ____ . . ____
 72
    65
 73
     6
 40
1.25
 49
0.5
 74
     0
 49
-0.25
 74
     0
 49
0.0
 74
     0
 49
-0.25
 74
     0
 49
0.0
 74
     0
 49
-0.25
 74
     0
  0
LTYPE
  5
98
330
5
100
AcDbSymbolTableRecord
100
AcDbLinetypeTableRecord
  2
DIVIDE2
 70
     0
  3
Divide (.5x) __..__..__..__..__..__..__..__.._
 72
    65
 73
     6
 40
0.625
 49
0.25
 74
     0
 49
-0.125
 74
     0
 49
0.0
 74
     0
 49
-0.125
 74
     0
 49
0.0
 74
     0
 49
-0.125
 74
     0
  0
LTYPE
  5
99
330
5
100
AcDbSymbolTableRecord
100
AcDbLinetypeTableRecord
  2
DIVIDEX2
 70
     0
  3
Divide (2x) ________  .  .  ________  .  .  _
 72
    65
 73
     6
 40
2.5
 49
1.0
 74
     0
 49
-0.5
 74
     0
 49
0.0
 74
     0
 49
-0.5
 74
     0
 49
0.0
 74
     0
 49
-0.5
 74
     0
  0
LTYPE
  5
9A
330
5
100
AcDbSymbolTableRecord
100
AcDbLinetypeTableRecord
  2
DOT
 70
     0
  3
Dot . . . . . . . . . . . . . . . . . . . . . .
 72
    65
 73
     2
 40
0.25
 49
0.0
 74
     0
 49
-0.25
 74
     0
  0
LTYPE
  5
9B
330
5
100
AcDbSymbolTableRecord
100
AcDbLinetypeTableRecord
  2
DOT2
 70
     0
  3
Dot (.5x) .....................................
 72
    65
 73
     2
 40
0.125
 49
0.0
 74
     0
 49
-0.125
 74
     0
  0
LTYPE
  5
9C
330
5
100
AcDbSymbolTableRecord
100
AcDbLinetypeTableRecord
  2
DOTX2
 70
     0
  3
Dot (2x) .  .  .  .  .  .  .  .  .  .  .  .  . 
 72
    65
 73
     2
 40
0.5
 49
0.0
 74
     0
 49
-0.5
 74
     0
  0
LTYPE
  5
9D
330
5
100
AcDbSymbolTableRecord
100
AcDbLinetypeTableRecord
  2
HIDDEN
 70
     0
  3
Hidden __ __ __ __ __ __ __ __ __ __ __ __ __ _
 72
    65
 73
     2
 40
0.375
 49
0.25
 74
     0
 49
-0.125
 74
     0
  0
LTYPE
  5
9E
330
5
100
AcDbSymbolTableRecord
100
AcDbLinetypeTableRecord
  2
HIDDEN2
 70
     0
  3
Hidden (.5x) _ _ _ _ _ _ _ _ _ _ _ _ _ _ _ _ _
 72
    65
 73
     2
 40
0.1875
 49
0.125
 74
     0
 49
-0.0625
 74
     0
  0
LTYPE
  5
9F
330
5
100
AcDbSymbolTableRecord
100
AcDbLinetypeTableRecord
  2
HIDDENX2
 70
     0
  3
Hidden (2x) ____ ____ ____ ____ ____ ____ ____
 72
    65
 73
     2
 40
0.75
 49
0.5
 74
     0
 49
-0.25
 74
     0
  0
LTYPE
  5
A0
330
5
100
AcDbSymbolTableRecord
100
AcDbLinetypeTableRecord
  2
PHANTOM
 70
     0
  3
Phantom ______  __  __  ______  __  __  ______
 72
    65
 73
     6
 40
2.5
 49
1.25
 74
     0
 49
-0.25
 74
     0
 49
0.25
 74
     0
 49
-0.25
 74
     0
 49
0.25
 74
     0
 49
-0.25
 74
     0
  0
LTYPE
  5
A1
330
5
100
AcDbSymbolTableRecord
100
AcDbLinetypeTableRecord
  2
PHANTOM2
 70
     0
  3
Phantom (.5x) ___ _ _ ___ _ _ ___ _ _ ___ _ _
 72
    65
 73
     6
 40
1.25
 49
0.625
 74
     0
 49
-0.125
 74
     0
 49
0.125
 74
     0
 49
-0.125
 74
     0
 49
0.125
 74
     0
 49
-0.125
 74
     0
  0
LTYPE
  5
A2
330
5
100
AcDbSymbolTableRecord
100
AcDbLinetypeTableRecord
  2
PHANTOMX2
 70
     0
  3
Phantom (2x) ____________    ____    ____   _
 72
    65
 73
     6
 40
5.0
 49
2.5
 74
     0
 49
-0.5
 74
     0
 49
0.5
 74
     0
 49
-0.5
 74
     0
 49
0.5
 74
     0
 49
-0.5
 74
     0
  0
LTYPE
  5
A3
330
5
100
AcDbSymbolTableRecord
100
AcDbLinetypeTableRecord
  2
ACAD_ISO02W100
 70
     0
  3
ISO dash __ __ __ __ __ __ __ __ __ __ __ __ __
 72
    65
 73
     2
 40
0.59
 49
0.47
 74
     0
 49
-0.12
 74
     0
  0
LTYPE
  5
A4
330
5
100
AcDbSymbolTableRecord
100
AcDbLinetypeTableRecord
  2
ACAD_ISO03W100
 70
     0
  3
ISO dash space __    __    __    __    __    __
 72
    65
 73
     2
 40
1.179999999999999
 49
0.47
 74
     0
 49
-0.71
 74
     0
  0
LTYPE
  5
A5
330
5
100
AcDbSymbolTableRecord
100
AcDbLinetypeTableRecord
  2
ACAD_ISO04W100
 70
     0
  3
ISO long-dash dot ____ . ____ . ____ . ____ . _
 72
    65
 73
     4
 40
1.179999999999999
 49
0.9399999999999998
 74
     0
 49
-0.12
 74
     0
 49
0.0
 74
     0
 49
-0.12
 74
     0
  0
LTYPE
  5
A6
330
5
100
AcDbSymbolTableRecord
100
AcDbLinetypeTableRecord
  2
ACAD_ISO05W100
 70
     0
  3
ISO long-dash double-dot ____ .. ____ .. ____ .
 72
    65
 73
     6
 40
1.299999999999999
 49
0.9399999999999998
 74
     0
 49
-0.12
 74
     0
 49
0.0
 74
     0
 49
-0.12
 74
     0
 49
0.0
 74
     0
 49
-0.12
 74
     0
  0
LTYPE
  5
A7
330
5
100
AcDbSymbolTableRecord
100
AcDbLinetypeTableRecord
  2
ACAD_ISO06W100
 70
     0
  3
ISO long-dash triple-dot ____ ... ____ ... ____
 72
    65
 73
     8
 40
1.419999999999999
 49
0.9399999999999998
 74
     0
 49
-0.12
 74
     0
 49
0.0
 74
     0
 49
-0.12
 74
     0
 49
0.0
 74
     0
 49
-0.12
 74
     0
 49
0.0
 74
     0
 49
-0.12
 74
     0
  0
LTYPE
  5
A8
330
5
100
AcDbSymbolTableRecord
100
AcDbLinetypeTableRecord
  2
ACAD_ISO07W100
 70
     0
  3
ISO dot . . . . . . . . . . . . . . . . . . . .
 72
    65
 73
     2
 40
0.12
 49
0.0
 74
     0
 49
-0.12
 74
     0
  0
LTYPE
  5
A9
330
5
100
AcDbSymbolTableRecord
100
AcDbLinetypeTableRecord
  2
ACAD_ISO08W100
 70
     0
  3
ISO long-dash short-dash ____ __ ____ __ ____ _
 72
    65
 73
     4
 40
0.95
 49
0.47
 74
     0
 49
-0.12
 74
     0
 49
0.24
 74
     0
 49
-0.12
 74
     0
  0
LTYPE
  5
AA
330
5
100
AcDbSymbolTableRecord
100
AcDbLinetypeTableRecord
  2
ACAD_ISO09W100
 70
     0
  3
ISO long-dash double-short-dash ____ __ __ ____
 72
    65
 73
     6
 40
1.31
 49
0.47
 74
     0
 49
-0.12
 74
     0
 49
0.24
 74
     0
 49
-0.12
 74
     0
 49
0.24
 74
     0
 49
-0.12
 74
     0
  0
LTYPE
  5
AB
330
5
100
AcDbSymbolTableRecord
100
AcDbLinetypeTableRecord
  2
ACAD_ISO10W100
 70
     0
  3
ISO dash dot __ . __ . __ . __ . __ . __ . __ .
 72
    65
 73
     4
 40
0.71
 49
0.47
 74
     0
 49
-0.12
 74
     0
 49
0.0
 74
     0
 49
-0.12
 74
     0
  0
LTYPE
  5
AC
330
5
100
AcDbSymbolTableRecord
100
AcDbLinetypeTableRecord
  2
ACAD_ISO11W100
 70
     0
  3
ISO double-dash dot __ __ . __ __ . __ __ . __ 
 72
    65
 73
     6
 40
1.299999999999999
 49
0.47
 74
     0
 49
-0.12
 74
     0
 49
0.47
 74
     0
 49
-0.12
 74
     0
 49
0.0
 74
     0
 49
-0.12
 74
     0
  0
LTYPE
  5
AD
330
5
100
AcDbSymbolTableRecord
100
AcDbLinetypeTableRecord
  2
ACAD_ISO12W100
 70
     0
  3
ISO dash double-dot __ . . __ . . __ . . __ . .
 72
    65
 73
     6
 40
0.8299999999999998
 49
0.47
 74
     0
 49
-0.12
 74
     0
 49
0.0
 74
     0
 49
-0.12
 74
     0
 49
0.0
 74
     0
 49
-0.12
 74
     0
  0
LTYPE
  5
AE
330
5
100
AcDbSymbolTableRecord
100
AcDbLinetypeTableRecord
  2
ACAD_ISO13W100
 70
     0
  3
ISO double-dash double-dot __ __ . . __ __ . . 
 72
    65
 73
     8
 40
1.419999999999999
 49
0.47
 74
     0
 49
-0.12
 74
     0
 49
0.47
 74
     0
 49
-0.12
 74
     0
 49
0.0
 74
     0
 49
-0.12
 74
     0
 49
0.0
 74
     0
 49
-0.12
 74
     0
  0
LTYPE
  5
AF
330
5
100
AcDbSymbolTableRecord
100
AcDbLinetypeTableRecord
  2
ACAD_ISO14W100
 70
     0
  3
ISO dash triple-dot __ . . . __ . . . __ . . . 
 72
    65
 73
     8
 40
0.95
 49
0.47
 74
     0
 49
-0.12
 74
     0
 49
0.0
 74
     0
 49
-0.12
 74
     0
 49
0.0
 74
     0
 49
-0.12
 74
     0
 49
0.0
 74
     0
 49
-0.12
 74
     0
  0
LTYPE
  5
B0
330
5
100
AcDbSymbolTableRecord
100
AcDbLinetypeTableRecord
  2
ACAD_ISO15W100
 70
     0
  3
ISO double-dash triple-dot __ __ . . . __ __ . 
 72
    65
 73
    10
 40
1.539999999999999
 49
0.47
 74
     0
 49
-0.12
 74
     0
 49
0.47
 74
     0
 49
-0.12
 74
     0
 49
0.0
 74
     0
 49
-0.12
 74
     0
 49
0.0
 74
     0
 49
-0.12
 74
     0
 49
0.0
 74
     0
 49
-0.12
 74
     0
  0
LTYPE
  5
B3
330
5
100
AcDbSymbolTableRecord
100
AcDbLinetypeTableRecord
  2
FENCELINE1
 70
     0
  3
Fenceline circle ----0-----0----0-----0----0---
 72
    65
 73
     4
 40
1.45
 49
0.25
 74
     0
 49
-0.1
 74
     4
 75
   133
340
B2
 46
0.1
 50
0.0
 44
-0.1
 45
0.0
 49
-0.1
 74
     0
 49
1.0
 74
     0
  0
LTYPE
  5
B4
330
5
100
AcDbSymbolTableRecord
100
AcDbLinetypeTableRecord
  2
FENCELINE2
 70
     0
  3
Fenceline square ----[]-----[]----[]-----[]----
 72
    65
 73
     4
 40
1.45
 49
0.25
 74
     0
 49
-0.1
 74
     4
 75
   132
340
B2
 46
0.1
 50
0.0
 44
-0.1
 45
0.0
 49
-0.1
 74
     0
 49
1.0
 74
     0
  0
LTYPE
  5
B5
330
5
100
AcDbSymbolTableRecord
100
AcDbLinetypeTableRecord
  2
TRACKS
 70
     0
  3
Tracks -|-|-|-|-|-|-|-|-|-|-|-|-|-|-|-|-|-|-|-|
 72
    65
 73
     2
 40
0.3
 49
0.15
 74
     4
 75
   130
340
B2
 46
0.25
 50
0.0
 44
0.0
 45
0.0
 49
0.15
 74
     0
  0
LTYPE
  5
B6
330
5
100
AcDbSymbolTableRecord
100
AcDbLinetypeTableRecord
  2
BATTING
 70
     0
  3
Batting SSSSSSSSSSSSSSSSSSSSSSSSSSSSSSSSSSSSSSS
 72
    65
 73
     4
 40
0.4001000000000001
 49
0.0001
 74
     0
 49
-0.1
 74
     4
 75
   134
340
B2
 46
0.1
 50
0.0
 44
-0.1
 45
0.0
 49
-0.2
 74
     4
 75
   134
340
B2
 46
0.1
 50
180.0
 44
0.1
 45
0.0
 49
-0.1
 74
     0
  0
LTYPE
  5
B7
330
5
100
AcDbSymbolTableRecord
100
AcDbLinetypeTableRecord
  2
HOT_WATER_SUPPLY
 70
     0
  3
Hot water supply ---- HW ---- HW ---- HW ----
 72
    65
 73
     3
 40
0.9
 49
0.5
 74
     0
 49
-0.2
 74
     2
 75
     0
340
55
 46
0.1
 50
0.0
 44
-0.1
 45
-0.05
  9
HW
 49
-0.2
 74
     0
  0
LTYPE
  5
B8
330
5
100
AcDbSymbolTableRecord
100
AcDbLinetypeTableRecord
  2
GAS_LINE
 70
     0
  3
Gas line ----GAS----GAS----GAS----GAS----GAS---
 72
    65
 73
     3
 40
0.95
 49
0.5
 74
     0
 49
-0.2
 74
     2
 75
     0
340
55
 46
0.1
 50
0.0
 44
-0.1
 45
-0.05
  9
GAS
 49
-0.25
 74
     0
  0
LTYPE
  5
B9
330
5
100
AcDbSymbolTableRecord
100
AcDbLinetypeTableRecord
  2
ZIGZAG
 70
     0
  3
Zig zag /\/\/\/\/\/\/\/\/\/\/\/\/\/\/\/\/\/\/\/
 72
    65
 73
     4
 40
0.8001000000000001
 49
0.0001
 74
     0
 49
-0.2
 74
     4
 75
   131
340
B2
 46
0.2
 50
0.0
 44
-0.2
 45
0.0
 49
-0.4
 74
     4
 75
   131
340
B2
 46
0.2
 50
180.0
 44
0.2
 45
0.0
 49
-0.2
 74
     0
  0
ENDTAB
  0
TABLE
  2
LAYER
  5
2
330
0
100
AcDbSymbolTable
 70
    27
  0
LAYER
  5
54
330
2
100
AcDbSymbolTableRecord
100
AcDbLayerTableRecord
  2
0
 70
     0
 62
     7
  6
Continuous
370
    18
390
F
  0
LAYER
  5
C0
330
2
100
AcDbSymbolTableRecord
100
AcDbLayerTableRecord
  2
Center Mark (ANSI)
 70
     0
 62
     7
  6
Continuous
370
    15
390
F
  0
LAYER
  5
C1
330
2
100
AcDbSymbolTableRecord
100
AcDbLayerTableRecord
  2
Centerline (ANSI)
 70
     0
 62
     7
  6
Continuous
370
    15
390
F
  0
LAYER
  5
C3
330
2
100
AcDbSymbolTableRecord
100
AcDbLayerTableRecord
  2
Dimension (ANSI)
 70
     0
 62
     7
  6
Continuous
370
    13
390
F
  0
LAYER
  5
C5
330
2
100
AcDbSymbolTableRecord
100
AcDbLayerTableRecord
  2
Hidden (ANSI)
 70
     0
 62
     7
  6
DASHED
370
    15
390
F
  0
LAYER
  5
CC
330
2
100
AcDbSymbolTableRecord
100
AcDbLayerTableRecord
  2
Symbol (ANSI)
 70
     0
 62
     7
  6
Continuous
370
    18
390
F
  0
LAYER
  5
CF
330
2
100
AcDbSymbolTableRecord
100
AcDbLayerTableRecord
  2
Visible (ANSI)
 70
     0
 62
     7
  6
Continuous
370
    13
390
F
  0
LAYER
  5
157
330
2
100
AcDbSymbolTableRecord
100
AcDbLayerTableRecord
  2
Defpoints
 70
     0
 62
     7
  6
Continuous
290
     0
370
    -3
390
F
  0
ENDTAB
  0
TABLE
  2
STYLE
  5
3
330
0
100
AcDbSymbolTable
 70
    18
  0
STYLE
  5
55
330
3
100
AcDbSymbolTableRecord
100
AcDbTextStyleTableRecord
  2
Standard
 70
     0
 40
0.0
 41
1.0
 50
0.0
 71
     0
 42
0.2
  3
txt
  4

  0
STYLE
  5
5A
330
3
100
AcDbSymbolTableRecord
100
AcDbTextStyleTableRecord
  2
Annotative
 70
     0
 40
0.0
 41
1.0
 50
0.0
 71
     0
 42
0.2
  3
txt
  4

1001
AcadAnnotative
1000
AnnotativeData
1002
{
1070
     1
1070
     1
1002
}
  0
STYLE
  5
B2
330
3
100
AcDbSymbolTableRecord
100
AcDbTextStyleTableRecord
  2

 70
     1
 40
0.0
 41
1.0
 50
0.0
 71
     0
 42
0.2
  3
ltypeshp.shx
  4

  0
STYLE
  5
D4
330
3
100
AcDbSymbolTableRecord
100
AcDbTextStyleTableRecord
  2
ITALICC_120
 70
     0
 40
0.0
 41
1.0
 50
0.0
 71
     0
 42
0.2
  3
italicc.shx
  4

  0
STYLE
  5
D5
330
3
100
AcDbSymbolTableRecord
100
AcDbTextStyleTableRecord
  2
Label Text (ANSI)
 70
     0
 40
0.0
 41
1.0
 50
0.0
 71
     0
 42
0.2
  3
tahoma.ttf
  4

1001
ACAD
1000
Tahoma
1071
      256
  0
STYLE
  5
D6
330
3
100
AcDbSymbolTableRecord
100
AcDbTextStyleTableRecord
  2
Note Text (ANSI)
 70
     0
 40
0.0
 41
1.0
 50
0.0
 71
     0
 42
0.2
  3
tahoma.ttf
  4

1001
ACAD
1000
Tahoma
1071
      256
  0
STYLE
  5
D7
330
3
100
AcDbSymbolTableRecord
100
AcDbTextStyleTableRecord
  2
ROMANS
 70
     0
 40
0.0
 41
1.0
 50
0.0
 71
     0
 42
0.2
  3
romans.shx
  4

  0
STYLE
  5
D8
330
3
100
AcDbSymbolTableRecord
100
AcDbTextStyleTableRecord
  2
SANSSERIF_114
 70
     0
 40
0.0
 41
1.0
 50
0.0
 71
     0
 42
0.2
  3
tahoma.ttf
  4

1001
ACAD
1000
Tahoma
1071
      256
  0
STYLE
  5
D9
330
3
100
AcDbSymbolTableRecord
100
AcDbTextStyleTableRecord
  2
SANSSERIF_117
 70
     0
 40
0.0
 41
1.0
 50
0.0
 71
     0
 42
0.2
  3
tahoma.ttf
  4

1001
ACAD
1000
Tahoma
1071
      256
  0
STYLE
  5
DA
330
3
100
AcDbSymbolTableRecord
100
AcDbTextStyleTableRecord
  2
STANDARDAM_ANSI
 70
     0
 40
0.0
 41
1.0
 50
0.0
 71
     0
 42
0.2
  3
txt.shx
  4

  0
STYLE
  5
DB
330
3
100
AcDbSymbolTableRecord
100
AcDbTextStyleTableRecord
  2
StandardAM_ANSI$0
 70
     0
 40
0.0
 41
1.0
 50
0.0
 71
     0
 42
0.2
  3
txt.shx
  4

  0
STYLE
  5
DC
330
3
100
AcDbSymbolTableRecord
100
AcDbTextStyleTableRecord
  2
STANDARDAM_ANSI$3
 70
     0
 40
0.0
 41
1.0
 50
0.0
 71
     0
 42
0.2
  3
txt.shx
  4

  0
STYLE
  5
DD
330
3
100
AcDbSymbolTableRecord
100
AcDbTextStyleTableRecord
  2
STANDARDAM_ANSI$4
 70
     0
 40
0.0
 41
1.0
 50
0.0
 71
     0
 42
0.2
  3
txt.shx
  4

  0
STYLE
  5
DE
330
3
100
AcDbSymbolTableRecord
100
AcDbTextStyleTableRecord
  2
STANDARDAM_ANSI$7
 70
     0
 40
0.0
 41
1.0
 50
0.0
 71
     0
 42
0.2
  3
txt.shx
  4

  0
STYLE
  5
DF
330
3
100
AcDbSymbolTableRecord
100
AcDbTextStyleTableRecord
  2
STANDARDAM_ANSI$SF
 70
     0
 40
0.0
 41
1.0
 50
0.0
 71
     0
 42
0.2
  3
txt.shx
  4

  0
STYLE
  5
E0
330
3
100
AcDbSymbolTableRecord
100
AcDbTextStyleTableRecord
  2
STANDARDAM_ANSI$SH
 70
     0
 40
0.0
 41
1.0
 50
0.0
 71
     0
 42
0.2
  3
txt.shx
  4

  0
STYLE
  5
E1
330
3
100
AcDbSymbolTableRecord
100
AcDbTextStyleTableRecord
  2
STANDARDSTANDARD
 70
     0
 40
0.0
 41
1.0
 50
0.0
 71
     0
 42
0.2
  3
txt.shx
  4

  0
STYLE
  5
128
330
3
100
AcDbSymbolTableRecord
100
AcDbTextStyleTableRecord
  2
Text Style169
 70
     0
 40
0.0
 41
1.0
 50
0.0
 71
     0
 42
0.2
  3
tahoma.ttf
  4

1001
ACAD
1000
Tahoma
1071
      256
  0
ENDTAB
  0
TABLE
  2
VIEW
  5
6
330
0
100
AcDbSymbolTable
 70
     0
  0
ENDTAB
  0
TABLE
  2
UCS
  5
7
330
0
100
AcDbSymbolTable
 70
     0
  0
ENDTAB
  0
TABLE
  2
APPID
  5
9
330
0
100
AcDbSymbolTable
 70
     4
  0
APPID
  5
56
330
9
100
AcDbSymbolTableRecord
100
AcDbRegAppTableRecord
  2
ACAD
 70
     0
  0
APPID
  5
5E
330
9
100
AcDbSymbolTableRecord
100
AcDbRegAppTableRecord
  2
AcadAnnotative
 70
     0
  0
APPID
  5
7AD
330
9
100
AcDbSymbolTableRecord
100
AcDbRegAppTableRecord
  2
ACAD_DSTYLE_DIMRADIAL_EXTENSION
 70
     0
  0
APPID
  5
CA0
330
9
100
AcDbSymbolTableRecord
100
AcDbRegAppTableRecord
  2
ACAD_MLEADERVER
 70
     0
  0
ENDTAB
  0
TABLE
  2
DIMSTYLE
  5
A
330
0
100
AcDbSymbolTable
 70
    27
100
AcDbDimStyleTable
 71
     2
340
F6
340
58
  0
DIMSTYLE
105
58
330
A
100
AcDbSymbolTableRecord
100
AcDbDimStyleTableRecord
  2
STANDARD
 70
     0
 41
0.1800000071525573
 42
0.0625
140
0.1800000071525574
144
1.0
147
0.0900000035762787
176
   256
177
   256
178
   256
274
     3
340
55
371
    -1
372
    -1
  0
DIMSTYLE
105
59
330
A
100
AcDbSymbolTableRecord
100
AcDbDimStyleTableRecord
  2
Annotative
 70
     0
340
55
1001
AcadAnnotative
1000
AnnotativeData
1002
{
1070
     1
1070
     1
1002
}
  0
DIMSTYLE
105
E2
330
A
100
AcDbSymbolTableRecord
100
AcDbDimStyleTableRecord
  2
AM_ANSI
 70
     0
  4
 mm
 40
6.0
 41
0.119999997317791
 42
0.05
 43
0.5
 44
0.1
 45
0.00000001
 78
     4
 79
     2
140
0.1200000047683716
146
0.7099999189376831
147
0.0599999986588955
176
   256
177
   256
178
     2
284
     4
340
DA
371
    -1
372
    -1
  0
DIMSTYLE
105
E3
330
A
100
AcDbSymbolTableRecord
100
AcDbDimStyleTableRecord
  2
AM_ANSI$7
 70
     0
  4
 mm
 40
6.0
 41
0.119999997317791
 42
0.05
 43
0.5
 44
0.1
 45
0.00000001
 78
     4
 79
     2
140
0.1200000047683716
146
0.7099999189376831
147
0.0599999986588955
176
   256
177
   256
178
     2
284
     4
340
DA
371
    -1
372
    -1
  0
DIMSTYLE
105
E4
330
A
100
AcDbSymbolTableRecord
100
AcDbDimStyleTableRecord
  2
AM_ANSI$0
 70
     0
  4
 mm
 40
6.0
 41
0.119999997317791
 42
0.05
 43
0.5
 44
0.1
 45
0.00000001
 78
     4
 79
     2
140
0.1200000047683716
146
0.7099999189376831
147
0.0599999986588955
176
   256
177
   256
178
     2
284
     4
340
DB
371
    -1
372
    -1
  0
DIMSTYLE
105
E5
330
A
100
AcDbSymbolTableRecord
100
AcDbDimStyleTableRecord
  2
AM_ANSI$0$7
 70
     0
  4
 mm
 40
6.0
 41
0.119999997317791
 42
0.05
 43
0.5
 44
0.1
 45
0.00000001
 78
     4
 79
     2
140
0.1200000047683716
146
0.7099999189376831
147
0.0599999986588955
176
   256
177
   256
178
     2
284
     4
340
DB
371
    -1
372
    -1
  0
DIMSTYLE
105
E6
330
A
100
AcDbSymbolTableRecord
100
AcDbDimStyleTableRecord
  2
AM_ANSI$3
 70
     0
  4
 mm
 40
6.0
 41
0.119999997317791
 42
0.05
 43
0.5
 44
0.1
 45
0.00000001
 78
     4
 79
     2
140
0.1200000047683716
146
0.7099999189376831
147
0.0599999986588955
176
   256
177
   256
178
     2
284
     4
340
DC
371
    -1
372
    -1
  0
DIMSTYLE
105
E7
330
A
100
AcDbSymbolTableRecord
100
AcDbDimStyleTableRecord
  2
AM_ANSI$3$7
 70
     0
  4
 mm
 40
6.0
 41
0.119999997317791
 42
0.05
 43
0.5
 44
0.1
 45
0.00000001
 78
     4
 79
     2
140
0.1200000047683716
146
0.7099999189376831
147
0.0599999986588955
176
   256
177
   256
178
     2
284
     4
340
DC
371
    -1
372
    -1
  0
DIMSTYLE
105
E8
330
A
100
AcDbSymbolTableRecord
100
AcDbDimStyleTableRecord
  2
AM_ANSI$4
 70
     0
  4
 mm
 40
6.0
 41
0.119999997317791
 42
0.05
 43
0.5
 44
0.1
 45
0.00000001
 78
     4
 79
     2
140
0.1200000047683716
146
0.7099999189376831
147
0.0599999986588955
176
   256
177
   256
178
     2
284
     4
340
DD
371
    -1
372
    -1
  0
DIMSTYLE
105
E9
330
A
100
AcDbSymbolTableRecord
100
AcDbDimStyleTableRecord
  2
AM_ANSI$4$7
 70
     0
  4
 mm
 40
6.0
 41
0.119999997317791
 42
0.05
 43
0.5
 44
0.1
 45
0.00000001
 78
     4
 79
     2
140
0.1200000047683716
146
0.7099999189376831
147
0.0599999986588955
176
   256
177
   256
178
     2
284
     4
340
DD
371
    -1
372
    -1
  0
DIMSTYLE
105
EA
330
A
100
AcDbSymbolTableRecord
100
AcDbDimStyleTableRecord
  2
AM_ANSI$SF
 70
     0
  4
 mm
 40
6.0
 41
0.119999997317791
 42
0.05
 43
0.5
 44
0.1
 45
0.00000001
 75
     1
 76
     1
 78
     4
 79
     2
140
0.1200000047683716
146
0.7099999189376831
147
0.0599999986588955
176
   256
177
   256
178
     2
284
     4
340
DF
371
    -1
372
    -1
  0
DIMSTYLE
105
EB
330
A
100
AcDbSymbolTableRecord
100
AcDbDimStyleTableRecord
  2
AM_ANSI$SF$7
 70
     0
  4
 mm
 40
6.0
 41
0.119999997317791
 42
0.05
 43
0.5
 44
0.1
 45
0.00000001
 75
     1
 76
     1
 78
     4
 79
     2
140
0.1200000047683716
146
0.7099999189376831
147
0.0599999986588955
176
   256
177
   256
178
     2
284
     4
340
DF
371
    -1
372
    -1
  0
DIMSTYLE
105
EC
330
A
100
AcDbSymbolTableRecord
100
AcDbDimStyleTableRecord
  2
AM_ANSI$SH
 70
     0
  4
 mm
 40
6.0
 41
0.119999997317791
 42
0.05
 43
0.5
 44
0.1
 45
0.00000001
 75
     1
 76
     1
 78
     4
 79
     2
140
0.1200000047683716
146
0.7099999189376831
147
0.0599999986588955
176
   256
177
   256
178
     2
284
     4
340
E0
371
    -1
372
    -1
  0
DIMSTYLE
105
ED
330
A
100
AcDbSymbolTableRecord
100
AcDbDimStyleTableRecord
  2
AM_ANSI$SH$7
 70
     0
  4
 mm
 40
6.0
 41
0.119999997317791
 42
0.05
 43
0.5
 44
0.1
 45
0.00000001
 75
     1
 76
     1
 78
     4
 79
     2
140
0.1200000047683716
146
0.7099999189376831
147
0.0599999986588955
176
   256
177
   256
178
     2
284
     4
340
E0
371
    -1
372
    -1
  0
DIMSTYLE
105
EE
330
A
100
AcDbSymbolTableRecord
100
AcDbDimStyleTableRecord
  2
Architectural (ANSI)
 70
     0
 40
6.0
 41
0.0984251946210861
 43
0.2362204724409449
 44
0.125
 45
0.00000001
 46
0.3937007874015748
 78
     3
 79
     3
140
0.1200000047683716
147
0.031496062992126
171
     1
176
   256
177
   256
178
   256
272
     2
274
     1
276
     2
277
     4
284
    12
285
     4
286
    12
340
D6
371
    -1
372
    -1
  0
DIMSTYLE
105
EF
330
A
100
AcDbSymbolTableRecord
100
AcDbDimStyleTableRecord
  2
Architectural (ANSI)$7
 70
     0
 40
6.0
 41
0.0984251946210861
 43
0.2362204724409449
 44
0.125
 45
0.00000001
 46
0.3937007874015748
 78
     3
 79
     3
140
0.1200000047683716
147
0.031496062992126
171
     1
176
   256
177
   256
178
   256
272
     2
274
     1
276
     2
277
     4
284
    12
285
     4
286
    12
340
D6
371
    -1
372
    -1
  0
DIMSTYLE
105
F0
330
A
100
AcDbSymbolTableRecord
100
AcDbDimStyleTableRecord
  2
Default - Fraction (ANSI)
 70
     0
 40
6.0
 41
0.0984251946210861
 43
0.2362204724409449
 44
0.125
 45
0.00000001
 46
0.3937007874015748
 79
     3
140
0.1200000047683716
147
0.031496062992126
171
     1
176
   256
177
   256
178
   256
272
     2
274
     1
276
     2
277
     5
284
    12
285
     4
286
    12
340
D6
371
    -1
372
    -1
  0
DIMSTYLE
105
F1
330
A
100
AcDbSymbolTableRecord
100
AcDbDimStyleTableRecord
  2
Default - Fraction (ANSI)$7
 70
     0
 40
6.0
 41
0.0984251946210861
 43
0.2362204724409449
 44
0.125
 45
0.00000001
 46
0.3937007874015748
 79
     3
140
0.1200000047683716
147
0.031496062992126
171
     1
176
   256
177
   256
178
   256
272
     2
274
     1
276
     2
277
     5
284
    12
285
     4
286
    12
340
D6
371
    -1
372
    -1
  0
DIMSTYLE
105
F2
330
A
100
AcDbSymbolTableRecord
100
AcDbDimStyleTableRecord
  2
Default - mm (ANSI)
 70
     0
 40
6.0
 41
0.0984251946210861
 42
0.063
 43
0.2362204724409449
 44
0.125
 45
0.00000001
 46
0.3937007874015748
 73
     0
 78
     4
 79
     1
140
0.1200000047683716
143
1.0
144
25.4
147
0.031496062992126
171
     1
176
   256
177
   256
178
   256
179
     1
271
     2
272
     2
274
     1
284
     4
285
     4
340
D6
371
    -1
372
    -1
  0
DIMSTYLE
105
F3
330
A
100
AcDbSymbolTableRecord
100
AcDbDimStyleTableRecord
  2
Default - mm (ANSI)$7
 70
     0
 40
6.0
 41
0.0984251946210861
 42
0.063
 43
0.2362204724409449
 44
0.125
 45
0.00000001
 46
0.3937007874015748
 73
     0
 78
     4
 79
     1
140
0.1200000047683716
143
1.0
144
25.4
147
0.031496062992126
171
     1
176
   256
177
   256
178
   256
179
     1
271
     2
272
     2
274
     1
284
     4
285
     4
340
D6
371
    -1
372
    -1
  0
DIMSTYLE
105
F4
330
A
100
AcDbSymbolTableRecord
100
AcDbDimStyleTableRecord
  2
Default - mm [in] (ANSI)
 70
     0
  4
 in
 40
6.0
 41
0.0984251946210861
 42
0.063
 43
0.25
 44
0.125
 45
0.00000001
 46
0.3937007874015748
 73
     0
 78
     4
 79
     1
140
0.1200000047683716
143
0.03937
144
25.4
147
0.031496062992126
170
     1
171
     3
176
   256
177
   256
178
   256
179
     1
271
     2
272
     2
274
     3
284
     4
285
     4
286
     4
340
D6
371
    -1
372
    -1
  0
DIMSTYLE
105
F5
330
A
100
AcDbSymbolTableRecord
100
AcDbDimStyleTableRecord
  2
Default - mm [in] (ANSI)$7
 70
     0
  4
 in
 40
6.0
 41
0.0984251946210861
 42
0.063
 43
0.25
 44
0.125
 45
0.00000001
 46
0.3937007874015748
 73
     0
 78
     4
 79
     1
140
0.1200000047683716
143
0.03937
144
25.4
147
0.031496062992126
170
     1
171
     3
176
   256
177
   256
178
   256
179
     1
271
     2
272
     2
274
     3
284
     4
285
     4
286
     4
340
D6
371
    -1
372
    -1
  0
DIMSTYLE
105
F6
102
{ACAD_REACTORS
330
155
330
241
330
32B
330
415
330
4FF
330
5FD
330
713
330
7CE
330
887
330
98F
330
A79
330
B63
102
}
330
A
100
AcDbSymbolTableRecord
100
AcDbDimStyleTableRecord
  2
Default (ANSI)
 70
     0
 40
6.0
 41
0.0984251946210861
 43
0.2362204724409449
 44
0.125
 45
0.00000001
 46
0.3937007874015748
 79
     1
140
0.1200000047683716
147
0.031496062992126
171
     1
176
   256
177
   256
178
   256
271
     2
272
     2
274
     1
284
     4
285
     4
340
D6
371
    -1
372
    -1
  0
DIMSTYLE
105
F7
330
A
100
AcDbSymbolTableRecord
100
AcDbDimStyleTableRecord
  2
Default (ANSI)$7
 70
     0
 40
6.0
 41
0.0984251946210861
 43
0.2362204724409449
 44
0.125
 45
0.00000001
 46
0.3937007874015748
 79
     1
140
0.1200000047683716
147
0.031496062992126
171
     1
176
   256
177
   256
178
   256
271
     2
272
     2
274
     1
284
     4
285
     4
340
D6
371
    -1
372
    -1
  0
DIMSTYLE
105
F8
330
A
100
AcDbSymbolTableRecord
100
AcDbDimStyleTableRecord
  2
Alternate (ANSI)
 70
     0
 40
6.0
 41
0.0979999974370003
340
55
342
F9
  0
DIMSTYLE
105
10B
330
A
100
AcDbSymbolTableRecord
100
AcDbDimStyleTableRecord
  2
Datum (ANSI)
 70
     0
 40
6.0
 41
0.0979999974370003
340
55
342
F9
  0
DIMSTYLE
105
11A
330
A
100
AcDbSymbolTableRecord
100
AcDbDimStyleTableRecord
  2
Large (ANSI)
 70
     0
 40
6.0
 41
0.1959999948740005
340
55
342
F9
  0
ENDTAB
  0
TABLE
  2
BLOCK_RECORD
  5
1
330
0
100
AcDbSymbolTable
 70
    16
  0
BLOCK_RECORD
  5
6C
330
1
100
AcDbSymbolTableRecord
100
AcDbBlockTableRecord
  2
*Model_Space
340
6F
  0
BLOCK_RECORD
  5
68
330
1
100
AcDbSymbolTableRecord
100
AcDbBlockTableRecord
  2
*Paper_Space
340
6B
  0
BLOCK_RECORD
  5
70
330
1
100
AcDbSymbolTableRecord
100
AcDbBlockTableRecord
  2
*Paper_Space0
340
73
  0
BLOCK_RECORD
  5
F9
330
1
100
AcDbSymbolTableRecord
100
AcDbBlockTableRecord
  2
_Closed
340
0
  0
BLOCK_RECORD
  5
100
330
1
100
AcDbSymbolTableRecord
100
AcDbBlockTableRecord
  2
DatumFilled45
340
0
  0
BLOCK_RECORD
  5
10C
330
1
100
AcDbSymbolTableRecord
100
AcDbBlockTableRecord
  2
Filled-1
340
0
  0
BLOCK_RECORD
  5
158
330
1
100
AcDbSymbolTableRecord
100
AcDbBlockTableRecord
  2
*D4
340
0
  0
BLOCK_RECORD
  5
242
330
1
100
AcDbSymbolTableRecord
100
AcDbBlockTableRecord
  2
*D5
340
0
  0
BLOCK_RECORD
  5
32C
330
1
100
AcDbSymbolTableRecord
100
AcDbBlockTableRecord
  2
*D6
340
0
  0
BLOCK_RECORD
  5
416
330
1
100
AcDbSymbolTableRecord
100
AcDbBlockTableRecord
  2
*D7
340
0
  0
BLOCK_RECORD
  5
500
330
1
100
AcDbSymbolTableRecord
100
AcDbBlockTableRecord
  2
*D8
340
0
  0
BLOCK_RECORD
  5
5FE
330
1
100
AcDbSymbolTableRecord
100
AcDbBlockTableRecord
  2
*D9
340
0
  0
BLOCK_RECORD
  5
714
330
1
100
AcDbSymbolTableRecord
100
AcDbBlockTableRecord
  2
*D10
340
0
  0
BLOCK_RECORD
  5
7CF
330
1
100
AcDbSymbolTableRecord
100
AcDbBlockTableRecord
  2
*D11
340
0
  0
BLOCK_RECORD
  5
888
330
1
100
AcDbSymbolTableRecord
100
AcDbBlockTableRecord
  2
*D12
340
0
  0
BLOCK_RECORD
  5
990
330
1
100
AcDbSymbolTableRecord
100
AcDbBlockTableRecord
  2
*D13
340
0
  0
BLOCK_RECORD
  5
A7A
330
1
100
AcDbSymbolTableRecord
100
AcDbBlockTableRecord
  2
*D14
340
0
  0
BLOCK_RECORD
  5
B64
330
1
100
AcDbSymbolTableRecord
100
AcDbBlockTableRecord
  2
*D15
340
0
  0
ENDTAB
  0
ENDSEC
  0
SECTION
  2
BLOCKS
  0
BLOCK
  5
6D
330
6C
100
AcDbEntity
  8
0
100
AcDbBlockBegin
  2
*Model_Space
 70
     0
 10
0.0
 20
0.0
 30
0.0
  3
*Model_Space
  1

  0
ENDBLK
  5
6E
330
6C
100
AcDbEntity
  8
0
100
AcDbBlockEnd
  0
BLOCK
  5
69
330
68
100
AcDbEntity
 67
     1
  8
0
100
AcDbBlockBegin
  2
*Paper_Space
 70
     0
 10
0.0
 20
0.0
 30
0.0
  3
*Paper_Space
  1

  0
ENDBLK
  5
6A
330
68
100
AcDbEntity
 67
     1
  8
0
100
AcDbBlockEnd
  0
BLOCK
  5
71
330
70
100
AcDbEntity
 67
     1
  8
0
100
AcDbBlockBegin
  2
*Paper_Space0
 70
     0
 10
0.0
 20
0.0
 30
0.0
  3
*Paper_Space0
  1

  0
ENDBLK
  5
72
330
70
100
AcDbEntity
 67
     1
  8
0
100
AcDbBlockEnd
  0
BLOCK
  5
FE
330
F9
100
AcDbEntity
  8
0
100
AcDbBlockBegin
  2
_Closed
 70
     0
 10
0.0
 20
0.0
 30
0.0
  3
_Closed
  1

  0
LINE
  5
FA
330
F9
100
AcDbEntity
  8
0
  6
ByBlock
 62
     0
370
    -2
100
AcDbLine
 10
-1.0
 20
0.1666666666666666
 30
0.0
 11
0.0
 21
0.0
 31
0.0
  0
LINE
  5
FB
330
F9
100
AcDbEntity
  8
0
  6
ByBlock
 62
     0
370
    -2
100
AcDbLine
 10
0.0
 20
0.0
 30
0.0
 11
-1.0
 21
-0.1666666666666666
 31
0.0
  0
LINE
  5
FC
330
F9
100
AcDbEntity
  8
0
  6
ByBlock
 62
     0
370
    -2
100
AcDbLine
 10
-1.0
 20
0.1666666666666666
 30
0.0
 11
-1.0
 21
-0.1666666666666666
 31
0.0
  0
LINE
  5
FD
330
F9
100
AcDbEntity
  8
0
  6
ByBlock
 62
     0
370
    -2
100
AcDbLine
 10
0.0
 20
0.0
 30
0.0
 11
-1.0
 21
0.0
 31
0.0
  0
ENDBLK
  5
FF
330
F9
100
AcDbEntity
  8
0
100
AcDbBlockEnd
  0
BLOCK
  5
101
330
100
100
AcDbEntity
  8
0
100
AcDbBlockBegin
  2
DatumFilled45
 70
     0
 10
0.0
 20
0.0
 30
0.0
  3
DatumFilled45
  1

  0
POLYLINE
  5
103
330
100
100
AcDbEntity
  8
0
 62
     0
100
AcDb2dPolyline
 66
     1
 10
0.0
 20
0.0
 30
0.0
 70
   128
  0
VERTEX
  5
104
330
103
100
AcDbEntity
  8
0
 62
     0
100
AcDbVertex
100
AcDb2dVertex
 10
0.0
 20
0.9999999999999998
 30
0.0
  0
VERTEX
  5
105
330
103
100
AcDbEntity
  8
0
 62
     0
100
AcDbVertex
100
AcDb2dVertex
 10
0.0
 20
-0.9999999999999998
 30
0.0
  0
VERTEX
  5
107
330
103
100
AcDbEntity
  8
0
 62
     0
100
AcDbVertex
100
AcDb2dVertex
 10
-0.9999999999999998
 20
0.0
 30
0.0
  0
VERTEX
  5
108
330
103
100
AcDbEntity
  8
0
 62
     0
100
AcDbVertex
100
AcDb2dVertex
 10
0.0
 20
0.9999999999999998
 30
0.0
  0
SEQEND
  5
106
330
103
100
AcDbEntity
  8
0
 62
     0
  0
SOLID
  5
10A
330
100
100
AcDbEntity
  8
0
 62
     0
100
AcDbTrace
 10
0.0
 20
0.9999999999999998
 30
0.0
 11
0.0
 21
-0.9999999999999998
 31
0.0
 12
-0.9999999999999998
 22
0.0
 32
0.0
 13
0.0
 23
0.9999999999999998
 33
0.0
  0
ENDBLK
  5
102
330
100
100
AcDbEntity
  8
0
100
AcDbBlockEnd
  0
BLOCK
  5
10D
330
10C
100
AcDbEntity
  8
0
100
AcDbBlockBegin
  2
Filled-1
 70
     0
 10
0.0
 20
0.0
 30
0.0
  3
Filled-1
  1

  0
LINE
  5
10F
330
10C
100
AcDbEntity
  8
0
 62
     0
100
AcDbLine
 10
-0.9999999999999998
 20
0.0
 30
0.0
 11
0.0
 21
0.0
 31
0.0
  0
POLYLINE
  5
110
330
10C
100
AcDbEntity
  8
0
 62
     0
100
AcDb2dPolyline
 66
     1
 10
0.0
 20
0.0
 30
0.0
 70
   128
  0
VERTEX
  5
111
330
110
100
AcDbEntity
  8
0
 62
     0
100
AcDbVertex
100
AcDb2dVertex
 10
-0.9999999999999998
 20
-0.0994897959183674
 30
0.0
  0
VERTEX
  5
112
330
110
100
AcDbEntity
  8
0
 62
     0
100
AcDbVertex
100
AcDb2dVertex
 10
0.0
 20
0.0
 30
0.0
  0
VERTEX
  5
114
330
110
100
AcDbEntity
  8
0
 62
     0
100
AcDbVertex
100
AcDb2dVertex
 10
-0.9999999999999998
 20
0.0994897959183674
 30
0.0
  0
VERTEX
  5
115
330
110
100
AcDbEntity
  8
0
 62
     0
100
AcDbVertex
100
AcDb2dVertex
 10
-0.9999999999999998
 20
-0.0994897959183674
 30
0.0
  0
SEQEND
  5
113
330
110
100
AcDbEntity
  8
0
 62
     0
  0
SOLID
  5
116
330
10C
100
AcDbEntity
  8
0
 62
     0
100
AcDbTrace
 10
-0.9999999999999998
 20
-0.0994897959183674
 30
0.0
 11
0.0
 21
0.0
 31
0.0
 12
-0.9999999999999998
 22
0.0994897959183674
 32
0.0
 13
-0.9999999999999998
 23
-0.0994897959183674
 33
0.0
  0
LINE
  5
117
330
10C
100
AcDbEntity
  8
0
 62
     0
100
AcDbLine
 10
-0.9999999999999998
 20
-0.0994897959183674
 30
0.0
 11
0.0
 21
0.0
 31
0.0
  0
LINE
  5
118
330
10C
100
AcDbEntity
  8
0
 62
     0
100
AcDbLine
 10
0.0
 20
0.0
 30
0.0
 11
-0.9999999999999998
 21
0.0994897959183674
 31
0.0
  0
LINE
  5
119
330
10C
100
AcDbEntity
  8
0
 62
     0
100
AcDbLine
 10
-0.9999999999999998
 20
0.0994897959183674
 30
0.0
 11
-0.9999999999999998
 21
-0.0994897959183674
 31
0.0
  0
ENDBLK
  5
10E
330
10C
100
AcDbEntity
  8
0
100
AcDbBlockEnd
  0
BLOCK
  5
159
330
158
100
AcDbEntity
  8
0
100
AcDbBlockBegin
  2
*D4
 70
     1
 10
0.0
 20
0.0
 30
0.0
  3
*D4
  1

  0
LINE
  5
237
330
158
100
AcDbEntity
  8
Dimension (ANSI)
440
 16777216
100
AcDbLine
 10
14.9955466096809
 20
22.05581460674076
 30
0.0
 11
5.718229136717294
 21
22.05581460674076
 31
0.0
  0
LINE
  5
238
330
158
100
AcDbEntity
  8
Dimension (ANSI)
440
 16777216
100
AcDbLine
 10
14.99554660968089
 20
48.05581460674076
 30
0.0
 11
5.718229136717299
 21
48.05581460674076
 31
0.0
  0
LINE
  5
239
330
158
100
AcDbEntity
  8
Dimension (ANSI)
440
 16777216
100
AcDbLine
 10
6.468229136717293
 20
22.64636577446728
 30
0.0
 11
6.468229136717296
 21
34.49184829018515
 31
0.0
  0
LINE
  5
23A
330
158
100
AcDbEntity
  8
Dimension (ANSI)
440
 16777216
100
AcDbLine
 10
6.468229136717298
 20
47.46526343901424
 30
0.0
 11
6.468229136717296
 21
35.61978092329637
 31
0.0
  0
SOLID
  5
23B
330
158
100
AcDbEntity
  8
Dimension (ANSI)
440
 16777216
100
AcDbTrace
 10
6.369803942096207
 20
22.64636577446728
 30
0.0
 11
6.566654331338379
 21
22.64636577446728
 31
0.0
 12
6.468229136717293
 22
22.05581460674076
 32
0.0
 13
6.468229136717293
 23
22.05581460674076
 33
0.0
  0
SOLID
  5
23C
330
158
100
AcDbEntity
  8
Dimension (ANSI)
440
 16777216
100
AcDbTrace
 10
6.369803942096212
 20
47.46526343901424
 30
0.0
 11
6.566654331338384
 21
47.46526343901424
 31
0.0
 12
6.468229136717298
 22
48.05581460674076
 32
0.0
 13
6.468229136717298
 23
48.05581460674076
 33
0.0
  0
MTEXT
  5
23D
330
158
100
AcDbEntity
  8
Dimension (ANSI)
440
 16777216
100
AcDbMText
 10
5.283541387423959
 20
35.43080454534361
 30
0.0
 40
0.7200000286102295
 41
0.0
 71
     1
 72
     1
  1
\A1;26.00
  7
Note Text (ANSI)
 73
     1
 44
1.0
  0
POINT
  5
23E
330
158
100
AcDbEntity
  8
Defpoints
 62
     0
440
 16777216
100
AcDbPoint
 10
15.37054660968089
 20
22.05581460674076
 30
0.0
  0
POINT
  5
23F
330
158
100
AcDbEntity
  8
Defpoints
 62
     0
440
 16777216
100
AcDbPoint
 10
15.37054660968089
 20
48.05581460674076
 30
0.0
  0
POINT
  5
240
330
158
100
AcDbEntity
  8
Defpoints
 62
     0
440
 16777216
100
AcDbPoint
 10
6.468229136717298
 20
48.05581460674076
 30
0.0
  0
ENDBLK
  5
15A
330
158
100
AcDbEntity
  8
0
100
AcDbBlockEnd
  0
BLOCK
  5
243
330
242
100
AcDbEntity
  8
0
100
AcDbBlockBegin
  2
*D5
 70
     1
 10
0.0
 20
0.0
 30
0.0
  3
*D5
  1

  0
LINE
  5
321
330
242
100
AcDbEntity
  8
Dimension (ANSI)
440
 16777216
100
AcDbLine
 10
15.74554660968089
 20
22.80581460674076
 30
0.0
 11
12.04825524971234
 21
22.80581460674076
 31
0.0
  0
LINE
  5
322
330
242
100
AcDbEntity
  8
Dimension (ANSI)
440
 16777216
100
AcDbLine
 10
15.74554660968089
 20
35.05581460674077
 30
0.0
 11
12.04825524971234
 21
35.05581460674077
 31
0.0
  0
LINE
  5
323
330
242
100
AcDbEntity
  8
Dimension (ANSI)
440
 16777216
100
AcDbLine
 10
12.79825524971234
 20
23.39636577446728
 30
0.0
 11
12.79825524971234
 21
28.36684829018515
 31
0.0
  0
LINE
  5
324
330
242
100
AcDbEntity
  8
Dimension (ANSI)
440
 16777216
100
AcDbLine
 10
12.79825524971234
 20
34.46526343901425
 30
0.0
 11
12.79825524971234
 21
29.49478092329636
 31
0.0
  0
SOLID
  5
325
330
242
100
AcDbEntity
  8
Dimension (ANSI)
440
 16777216
100
AcDbTrace
 10
12.69983005509125
 20
23.39636577446728
 30
0.0
 11
12.89668044433342
 21
23.39636577446728
 31
0.0
 12
12.79825524971234
 22
22.80581460674076
 32
0.0
 13
12.79825524971234
 23
22.80581460674076
 33
0.0
  0
SOLID
  5
326
330
242
100
AcDbEntity
  8
Dimension (ANSI)
440
 16777216
100
AcDbTrace
 10
12.69983005509125
 20
34.46526343901425
 30
0.0
 11
12.89668044433343
 21
34.46526343901425
 31
0.0
 12
12.79825524971234
 22
35.05581460674077
 32
0.0
 13
12.79825524971234
 23
35.05581460674077
 33
0.0
  0
MTEXT
  5
327
330
242
100
AcDbEntity
  8
Dimension (ANSI)
440
 16777216
100
AcDbMText
 10
11.37155271734908
 20
29.30580454534361
 30
0.0
 40
0.7200000286102295
 41
0.0
 71
     1
 72
     1
  1
\A1;12.250
  7
Note Text (ANSI)
 73
     1
 44
1.0
  0
POINT
  5
328
330
242
100
AcDbEntity
  8
Defpoints
 62
     0
440
 16777216
100
AcDbPoint
 10
16.12054660968089
 20
22.80581460674076
 30
0.0
  0
POINT
  5
329
330
242
100
AcDbEntity
  8
Defpoints
 62
     0
440
 16777216
100
AcDbPoint
 10
16.12054660968089
 20
35.05581460674076
 30
0.0
  0
POINT
  5
32A
330
242
100
AcDbEntity
  8
Defpoints
 62
     0
440
 16777216
100
AcDbPoint
 10
12.79825524971234
 20
35.05581460674077
 30
0.0
  0
ENDBLK
  5
244
330
242
100
AcDbEntity
  8
0
100
AcDbBlockEnd
  0
BLOCK
  5
32D
330
32C
100
AcDbEntity
  8
0
100
AcDbBlockBegin
  2
*D6
 70
     1
 10
0.0
 20
0.0
 30
0.0
  3
*D6
  1

  0
LINE
  5
40B
330
32C
100
AcDbEntity
  8
Dimension (ANSI)
440
 16777216
100
AcDbLine
 10
15.37054660968089
 20
48.43081460674076
 30
0.0
 11
15.37054660968089
 21
54.03884036503686
 31
0.0
  0
LINE
  5
40C
330
32C
100
AcDbEntity
  8
Dimension (ANSI)
440
 16777216
100
AcDbLine
 10
43.87054660968089
 20
48.43081460674077
 30
0.0
 11
43.87054660968089
 21
54.03884036503686
 31
0.0
  0
LINE
  5
40D
330
32C
100
AcDbEntity
  8
Dimension (ANSI)
440
 16777216
100
AcDbLine
 10
15.9610977774074
 20
53.28884036503686
 30
0.0
 11
28.2468824824348
 21
53.28884036503686
 31
0.0
  0
LINE
  5
40E
330
32C
100
AcDbEntity
  8
Dimension (ANSI)
440
 16777216
100
AcDbLine
 10
43.27999544195437
 20
53.28884036503686
 30
0.0
 11
30.99421073692698
 21
53.28884036503686
 31
0.0
  0
SOLID
  5
40F
330
32C
100
AcDbEntity
  8
Dimension (ANSI)
440
 16777216
100
AcDbTrace
 10
15.9610977774074
 20
53.38726555965795
 30
0.0
 11
15.9610977774074
 21
53.19041517041577
 31
0.0
 12
15.37054660968089
 22
53.28884036503686
 32
0.0
 13
15.37054660968089
 23
53.28884036503686
 33
0.0
  0
SOLID
  5
410
330
32C
100
AcDbEntity
  8
Dimension (ANSI)
440
 16777216
100
AcDbTrace
 10
43.27999544195437
 20
53.38726555965795
 30
0.0
 11
43.27999544195437
 21
53.19041517041577
 31
0.0
 12
43.87054660968089
 22
53.28884036503686
 32
0.0
 13
43.87054660968089
 23
53.28884036503686
 33
0.0
  0
MTEXT
  5
411
330
32C
100
AcDbEntity
  8
Dimension (ANSI)
440
 16777216
100
AcDbMText
 10
28.43585886038756
 20
53.66528094170007
 30
0.0
 40
0.7200000286102295
 41
0.0
 71
     1
 72
     1
  1
\A1;28.50
  7
Note Text (ANSI)
 73
     1
 44
1.0
  0
POINT
  5
412
330
32C
100
AcDbEntity
  8
Defpoints
 62
     0
440
 16777216
100
AcDbPoint
 10
15.37054660968089
 20
48.05581460674076
 30
0.0
  0
POINT
  5
413
330
32C
100
AcDbEntity
  8
Defpoints
 62
     0
440
 16777216
100
AcDbPoint
 10
43.87054660968089
 20
48.05581460674076
 30
0.0
  0
POINT
  5
414
330
32C
100
AcDbEntity
  8
Defpoints
 62
     0
440
 16777216
100
AcDbPoint
 10
43.87054660968089
 20
53.28884036503686
 30
0.0
  0
ENDBLK
  5
32E
330
32C
100
AcDbEntity
  8
0
100
AcDbBlockEnd
  0
BLOCK
  5
417
330
416
100
AcDbEntity
  8
0
100
AcDbBlockBegin
  2
*D7
 70
     1
 10
0.0
 20
0.0
 30
0.0
  3
*D7
  1

  0
LINE
  5
4F5
330
416
100
AcDbEntity
  8
Dimension (ANSI)
440
 16777216
100
AcDbLine
 10
16.12054660968089
 20
47.68081460674076
 30
0.0
 11
16.12054660968089
 21
50.41801933115021
 31
0.0
  0
LINE
  5
4F6
330
416
100
AcDbEntity
  8
Dimension (ANSI)
440
 16777216
100
AcDbLine
 10
29.62054660968089
 20
47.68081460674076
 30
0.0
 11
29.62054660968089
 21
50.41801933115021
 31
0.0
  0
LINE
  5
4F7
330
416
100
AcDbEntity
  8
Dimension (ANSI)
440
 16777216
100
AcDbLine
 10
16.7110977774074
 20
49.66801933115021
 30
0.0
 11
21.25486769936488
 21
49.66801933115021
 31
0.0
  0
LINE
  5
4F8
330
416
100
AcDbEntity
  8
Dimension (ANSI)
440
 16777216
100
AcDbLine
 10
29.02999544195438
 20
49.66801933115021
 30
0.0
 11
24.4862255199969
 21
49.66801933115021
 31
0.0
  0
SOLID
  5
4F9
330
416
100
AcDbEntity
  8
Dimension (ANSI)
440
 16777216
100
AcDbTrace
 10
16.7110977774074
 20
49.76644452577129
 30
0.0
 11
16.7110977774074
 21
49.56959413652912
 31
0.0
 12
16.12054660968089
 22
49.66801933115021
 32
0.0
 13
16.12054660968089
 23
49.66801933115021
 33
0.0
  0
SOLID
  5
4FA
330
416
100
AcDbEntity
  8
Dimension (ANSI)
440
 16777216
100
AcDbTrace
 10
29.02999544195438
 20
49.76644452577129
 30
0.0
 11
29.02999544195438
 21
49.56959413652912
 31
0.0
 12
29.62054660968089
 22
49.66801933115021
 32
0.0
 13
29.62054660968089
 23
49.66801933115021
 33
0.0
  0
MTEXT
  5
4FB
330
416
100
AcDbEntity
  8
Dimension (ANSI)
440
 16777216
100
AcDbMText
 10
21.44384407731763
 20
50.04300926975305
 30
0.0
 40
0.7200000286102295
 41
0.0
 71
     1
 72
     1
  1
\A1;13.500
  7
Note Text (ANSI)
 73
     1
 44
1.0
  0
POINT
  5
4FC
330
416
100
AcDbEntity
  8
Defpoints
 62
     0
440
 16777216
100
AcDbPoint
 10
16.12054660968089
 20
47.30581460674076
 30
0.0
  0
POINT
  5
4FD
330
416
100
AcDbEntity
  8
Defpoints
 62
     0
440
 16777216
100
AcDbPoint
 10
29.62054660968089
 20
47.30581460674076
 30
0.0
  0
POINT
  5
4FE
330
416
100
AcDbEntity
  8
Defpoints
 62
     0
440
 16777216
100
AcDbPoint
 10
29.62054660968089
 20
49.66801933115021
 30
0.0
  0
ENDBLK
  5
418
330
416
100
AcDbEntity
  8
0
100
AcDbBlockEnd
  0
BLOCK
  5
501
330
500
100
AcDbEntity
  8
0
100
AcDbBlockBegin
  2
*D8
 70
     1
 10
0.0
 20
0.0
 30
0.0
  3
*D8
  1

  0
LINE
  5
5F3
330
500
100
AcDbEntity
  8
Dimension (ANSI)
440
 16777216
100
AcDbLine
 10
43.87054660968089
 20
48.43081460674077
 30
0.0
 11
43.87054660968089
 21
52.2771533055006
 31
0.0
  0
LINE
  5
5F4
330
500
100
AcDbEntity
  8
Dimension (ANSI)
440
 16777216
100
AcDbLine
 10
43.12054660968089
 20
47.68081460674076
 30
0.0
 11
43.12054660968089
 21
52.2771533055006
 31
0.0
  0
LINE
  5
5F5
330
500
100
AcDbEntity
  8
Dimension (ANSI)
440
 16777216
100
AcDbLine
 10
42.52999544195438
 20
51.5271533055006
 30
0.0
 11
41.93944427422786
 21
51.5271533055006
 31
0.0
  0
LINE
  5
5F6
330
500
100
AcDbEntity
  8
Dimension (ANSI)
440
 16777216
100
AcDbLine
 10
44.4610977774074
 20
51.5271533055006
 30
0.0
 11
46.10426213740253
 21
51.5271533055006
 31
0.0
  0
SOLID
  5
5F7
330
500
100
AcDbEntity
  8
Dimension (ANSI)
440
 16777216
100
AcDbTrace
 10
42.52999544195438
 20
51.62557850012169
 30
0.0
 11
42.52999544195438
 21
51.42872811087952
 31
0.0
 12
43.12054660968089
 22
51.5271533055006
 32
0.0
 13
43.12054660968089
 23
51.5271533055006
 33
0.0
  0
SOLID
  5
5F8
330
500
100
AcDbEntity
  8
Dimension (ANSI)
440
 16777216
100
AcDbTrace
 10
44.4610977774074
 20
51.62557850012169
 30
0.0
 11
44.4610977774074
 21
51.42872811087952
 31
0.0
 12
43.87054660968089
 22
51.5271533055006
 32
0.0
 13
43.87054660968089
 23
51.5271533055006
 33
0.0
  0
MTEXT
  5
5F9
330
500
100
AcDbEntity
  8
Dimension (ANSI)
440
 16777216
100
AcDbMText
 10
47.48421236291017
 20
51.5271533055006
 30
0.0
 40
0.7200000286102295
 41
0.0
 71
     5
 72
     1
  1
\A1;0.750{\PTYP.}
  7
Note Text (ANSI)
 73
     1
 44
1.0
  0
POINT
  5
5FA
330
500
100
AcDbEntity
  8
Defpoints
 62
     0
440
 16777216
100
AcDbPoint
 10
43.87054660968089
 20
48.05581460674076
 30
0.0
  0
POINT
  5
5FB
330
500
100
AcDbEntity
  8
Defpoints
 62
     0
440
 16777216
100
AcDbPoint
 10
43.12054660968089
 20
47.30581460674076
 30
0.0
  0
POINT
  5
5FC
330
500
100
AcDbEntity
  8
Defpoints
 62
     0
440
 16777216
100
AcDbPoint
 10
43.12054660968089
 20
51.5271533055006
 30
0.0
  0
ENDBLK
  5
502
330
500
100
AcDbEntity
  8
0
100
AcDbBlockEnd
  0
BLOCK
  5
5FF
330
5FE
100
AcDbEntity
  8
0
100
AcDbBlockBegin
  2
*D9
 70
     1
 10
0.0
 20
0.0
 30
0.0
  3
*D9
  1

  0
LINE
  5
708
330
5FE
100
AcDbEntity
  8
Dimension (ANSI)
440
 16777216
100
AcDbLine
 10
44.24554660968088
 20
48.05581460674076
 30
0.0
 11
50.11677506553224
 21
48.05581460674076
 31
0.0
  0
LINE
  5
709
330
5FE
100
AcDbEntity
  8
Dimension (ANSI)
440
 16777216
100
AcDbLine
 10
43.49554660968089
 20
47.30581460674076
 30
0.0
 11
50.11677506553223
 21
47.30581460674075
 31
0.0
  0
LINE
  5
70A
330
5FE
100
AcDbEntity
  8
Dimension (ANSI)
440
 16777216
100
AcDbLine
 10
49.36677506553224
 20
48.64636577446727
 30
0.0
 11
49.36677506553224
 21
49.23691694219379
 31
0.0
  0
LINE
  5
70B
330
5FE
100
AcDbEntity
  8
Dimension (ANSI)
440
 16777216
100
AcDbLine
 10
49.36677506553223
 20
46.71526343901423
 30
0.0
 11
49.36677506553223
 21
45.26312660036532
 31
0.0
  0
LINE
  5
70C
330
5FE
100
AcDbEntity
  8
Dimension (ANSI)
440
 16777216
100
AcDbLine
 10
49.36677506553223
 20
45.26312660036532
 30
0.0
 11
48.77622389780572
 21
45.26312660036532
 31
0.0
  0
SOLID
  5
70D
330
5FE
100
AcDbEntity
  8
Dimension (ANSI)
440
 16777216
100
AcDbTrace
 10
49.26834987091115
 20
48.64636577446727
 30
0.0
 11
49.46520026015333
 21
48.64636577446727
 31
0.0
 12
49.36677506553224
 22
48.05581460674076
 32
0.0
 13
49.36677506553224
 23
48.05581460674076
 33
0.0
  0
SOLID
  5
70E
330
5FE
100
AcDbEntity
  8
Dimension (ANSI)
440
 16777216
100
AcDbTrace
 10
49.26834987091115
 20
46.71526343901423
 30
0.0
 11
49.46520026015332
 21
46.71526343901423
 31
0.0
 12
49.36677506553223
 22
47.30581460674075
 32
0.0
 13
49.36677506553223
 23
47.30581460674075
 33
0.0
  0
MTEXT
  5
70F
330
5FE
100
AcDbEntity
  8
Dimension (ANSI)
440
 16777216
100
AcDbMText
 10
46.20529982474319
 20
45.74675321342673
 30
0.0
 40
0.7200000286102295
 41
0.0
 71
     1
 72
     1
  1
\A1;0.750{\PTYP.}
  7
Note Text (ANSI)
 73
     1
 44
1.0
  0
POINT
  5
710
330
5FE
100
AcDbEntity
  8
Defpoints
 62
     0
440
 16777216
100
AcDbPoint
 10
43.87054660968089
 20
48.05581460674076
 30
0.0
  0
POINT
  5
711
330
5FE
100
AcDbEntity
  8
Defpoints
 62
     0
440
 16777216
100
AcDbPoint
 10
43.12054660968089
 20
47.30581460674076
 30
0.0
  0
POINT
  5
712
330
5FE
100
AcDbEntity
  8
Defpoints
 62
     0
440
 16777216
100
AcDbPoint
 10
49.36677506553223
 20
47.30581460674075
 30
0.0
  0
ENDBLK
  5
600
330
5FE
100
AcDbEntity
  8
0
100
AcDbBlockEnd
  0
BLOCK
  5
715
330
714
100
AcDbEntity
  8
0
100
AcDbBlockBegin
  2
*D10
 70
     1
 10
0.0
 20
0.0
 30
0.0
  3
*D10
  1

  0
LINE
  5
7C6
330
714
100
AcDbEntity
  8
Dimension (ANSI)
440
 16777216
100
AcDbLine
 10
44.67553128699696
 20
19.87160332695593
 30
0.0
 11
43.9067661525223
 21
19.87160332695593
 31
0.0
  0
LINE
  5
7C7
330
714
100
AcDbEntity
  8
Dimension (ANSI)
440
 16777216
100
AcDbLine
 10
43.9067661525223
 20
19.87160332695593
 30
0.0
 11
43.34625006019261
 21
21.96347786198824
 31
0.0
  0
MTEXT
  5
7C8
102
{ACAD_XDICTIONARY
360
CA1
102
}
330
714
100
AcDbEntity
  8
Dimension (ANSI)
440
 16777216
100
AcDbMText
 10
46.43837509122375
 20
19.87160332695593
 30
0.0
 40
0.7200000286102295
 41
0.0
 71
     5
 72
     1
  1
\A1;\U+22050.563{\P(8 PL.)}
  7
Note Text (ANSI)
 73
     1
 44
1.0
  0
SOLID
  5
7C9
330
714
100
AcDbEntity
  8
Dimension (ANSI)
440
 16777216
100
AcDbTrace
 10
43.44132149763464
 20
21.98895217687412
 30
0.0
 11
43.25117862275059
 21
21.93800354710236
 31
0.0
 12
43.19340417087732
 22
22.53390648664041
 32
0.0
 13
43.19340417087732
 23
22.53390648664041
 33
0.0
  0
LINE
  5
7CA
330
714
100
AcDbEntity
  8
Dimension (ANSI)
440
 16777216
100
AcDbLine
 10
42.5805466096809
 20
22.80581460674077
 30
0.0
 11
43.6605466096809
 21
22.80581460674077
 31
0.0
  0
LINE
  5
7CB
330
714
100
AcDbEntity
  8
Dimension (ANSI)
440
 16777216
100
AcDbLine
 10
43.12054660968089
 20
22.26581460674077
 30
0.0
 11
43.12054660968089
 21
23.34581460674077
 31
0.0
  0
POINT
  5
7CC
330
714
100
AcDbEntity
  8
Defpoints
 62
     0
440
 16777216
100
AcDbPoint
 10
43.19340417087732
 20
22.53390648664041
 30
0.0
  0
POINT
  5
7CD
330
714
100
AcDbEntity
  8
Defpoints
 62
     0
440
 16777216
100
AcDbPoint
 10
43.04768904848446
 20
23.07772272684112
 30
0.0
  0
ENDBLK
  5
716
330
714
100
AcDbEntity
  8
0
100
AcDbBlockEnd
  0
BLOCK
  5
7D0
330
7CF
100
AcDbEntity
  8
0
100
AcDbBlockBegin
  2
*D11
 70
     1
 10
0.0
 20
0.0
 30
0.0
  3
*D11
  1

  0
LINE
  5
87F
330
7CF
100
AcDbEntity
  8
Dimension (ANSI)
440
 16777216
100
AcDbLine
 10
21.21691620701227
 20
20.0516232709699
 30
0.0
 11
20.47645382651523
 21
20.0516232709699
 31
0.0
  0
LINE
  5
880
330
7CF
100
AcDbEntity
  8
Dimension (ANSI)
440
 16777216
100
AcDbLine
 10
20.47645382651523
 20
20.0516232709699
 30
0.0
 11
18.60582210526781
 21
22.23849958013147
 31
0.0
  0
MTEXT
  5
881
102
{ACAD_XDICTIONARY
360
CA3
102
}
330
7CF
100
AcDbEntity
  8
Dimension (ANSI)
440
 16777216
100
AcDbMText
 10
21.40589258496503
 20
20.54574854003591
 30
0.0
 40
0.7200000286102295
 41
0.0
 71
     1
 72
     1
  1
\A1;\U+22050.312{\PGROUND HOLE}
  7
Note Text (ANSI)
 73
     1
 44
1.0
  0
SOLID
  5
882
330
7CF
100
AcDbEntity
  8
Dimension (ANSI)
440
 16777216
100
AcDbTrace
 10
18.6806168337732
 20
22.30247822910129
 30
0.0
 11
18.53102737676242
 21
22.17452093116165
 31
0.0
 12
18.22195021144887
 22
22.6872679511638
 32
0.0
 13
18.22195021144887
 23
22.6872679511638
 33
0.0
  0
LINE
  5
883
330
7CF
100
AcDbEntity
  8
Dimension (ANSI)
440
 16777216
100
AcDbLine
 10
17.5805466096809
 20
22.80581460674076
 30
0.0
 11
18.66054660968089
 21
22.80581460674076
 31
0.0
  0
LINE
  5
884
330
7CF
100
AcDbEntity
  8
Dimension (ANSI)
440
 16777216
100
AcDbLine
 10
18.12054660968089
 20
22.26581460674076
 30
0.0
 11
18.1205466096809
 21
23.34581460674075
 31
0.0
  0
POINT
  5
885
330
7CF
100
AcDbEntity
  8
Defpoints
 62
     0
440
 16777216
100
AcDbPoint
 10
18.22195021144887
 20
22.6872679511638
 30
0.0
  0
POINT
  5
886
330
7CF
100
AcDbEntity
  8
Defpoints
 62
     0
440
 16777216
100
AcDbPoint
 10
18.01914300791292
 20
22.92436126231772
 30
0.0
  0
ENDBLK
  5
7D1
330
7CF
100
AcDbEntity
  8
0
100
AcDbBlockEnd
  0
BLOCK
  5
889
330
888
100
AcDbEntity
  8
0
100
AcDbBlockBegin
  2
*D12
 70
     1
 10
0.0
 20
0.0
 30
0.0
  3
*D12
  1

  0
LINE
  5
985
330
888
100
AcDbEntity
  8
Dimension (ANSI)
440
 16777216
100
AcDbLine
 10
61.52498689555677
 20
48.43081460674077
 30
0.0
 11
61.52498689555677
 21
50.37127273420436
 31
0.0
  0
LINE
  5
986
330
888
100
AcDbEntity
  8
Dimension (ANSI)
440
 16777216
100
AcDbLine
 10
61.61873689555676
 20
48.43081460674077
 30
0.0
 11
61.61873689555676
 21
50.37127273420436
 31
0.0
  0
LINE
  5
987
330
888
100
AcDbEntity
  8
Dimension (ANSI)
440
 16777216
100
AcDbLine
 10
62.20928806328328
 20
49.62127273420436
 30
0.0
 11
62.7998392310098
 21
49.62127273420436
 31
0.0
  0
LINE
  5
988
330
888
100
AcDbEntity
  8
Dimension (ANSI)
440
 16777216
100
AcDbLine
 10
60.93443572783025
 20
49.62127273420436
 30
0.0
 11
58.96757904670318
 21
49.62127273420436
 31
0.0
  0
SOLID
  5
989
330
888
100
AcDbEntity
  8
Dimension (ANSI)
440
 16777216
100
AcDbTrace
 10
62.20928806328328
 20
49.71969792882545
 30
0.0
 11
62.20928806328328
 21
49.52284753958327
 31
0.0
 12
61.61873689555676
 22
49.62127273420436
 32
0.0
 13
61.61873689555676
 23
49.62127273420436
 33
0.0
  0
SOLID
  5
98A
330
888
100
AcDbEntity
  8
Dimension (ANSI)
440
 16777216
100
AcDbTrace
 10
60.93443572783025
 20
49.71969792882545
 30
0.0
 11
60.93443572783025
 21
49.52284753958327
 31
0.0
 12
61.52498689555677
 22
49.62127273420436
 32
0.0
 13
61.52498689555677
 23
49.62127273420436
 33
0.0
  0
MTEXT
  5
98B
330
888
100
AcDbEntity
  8
Dimension (ANSI)
440
 16777216
100
AcDbMText
 10
56.03786382671181
 20
49.62127273420436
 30
0.0
 40
0.7200000286102295
 41
0.0
 71
     5
 72
     1
  1
\A1;{12 GA. C.R.S\P}(0.094)
  7
Note Text (ANSI)
 73
     1
 44
1.0
  0
POINT
  5
98C
330
888
100
AcDbEntity
  8
Defpoints
 62
     0
440
 16777216
100
AcDbPoint
 10
61.52498689555677
 20
48.05581460674076
 30
0.0
  0
POINT
  5
98D
330
888
100
AcDbEntity
  8
Defpoints
 62
     0
440
 16777216
100
AcDbPoint
 10
61.61873689555676
 20
48.05581460674076
 30
0.0
  0
POINT
  5
98E
330
888
100
AcDbEntity
  8
Defpoints
 62
     0
440
 16777216
100
AcDbPoint
 10
61.61873689555676
 20
49.62127273420436
 30
0.0
  0
ENDBLK
  5
88A
330
888
100
AcDbEntity
  8
0
100
AcDbBlockEnd
  0
BLOCK
  5
991
330
990
100
AcDbEntity
  8
0
100
AcDbBlockBegin
  2
*D13
 70
     1
 10
0.0
 20
0.0
 30
0.0
  3
*D13
  1

  0
LINE
  5
A6F
330
990
100
AcDbEntity
  8
Dimension (ANSI)
440
 16777216
100
AcDbLine
 10
15.74554660968089
 20
22.80581460674076
 30
0.0
 11
9.248410835707998
 21
22.80581460674076
 31
0.0
  0
LINE
  5
A70
330
990
100
AcDbEntity
  8
Dimension (ANSI)
440
 16777216
100
AcDbLine
 10
15.74554660968089
 20
47.30581460674076
 30
0.0
 11
9.248410835708003
 21
47.30581460674076
 31
0.0
  0
LINE
  5
A71
330
990
100
AcDbEntity
  8
Dimension (ANSI)
440
 16777216
100
AcDbLine
 10
9.998410835707998
 20
23.39636577446728
 30
0.0
 11
9.998410835708
 21
34.49184829018515
 31
0.0
  0
LINE
  5
A72
330
990
100
AcDbEntity
  8
Dimension (ANSI)
440
 16777216
100
AcDbLine
 10
9.998410835708003
 20
46.71526343901425
 30
0.0
 11
9.998410835708
 21
35.61978092329637
 31
0.0
  0
SOLID
  5
A73
330
990
100
AcDbEntity
  8
Dimension (ANSI)
440
 16777216
100
AcDbTrace
 10
9.899985641086912
 20
23.39636577446728
 30
0.0
 11
10.09683603032908
 21
23.39636577446728
 31
0.0
 12
9.998410835707998
 22
22.80581460674076
 32
0.0
 13
9.998410835707998
 23
22.80581460674076
 33
0.0
  0
SOLID
  5
A74
330
990
100
AcDbEntity
  8
Dimension (ANSI)
440
 16777216
100
AcDbTrace
 10
9.899985641086917
 20
46.71526343901425
 30
0.0
 11
10.09683603032909
 21
46.71526343901425
 31
0.0
 12
9.998410835708003
 22
47.30581460674076
 32
0.0
 13
9.998410835708003
 23
47.30581460674076
 33
0.0
  0
MTEXT
  5
A75
330
990
100
AcDbEntity
  8
Dimension (ANSI)
440
 16777216
100
AcDbMText
 10
8.543420861167737
 20
35.43080454534361
 30
0.0
 40
0.7200000286102295
 41
0.0
 71
     1
 72
     1
  1
\A1;24.500
  7
Note Text (ANSI)
 73
     1
 44
1.0
  0
POINT
  5
A76
330
990
100
AcDbEntity
  8
Defpoints
 62
     0
440
 16777216
100
AcDbPoint
 10
16.12054660968089
 20
22.80581460674076
 30
0.0
  0
POINT
  5
A77
330
990
100
AcDbEntity
  8
Defpoints
 62
     0
440
 16777216
100
AcDbPoint
 10
16.12054660968089
 20
47.30581460674076
 30
0.0
  0
POINT
  5
A78
330
990
100
AcDbEntity
  8
Defpoints
 62
     0
440
 16777216
100
AcDbPoint
 10
9.998410835708003
 20
47.30581460674076
 30
0.0
  0
ENDBLK
  5
992
330
990
100
AcDbEntity
  8
0
100
AcDbBlockEnd
  0
BLOCK
  5
A7B
330
A7A
100
AcDbEntity
  8
0
100
AcDbBlockBegin
  2
*D14
 70
     1
 10
0.0
 20
0.0
 30
0.0
  3
*D14
  1

  0
LINE
  5
B59
330
A7A
100
AcDbEntity
  8
Dimension (ANSI)
440
 16777216
100
AcDbLine
 10
16.12054660968089
 20
47.68081460674076
 30
0.0
 11
16.12054660968089
 21
52.2771533055006
 31
0.0
  0
LINE
  5
B5A
330
A7A
100
AcDbEntity
  8
Dimension (ANSI)
440
 16777216
100
AcDbLine
 10
43.12054660968089
 20
47.68081460674076
 30
0.0
 11
43.12054660968089
 21
52.2771533055006
 31
0.0
  0
LINE
  5
B5B
330
A7A
100
AcDbEntity
  8
Dimension (ANSI)
440
 16777216
100
AcDbLine
 10
16.7110977774074
 20
51.5271533055006
 30
0.0
 11
27.97658025718788
 21
51.5271533055006
 31
0.0
  0
LINE
  5
B5C
330
A7A
100
AcDbEntity
  8
Dimension (ANSI)
440
 16777216
100
AcDbLine
 10
42.52999544195438
 20
51.5271533055006
 30
0.0
 11
31.26451296217391
 21
51.5271533055006
 31
0.0
  0
SOLID
  5
B5D
330
A7A
100
AcDbEntity
  8
Dimension (ANSI)
440
 16777216
100
AcDbTrace
 10
16.7110977774074
 20
51.62557850012169
 30
0.0
 11
16.7110977774074
 21
51.42872811087952
 31
0.0
 12
16.12054660968089
 22
51.5271533055006
 32
0.0
 13
16.12054660968089
 23
51.5271533055006
 33
0.0
  0
SOLID
  5
B5E
330
A7A
100
AcDbEntity
  8
Dimension (ANSI)
440
 16777216
100
AcDbTrace
 10
42.52999544195438
 20
51.62557850012169
 30
0.0
 11
42.52999544195438
 21
51.42872811087952
 31
0.0
 12
43.12054660968089
 22
51.5271533055006
 32
0.0
 13
43.12054660968089
 23
51.5271533055006
 33
0.0
  0
MTEXT
  5
B5F
330
A7A
100
AcDbEntity
  8
Dimension (ANSI)
440
 16777216
100
AcDbMText
 10
28.16555663514064
 20
51.90214324410344
 30
0.0
 40
0.7200000286102295
 41
0.0
 71
     1
 72
     1
  1
\A1;27.000
  7
Note Text (ANSI)
 73
     1
 44
1.0
  0
POINT
  5
B60
330
A7A
100
AcDbEntity
  8
Defpoints
 62
     0
440
 16777216
100
AcDbPoint
 10
16.12054660968089
 20
47.30581460674076
 30
0.0
  0
POINT
  5
B61
330
A7A
100
AcDbEntity
  8
Defpoints
 62
     0
440
 16777216
100
AcDbPoint
 10
43.12054660968089
 20
47.30581460674076
 30
0.0
  0
POINT
  5
B62
330
A7A
100
AcDbEntity
  8
Defpoints
 62
     0
440
 16777216
100
AcDbPoint
 10
43.12054660968089
 20
51.5271533055006
 30
0.0
  0
ENDBLK
  5
A7C
330
A7A
100
AcDbEntity
  8
0
100
AcDbBlockEnd
  0
BLOCK
  5
B65
330
B64
100
AcDbEntity
  8
0
100
AcDbBlockBegin
  2
*D15
 70
     1
 10
0.0
 20
0.0
 30
0.0
  3
*D15
  1

  0
LINE
  5
C43
330
B64
100
AcDbEntity
  8
Dimension (ANSI)
440
 16777216
100
AcDbLine
 10
16.12054660968089
 20
22.43081460674076
 30
0.0
 11
16.12054660968089
 21
19.69360988233131
 31
0.0
  0
LINE
  5
C44
330
B64
100
AcDbEntity
  8
Dimension (ANSI)
440
 16777216
100
AcDbLine
 10
18.1205466096809
 20
22.43081460674076
 30
0.0
 11
18.1205466096809
 21
19.69360988233131
 31
0.0
  0
LINE
  5
C45
330
B64
100
AcDbEntity
  8
Dimension (ANSI)
440
 16777216
100
AcDbLine
 10
17.52999544195438
 20
20.44360988233131
 30
0.0
 11
16.71109777740741
 21
20.44360988233131
 31
0.0
  0
LINE
  5
C46
330
B64
100
AcDbEntity
  8
Dimension (ANSI)
440
 16777216
100
AcDbLine
 10
16.12054660968089
 20
20.44360988233131
 30
0.0
 11
15.08147934193394
 21
20.44360988233131
 31
0.0
  0
SOLID
  5
C47
330
B64
100
AcDbEntity
  8
Dimension (ANSI)
440
 16777216
100
AcDbTrace
 10
17.52999544195438
 20
20.54203507695239
 30
0.0
 11
17.52999544195438
 21
20.34518468771022
 31
0.0
 12
18.1205466096809
 22
20.44360988233131
 32
0.0
 13
18.1205466096809
 23
20.44360988233131
 33
0.0
  0
SOLID
  5
C48
330
B64
100
AcDbEntity
  8
Dimension (ANSI)
440
 16777216
100
AcDbTrace
 10
16.71109777740741
 20
20.54203507695239
 30
0.0
 11
16.71109777740741
 21
20.34518468771022
 31
0.0
 12
16.12054660968089
 22
20.44360988233131
 32
0.0
 13
16.12054660968089
 23
20.44360988233131
 33
0.0
  0
MTEXT
  5
C49
330
B64
100
AcDbEntity
  8
Dimension (ANSI)
440
 16777216
100
AcDbMText
 10
12.52312746539452
 20
20.81859982093416
 30
0.0
 40
0.7200000286102295
 41
0.0
 71
     1
 72
     1
  1
\A1;2.000
  7
Note Text (ANSI)
 73
     1
 44
1.0
  0
POINT
  5
C4A
330
B64
100
AcDbEntity
  8
Defpoints
 62
     0
440
 16777216
100
AcDbPoint
 10
16.12054660968089
 20
22.80581460674076
 30
0.0
  0
POINT
  5
C4B
330
B64
100
AcDbEntity
  8
Defpoints
 62
     0
440
 16777216
100
AcDbPoint
 10
18.1205466096809
 20
22.80581460674076
 30
0.0
  0
POINT
  5
C4C
330
B64
100
AcDbEntity
  8
Defpoints
 62
     0
440
 16777216
100
AcDbPoint
 10
18.1205466096809
 20
20.44360988233131
 30
0.0
  0
ENDBLK
  5
B66
330
B64
100
AcDbEntity
  8
0
100
AcDbBlockEnd
  0
ENDSEC
  0
SECTION
  2
ENTITIES
  0
CIRCLE
  5
11B
330
6C
100
AcDbEntity
  8
Visible (ANSI)
100
AcDbCircle
 10
43.12054660968088
 20
35.05581460674077
 30
0.0
 40
0.2814999999999999
  0
CIRCLE
  5
11C
330
6C
100
AcDbEntity
  8
Visible (ANSI)
100
AcDbCircle
 10
16.12054660968089
 20
35.05581460674076
 30
0.0
 40
0.2814999999999999
  0
CIRCLE
  5
11D
330
6C
100
AcDbEntity
  8
Visible (ANSI)
100
AcDbCircle
 10
29.6205466096809
 20
22.80581460674075
 30
0.0
 40
0.2814999999999999
  0
CIRCLE
  5
11E
330
6C
100
AcDbEntity
  8
Visible (ANSI)
100
AcDbCircle
 10
29.62054660968089
 20
47.30581460674076
 30
0.0
 40
0.2814999999999999
  0
CIRCLE
  5
11F
330
6C
100
AcDbEntity
  8
Visible (ANSI)
100
AcDbCircle
 10
18.1205466096809
 20
22.80581460674075
 30
0.0
 40
0.1559999999999999
  0
CIRCLE
  5
120
330
6C
100
AcDbEntity
  8
Visible (ANSI)
100
AcDbCircle
 10
43.12054660968089
 20
22.80581460674076
 30
0.0
 40
0.2814999999999999
  0
CIRCLE
  5
121
330
6C
100
AcDbEntity
  8
Visible (ANSI)
100
AcDbCircle
 10
16.12054660968089
 20
22.80581460674076
 30
0.0
 40
0.2814999999999999
  0
CIRCLE
  5
122
330
6C
100
AcDbEntity
  8
Visible (ANSI)
100
AcDbCircle
 10
43.12054660968089
 20
47.30581460674076
 30
0.0
 40
0.2814999999999999
  0
CIRCLE
  5
123
330
6C
100
AcDbEntity
  8
Visible (ANSI)
100
AcDbCircle
 10
16.12054660968089
 20
47.30581460674076
 30
0.0
 40
0.2814999999999999
  0
LINE
  5
124
330
6C
100
AcDbEntity
  8
Visible (ANSI)
100
AcDbLine
 10
15.37054660968089
 20
22.05581460674076
 30
0.0
 11
15.37054660968089
 21
48.05581460674076
 31
0.0
  0
LINE
  5
125
330
6C
100
AcDbEntity
  8
Visible (ANSI)
100
AcDbLine
 10
15.37054660968089
 20
48.05581460674076
 30
0.0
 11
43.87054660968089
 21
48.05581460674076
 31
0.0
  0
LINE
  5
126
330
6C
100
AcDbEntity
  8
Visible (ANSI)
100
AcDbLine
 10
43.87054660968089
 20
48.05581460674076
 30
0.0
 11
43.8705466096809
 21
22.05581460674076
 31
0.0
  0
LINE
  5
127
330
6C
100
AcDbEntity
  8
Visible (ANSI)
100
AcDbLine
 10
43.8705466096809
 20
22.05581460674076
 30
0.0
 11
15.37054660968089
 21
22.05581460674076
 31
0.0
  0
MTEXT
  5
129
330
6C
100
AcDbEntity
  8
Symbol (ANSI)
100
AcDbMText
 10
26.57761545418853
 20
16.60758674251221
 30
0.0
 40
0.7200000088984572
 41
0.0
 71
     7
 72
     1
  1
FRONT VIEW
  7
Text Style169
 73
     1
 44
1.0
  0
LINE
  5
12B
330
6C
100
AcDbEntity
  8
Symbol (ANSI)
370
    30
100
AcDbLine
 10
26.50561526897821
 20
16.46075691826286
 30
0.0
 11
32.29420529469227
 21
16.46075691826286
 31
0.0
  0
LINE
  5
12C
330
6C
100
AcDbEntity
  8
Visible (ANSI)
100
AcDbLine
 10
61.61873689555676
 20
48.05581460674076
 30
0.0
 11
61.52498689555677
 21
48.05581460674076
 31
0.0
  0
LINE
  5
12D
330
6C
100
AcDbEntity
  8
Visible (ANSI)
100
AcDbLine
 10
61.52498689555677
 20
48.05581460674076
 30
0.0
 11
61.52498689555677
 21
22.05581460674076
 31
0.0
  0
LINE
  5
12E
330
6C
100
AcDbEntity
  8
Visible (ANSI)
100
AcDbLine
 10
61.61873689555676
 20
22.05581460674076
 30
0.0
 11
61.52498689555677
 21
22.05581460674076
 31
0.0
  0
LINE
  5
12F
330
6C
100
AcDbEntity
  8
Visible (ANSI)
100
AcDbLine
 10
61.61873689555676
 20
22.05581460674076
 30
0.0
 11
61.61873689555676
 21
48.05581460674076
 31
0.0
  0
LINE
  5
130
330
6C
100
AcDbEntity
  8
Hidden (ANSI)
 48
0.0296608842909336
100
AcDbLine
 10
61.61873689555654
 20
34.77431460674077
 30
0.0
 11
61.52498689555653
 21
34.77431460674077
 31
0.0
  0
LINE
  5
131
330
6C
100
AcDbEntity
  8
Hidden (ANSI)
 48
0.0296608842909336
100
AcDbLine
 10
61.61873689555654
 20
35.33731460674076
 30
0.0
 11
61.52498689555653
 21
35.33731460674076
 31
0.0
  0
LINE
  5
132
330
6C
100
AcDbEntity
  8
Hidden (ANSI)
 48
0.0296608842909336
100
AcDbLine
 10
61.61873689554912
 20
22.64981460674076
 30
0.0
 11
61.52498689554912
 21
22.64981460674076
 31
0.0
  0
LINE
  5
133
330
6C
100
AcDbEntity
  8
Hidden (ANSI)
 48
0.0296608842909336
100
AcDbLine
 10
61.61873689554912
 20
22.96181460674076
 30
0.0
 11
61.52498689554912
 21
22.96181460674076
 31
0.0
  0
LINE
  5
134
330
6C
100
AcDbEntity
  8
Hidden (ANSI)
 48
0.0296608842909336
100
AcDbLine
 10
61.61873689555654
 20
22.52431460674077
 30
0.0
 11
61.52498689555653
 21
22.52431460674077
 31
0.0
  0
LINE
  5
135
330
6C
100
AcDbEntity
  8
Hidden (ANSI)
 48
0.0296608842909336
100
AcDbLine
 10
61.61873689555654
 20
23.08731460674076
 30
0.0
 11
61.52498689555653
 21
23.08731460674076
 31
0.0
  0
LINE
  5
136
330
6C
100
AcDbEntity
  8
Hidden (ANSI)
 48
0.0296608842909336
100
AcDbLine
 10
61.61873689555654
 20
47.02431460674076
 30
0.0
 11
61.52498689555653
 21
47.02431460674076
 31
0.0
  0
LINE
  5
137
330
6C
100
AcDbEntity
  8
Hidden (ANSI)
 48
0.0296608842909336
100
AcDbLine
 10
61.61873689555654
 20
47.58731460674076
 30
0.0
 11
61.52498689555653
 21
47.58731460674076
 31
0.0
  0
MTEXT
  5
138
330
6C
100
AcDbEntity
  8
Symbol (ANSI)
100
AcDbMText
 10
59.24949997177936
 20
18.23025442836171
 30
0.0
 40
0.7200000088984572
 41
0.0
 71
     7
 72
     1
  1
SIDE VIEW
  7
Text Style169
 73
     1
 44
1.0
  0
LINE
  5
139
330
6C
100
AcDbEntity
  8
Symbol (ANSI)
370
    30
100
AcDbLine
 10
59.21263587695167
 20
18.08109073137346
 30
0.0
 11
64.07817879938464
 21
18.08109073137346
 31
0.0
  0
ELLIPSE
  5
13A
330
6C
100
AcDbEntity
  8
Visible (ANSI)
100
AcDbEllipse
 10
95.28621228198819
 20
38.64595265072181
 30
0.0
 11
-0.1053581756707576
 21
0.1829574279561499
 31
0.0
210
0.0
220
0.0
230
1.0
 40
0.578093115915809
 41
0.0
 42
6.283185307179586
  0
ELLIPSE
  5
13B
330
6C
100
AcDbEntity
  8
Visible (ANSI)
100
AcDbEllipse
 10
95.33593072754035
 20
38.67458359934784
 30
0.0
 11
-0.1053581756707565
 21
0.1829574279561479
 31
0.0
210
0.0
220
0.0
230
1.0
 40
0.5780931159158092
 41
0.237258564778382
 42
2.904334088811372
  0
ELLIPSE
  5
13C
330
6C
100
AcDbEntity
  8
Visible (ANSI)
100
AcDbEllipse
 10
80.9672999629585
 20
46.89166585501543
 30
0.0
 11
-0.1053581756707576
 21
0.1829574279561499
 31
0.0
210
0.0
220
0.0
230
1.0
 40
0.578093115915809
 41
0.0
 42
6.283185307179586
  0
ELLIPSE
  5
13D
330
6C
100
AcDbEntity
  8
Visible (ANSI)
100
AcDbEllipse
 10
81.01701840851067
 20
46.92029680364146
 30
0.0
 11
-0.1053581756707576
 21
0.1829574279561499
 31
0.0
210
0.0
220
0.0
230
1.0
 40
0.578093115915809
 41
0.2372585647783829
 42
2.904334088811347
  0
ELLIPSE
  5
13E
330
6C
100
AcDbEntity
  8
Visible (ANSI)
100
AcDbEllipse
 10
88.12675612247334
 20
35.25759504337781
 30
0.0
 11
-0.1053581756707576
 21
0.1829574279561499
 31
0.0
210
0.0
220
0.0
230
1.0
 40
0.578093115915809
 41
0.0
 42
6.283185307179586
  0
ELLIPSE
  5
13F
330
6C
100
AcDbEntity
  8
Visible (ANSI)
100
AcDbEllipse
 10
88.1764745680255
 20
35.28622599200383
 30
0.0
 11
-0.1053581756707574
 21
0.1829574279561496
 31
0.0
210
0.0
220
0.0
230
1.0
 40
0.578093115915809
 41
0.237258564778382
 42
2.90433408881136
  0
ELLIPSE
  5
140
330
6C
100
AcDbEntity
  8
Visible (ANSI)
100
AcDbEllipse
 10
88.12675612247337
 20
50.28002346235943
 30
0.0
 11
-0.1053581756707576
 21
0.1829574279561499
 31
0.0
210
0.0
220
0.0
230
1.0
 40
0.578093115915809
 41
0.0
 42
6.283185307179586
  0
ELLIPSE
  5
141
330
6C
100
AcDbEntity
  8
Visible (ANSI)
100
AcDbEllipse
 10
88.17647456802554
 20
50.30865441098546
 30
0.0
 11
-0.1053581756707573
 21
0.1829574279561494
 31
0.0
210
0.0
220
0.0
230
0.9999999999999998
 40
0.5780931159158092
 41
0.237258564778382
 42
2.904334088811372
  0
ELLIPSE
  5
142
330
6C
100
AcDbEntity
  8
Visible (ANSI)
100
AcDbEllipse
 10
82.02796013473845
 20
38.7696580748362
 30
0.0
 11
-0.0583867687553754
 21
0.1013902620289854
 31
0.0
210
0.0
220
0.0
230
1.0
 40
0.5780931159158092
 41
0.0
 42
6.283185307179586
  0
ELLIPSE
  5
143
330
6C
100
AcDbEntity
  8
Visible (ANSI)
100
AcDbEllipse
 10
82.07767858029063
 20
38.79828902346222
 30
0.0
 11
0.0583867687553815
 21
-0.1013902620289819
 31
0.0
210
0.0
220
0.0
230
1.0
 40
0.578093115915809
 41
3.579587715534986
 42
5.845190245233405
  0
ELLIPSE
  5
144
330
6C
100
AcDbEntity
  8
Visible (ANSI)
100
AcDbEllipse
 10
95.28621228198815
 20
31.134738441231
 30
0.0
 11
-0.1053581756707576
 21
0.1829574279561499
 31
0.0
210
0.0
220
0.0
230
1.0
 40
0.578093115915809
 41
0.0
 42
6.283185307179586
  0
ELLIPSE
  5
145
330
6C
100
AcDbEntity
  8
Visible (ANSI)
100
AcDbEllipse
 10
95.33593072754035
 20
31.16336938985703
 30
0.0
 11
-0.105358175670758
 21
0.1829574279561506
 31
0.0
210
0.0
220
0.0
230
1.0
 40
0.5780931159158092
 41
0.237258564778382
 42
2.904334088811347
  0
ELLIPSE
  5
146
330
6C
100
AcDbEntity
  8
Visible (ANSI)
100
AcDbEllipse
 10
80.96729996295847
 20
39.38045164552462
 30
0.0
 11
-0.1053581756707576
 21
0.1829574279561499
 31
0.0
210
0.0
220
0.0
230
1.0
 40
0.578093115915809
 41
0.0
 42
6.283185307179586
  0
ELLIPSE
  5
147
330
6C
100
AcDbEntity
  8
Visible (ANSI)
100
AcDbEllipse
 10
81.01701840851065
 20
39.40908259415065
 30
0.0
 11
-0.1053581756707576
 21
0.1829574279561499
 31
0.0
210
0.0
220
0.0
230
1.0
 40
0.578093115915809
 41
0.237258564778382
 42
2.904334088811372
  0
ELLIPSE
  5
148
330
6C
100
AcDbEntity
  8
Visible (ANSI)
100
AcDbEllipse
 10
95.2862122819882
 20
46.15716686021261
 30
0.0
 11
-0.1053581756707576
 21
0.1829574279561499
 31
0.0
210
0.0
220
0.0
230
1.0
 40
0.578093115915809
 41
0.0
 42
6.283185307179586
  0
ELLIPSE
  5
149
330
6C
100
AcDbEntity
  8
Visible (ANSI)
100
AcDbEllipse
 10
95.33593072754038
 20
46.18579780883864
 30
0.0
 11
-0.1053581756707582
 21
0.182957427956151
 31
0.0
210
0.0
220
0.0
230
1.0
 40
0.578093115915809
 41
0.237258564778382
 42
2.904334088811347
  0
ELLIPSE
  5
14A
330
6C
100
AcDbEntity
  8
Visible (ANSI)
100
AcDbEllipse
 10
80.96729996295852
 20
54.40288006450624
 30
0.0
 11
-0.1053581756707576
 21
0.1829574279561499
 31
0.0
210
0.0
220
0.0
230
1.0
 40
0.578093115915809
 41
0.0
 42
6.283185307179586
  0
ELLIPSE
  5
14B
330
6C
100
AcDbEntity
  8
Visible (ANSI)
100
AcDbEllipse
 10
81.01701840851069
 20
54.43151101313226
 30
0.0
 11
-0.1053581756707566
 21
0.1829574279561481
 31
0.0
210
0.0
220
0.0
230
0.9999999999999998
 40
0.5780931159158093
 41
0.237258564778382
 42
2.904334088811372
  0
LINE
  5
14C
330
6C
100
AcDbEntity
  8
Visible (ANSI)
100
AcDbLine
 10
80.56955239854099
 20
39.14962897680885
 30
0.0
 11
80.56955239854103
 21
55.09179791123833
 31
0.0
  0
LINE
  5
14D
330
6C
100
AcDbEntity
  8
Visible (ANSI)
100
AcDbLine
 10
80.61927084409319
 20
55.12042885986435
 30
0.0
 11
80.56955239854103
 21
55.09179791123833
 31
0.0
  0
LINE
  5
14E
330
6C
100
AcDbEntity
  8
Visible (ANSI)
100
AcDbLine
 10
80.56955239854103
 20
55.09179791123833
 30
0.0
 11
95.6839598464057
 21
46.38798952892839
 31
0.0
  0
LINE
  5
14F
330
6C
100
AcDbEntity
  8
Visible (ANSI)
100
AcDbLine
 10
95.73367829195788
 20
46.41662047755442
 30
0.0
 11
95.6839598464057
 21
46.38798952892839
 31
0.0
  0
LINE
  5
150
330
6C
100
AcDbEntity
  8
Visible (ANSI)
100
AcDbLine
 10
95.73367829195788
 20
46.41662047755442
 30
0.0
 11
80.61927084409319
 21
55.12042885986435
 31
0.0
  0
LINE
  5
151
330
6C
100
AcDbEntity
  8
Visible (ANSI)
100
AcDbLine
 10
95.6839598464057
 20
46.38798952892839
 30
0.0
 11
95.68395984640565
 21
30.44582059449891
 31
0.0
  0
LINE
  5
152
330
6C
100
AcDbEntity
  8
Visible (ANSI)
100
AcDbLine
 10
95.73367829195783
 20
30.47445154312494
 30
0.0
 11
95.68395984640565
 21
30.44582059449891
 31
0.0
  0
LINE
  5
153
330
6C
100
AcDbEntity
  8
Visible (ANSI)
100
AcDbLine
 10
95.73367829195783
 20
30.47445154312494
 30
0.0
 11
95.73367829195788
 21
46.41662047755442
 31
0.0
  0
LINE
  5
154
330
6C
100
AcDbEntity
  8
Visible (ANSI)
100
AcDbLine
 10
95.68395984640565
 20
30.44582059449891
 30
0.0
 11
80.56955239854099
 21
39.14962897680885
 31
0.0
  0
DIMENSION
  5
155
330
6C
100
AcDbEntity
  8
Dimension (ANSI)
100
AcDbDimension
  2
*D4
 10
6.468229136717298
 20
48.05581460674076
 30
0.0
 11
6.468229136717289
 21
35.05581460674076
 31
0.0
 70
   160
  1
<>
 42
26.0
  3
Default (ANSI)
100
AcDbAlignedDimension
 13
15.37054660968089
 23
22.05581460674076
 33
0.0
 14
15.37054660968089
 24
48.05581460674076
 34
0.0
 50
90.0
100
AcDbRotatedDimension
1001
ACAD
1000
DSTYLE
1002
{
1070
   289
1070
     1
1070
   271
1070
     2
1070
   272
1070
     2
1070
    48
1040
0.0
1070
    47
1040
0.0
1002
}
  0
DIMENSION
  5
241
330
6C
100
AcDbEntity
  8
Dimension (ANSI)
100
AcDbDimension
  2
*D5
 10
12.79825524971234
 20
35.05581460674077
 30
0.0
 11
12.79825524971233
 21
28.93081460674076
 31
0.0
 70
   160
  1
<>
 42
12.25
  3
Default (ANSI)
100
AcDbAlignedDimension
 13
16.12054660968089
 23
22.80581460674076
 33
0.0
 14
16.12054660968089
 24
35.05581460674076
 34
0.0
 50
90.0
100
AcDbRotatedDimension
1001
ACAD
1000
DSTYLE
1002
{
1070
   289
1070
     1
1070
   271
1070
     3
1070
   272
1070
     3
1070
    48
1040
0.0
1070
    47
1040
0.0
1002
}
  0
DIMENSION
  5
32B
330
6C
100
AcDbEntity
  8
Dimension (ANSI)
100
AcDbDimension
  2
*D6
 10
43.87054660968089
 20
53.28884036503686
 30
0.0
 11
29.62054660968089
 21
53.28884036503686
 31
0.0
 70
   160
  1
<>
 42
28.5
  3
Default (ANSI)
100
AcDbAlignedDimension
 13
15.37054660968089
 23
48.05581460674076
 33
0.0
 14
43.87054660968089
 24
48.05581460674076
 34
0.0
100
AcDbRotatedDimension
1001
ACAD
1000
DSTYLE
1002
{
1070
   289
1070
     1
1070
    73
1070
     0
1070
    74
1070
     0
1070
   271
1070
     2
1070
   272
1070
     2
1070
    48
1040
0.0
1070
    47
1040
0.0
1002
}
  0
DIMENSION
  5
415
330
6C
100
AcDbEntity
  8
Dimension (ANSI)
100
AcDbDimension
  2
*D7
 10
29.62054660968089
 20
49.66801933115021
 30
0.0
 11
22.87054660968089
 21
49.66801933115021
 31
0.0
 70
   160
  1
<>
 42
13.5
  3
Default (ANSI)
100
AcDbAlignedDimension
 13
16.12054660968089
 23
47.30581460674076
 33
0.0
 14
29.62054660968089
 24
47.30581460674076
 34
0.0
 50
180.0
100
AcDbRotatedDimension
1001
ACAD
1000
DSTYLE
1002
{
1070
   289
1070
     1
1070
    73
1070
     0
1070
    74
1070
     0
1070
   271
1070
     3
1070
   272
1070
     3
1070
    48
1040
0.0
1070
    47
1040
0.0
1002
}
  0
DIMENSION
  5
4FF
330
6C
100
AcDbEntity
  8
Dimension (ANSI)
100
AcDbDimension
  2
*D8
 10
43.12054660968089
 20
51.5271533055006
 30
0.0
 11
47.48421236291017
 21
51.5271533055006
 31
0.0
 70
   160
  1
<>{\PTYP.}
 71
     5
 42
0.7499999999999929
  3
Default (ANSI)
100
AcDbAlignedDimension
 13
43.87054660968089
 23
48.05581460674076
 33
0.0
 14
43.12054660968089
 24
47.30581460674076
 34
0.0
 50
180.0
100
AcDbRotatedDimension
1001
ACAD
1000
DSTYLE
1002
{
1070
   289
1070
     1
1070
    73
1070
     0
1070
    74
1070
     0
1070
   271
1070
     3
1070
   272
1070
     3
1070
    48
1040
0.0
1070
    47
1040
0.0
1002
}
  0
DIMENSION
  5
5FD
330
6C
100
AcDbEntity
  8
Dimension (ANSI)
100
AcDbDimension
  2
*D9
 10
49.36677506553223
 20
47.30581460674075
 30
0.0
 11
47.39627367229807
 21
45.26312660036533
 31
0.0
 70
   160
  1
<>{\PTYP.}
 42
0.7500000000000071
  3
Default (ANSI)
100
AcDbAlignedDimension
 13
43.87054660968089
 23
48.05581460674076
 33
0.0
 14
43.12054660968089
 24
47.30581460674076
 34
0.0
 50
270.0
100
AcDbRotatedDimension
1001
ACAD
1000
DSTYLE
1002
{
1070
   289
1070
     1
1070
   145
1040
-0.25
1070
   271
1070
     3
1070
   272
1070
     3
1070
    48
1040
0.0
1070
    47
1040
0.0
1002
}
  0
DIMENSION
  5
713
330
6C
100
AcDbEntity
  8
Dimension (ANSI)
100
AcDbDimension
  2
*D10
 10
43.04768904848446
 20
23.07772272684112
 30
0.0
 11
46.43837509122375
 21
19.87160332695593
 31
0.0
 70
   163
  1
<>{\P(8 PL.)}
 71
     5
 42
0.5629999999999999
  3
Default (ANSI)
100
AcDbDiametricDimension
 15
43.19340417087732
 25
22.53390648664041
 35
0.0
 40
0.0
1001
ACAD
1000
DSTYLE
1002
{
1070
   144
1040
1.000000000000008
1070
   271
1070
     3
1070
   272
1070
     3
1070
    48
1040
0.0
1070
    47
1040
0.0
1002
}
1001
ACAD_DSTYLE_DIMRADIAL_EXTENSION
1070
   387
1070
     1
1070
   388
1040
0.0
1070
   390
1040
0.0
  0
DIMENSION
  5
7CE
330
6C
100
AcDbEntity
  8
Dimension (ANSI)
100
AcDbDimension
  2
*D11
 10
18.01914300791292
 20
22.92436126231772
 30
0.0
 11
24.71649041171474
 21
20.0516232709699
 31
0.0
 70
   163
  1
<>{\PGROUND HOLE}
 42
0.312
  3
Default (ANSI)
100
AcDbDiametricDimension
 15
18.22195021144887
 25
22.6872679511638
 35
0.0
 40
0.0
1001
ACAD_DSTYLE_DIMRADIAL_EXTENSION
1070
   387
1070
     1
1070
   388
1040
0.0
1070
   390
1040
0.0
1001
ACAD
1000
DSTYLE
1002
{
1070
   145
1040
-0.25
1070
   144
1040
1.000000000000013
1070
   271
1070
     3
1070
   272
1070
     3
1070
    48
1040
0.0
1070
    47
1040
0.0
1002
}
  0
DIMENSION
  5
887
330
6C
100
AcDbEntity
  8
Dimension (ANSI)
100
AcDbDimension
  2
*D12
 10
61.61873689555676
 20
49.62127273420436
 30
0.0
 11
56.03786382671181
 21
49.62127273420436
 31
0.0
 70
   160
  1
{12 GA. C.R.S\P}(<>)
 71
     5
 42
0.09375
  3
Default (ANSI)
100
AcDbAlignedDimension
 13
61.52498689555677
 23
48.05581460674076
 33
0.0
 14
61.61873689555676
 24
48.05581460674076
 34
0.0
 50
180.0
100
AcDbRotatedDimension
1001
ACAD
1000
DSTYLE
1002
{
1070
   289
1070
     1
1070
    73
1070
     0
1070
    74
1070
     0
1070
   271
1070
     3
1070
   147
1040
0.031496062992126
1070
    72
1070
     0
1070
    71
1070
     0
1070
   272
1070
     3
1070
    48
1040
0.0
1070
    47
1040
0.0
1002
}
  0
DIMENSION
  5
98F
330
6C
100
AcDbEntity
  8
Dimension (ANSI)
100
AcDbDimension
  2
*D13
 10
9.998410835708003
 20
47.30581460674076
 30
0.0
 11
9.998410835707995
 21
35.05581460674076
 31
0.0
 70
   160
  1
<>
 42
24.50000000000001
  3
Default (ANSI)
100
AcDbAlignedDimension
 13
16.12054660968089
 23
22.80581460674076
 33
0.0
 14
16.12054660968089
 24
47.30581460674076
 34
0.0
 50
90.0
100
AcDbRotatedDimension
1001
ACAD
1000
DSTYLE
1002
{
1070
   289
1070
     1
1070
   271
1070
     3
1070
   272
1070
     3
1070
    48
1040
0.0
1070
    47
1040
0.0
1002
}
  0
DIMENSION
  5
A79
330
6C
100
AcDbEntity
  8
Dimension (ANSI)
100
AcDbDimension
  2
*D14
 10
43.12054660968089
 20
51.5271533055006
 30
0.0
 11
29.62054660968089
 21
51.5271533055006
 31
0.0
 70
   160
  1
<>
 42
27.00000000000001
  3
Default (ANSI)
100
AcDbAlignedDimension
 13
16.12054660968089
 23
47.30581460674076
 33
0.0
 14
43.12054660968089
 24
47.30581460674076
 34
0.0
 50
180.0
100
AcDbRotatedDimension
1001
ACAD
1000
DSTYLE
1002
{
1070
   289
1070
     1
1070
    73
1070
     0
1070
    74
1070
     0
1070
   271
1070
     3
1070
   272
1070
     3
1070
    48
1040
0.0
1070
    47
1040
0.0
1002
}
  0
DIMENSION
  5
B63
330
6C
100
AcDbEntity
  8
Dimension (ANSI)
100
AcDbDimension
  2
*D15
 10
18.1205466096809
 20
20.44360988233131
 30
0.0
 11
13.70781521468785
 21
20.44360988233131
 31
0.0
 70
   160
  1
<>
 42
2.000000000000003
  3
Default (ANSI)
100
AcDbAlignedDimension
 13
16.12054660968089
 23
22.80581460674076
 33
0.0
 14
18.1205466096809
 24
22.80581460674076
 34
0.0
 50
180.0
100
AcDbRotatedDimension
1001
ACAD
1000
DSTYLE
1002
{
1070
   289
1070
     2
1070
    73
1070
     0
1070
    74
1070
     0
1070
   271
1070
     3
1070
   272
1070
     3
1070
    48
1040
0.0
1070
    47
1040
0.0
1002
}
  0
LINE
  5
C4D
330
6C
100
AcDbEntity
  8
Center Mark (ANSI)
  6
CHAIN
 48
0.1909081190824509
100
AcDbLine
 10
15.08904660968089
 20
47.30581460674076
 30
0.0
 11
17.15204660968089
 21
47.30581460674076
 31
0.0
  0
LINE
  5
C4E
330
6C
100
AcDbEntity
  8
Center Mark (ANSI)
  6
CHAIN
 48
0.1909081190824509
100
AcDbLine
 10
44.15204660968089
 20
47.30581460674076
 30
0.0
 11
42.08904660968089
 21
47.30581460674076
 31
0.0
  0
LINE
  5
C4F
330
6C
100
AcDbEntity
  8
Centerline (ANSI)
  6
CHAIN
 48
0.9524481296539306
100
AcDbLine
 10
15.08904660968089
 20
47.30581460674076
 30
0.0
 11
44.15204660968089
 21
47.30581460674076
 31
0.0
  0
LINE
  5
C50
330
6C
100
AcDbEntity
  8
Center Mark (ANSI)
  6
CHAIN
 48
0.1909081190824509
100
AcDbLine
 10
43.12054660968089
 20
23.83731460674076
 30
0.0
 11
43.12054660968089
 21
21.77431460674077
 31
0.0
  0
LINE
  5
C51
330
6C
100
AcDbEntity
  8
Centerline (ANSI)
  6
CHAIN
 48
0.9524481296539306
100
AcDbLine
 10
43.12054660968089
 20
48.33731460674076
 30
0.0
 11
43.12054660968089
 21
21.77431460674077
 31
0.0
  0
LINE
  5
C52
330
6C
100
AcDbEntity
  8
Center Mark (ANSI)
  6
CHAIN
 48
0.1909081190824509
100
AcDbLine
 10
15.08904660968089
 20
22.80581460674076
 30
0.0
 11
17.15204660968089
 21
22.80581460674076
 31
0.0
  0
LINE
  5
C53
330
6C
100
AcDbEntity
  8
Centerline (ANSI)
  6
CHAIN
 48
0.9524481296539306
100
AcDbLine
 10
15.08904660968089
 20
22.80581460674076
 30
0.0
 11
44.15204660968089
 21
22.80581460674076
 31
0.0
  0
LINE
  5
C54
330
6C
100
AcDbEntity
  8
Center Mark (ANSI)
  6
CHAIN
 48
0.1909081190824509
100
AcDbLine
 10
43.12054660968088
 20
34.02431460674077
 30
0.0
 11
43.12054660968088
 21
36.08731460674077
 31
0.0
  0
LINE
  5
C55
330
6C
100
AcDbEntity
  8
Center Mark (ANSI)
  6
CHAIN
 48
0.1909081190824509
100
AcDbLine
 10
16.12054660968089
 20
34.02431460674076
 30
0.0
 11
16.12054660968089
 21
36.08731460674075
 31
0.0
  0
LINE
  5
C56
330
6C
100
AcDbEntity
  8
Centerline (ANSI)
  6
CHAIN
 48
0.9524481296539306
100
AcDbLine
 10
44.15204660968088
 20
35.05581460674077
 30
0.0
 11
15.08904660968089
 21
35.05581460674076
 31
0.0
  0
LINE
  5
C57
330
6C
100
AcDbEntity
  8
Center Mark (ANSI)
  6
CHAIN
 48
0.1909081190824509
100
AcDbLine
 10
30.65204660968089
 20
47.30581460674076
 30
0.0
 11
28.58904660968089
 21
47.30581460674076
 31
0.0
  0
LINE
  5
C58
330
6C
100
AcDbEntity
  8
Center Mark (ANSI)
  6
CHAIN
 48
0.1909081190824509
100
AcDbLine
 10
30.6520466096809
 20
22.80581460674075
 30
0.0
 11
28.5890466096809
 21
22.80581460674075
 31
0.0
  0
LINE
  5
C59
330
6C
100
AcDbEntity
  8
Centerline (ANSI)
  6
CHAIN
 48
0.9524481296539306
100
AcDbLine
 10
29.62054660968089
 20
48.33731460674076
 30
0.0
 11
29.6205466096809
 21
21.77431460674075
 31
0.0
  0
LINE
  5
C5A
330
6C
100
AcDbEntity
  8
Centerline (ANSI)
  6
CHAIN
 48
0.9524481296539306
100
AcDbLine
 10
16.12054660968089
 20
21.77431460674076
 30
0.0
 11
16.12054660968089
 21
48.33731460674076
 31
0.0
  0
LINE
  5
C5B
330
6C
100
AcDbEntity
  8
Center Mark (ANSI)
  6
CHAIN
 48
0.1676686406135559
100
AcDbLine
 10
19.02654660968089
 20
22.80581460674076
 30
0.0
 11
17.2145466096809
 21
22.80581460674076
 31
0.0
  0
LINE
  5
C5C
330
6C
100
AcDbEntity
  8
Center Mark (ANSI)
  6
CHAIN
 48
0.1676686406135559
100
AcDbLine
 10
18.1205466096809
 20
23.71181460674076
 30
0.0
 11
18.1205466096809
 21
21.89981460674076
 31
0.0
  0
MTEXT
  5
C5D
102
{ACAD_XDICTIONARY
360
C69
102
}
330
6C
100
AcDbEntity
  8
Symbol (ANSI)
100
AcDbMText
 10
56.33204563496104
 20
5.632753147398975
 30
0.0
 40
0.6000000191485788
 41
44.30032264529251
 71
     4
 72
     1
  3
{\fRomanS|b0|i0|c0|p2;\H2x;PART#: N1P3030\P(DATA SUBJECT TO CHANGE WITHOUT NOTICE)\H1.6157x; \H0.61894x;\P \H1.352x; \H0.73963x;\P\H0.6x;THIS DRAWING IS PROPERTY OF HUBBELL INC. WIEGMANN\H1.5633x; \H0.63966x;\PALL INFORMATION IS PROPRIETARY AND NOT T
  1
O BE DUPLICATED\H1.234x; \H0.81039x;\P\H1.2571x; }
  7
Note Text (ANSI)
 73
     1
 44
0.8026435375213623
  0
ENDSEC
  0
SECTION
  2
OBJECTS
  0
DICTIONARY
  5
C
330
0
100
AcDbDictionary
281
     1
  3
ACAD_CIP_PREVIOUS_PRODUCT_INFO
350
C5F
  3
ACAD_COLOR
350
63
  3
ACAD_GROUP
350
D
  3
ACAD_LAYOUT
350
62
  3
ACAD_MATERIAL
350
10
  3
ACAD_MLEADERSTYLE
350
66
  3
ACAD_MLINESTYLE
350
5F
  3
ACAD_PLOTSETTINGS
350
61
  3
ACAD_PLOTSTYLENAME
350
E
  3
ACAD_SCALELIST
350
42
  3
ACAD_TABLESTYLE
350
64
  3
ACAD_VISUALSTYLE
350
29
  3
ACDB_RECOMPOSE_DATA
350
C6B
  3
AcDbVariableDictionary
350
76
  0
DICTIONARY
  5
CA1
330
7C8
100
AcDbDictionary
280
     1
281
     1
  3
ACAD_MTEXT_2008_RT
360
CA2
  0
DICTIONARY
  5
CA3
330
881
100
AcDbDictionary
280
     1
281
     1
  3
ACAD_MTEXT_2008_RT
360
CA4
  0
DICTIONARY
  5
C69
330
C5D
100
AcDbDictionary
280
     1
281
     1
  3
ACAD_MTEXT_2008_RT
360
C6A
  0
XRECORD
  5
C5F
102
{ACAD_REACTORS
330
C
102
}
330
C
100
AcDbXrecord
280
     1
300
INVPROSA
300
2012
300
INVPROSA_F_S
  0
DICTIONARY
  5
63
102
{ACAD_REACTORS
330
C
102
}
330
C
100
AcDbDictionary
281
     1
  0
DICTIONARY
  5
D
102
{ACAD_REACTORS
330
C
102
}
330
C
100
AcDbDictionary
281
     1
  0
DICTIONARY
  5
62
102
{ACAD_REACTORS
330
C
102
}
330
C
100
AcDbDictionary
281
     1
  3
Layout1
350
6B
  3
Layout2
350
73
  3
Model
350
6F
  0
DICTIONARY
  5
10
102
{ACAD_REACTORS
330
C
102
}
330
C
100
AcDbDictionary
281
     1
  3
ByBlock
350
19
  3
ByLayer
350
11
  3
Global
350
21
  0
DICTIONARY
  5
66
102
{ACAD_REACTORS
330
C
102
}
330
C
100
AcDbDictionary
281
     1
  3
Standard
350
67
  0
DICTIONARY
  5
5F
102
{ACAD_REACTORS
330
C
102
}
330
C
100
AcDbDictionary
281
     1
  3
Standard
350
60
  0
DICTIONARY
  5
61
102
{ACAD_REACTORS
330
C
102
}
330
C
100
AcDbDictionary
281
     1
  0
ACDBDICTIONARYWDFLT
  5
E
102
{ACAD_REACTORS
330
C
102
}
330
C
100
AcDbDictionary
281
     1
  3
Normal
350
F
100
AcDbDictionaryWithDefault
340
F
  0
DICTIONARY
  5
42
102
{ACAD_REACTORS
330
C
102
}
330
C
100
AcDbDictionary
281
     1
  3
A0
350
43
  3
A1
350
44
  3
A2
350
45
  3
A3
350
46
  3
A4
350
47
  3
A5
350
48
  3
A6
350
49
  3
A7
350
4A
  3
A8
350
4B
  3
A9
350
4C
  3
B0
350
4D
  3
B1
350
4E
  3
B2
350
4F
  3
B3
350
50
  3
B4
350
51
  3
B5
350
52
  3
B6
350
53
  0
DICTIONARY
  5
64
102
{ACAD_REACTORS
330
C
102
}
330
C
100
AcDbDictionary
281
     1
  3
Standard
350
65
  0
DICTIONARY
  5
29
102
{ACAD_REACTORS
330
C
102
}
330
C
100
AcDbDictionary
281
     1
  3
2dWireframe
350
2F
  3
Basic
350
2E
  3
Brighten
350
35
  3
ColorChange
350
39
  3
Conceptual
350
32
  3
Dim
350
34
  3
EdgeColorOff
350
41
  3
Facepattern
350
38
  3
Flat
350
2A
  3
FlatWithEdges
350
2B
  3
Gouraud
350
2C
  3
GouraudWithEdges
350
2D
  3
Hidden
350
31
  3
JitterOff
350
3F
  3
Linepattern
350
37
  3
OverhangOff
350
40
  3
Realistic
350
33
  3
Shaded
350
3E
  3
Shaded with edges
350
3D
  3
Shades of Gray
350
3A
  3
Sketchy
350
3B
  3
Thicken
350
36
  3
Wireframe
350
30
  3
X-Ray
350
3C
  0
XRECORD
  5
C6B
102
{ACAD_REACTORS
330
C
102
}
330
C
100
AcDbXrecord
280
     1
 90
        1
330
65
330
B63
330
C5D
  0
DICTIONARY
  5
76
102
{ACAD_REACTORS
330
C
102
}
330
C
100
AcDbDictionary
281
     1
  3
CANNOSCALE
350
79
  3
CMLEADERSTYLE
350
78
  3
CTABLESTYLE
350
77
  3
LAYEREVAL
350
C62
  3
LAYERNOTIFY
350
C63
  3
LIGHTINGUNITS
350
C61
  3
MSLTSCALE
350
C60
  3
XCLIPFRAME
350
C64
  0
XRECORD
  5
CA2
102
{ACAD_REACTORS
330
CA1
102
}
330
CA1
100
AcDbXrecord
280
     1
 40
24533.0
  1
\A1;\U+22050.563{\P(8 PL.)}
  0
XRECORD
  5
CA4
102
{ACAD_REACTORS
330
CA3
102
}
330
CA3
100
AcDbXrecord
280
     1
 40
36023.0
  1
\A1;\U+22050.312{\PGROUND HOLE}
  0
XRECORD
  5
C6A
102
{ACAD_REACTORS
330
C69
102
}
330
C69
100
AcDbXrecord
280
     1
 40
3047233.0
  1
\pxsm0.94;{\fRomanS|b0|i0;\H1.2000;PART#: N1P3030\P(DATA SUBJECT TO CHANGE WITHOUT NOTICE)\P \P\fRomanS|b0|i0;\H0.7200;THIS DRAWING IS PROPERTY OF HUBBELL INC. WIEGMANN\PALL INFORMATION IS PROPRIETARY AND NOT TO BE DUPLICATED\P}
  0
LAYOUT
  5
6B
102
{ACAD_REACTORS
330
62
102
}
330
62
100
AcDbPlotSettings
  1

  2

  4

  6

 40
0.0
 41
0.0
 42
0.0
 43
0.0
 44
0.0
 45
0.0
 46
0.0
 47
0.0
 48
0.0
 49
0.0
140
0.0
141
0.0
142
1.0
143
1.0
 70
   688
 72
     0
 73
     0
 74
     5
  7

 75
    16
147
1.0
 76
     0
 77
     2
 78
   300
148
0.0
149
0.0
100
AcDbLayout
  1
Layout1
 70
     1
 71
     1
 10
0.0
 20
0.0
 11
12.0
 21
9.0
 12
0.0
 22
0.0
 32
0.0
 14
0.0
 24
0.0
 34
0.0
 15
0.0
 25
0.0
 35
0.0
146
0.0
 13
0.0
 23
0.0
 33
0.0
 16
1.0
 26
0.0
 36
0.0
 17
0.0
 27
1.0
 37
0.0
 76
     0
330
68
  0
LAYOUT
  5
73
102
{ACAD_REACTORS
330
62
102
}
330
62
100
AcDbPlotSettings
  1

  2

  4

  6

 40
0.0
 41
0.0
 42
0.0
 43
0.0
 44
0.0
 45
0.0
 46
0.0
 47
0.0
 48
0.0
 49
0.0
140
0.0
141
0.0
142
1.0
143
1.0
 70
   688
 72
     0
 73
     0
 74
     5
  7

 75
    16
147
1.0
 76
     0
 77
     2
 78
   300
148
0.0
149
0.0
100
AcDbLayout
  1
Layout2
 70
     1
 71
     2
 10
0.0
 20
0.0
 11
12.0
 21
9.0
 12
0.0
 22
0.0
 32
0.0
 14
0.0
 24
0.0
 34
0.0
 15
0.0
 25
0.0
 35
0.0
146
0.0
 13
0.0
 23
0.0
 33
0.0
 16
1.0
 26
0.0
 36
0.0
 17
0.0
 27
1.0
 37
0.0
 76
     0
330
70
  0
LAYOUT
  5
6F
102
{ACAD_REACTORS
330
62
102
}
330
62
100
AcDbPlotSettings
  1

  2

  4

  6

 40
0.0
 41
0.0
 42
0.0
 43
0.0
 44
0.0
 45
0.0
 46
0.0
 47
0.0
 48
0.0
 49
0.0
140
0.0
141
0.0
142
1.0
143
1.0
 70
  1712
 72
     0
 73
     0
 74
     0
  7

 75
     0
147
1.0
 76
     0
 77
     2
 78
   300
148
0.0
149
0.0
100
AcDbLayout
  1
Model
 70
     1
 71
     0
 10
0.0
 20
0.0
 11
12.0
 21
9.0
 12
0.0
 22
0.0
 32
0.0
 14
0.0
 24
0.0
 34
0.0
 15
0.0
 25
0.0
 35
0.0
146
0.0
 13
0.0
 23
0.0
 33
0.0
 16
1.0
 26
0.0
 36
0.0
 17
0.0
 27
1.0
 37
0.0
 76
     0
330
6C
  0
MATERIAL
  5
19
102
{ACAD_XDICTIONARY
360
1A
102
}
102
{ACAD_REACTORS
330
10
102
}
330
10
100
AcDbMaterial
  1
ByBlock
 72
     0
 43
0.0208333333333333
 43
0.0
 43
0.0
 43
0.0
 43
0.0
 43
0.0208333333333333
 43
0.0
 43
0.0
 43
0.0
 43
0.0
 43
1.0
 43
0.0
 43
0.0
 43
0.0
 43
0.0
 43
1.0
 77
     0
 47
0.0208333333333333
 47
0.0
 47
0.0
 47
0.0
 47
0.0
 47
0.0208333333333333
 47
0.0
 47
0.0
 47
0.0
 47
0.0
 47
1.0
 47
0.0
 47
0.0
 47
0.0
 47
0.0
 47
1.0
171
     0
 49
0.0208333333333333
 49
0.0
 49
0.0
 49
0.0
 49
0.0
 49
0.0208333333333333
 49
0.0
 49
0.0
 49
0.0
 49
0.0
 49
1.0
 49
0.0
 49
0.0
 49
0.0
 49
0.0
 49
1.0
175
     0
142
0.0208333333333333
142
0.0
142
0.0
142
0.0
142
0.0
142
0.0208333333333333
142
0.0
142
0.0
142
0.0
142
0.0
142
1.0
142
0.0
142
0.0
142
0.0
142
0.0
142
1.0
179
     0
144
0.0208333333333333
144
0.0
144
0.0
144
0.0
144
0.0
144
0.0208333333333333
144
0.0
144
0.0
144
0.0
144
0.0
144
1.0
144
0.0
144
0.0
144
0.0
144
0.0
144
1.0
147
0.0208333333333333
147
0.0
147
0.0
147
0.0
147
0.0
147
0.0208333333333333
147
0.0
147
0.0
147
0.0
147
0.0
147
1.0
147
0.0
147
0.0
147
0.0
147
0.0
147
1.0
  0
MATERIAL
  5
11
102
{ACAD_XDICTIONARY
360
12
102
}
102
{ACAD_REACTORS
330
10
102
}
330
10
100
AcDbMaterial
  1
ByLayer
 72
     0
 43
0.0208333333333333
 43
0.0
 43
0.0
 43
0.0
 43
0.0
 43
0.0208333333333333
 43
0.0
 43
0.0
 43
0.0
 43
0.0
 43
1.0
 43
0.0
 43
0.0
 43
0.0
 43
0.0
 43
1.0
 77
     0
 47
0.0208333333333333
 47
0.0
 47
0.0
 47
0.0
 47
0.0
 47
0.0208333333333333
 47
0.0
 47
0.0
 47
0.0
 47
0.0
 47
1.0
 47
0.0
 47
0.0
 47
0.0
 47
0.0
 47
1.0
171
     0
 49
0.0208333333333333
 49
0.0
 49
0.0
 49
0.0
 49
0.0
 49
0.0208333333333333
 49
0.0
 49
0.0
 49
0.0
 49
0.0
 49
1.0
 49
0.0
 49
0.0
 49
0.0
 49
0.0
 49
1.0
175
     0
142
0.0208333333333333
142
0.0
142
0.0
142
0.0
142
0.0
142
0.0208333333333333
142
0.0
142
0.0
142
0.0
142
0.0
142
1.0
142
0.0
142
0.0
142
0.0
142
0.0
142
1.0
179
     0
144
0.0208333333333333
144
0.0
144
0.0
144
0.0
144
0.0
144
0.0208333333333333
144
0.0
144
0.0
144
0.0
144
0.0
144
1.0
144
0.0
144
0.0
144
0.0
144
0.0
144
1.0
147
0.0208333333333333
147
0.0
147
0.0
147
0.0
147
0.0
147
0.0208333333333333
147
0.0
147
0.0
147
0.0
147
0.0
147
1.0
147
0.0
147
0.0
147
0.0
147
0.0
147
1.0
  0
MATERIAL
  5
21
102
{ACAD_XDICTIONARY
360
22
102
}
102
{ACAD_REACTORS
330
10
102
}
330
10
100
AcDbMaterial
  1
Global
 72
     0
 43
0.0208333333333333
 43
0.0
 43
0.0
 43
0.0
 43
0.0
 43
0.0208333333333333
 43
0.0
 43
0.0
 43
0.0
 43
0.0
 43
1.0
 43
0.0
 43
0.0
 43
0.0
 43
0.0
 43
1.0
 77
     0
 47
0.0208333333333333
 47
0.0
 47
0.0
 47
0.0
 47
0.0
 47
0.0208333333333333
 47
0.0
 47
0.0
 47
0.0
 47
0.0
 47
1.0
 47
0.0
 47
0.0
 47
0.0
 47
0.0
 47
1.0
171
     0
 49
0.0208333333333333
 49
0.0
 49
0.0
 49
0.0
 49
0.0
 49
0.0208333333333333
 49
0.0
 49
0.0
 49
0.0
 49
0.0
 49
1.0
 49
0.0
 49
0.0
 49
0.0
 49
0.0
 49
1.0
175
     0
142
0.0208333333333333
142
0.0
142
0.0
142
0.0
142
0.0
142
0.0208333333333333
142
0.0
142
0.0
142
0.0
142
0.0
142
1.0
142
0.0
142
0.0
142
0.0
142
0.0
142
1.0
179
     0
144
0.0208333333333333
144
0.0
144
0.0
144
0.0
144
0.0
144
0.0208333333333333
144
0.0
144
0.0
144
0.0
144
0.0
144
1.0
144
0.0
144
0.0
144
0.0
144
0.0
144
1.0
147
0.0208333333333333
147
0.0
147
0.0
147
0.0
147
0.0
147
0.0208333333333333
147
0.0
147
0.0
147
0.0
147
0.0
147
1.0
147
0.0
147
0.0
147
0.0
147
0.0
147
1.0
  0
MLEADERSTYLE
  5
67
102
{ACAD_XDICTIONARY
360
C67
102
}
102
{ACAD_REACTORS
330
66
102
}
330
66
100
AcDbMLeaderStyle
170
     2
171
     1
172
     0
 90
        2
 40
0.0
 41
0.0
173
     1
 91
-1056964608
340
5B
 92
       -2
290
     1
 42
0.09
291
     1
 43
0.36
  3
Standard
 44
0.18
300

342
55
174
     1
178
     6
175
     1
176
     0
 93
-1056964608
 45
0.18
292
     0
297
     0
 46
0.18
 94
-1056964608
 47
1.0
 49
1.0
140
1.0
293
     1
141
0.0
294
     1
177
     0
142
1.0
295
     0
296
     0
143
0.125
1001
ACAD_MLEADERVER
1070
     2
  0
MLINESTYLE
  5
60
102
{ACAD_REACTORS
330
5F
102
}
330
5F
100
AcDbMlineStyle
  2
STANDARD
 70
     0
  3

 62
   256
 51
90.0
 52
90.0
 71
     2
 49
0.5
 62
   256
  6
BYLAYER
 49
-0.5
 62
   256
  6
BYLAYER
  0
ACDBPLACEHOLDER
  5
F
102
{ACAD_REACTORS
330
E
102
}
330
E
  0
SCALE
  5
43
102
{ACAD_REACTORS
330
42
102
}
330
42
100
AcDbScale
 70
     0
300
1:1
140
1.0
141
1.0
290
     1
  0
SCALE
  5
44
102
{ACAD_REACTORS
330
42
102
}
330
42
100
AcDbScale
 70
     0
300
1/128" = 1'-0"
140
0.0078125
141
12.0
290
     0
  0
SCALE
  5
45
102
{ACAD_REACTORS
330
42
102
}
330
42
100
AcDbScale
 70
     0
300
1/64" = 1'-0"
140
0.015625
141
12.0
290
     0
  0
SCALE
  5
46
102
{ACAD_REACTORS
330
42
102
}
330
42
100
AcDbScale
 70
     0
300
1/32" = 1'-0"
140
0.03125
141
12.0
290
     0
  0
SCALE
  5
47
102
{ACAD_REACTORS
330
42
102
}
330
42
100
AcDbScale
 70
     0
300
1/16" = 1'-0"
140
0.0625
141
12.0
290
     0
  0
SCALE
  5
48
102
{ACAD_REACTORS
330
42
102
}
330
42
100
AcDbScale
 70
     0
300
3/32" = 1'-0"
140
0.09375
141
12.0
290
     0
  0
SCALE
  5
49
102
{ACAD_REACTORS
330
42
102
}
330
42
100
AcDbScale
 70
     0
300
1/8" = 1'-0"
140
0.125
141
12.0
290
     0
  0
SCALE
  5
4A
102
{ACAD_REACTORS
330
42
102
}
330
42
100
AcDbScale
 70
     0
300
3/16" = 1'-0"
140
0.1875
141
12.0
290
     0
  0
SCALE
  5
4B
102
{ACAD_REACTORS
330
42
102
}
330
42
100
AcDbScale
 70
     0
300
1/4" = 1'-0"
140
0.25
141
12.0
290
     0
  0
SCALE
  5
4C
102
{ACAD_REACTORS
330
42
102
}
330
42
100
AcDbScale
 70
     0
300
3/8" = 1'-0"
140
0.375
141
12.0
290
     0
  0
SCALE
  5
4D
102
{ACAD_REACTORS
330
42
102
}
330
42
100
AcDbScale
 70
     0
300
1/2" = 1'-0"
140
0.5
141
12.0
290
     0
  0
SCALE
  5
4E
102
{ACAD_REACTORS
330
42
102
}
330
42
100
AcDbScale
 70
     0
300
3/4" = 1'-0"
140
0.75
141
12.0
290
     0
  0
SCALE
  5
4F
102
{ACAD_REACTORS
330
42
102
}
330
42
100
AcDbScale
 70
     0
300
1" = 1'-0"
140
1.0
141
12.0
290
     0
  0
SCALE
  5
50
102
{ACAD_REACTORS
330
42
102
}
330
42
100
AcDbScale
 70
     0
300
1-1/2" = 1'-0"
140
1.5
141
12.0
290
     0
  0
SCALE
  5
51
102
{ACAD_REACTORS
330
42
102
}
330
42
100
AcDbScale
 70
     0
300
3" = 1'-0"
140
3.0
141
12.0
290
     0
  0
SCALE
  5
52
102
{ACAD_REACTORS
330
42
102
}
330
42
100
AcDbScale
 70
     0
300
6" = 1'-0"
140
6.0
141
12.0
290
     0
  0
SCALE
  5
53
102
{ACAD_REACTORS
330
42
102
}
330
42
100
AcDbScale
 70
     0
300
1'-0" = 1'-0"
140
12.0
141
12.0
290
     0
  0
TABLESTYLE
  5
65
102
{ACAD_XDICTIONARY
360
C65
102
}
102
{ACAD_REACTORS
330
64
102
}
330
64
100
AcDbTableStyle
  3
Standard
 70
     0
 71
     0
 40
0.06
 41
0.06
280
     0
281
     0
  7
Standard
140
0.18
170
     2
 62
     0
 63
     7
283
     0
274
    -2
284
     1
 64
     0
275
    -2
285
     1
 65
     0
276
    -2
286
     1
 66
     0
277
    -2
287
     1
 67
     0
278
    -2
288
     1
 68
     0
279
    -2
289
     1
 69
     0
  7
Standard
140
0.25
170
     5
 62
     0
 63
     7
283
     0
274
    -2
284
     1
 64
     0
275
    -2
285
     1
 65
     0
276
    -2
286
     1
 66
     0
277
    -2
287
     1
 67
     0
278
    -2
288
     1
 68
     0
279
    -2
289
     1
 69
     0
  7
Standard
140
0.18
170
     5
 62
     0
 63
     7
283
     0
274
    -2
284
     1
 64
     0
275
    -2
285
     1
 65
     0
276
    -2
286
     1
 66
     0
277
    -2
287
     1
 67
     0
278
    -2
288
     1
 68
     0
279
    -2
289
     1
 69
     0
  0
VISUALSTYLE
  5
2F
102
{ACAD_XDICTIONARY
360
C79
102
}
102
{ACAD_REACTORS
330
29
102
}
330
29
100
AcDbVisualStyle
  2
2dWireframe
 70
     4
 71
     0
 72
     2
 73
     0
 90
        0
 40
-0.6
 41
-30.0
 62
     5
 63
     7
421
 16777215
 74
     1
 91
        4
 64
     7
 65
   257
 75
     1
175
     1
 42
1.0
 92
        0
 66
   257
 43
1.0
 76
     1
 77
     6
 78
     2
 67
     7
 79
     5
170
     0
171
     0
290
     0
174
     0
 93
        1
 44
0.0
173
     0
291
     0
 45
0.0
1001
ACAD
1000
AcDbSavedByObjectVersion
1070
     0
  0
VISUALSTYLE
  5
2E
102
{ACAD_XDICTIONARY
360
C77
102
}
102
{ACAD_REACTORS
330
29
102
}
330
29
100
AcDbVisualStyle
  2
Basic
 70
     7
 71
     1
 72
     0
 73
     1
 90
        0
 40
-0.6
 41
-30.0
 62
     5
 63
     7
421
 16777215
 74
     0
 91
        4
 64
     7
 65
   257
 75
     1
175
     1
 42
1.0
 92
        8
 66
     7
 43
1.0
 76
     1
 77
     6
 78
     2
 67
     7
 79
     5
170
     0
171
     0
290
     0
174
     0
 93
        1
 44
0.0
173
     0
291
     1
 45
0.0
1001
ACAD
1000
AcDbSavedByObjectVersion
1070
     0
  0
VISUALSTYLE
  5
35
102
{ACAD_XDICTIONARY
360
C85
102
}
102
{ACAD_REACTORS
330
29
102
}
330
29
100
AcDbVisualStyle
  2
Brighten
 70
    12
 71
     2
 72
     2
 73
     0
 90
        0
 40
-0.6
 41
-30.0
 62
     5
 63
     7
421
 16777215
 74
     1
 91
        4
 64
     7
 65
   257
 75
     1
175
     1
 42
1.0
 92
        8
 66
     7
 43
1.0
 76
     1
 77
     6
 78
     2
 67
     7
 79
     5
170
     0
171
     0
290
     0
174
     0
 93
        1
 44
50.0
173
     0
291
     1
 45
0.0
1001
ACAD
1000
AcDbSavedByObjectVersion
1070
     0
  0
VISUALSTYLE
  5
39
102
{ACAD_XDICTIONARY
360
C8D
102
}
102
{ACAD_REACTORS
330
29
102
}
330
29
100
AcDbVisualStyle
  2
ColorChange
 70
    16
 71
     2
 72
     2
 73
     3
 90
        0
 40
-0.6
 41
-30.0
 62
     5
 63
     8
421
  8421504
 74
     1
 91
        4
 64
     7
 65
   257
 75
     1
175
     1
 42
1.0
 92
        8
 66
     8
424
  8421504
 43
1.0
 76
     1
 77
     6
 78
     2
 67
     7
 79
     5
170
     0
171
     0
290
     0
174
     0
 93
        1
 44
0.0
173
     0
291
     1
 45
0.0
1001
ACAD
1000
AcDbSavedByObjectVersion
1070
     0
  0
VISUALSTYLE
  5
32
102
{ACAD_XDICTIONARY
360
C7F
102
}
102
{ACAD_REACTORS
330
29
102
}
330
29
100
AcDbVisualStyle
  2
Conceptual
 70
     9
 71
     3
 72
     2
 73
     0
 90
        0
 40
-0.6
 41
-30.0
 62
     5
 63
     7
421
 16777215
 74
     2
 91
        2
 64
     7
 65
   257
 75
     1
175
     1
 42
179.0
 92
        8
 66
     7
 43
1.0
 76
     1
 77
     6
 78
     2
 67
     7
 79
     3
170
     0
171
     0
290
     0
174
     0
 93
        1
 44
0.0
173
     0
291
     0
 45
0.0
1001
ACAD
1000
AcDbSavedByObjectVersion
1070
     0
  0
VISUALSTYLE
  5
34
102
{ACAD_XDICTIONARY
360
C83
102
}
102
{ACAD_REACTORS
330
29
102
}
330
29
100
AcDbVisualStyle
  2
Dim
 70
    11
 71
     2
 72
     2
 73
     0
 90
        0
 40
-0.6
 41
-30.0
 62
     5
 63
     7
421
 16777215
 74
     1
 91
        4
 64
     7
 65
   257
 75
     1
175
     1
 42
1.0
 92
        8
 66
     7
 43
1.0
 76
     1
 77
     6
 78
     2
 67
     7
 79
     5
170
     0
171
     0
290
     0
174
     0
 93
        1
 44
-50.0
173
     0
291
     1
 45
0.0
1001
ACAD
1000
AcDbSavedByObjectVersion
1070
     0
  0
VISUALSTYLE
  5
41
102
{ACAD_XDICTIONARY
360
C9D
102
}
102
{ACAD_REACTORS
330
29
102
}
330
29
100
AcDbVisualStyle
  2
EdgeColorOff
 70
    22
 71
     2
 72
     2
 73
     0
 90
        0
 40
-0.6
 41
-30.0
 62
     5
 63
     7
421
 16777215
 74
     1
 91
        4
 64
     7
 65
   257
 75
     1
175
     1
 42
1.0
 92
        8
 66
     7
 43
1.0
 76
     1
 77
     6
 78
     2
 67
     7
 79
     5
170
     0
171
     0
290
     0
174
     0
 93
        1
 44
0.0
173
     0
291
     1
 45
0.0
1001
ACAD
1000
AcDbSavedByObjectVersion
1070
     0
  0
VISUALSTYLE
  5
38
102
{ACAD_XDICTIONARY
360
C8B
102
}
102
{ACAD_REACTORS
330
29
102
}
330
29
100
AcDbVisualStyle
  2
Facepattern
 70
    15
 71
     2
 72
     2
 73
     0
 90
        0
 40
-0.6
 41
-30.0
 62
     5
 63
     7
421
 16777215
 74
     1
 91
        4
 64
     7
 65
   257
 75
     1
175
     1
 42
1.0
 92
        8
 66
     7
 43
1.0
 76
     1
 77
     6
 78
     2
 67
     7
 79
     5
170
     0
171
     0
290
     0
174
     0
 93
        1
 44
0.0
173
     0
291
     1
 45
0.0
1001
ACAD
1000
AcDbSavedByObjectVersion
1070
     0
  0
VISUALSTYLE
  5
2A
102
{ACAD_XDICTIONARY
360
C6F
102
}
102
{ACAD_REACTORS
330
29
102
}
330
29
100
AcDbVisualStyle
  2
Flat
 70
     0
 71
     2
 72
     1
 73
     1
 90
        2
 40
-0.6
 41
30.0
 62
     5
 63
     7
421
 16777215
 74
     0
 91
        0
 64
     7
 65
   257
 75
     1
175
     1
 42
1.0
 92
        8
 66
     7
 43
1.0
 76
     1
 77
     6
 78
     2
 67
     7
 79
     5
170
     0
171
     0
290
     0
174
     0
 93
       13
 44
0.0
173
     0
291
     1
 45
0.0
1001
ACAD
1000
AcDbSavedByObjectVersion
1070
     0
  0
VISUALSTYLE
  5
2B
102
{ACAD_XDICTIONARY
360
C71
102
}
102
{ACAD_REACTORS
330
29
102
}
330
29
100
AcDbVisualStyle
  2
FlatWithEdges
 70
     1
 71
     2
 72
     1
 73
     1
 90
        2
 40
-0.6
 41
30.0
 62
     5
 63
     7
421
 16777215
 74
     1
 91
        0
 64
     7
 65
   257
 75
     1
175
     1
 42
1.0
 92
        0
 66
   257
 43
1.0
 76
     1
 77
     6
 78
     2
 67
     7
 79
     5
170
     0
171
     0
290
     0
174
     0
 93
       13
 44
0.0
173
     0
291
     1
 45
0.0
1001
ACAD
1000
AcDbSavedByObjectVersion
1070
     0
  0
VISUALSTYLE
  5
2C
102
{ACAD_XDICTIONARY
360
C73
102
}
102
{ACAD_REACTORS
330
29
102
}
330
29
100
AcDbVisualStyle
  2
Gouraud
 70
     2
 71
     2
 72
     2
 73
     1
 90
        2
 40
-0.6
 41
30.0
 62
     5
 63
     7
421
 16777215
 74
     0
 91
        0
 64
     7
 65
   257
 75
     1
175
     1
 42
1.0
 92
        0
 66
     7
 43
1.0
 76
     1
 77
     6
 78
     2
 67
     7
 79
     5
170
     0
171
     0
290
     0
174
     0
 93
       13
 44
0.0
173
     0
291
     1
 45
0.0
1001
ACAD
1000
AcDbSavedByObjectVersion
1070
     0
  0
VISUALSTYLE
  5
2D
102
{ACAD_XDICTIONARY
360
C75
102
}
102
{ACAD_REACTORS
330
29
102
}
330
29
100
AcDbVisualStyle
  2
GouraudWithEdges
 70
     3
 71
     2
 72
     2
 73
     1
 90
        2
 40
-0.6
 41
30.0
 62
     5
 63
     7
421
 16777215
 74
     1
 91
        0
 64
     7
 65
   257
 75
     1
175
     1
 42
1.0
 92
        0
 66
   257
 43
1.0
 76
     1
 77
     6
 78
     2
 67
     7
 79
     5
170
     0
171
     0
290
     0
174
     0
 93
       13
 44
0.0
173
     0
291
     1
 45
0.0
1001
ACAD
1000
AcDbSavedByObjectVersion
1070
     0
  0
VISUALSTYLE
  5
31
102
{ACAD_XDICTIONARY
360
C7D
102
}
102
{ACAD_REACTORS
330
29
102
}
330
29
100
AcDbVisualStyle
  2
Hidden
 70
     6
 71
     1
 72
     2
 73
     2
 90
        0
 40
-0.6
 41
-30.0
 62
     5
 63
     7
421
 16777215
 74
     2
 91
        2
 64
     7
 65
   257
 75
     2
175
     1
 42
40.0
 92
        0
 66
   257
 43
1.0
 76
     1
 77
     6
 78
     2
 67
     7
 79
     3
170
     0
171
     0
290
     0
174
     0
 93
        1
 44
0.0
173
     0
291
     0
 45
0.0
1001
ACAD
1000
AcDbSavedByObjectVersion
1070
     0
  0
VISUALSTYLE
  5
3F
102
{ACAD_XDICTIONARY
360
C99
102
}
102
{ACAD_REACTORS
330
29
102
}
330
29
100
AcDbVisualStyle
  2
JitterOff
 70
    20
 71
     2
 72
     2
 73
     0
 90
        0
 40
-0.6
 41
-30.0
 62
     5
 63
     7
421
 16777215
 74
     1
 91
        4
 64
     7
 65
   257
 75
     1
175
     1
 42
1.0
 92
       10
 66
     7
 43
1.0
 76
     1
 77
     6
 78
     2
 67
     7
 79
     5
170
     0
171
     0
290
     0
174
     0
 93
        1
 44
0.0
173
     0
291
     1
 45
0.0
1001
ACAD
1000
AcDbSavedByObjectVersion
1070
     0
  0
VISUALSTYLE
  5
37
102
{ACAD_XDICTIONARY
360
C89
102
}
102
{ACAD_REACTORS
330
29
102
}
330
29
100
AcDbVisualStyle
  2
Linepattern
 70
    14
 71
     2
 72
     2
 73
     0
 90
        0
 40
-0.6
 41
-30.0
 62
     5
 63
     7
421
 16777215
 74
     1
 91
        4
 64
     7
 65
   257
 75
     7
175
     7
 42
1.0
 92
        8
 66
     7
 43
1.0
 76
     1
 77
     6
 78
     2
 67
     7
 79
     5
170
     0
171
     0
290
     0
174
     0
 93
        1
 44
0.0
173
     0
291
     1
 45
0.0
1001
ACAD
1000
AcDbSavedByObjectVersion
1070
     0
  0
VISUALSTYLE
  5
40
102
{ACAD_XDICTIONARY
360
C9B
102
}
102
{ACAD_REACTORS
330
29
102
}
330
29
100
AcDbVisualStyle
  2
OverhangOff
 70
    21
 71
     2
 72
     2
 73
     0
 90
        0
 40
-0.6
 41
-30.0
 62
     5
 63
     7
421
 16777215
 74
     1
 91
        4
 64
     7
 65
   257
 75
     1
175
     1
 42
1.0
 92
        9
 66
     7
 43
1.0
 76
     1
 77
     6
 78
     2
 67
     7
 79
     5
170
     0
171
     0
290
     0
174
     0
 93
        1
 44
0.0
173
     0
291
     1
 45
0.0
1001
ACAD
1000
AcDbSavedByObjectVersion
1070
     0
  0
VISUALSTYLE
  5
33
102
{ACAD_XDICTIONARY
360
C81
102
}
102
{ACAD_REACTORS
330
29
102
}
330
29
100
AcDbVisualStyle
  2
Realistic
 70
     8
 71
     2
 72
     3
 73
     0
 90
        2
 40
-0.6
 41
30.0
 62
     5
 63
     7
421
 16777215
 74
     0
 91
        0
 64
     7
 65
   257
 75
     1
175
     1
 42
1.0
 92
        8
 66
   257
 43
1.0
 76
     1
 77
     6
 78
     2
 67
     7
 79
     3
170
     0
171
     0
290
     0
174
     0
 93
       13
 44
0.0
173
     0
291
     0
 45
0.0
1001
ACAD
1000
AcDbSavedByObjectVersion
1070
     0
  0
VISUALSTYLE
  5
3E
102
{ACAD_XDICTIONARY
360
C97
102
}
102
{ACAD_REACTORS
330
29
102
}
330
29
100
AcDbVisualStyle
  2
Shaded
 70
    27
 71
     2
 72
     2
 73
     1
 90
        2
 40
-0.6
 41
30.0
 62
     5
 63
     7
421
 16777215
 74
     0
 91
        4
 64
     7
 65
   257
 75
     1
175
     1
 42
1.0
 92
        8
 66
   257
 43
1.0
 76
     1
 77
     6
 78
     2
 67
     8
425
  7895160
 79
     3
170
     0
171
     0
290
     0
174
     0
 93
        5
 44
0.0
173
     0
291
     0
 45
0.0
1001
ACAD
1000
AcDbSavedByObjectVersion
1070
     0
  0
VISUALSTYLE
  5
3D
102
{ACAD_XDICTIONARY
360
C95
102
}
102
{ACAD_REACTORS
330
29
102
}
330
29
100
AcDbVisualStyle
  2
Shaded with edges
 70
    26
 71
     2
 72
     2
 73
     1
 90
        2
 40
-0.6
 41
30.0
 62
     5
 63
     7
421
 16777215
 74
     1
 91
       10
 64
     7
 65
   257
 75
     2
175
     1
 42
1.0
 92
        8
 66
   257
 43
1.0
 76
     1
 77
     6
 78
     2
 67
     7
 79
     3
170
     0
171
     0
290
     0
174
     0
 93
        5
 44
0.0
173
     0
291
     0
 45
0.0
1001
ACAD
1000
AcDbSavedByObjectVersion
1070
     0
  0
VISUALSTYLE
  5
3A
102
{ACAD_XDICTIONARY
360
C8F
102
}
102
{ACAD_REACTORS
330
29
102
}
330
29
100
AcDbVisualStyle
  2
Shades of Gray
 70
    23
 71
     2
 72
     2
 73
     3
 90
        0
 40
-0.6
 41
-30.0
 62
     5
 63
     7
421
 16777215
 74
     2
 91
        2
 64
     7
 65
     7
 75
     1
175
     1
 42
40.0
 92
        8
 66
     7
 43
1.0
 76
     1
 77
     6
 78
     2
 67
     7
 79
     3
170
     0
171
     0
290
     0
174
     0
 93
        1
 44
0.0
173
     0
291
     0
 45
0.0
1001
ACAD
1000
AcDbSavedByObjectVersion
1070
     0
  0
VISUALSTYLE
  5
3B
102
{ACAD_XDICTIONARY
360
C91
102
}
102
{ACAD_REACTORS
330
29
102
}
330
29
100
AcDbVisualStyle
  2
Sketchy
 70
    24
 71
     1
 72
     2
 73
     2
 90
        0
 40
-0.6
 41
-30.0
 62
     5
 63
     7
421
 16777215
 74
     2
 91
        2
 64
     7
 65
     7
 75
     1
175
     1
 42
40.0
 92
       11
 66
     7
 43
1.0
 76
     1
 77
     6
 78
     2
 67
     7
 79
     6
170
     0
171
     0
290
     0
174
     0
 93
        1
 44
0.0
173
     0
291
     0
 45
0.0
1001
ACAD
1000
AcDbSavedByObjectVersion
1070
     0
  0
VISUALSTYLE
  5
36
102
{ACAD_XDICTIONARY
360
C87
102
}
102
{ACAD_REACTORS
330
29
102
}
330
29
100
AcDbVisualStyle
  2
Thicken
 70
    13
 71
     2
 72
     2
 73
     0
 90
        0
 40
-0.6
 41
-30.0
 62
     5
 63
     7
421
 16777215
 74
     1
 91
        4
 64
     7
 65
   257
 75
     1
175
     1
 42
1.0
 92
       12
 66
     7
 43
1.0
 76
     1
 77
     6
 78
     2
 67
     7
 79
     5
170
     0
171
     0
290
     0
174
     0
 93
        1
 44
0.0
173
     0
291
     1
 45
0.0
1001
ACAD
1000
AcDbSavedByObjectVersion
1070
     0
  0
VISUALSTYLE
  5
30
102
{ACAD_XDICTIONARY
360
C7B
102
}
102
{ACAD_REACTORS
330
29
102
}
330
29
100
AcDbVisualStyle
  2
Wireframe
 70
     5
 71
     0
 72
     2
 73
     0
 90
        0
 40
-0.6
 41
-30.0
 62
     5
 63
     7
421
 16777215
 74
     1
 91
        4
 64
     7
 65
   257
 75
     1
175
     1
 42
1.0
 92
        0
 66
   257
 43
1.0
 76
     1
 77
     6
 78
     2
 67
     7
 79
     3
170
     0
171
     0
290
     0
174
     0
 93
        1
 44
0.0
173
     0
291
     0
 45
0.0
1001
ACAD
1000
AcDbSavedByObjectVersion
1070
     0
  0
VISUALSTYLE
  5
3C
102
{ACAD_XDICTIONARY
360
C93
102
}
102
{ACAD_REACTORS
330
29
102
}
330
29
100
AcDbVisualStyle
  2
X-Ray
 70
    25
 71
     2
 72
     2
 73
     1
 90
        1
 40
0.5
 41
-30.0
 62
     5
 63
     7
421
 16777215
 74
     1
 91
        0
 64
     7
 65
   257
 75
     1
175
     1
 42
1.0
 92
        8
 66
     7
 43
1.0
 76
     1
 77
     6
 78
     2
 67
     7
 79
     3
170
     0
171
     0
290
     0
174
     0
 93
       13
 44
0.0
173
     0
291
     0
 45
0.0
1001
ACAD
1000
AcDbSavedByObjectVersion
1070
     0
  0
DICTIONARYVAR
  5
79
102
{ACAD_REACTORS
330
76
102
}
330
76
100
DictionaryVariables
280
     0
  1
1:1
  0
DICTIONARYVAR
  5
78
102
{ACAD_REACTORS
330
76
102
}
330
76
100
DictionaryVariables
280
     0
  1
STANDARD
  0
DICTIONARYVAR
  5
77
102
{ACAD_REACTORS
330
76
102
}
330
76
100
DictionaryVariables
280
     0
  1
STANDARD
  0
DICTIONARYVAR
  5
C62
102
{ACAD_REACTORS
330
76
102
}
330
76
100
DictionaryVariables
280
     0
  1
0
  0
DICTIONARYVAR
  5
C63
102
{ACAD_REACTORS
330
76
102
}
330
76
100
DictionaryVariables
280
     0
  1
0
  0
DICTIONARYVAR
  5
C61
102
{ACAD_REACTORS
330
76
102
}
330
76
100
DictionaryVariables
280
     0
  1
2
  0
DICTIONARYVAR
  5
C60
102
{ACAD_REACTORS
330
76
102
}
330
76
100
DictionaryVariables
280
     0
  1
1
  0
DICTIONARYVAR
  5
C64
102
{ACAD_REACTORS
330
76
102
}
330
76
100
DictionaryVariables
280
     0
  1
2
  0
DICTIONARY
  5
1A
330
19
100
AcDbDictionary
280
     1
281
     1
  3
ACAD_XREC_ROUNDTRIP
360
C6D
  3
BUMPTILE
360
1C
  3
DIFFUSETILE
360
1B
  3
OPACITYTILE
360
1F
  3
REFLECTIONTILE
360
1E
  3
REFRACTIONTILE
360
20
  3
SPECULARTILE
360
1D
  0
DICTIONARY
  5
12
330
11
100
AcDbDictionary
280
     1
281
     1
  3
ACAD_XREC_ROUNDTRIP
360
C6C
  3
BUMPTILE
360
14
  3
DIFFUSETILE
360
13
  3
FBXASSET
360
109
  3
OPACITYTILE
360
17
  3
REFLECTIONTILE
360
16
  3
REFRACTIONTILE
360
18
  3
SPECULARTILE
360
15
  0
DICTIONARY
  5
22
330
21
100
AcDbDictionary
280
     1
281
     1
  3
ACAD_XREC_ROUNDTRIP
360
C6E
  3
BUMPTILE
360
24
  3
DIFFUSETILE
360
23
  3
FBXASSET
360
BA
  3
OPACITYTILE
360
27
  3
REFLECTIONTILE
360
26
  3
REFRACTIONTILE
360
28
  3
SPECULARTILE
360
25
  0
DICTIONARY
  5
C67
330
67
100
AcDbDictionary
280
     1
281
     1
  3
ACAD_XREC_ROUNDTRIP
360
C68
  0
DICTIONARY
  5
C65
330
65
100
AcDbDictionary
280
     1
281
     1
  3
ACAD_ROUNDTRIP_2008_TABLESTYLE_CELLSTYLEMAP
360
C66
  3
ACAD_XREC_ROUNDTRIP
360
C9F
  0
DICTIONARY
  5
C79
330
2F
100
AcDbDictionary
280
     1
281
     1
  3
ACAD_XREC_ROUNDTRIP
360
C7A
  0
DICTIONARY
  5
C77
330
2E
100
AcDbDictionary
280
     1
281
     1
  3
ACAD_XREC_ROUNDTRIP
360
C78
  0
DICTIONARY
  5
C85
330
35
100
AcDbDictionary
280
     1
281
     1
  3
ACAD_XREC_ROUNDTRIP
360
C86
  0
DICTIONARY
  5
C8D
330
39
100
AcDbDictionary
280
     1
281
     1
  3
ACAD_XREC_ROUNDTRIP
360
C8E
  0
DICTIONARY
  5
C7F
330
32
100
AcDbDictionary
280
     1
281
     1
  3
ACAD_XREC_ROUNDTRIP
360
C80
  0
DICTIONARY
  5
C83
330
34
100
AcDbDictionary
280
     1
281
     1
  3
ACAD_XREC_ROUNDTRIP
360
C84
  0
DICTIONARY
  5
C9D
330
41
100
AcDbDictionary
280
     1
281
     1
  3
ACAD_XREC_ROUNDTRIP
360
C9E
  0
DICTIONARY
  5
C8B
330
38
100
AcDbDictionary
280
     1
281
     1
  3
ACAD_XREC_ROUNDTRIP
360
C8C
  0
DICTIONARY
  5
C6F
330
2A
100
AcDbDictionary
280
     1
281
     1
  3
ACAD_XREC_ROUNDTRIP
360
C70
  0
DICTIONARY
  5
C71
330
2B
100
AcDbDictionary
280
     1
281
     1
  3
ACAD_XREC_ROUNDTRIP
360
C72
  0
DICTIONARY
  5
C73
330
2C
100
AcDbDictionary
280
     1
281
     1
  3
ACAD_XREC_ROUNDTRIP
360
C74
  0
DICTIONARY
  5
C75
330
2D
100
AcDbDictionary
280
     1
281
     1
  3
ACAD_XREC_ROUNDTRIP
360
C76
  0
DICTIONARY
  5
C7D
330
31
100
AcDbDictionary
280
     1
281
     1
  3
ACAD_XREC_ROUNDTRIP
360
C7E
  0
DICTIONARY
  5
C99
330
3F
100
AcDbDictionary
280
     1
281
     1
  3
ACAD_XREC_ROUNDTRIP
360
C9A
  0
DICTIONARY
  5
C89
330
37
100
AcDbDictionary
280
     1
281
     1
  3
ACAD_XREC_ROUNDTRIP
360
C8A
  0
DICTIONARY
  5
C9B
330
40
100
AcDbDictionary
280
     1
281
     1
  3
ACAD_XREC_ROUNDTRIP
360
C9C
  0
DICTIONARY
  5
C81
330
33
100
AcDbDictionary
280
     1
281
     1
  3
ACAD_XREC_ROUNDTRIP
360
C82
  0
DICTIONARY
  5
C97
330
3E
100
AcDbDictionary
280
     1
281
     1
  3
ACAD_XREC_ROUNDTRIP
360
C98
  0
DICTIONARY
  5
C95
330
3D
100
AcDbDictionary
280
     1
281
     1
  3
ACAD_XREC_ROUNDTRIP
360
C96
  0
DICTIONARY
  5
C8F
330
3A
100
AcDbDictionary
280
     1
281
     1
  3
ACAD_XREC_ROUNDTRIP
360
C90
  0
DICTIONARY
  5
C91
330
3B
100
AcDbDictionary
280
     1
281
     1
  3
ACAD_XREC_ROUNDTRIP
360
C92
  0
DICTIONARY
  5
C87
330
36
100
AcDbDictionary
280
     1
281
     1
  3
ACAD_XREC_ROUNDTRIP
360
C88
  0
DICTIONARY
  5
C7B
330
30
100
AcDbDictionary
280
     1
281
     1
  3
ACAD_XREC_ROUNDTRIP
360
C7C
  0
DICTIONARY
  5
C93
330
3C
100
AcDbDictionary
280
     1
281
     1
  3
ACAD_XREC_ROUNDTRIP
360
C94
  0
XRECORD
  5
C6D
102
{ACAD_REACTORS
330
1A
102
}
330
1A
100
AcDbXrecord
280
     1
102
MATERIAL
148
0.0
149
0.0
149
0.0
 93
        0
 94
      127
282
     0
 72
     0
 77
     0
171
     0
175
     0
179
     0
273
     0
  0
XRECORD
  5
1C
102
{ACAD_REACTORS
330
1A
102
}
330
1A
100
AcDbXrecord
280
     1
270
     1
271
     1
  0
XRECORD
  5
1B
102
{ACAD_REACTORS
330
1A
102
}
330
1A
100
AcDbXrecord
280
     1
270
     1
271
     1
  0
XRECORD
  5
1F
102
{ACAD_REACTORS
330
1A
102
}
330
1A
100
AcDbXrecord
280
     1
270
     1
271
     1
  0
XRECORD
  5
1E
102
{ACAD_REACTORS
330
1A
102
}
330
1A
100
AcDbXrecord
280
     1
270
     1
271
     1
  0
XRECORD
  5
20
102
{ACAD_REACTORS
330
1A
102
}
330
1A
100
AcDbXrecord
280
     1
270
     1
271
     1
  0
XRECORD
  5
1D
102
{ACAD_REACTORS
330
1A
102
}
330
1A
100
AcDbXrecord
280
     1
270
     1
271
     1
  0
XRECORD
  5
C6C
102
{ACAD_REACTORS
330
12
102
}
330
12
100
AcDbXrecord
280
     1
102
MATERIAL
148
0.0
149
0.0
149
0.0
 93
        0
 94
      127
282
     0
 72
     0
 77
     0
171
     0
175
     0
179
     0
273
     0
  0
XRECORD
  5
14
102
{ACAD_REACTORS
330
12
102
}
330
12
100
AcDbXrecord
280
     1
270
     1
271
     1
  0
XRECORD
  5
13
102
{ACAD_REACTORS
330
12
102
}
330
12
100
AcDbXrecord
280
     1
270
     1
271
     1
  0
XRECORD
  5
109
102
{ACAD_REACTORS
330
12
102
}
330
12
100
AcDbXrecord
280
     1
 70
     1
 90
1959938040
 71
     1
  1
904E932E-12F9-4421-BA88-AFB3B4E716CA
311
504B03040A0000080000B096E8423DEE336E79000000790000001B0000006175746F6465736B2D64657369676E2D7061636B6167652E786D6C3C3F786D6C2076657273696F6E3D22312E302220656E636F64696E673D227574662D3822203F3E3C666F726D6174733E3C666F726D61743E687474703A2F2F736368656D612E
311
6175746F6465736B2E636F6D2F64657369676E2D7061636B6167652F323030393C2F666F726D61743E3C2F666F726D6174733E504B0304140006080800B096E842D486FD9CA0000000F4000000130000005B436F6E74656E745F54797065735D2E786D6C7D8EC10E82300C865F65E91D8A1E8C310C0EEA1BF002731658846E
311
D98AC1B77784ABF1D8FE5FBFBF75BBCE937A534CCEB38643598122B6FEE978D0B0485F9C41B54DDD7D022595594E1A469170414C76A4D9A4D207E29CF43ECE46F218070CC6BECC4078ACAA135ACF422C856C0E68EA1BF5669944DDD7BCDE7B1F8E415D77AECB980613C2E4AC91FC167A2B244592486606FC29C8FD7F045B9A
311
EF7053A7E60B504B0304140006080800B096E842A06B841EEB0000007C01000008000000636F72652E786D6C8D90416EC3201045AF82665B6183B153C7C2448DE29CA01740401C94182C03558F5F9C3852BBEB86197DFE9B197D7EF89EEEE8CB2CC17AD7032D0820E394D7D68D3DA478C12DA083E08BF7F1970D909393E961
311
9541F071F169DE24E55D342E66D5796D36518660222075CF4D0F415DCD240B996276845B314B7593A329E8ABCB704A56A3E712ABF33C7BB1660131B0766876C30EEFEA13C3754B8F787F6A9BFC9C8FD5BE66E7FAA3E1E50A0B1EEDF4DAAF1623A3D1202A421926EF98B49FB4ED1AD6B1EA8D341D23BC5CED7FA034EB7F42C9
311
BAC8AAEDDC271640D07CC8E343F072CD22974750B9AEB9891F504B0304140006080800B096E84255019EA25F0000007C00000007000000636E782E786D6C4DCB3B0E80201045D1AD90E915ED2CF8AC45050C11660C8261F98AB1B07AC9C97D42D718D865D3E909258CFD00CCE24AC6E326A164D74DC0B4128928FF32603847
311
2BA13128B1252AC747C6BAB984FC68F0B87FE8960A5C09FE86CFB69FBA01504B0304140006080800B096E8426C55348E66010000020300000C0000006662782F636F72652E786D6C8D52ED8E8230107C95A67F2F503E3D34A5E68CFA04F702B5548E082DE907F1F16FF9309E17630C49696676766707E8F6DAB56890C6365A
311
95380E238CA412BA6A545D62EFCE4181D19651A3B5FB538691E29D2CF10863466BA37DBF40422B27950354E94A2E20B7563A8C440B97125BF1233B1E72EFA0C25EC29E8B0BAF65188740431DA3D6193080E621E389D9F974A564C619F5BEA916B6A9605A736EA4C1EC9016877C755805AB6C9F065911EF82F5BEC8E138EE92
311
75961EB3AF9C9251CCA86BBA9B3B612477B2C22C89E234883E83A8F88E8B4D9E6ED2E423CA376944C958FE20F27DF5A6C837CAA5C962779659CC62303211FFB685881CB27C003F8451328608AF29E1C7A0211008D9F1537BDBE302D02085D32603A6D2FE4E0DBCF512A646687A289959E83C3580CD9EF6495EF479DD033E20
311
573558E30EAE27EFC6E9749EBA44D14B130CEE8A94361D6FEFE6668BF7F33EE8A95CE8569B77D46459952C6192F1EF65BF504B0304140006080800B096E842BD06857B7E0000009D0000000B0000006662782F636E782E786D6C4DCC4B0AC3201485E1ADC89DDB3C5A1F05356820FB088D0952A3C16AE9F29B940C3A3AF071
311
F845F7593D7ADBF4723148682E35201B1E7172619150F28C39A04E891463FEBB010AE36A251C0C4A2C2996EDA4C9CE63F17957EFC2F3C4AB619C72DD62DD70866FBD21580F84E1DEB49A127AE783A9A152A2FA95F63DC2EA0B504B0304140006080800B096E8420C0B66412C01000015020000310000006662782F33423738
311
363841322D413138372D344342352D414635372D4342324136353639384642302F636F72652E786D6C8D515B6EC32010BC0AE22B55651BFCA41126B223E504BD0031244589C1E251E5F885DA91DABFFCB068766676B44B0F8FF90EBEA575CAE81EE21C4120F56484D2D71E067FC908040746AD31FE0F0D02CD67D9C3044346
311
AFD684658326A3BDD43EA2DA08B981DC39E92198EEF1D343377DC999E73CF8C870B77CE1D38D5F658EF3D88E3C469DB731005887A417B26AEC484B86321B30E9B2FA3836D9706ABAEC389643DBB41FE434225AAC4246435062932B11E3A88B92F655932466D4ABF9197FB2927B29202B11AE32D465887C62B26FAA7D55BEA3
311
665FC5C989FE4F1416F1A22828EDAB728BBBCA1C6498166B835161C2F9FE0C231F8BB11EA4793B27A737C8508E10C1B8AD9B8A162B376E209AB6F566EABCB171C3BBDB39D271B33AB735A3453A522CBF178C351D94FD00504B0304140006080800B096E8428B1081D74F01000033030000300000006662782F334237383638
311
41322D413138372D344342352D414635372D4342324136353639384642302F636E782E786D6CD593CD6E022114855F85B06DE6CF516B0C8349177D822EBA65E05AA90C4CF869EADBF7A268DDB8E8B21B3239F770CECD1786EDBE2743BEC007EDEC40BBBAA504AC744ADB8F81A6B8AF3694EC38F3CEC53B1B25564C30D02C53
311
CE3EBC4B739114EC45321155A3EDB1881E824B5E424039DF24C6496130006C9550846904A540919B11BFF6E0711514C713890720AF2FEFC48D9F2063604D4EE1ACC91D9CE5B334DD992891468430D0200F30895AA4E8148463AD441475575FBB1EECF49B44F2856B65F29AE4F281E693F2B2518D1C598343CE42F448AF98E2
311
6906CAC53C1B2D4544C8CDD978F17096B48DEB65F16A04EFD1DDADFBE512C3CE33CEA29EA038A407114151BE68BBBE6A9FAB76F3D66DB6AB7EDB2F9EDAD5B66F5993ED9C8DCE99720963C0BB99486723D84879C79A3C7E84AFF888D21E593B7FFA034804505A2F746E19FF994F737EDF88CBE35FC07F00504B030414000608
311
0800B096E8422B90F60BA305000081100000340000006662782F33423738363841322D413138372D344342352D414635372D4342324136353639384642302F6F626A656374732E786D6CAD575B8F9B3814FE2B887DD97D4808493A9DAC18AA5C66AAA89DB66AD46A1F2245060CE31D73916D6632FBEBF73318026932CDAEFA
311
02D8D8C7E77CE73B177BEFF629B79EA8902CCF6E6C7738B22D9A8579C4B2E4C62E553CB8B6AD77BE27F25C7596D95646527A63EB69DBF712919785998A684C4AAE8E66EF167F5932A419B5AD9013296F6C193ED0940C49A9F288CAC76144141926F17EE80EEB857DB18920C5C391D082089A29688AF90C52AC5A29B73F1CD9
311
8EEF39FABFEFE9A7593539BFCAA9ECE99FCF32A94816FE70D89198893B5DDD8EDFCC066FA6D3C9607A3576078BBBC56AE0BE9D8C9657CBE56C7E3BC3C1520948329A081ADBFE7B602358E839F52FDF2B59A62663B3C438C811F489694FD9FED8723DA75ED35A678C3CA57E9867190D2BAC8046659F111DD18266117CCEA884
311
661D8446FDA1AB71ECFC9EE8B139B23B7D1902DD1D1D418DEECDBBAB691EFC0D13E4250C12926A06D6581A436BAE8E0E080779CECD3F26AD94282A18E116678120E2C5F6B1542FF1BD9E18CD64A1A3415B60FBF042FDBB4F1784D1CF797E4ACBB8E45CD3D8F6AB28D82156A8929566EC1F2A0EDA7791814EF09566C3B53148
311
BD14D4F6673545AE8FD8540369C59C247039CCD43B27E32343973A4ED72BDBFF7017EC373A764F1F5E88BCA04269FA805A8DE39AB746C9E8E45EE439BDC13E52E500CA5720FF09A17E50057E136C3FDD4FCD294A904CC6B948E11B6B640D46788C2CB77AEAEFCE97E7B49BFBDE3B87279CADA1FA0578F66DE8FAB203A7EF3D
311
81F0B99818D33621E1481BF72C03409A2416CF31853C1C077BDB5F23CB212B6317E1BE0B93A1EE133E3DC78841A2A84EEABC33607994162F48D080AD6224D4A8C96F143CF8E98774561D6C969D83F7CD2FA1EB7CB5F9B029454C427A6F627A45639631851277E04D57A11EE63D8B1EE9CB732E2218FA23DE9B2EDEA9394A02
311
6D8DB9063E6972BA1E1C4EEE1D10625F92EB74E3FDE40418A10B6B47FE3D9321E59C64342F9B735FAD1F281B35C43AD83593DB0273282C204DFDE7280651A443C10A0D625BADDAA4393C63DDB7F52730D2F6172F1FC94B377B0587DC1BE63C17BBE06557A7A593507FEF73DB60E06829A07B15244DFC1BD077118BE3522209
311
9EC0F5FB7AD9F59D4E0B48118DD43A5AA6B01FC14584216D2317D55A1054D23CDB31D44DC4DDC903BAF201A9614025F09CC692F278C7382FD35DCC38AAD12E25C51938FEBFFE4199163B92E665A6CEC8EEA98EEAD0D7BDC75EF94C54F860FB9BEA3D5820F746343A43065D4B4E60D573ED6C34BD9D4DC6B703777C371B4CA7
311
BA7F9A5F5F0FE6778BC9627AFBD6BD5ACE1B3FD59AF85E536ABA110D2FA1B479A560C67DDFD6881F93046CFF9E28B97D5F8767F3FEB61EA217F61CEC41BD6C37CEA327F47D34FAB980C3CA9382D669C1694A3345740CDDEB0FFE95A0CFE82953CFAF5392D00BA47C7EBF3932063317ECFBA2E39D3E1FED35B34B1D902785A8
311
87320D32C2F8D1C6A44672586489C1AFF149FBAE0B4D33D423E31874A632E72C421E8CAC84E62955C886171421915209EA757BFAC8DC3D2ED8FD5477888A049C369A3C1034C95C222C40AD3254FD79EB373475BAAFBAB1516E878F78984C615BE0CC8D8D265DB190CA618002AD5BA14A38B8D4EDE4D1F8932CE1E8B5EB4DED
311
B8DDA5B1E995E476C925FD93B1AB4EE1C600A491027D031A2278A752C6F72ADDCCFFF03F19DEA8631185CFA054AD2D8789D698EA1884686D94B92DA089793447EF11A8AF9BE50EAB353D442EBA65BD4A825AEA401191543705AD9F5169BEFAE2A043B1D69FAD8297097C79B9A481A02073A9031C2C022B8CCC82285075F9E7
311
F68BC871934DAD3B060A58BFEFAFAFFED82EF334CDB37A6A3B37F7616BF380DB6DB44572A0FA5A22B7E3913BDE56D7017343D90544D22189E42326E059C15AA07BEE072FEB3BA38B45C6FDC6138E76C51143D72BCB14B6E9617D37B76A70D07864D4420CE92BA58E98EE82E2D51B81532D85AA02BDBCFF2F504B0304140006
311
080000B096E842000000000000000000000000350000006662782F33423738363841322D413138372D344342352D414635372D4342324136353639384642302F76657274696365732E62696E504B0304140006080800B096E842F270F1330600000004000000360000006662782F33423738363841322D413138372D344342
311
352D414635372D4342324136353639384642302F747269616E676C65732E62696E636660600000504B0304140006080000B096E842000000000000000000000000370000006662782F33423738363841322D413138372D344342352D414635372D4342324136353639384642302F617474726962757465732E62696E504B03
311
04140006080800B096E842D5987DFC8F00000041010000360000006662782F33423738363841322D413138372D344342352D414635372D4342324136353639384642302F6469726563746F72792E786D6C858F410EC2201045AF4266AF15DDB800BA74E7C21B903225242D6328188F2FA5C4183471359997F9FF81E89FF3C4
311
1E1816475E02DF1F80A11FC8386F25A438EECEC07A250251FC3803E6F58C12560C4AD840E95E91C151A72936F496F35732D860FE635F62C8F2DA16B505C545B74125BAA2FA9E05D7CC053D063734D5C7665FD55B6B8D15D5E9BFEAFD8490FFA45E504B0304140006080800B096E842C881D92FFD000000A00100003B000000
311
6662782F33423738363841322D413138372D344342352D414635372D4342324136353639384642302F7265736F75726365732F636F72652E786D6C8D504B6E833010BD0A9A6D65C01852828CA3462127E8052C33A156828DFCA97AFC9A40A576D7CDCCE87D344F8F9FBEE647F689CE6B6B7AA07909191A65476DA61E62B891
311
16B293E0CEDAF04B06999133F6B0C220F8E46C5C76485913D084841A3BE20E4AEF3140A61EE9E8C1AB0F9C652E63480A7FCF17A9EE72C29CE6894E3AC17D702940B63D59270887DE46A7D0F36263058F518FBB468FE9A7BE69742006D60ECD6168C8A1BE3052B7F44C8E97B649E37AAE8E35BBD66F0D2F56B3E041CF3F1995
311
4319700451959491F29594ED3B6DBB8675AC7A299B8E95BC58E57F4C7119FF698ADA0456ED71379B07415390272178B1F695D6B3CCB4D76EC537504B010214000A0000080000B096E8423DEE336E79000000790000001B00000000000000000000000000000000006175746F6465736B2D64657369676E2D7061636B616765
311
2E786D6C504B01021400140006080800B096E842D486FD9CA0000000F40000001300000000000000000000000000B20000005B436F6E74656E745F54797065735D2E786D6C504B01021400140006080800B096E842A06B841EEB0000007C010000080000000000000000000000000083010000636F72652E786D6C504B0102
311
1400140006080800B096E84255019EA25F0000007C000000070000000000000000000000000094020000636E782E786D6C504B01021400140006080800B096E8426C55348E66010000020300000C00000000000000000000000000180300006662782F636F72652E786D6C504B01021400140006080800B096E842BD06857B
311
7E0000009D0000000B00000000000000000000000000A80400006662782F636E782E786D6C504B01021400140006080800B096E8420C0B66412C0100001502000031000000000000000000000000004F0500006662782F33423738363841322D413138372D344342352D414635372D4342324136353639384642302F636F72
311
652E786D6C504B01021400140006080800B096E8428B1081D74F010000330300003000000000000000000000000000CA0600006662782F33423738363841322D413138372D344342352D414635372D4342324136353639384642302F636E782E786D6C504B01021400140006080800B096E8422B90F60BA305000081100000
311
3400000000000000000000000000670800006662782F33423738363841322D413138372D344342352D414635372D4342324136353639384642302F6F626A656374732E786D6C504B01021400140006080000B096E84200000000000000000000000035000000000000000000000000005C0E00006662782F33423738363841
311
322D413138372D344342352D414635372D4342324136353639384642302F76657274696365732E62696E504B01021400140006080800B096E842F270F13306000000040000003600000000000000000000000000AF0E00006662782F33423738363841322D413138372D344342352D414635372D4342324136353639384642
311
302F747269616E676C65732E62696E504B01021400140006080000B096E8420000000000000000000000003700000000000000000000000000090F00006662782F33423738363841322D413138372D344342352D414635372D4342324136353639384642302F617474726962757465732E62696E504B010214001400060808
311
00B096E842D5987DFC8F0000004101000036000000000000000000000000005E0F00006662782F33423738363841322D413138372D344342352D414635372D4342324136353639384642302F6469726563746F72792E786D6C504B01021400140006080800B096E842C881D92FFD000000A00100003B000000000000000000
311
00000000411000006662782F33423738363841322D413138372D344342352D414635372D4342324136353639384642302F7265736F75726365732F636F72652E786D6C504B0506000000000E000E0080040000971100000000
310
504B03040A0000080000B096E8423DEE336E79000000790000001B0000006175746F6465736B2D64657369676E2D7061636B6167652E786D6C3C3F786D6C2076657273696F6E3D22312E302220656E636F64696E673D227574662D3822203F3E3C666F726D6174733E3C666F726D61743E687474703A2F2F736368656D612E
310
6175746F6465736B2E636F6D2F64657369676E2D7061636B6167652F323030393C2F666F726D61743E3C2F666F726D6174733E504B0304140006080800B096E842D486FD9CA0000000F4000000130000005B436F6E74656E745F54797065735D2E786D6C7D8EC10E82300C865F65E91D8A1E8C310C0EEA1BF002731658846E
310
D98AC1B77784ABF1D8FE5FBFBF75BBCE937A534CCEB38643598122B6FEE978D0B0485F9C41B54DDD7D022595594E1A469170414C76A4D9A4D207E29CF43ECE46F218070CC6BECC4078ACAA135ACF422C856C0E68EA1BF5669944DDD7BCDE7B1F8E415D77AECB980613C2E4AC91FC167A2B244592486606FC29C8FD7F045B9A
310
EF7053A7E60B504B0304140006080800B096E84206D5D864ED0000007C01000008000000636F72652E786D6C8D90416EC3201045AF82665BE180A913DBC244B1E39EA01740983828315806AA1EBF3871A476D7D58CFEFC3733FAFCF83DDDD1975EBC71B6019A1140DA2A37183B3610C30597808E822FCE855F3640564EBA81
310
5506C1C7C5C5799394B341DB9054EB06BD89D27B1D00A97B6A1AF0EAAA2799C91892C3DFB259AA9B1C75465F5D826334037A1E3143DA672E462F20CE7DFFD1EE0F3DAECEFB137E6F29C5A7AE6D7151958C143DE9FAAEE2BB15163C98E9755F2D5A063D80C80965981C30293F695917AC66F91B296A46F86EB5FF81E23CFC13
310
8AC606966FEF3E310F82A6471E03C1776B16A93C824A75CD4DFC00504B0304140006080800B096E84255019EA25F0000007C00000007000000636E782E786D6C4DCB3B0E80201045D1AD90E915ED2CF8AC45050C11660C8261F98AB1B07AC9C97D42D718D865D3E909258CFD00CCE24AC6E326A164D74DC0B4128928FF3260
310
38472BA13128B1252AC747C6BAB984FC68F0B87FE8960A5C09FE86CFB69FBA01504B0304140006080800B096E84211509D1669010000020300000C0000006662782F636F72652E786D6C8D525B6E833010BC8AE5DF0A6C20E425E32824F404BD80030E45011B191BE5F85D1E114D15451592B16676766707D8E1DED4A897A6
310
ABB44A70E0538CA4CA7551A932C1CE5EBD2D4607CE8CD6F65719464A3432C1038C392B8D76ED0CE55A59A92CA04A17720645D7498B515EC325C15DFE2D1BE10B67A1A2BBF9ADC86FA2947EE0030D759C75D68001340D194ECCAF973B2313CE99735531B35501D3AA6B250DE6E72CFB4CD79BCCDB9DD7476F950681773CA5A9
310
17EFB6118D337ACA4E3B46063167B66A1EEE7223859505E6210D228F6E3CBAFD0AB6FB38DA47E1078DF7116564287F12B9B6F8A7C855CA46E16C7792759807606424FE6C0B1159D4891EFC10CEC81022BCC6849F83864020642B2EF5638F1B40BDCCAD362B600AED16AA17B5933095A2F1616462A1F3D800367BD9277CD3E7
310
7D0FF8804295604D58B85E9C1DA6B369EA1C452B8DD7DB3B52DA34A25ECC4D16977319F4529EEB5A9BFFA8C9BC2A99C324C3DFCB7F00504B0304140006080800B096E842C2EA591B7E0000009D0000000B0000006662782F636E782E786D6C4DCCDF0A83201C86E15B91DFB9CBFEAC29A8210EEF239685CC349C8E5DFE6A74
310
B0A30F1E3E5E3E7C568FDE36BD5C0C02EA0B0164C3234E2E2C024A9E310534489E62CC7F3740615CAD808341F225C5B29D34D9792C3EEFEA5D789ED8E8BAD654336CAEBDC29D210453D3DC70DBA99EE97BAB355350495EFD4AFB1E61F905504B0304140006080800B096E842243D760E2C0100001502000031000000666278
310
2F32433131433843392D463536412D344630302D384632372D3334413639434433434339412F636F72652E786D6C8D515B6EC32010BC0AE22B55850DC6769C081345AE72825E801892A2C460F1A872FC42ED48ED5F7E58343B333BDA6587C77407DFCA796D4D0F4981215066B4529B6B0F63B8A00E820367CEDAF087068111
310
93EA618621675767E3BC42A3354199905063A55A41E1BD0A108CF7F4E9A11FBFD4240A114362F85B318BF126AEAA20456A271E673EB814002C43F20B7935103274C30E9D9AF688EA13C6A83B555B44EB63BB1B3EE830EC8EAC5C849CC5A8E52AD732C5D117ADDCAB2659CC59D0D333FEE894084A263D2614E12DC2DD27E9F6
310
0DDDD3EA1D377B8A5999E9FF4471962F8AA23681566BDC45E62127AC5C1A9C491BCFF76718F598AD0B20CFDB7835BE418E0B8CBB9A3455BB65E5C24D1B48A66DBD9AFA605DDAF0E6764E74BA3AB73567653E522ABF174C351F94FF00504B0304140006080800B096E842EDB74EC05601000033030000300000006662782F32
310
433131433843392D463536412D344630302D384632372D3334413639434433434339412F636E782E786D6CBD93CD6EC23010845FC5F2B5CA1F011A21C7483DF4097AE8D5B1177049ECC83F5579FBAEC1502E1C2A55BD58D1EC7866F5C961DBAF69249FE0BCB6A6A74D595302465AA5CDBEA731EC8A8E922D67CEDA7067A3C4
310
88097A9A64CAD9DED9386749C14EC431A03A6A73CCA2036FA393E0514E37C968A51831004C1151846900A540919B11BF76E07015148713090720AF2FEFC40E1F208367554AE1AC4A1D9CA53337DD992891A3F0BEA75E1E6012A588C12AF0C7528920CAA6BC763DD8E92789A40BD7CAE83449E53D4D27E579A31239B20A879C
310
F9E0905E3685D30C948B791EB51401215767E3C5C359D426AC97D9AB11BC4377BB58771D869D679C053D417648072280A27C51376D513F1775F7D6749B55BB69174FF56AD3D6AC4A76CE066BC77C0963C0D999486B02984079C3AA347E842FFB88D20E595B77FA054804905B2F746E197FC9A759B7CBE53FF2A9CEEF1B7139
310
FC0BF837504B0304140006080800B096E842DB6A78C3620700009A1B0000340000006662782F32433131433843392D463536412D344630302D384632372D3334413639434433434339412F6F626A656374732E786D6CED59DD73A33610FF5718FAD23E181BDBC9251D422771921BCF35D79BBA77D307CF3032C8448D108C24
310
92B87F7D571F602026C1BDF4AD0F3620A4D5EE6F3FB504BF3C67D479C45C909C5DB8BE37711DCCE23C212CBD704BB91D9DB9CE2F61C0F35C36A6B90E4319BE70D5B01B0629CFCBC20E25788B4A2A3BA3B7577F3A22C60CBB4E4C911017AE88EF71863C54CA3CC1E2C14B90445EBA7DF67CCF4C6C934D392AEE3B440BC43193
310
C0298C33A0E218A6FCF6E3C41D87C158BD0F03F56F67CD06CD9AF7CF1A6BA9DB5C12262462F10B963A646683589AF9F3EB9BE9C9F9E8643E9F8DE6A7537F74757B753DF23FCC268BD3C5E2FCF2E61CD8DBE439B53225B8C02C01FDEDDCD00FC6EA4D2DBA45E010D771CE188E3590009516AB4B9060015B35E09BB41F7D2551
310
E3B596B0F13C57EF2D0B8DE1599B4ADFAC6140B4E8822076BB4AE2EADA942FDFFC05828B2146C90596C0AD901CB46BE1E1E0156E3809C666340C367B5D10E16448624E107528D970C4412930554D0903B3C09251CEC18194A324D09A33AFDBB6059EF9B6EB1CE2725B52AA3CC30DB56345E07E580ACD19F91BF33DF74D6480
310
2790B6244C9E592EE5AEC06E781E8CF56018A8CB6C6A5F1A209D2D45A9D08898B71D4117CAF597D76EF8E976F3BC52E1E0F0E605CF0BCCA5323AA547CD1718B2BD2A94ECB6FE20CDA905208C01D5AEDC83F23B20FF19A2C79E15D01B27CFF3E7B99D2B3962629BF30C74E34C9CD104FE268EAFFFD57DE32E18D78BDBDAEBC3
310
13DC544175F6FD78B665D05859FE1B7086C123187CCE67F6D52A4614ECF98E300048198943731882D0BEDD3CBBE1120227047A588568E883C8C0EE23DC06634B66AF95CABDACD73140D4EE311BA224804D5B24B0D1A3A78F903D3889F76A6A8AD807EFC9BB98EBE5F5EAD3AAE45B14E33BEBD3D7784B189190350F33D4C2BC
310
25D103DE3DE53C01415FE2BD6AE29DD9AD04A0AD3057C0A71508EA61BF736B8318D6A5B90A37C11B3B80102A5737E8DF1111634A11C37959ED5B473765A8B5C7DB9AC10DA706E2D9B463C21C3F12555580D3EC67B41885BC1F73522810DDF0A391AC0E9A5E8F745F979FC122EBF93DB3960C422F43F40F1DB40EE0D0B2EC0A
310
690B442DF0661FCEE39CE63CDAEC2213E95CA825808DB6B77C6B1185586F94A4A8800769BFAB424A6AA48D12B2DD9602E2EA0116BF2D174D73987833FFC469FE779C710ED1167C1771EB779D3D2292A114475B94F46DD7DCADA62D34C91ED21C6F29C8451E89DC4548469304A7C7407314F1F377A59ED25C08C2B0807C7510
310
FC261A130F0289D166C5B2D26A076822A20C4B448F414091E90157A71D5DE3C6503ABCCD636DBDAF69AC49F43FB2088EA096CC5944A014851CF226E3BE770231A48DAE41B9832F585B455B8B414B2821E25DF484497A2F8F41DD90EFC13D86234929A3BC403198F500B22F7C4529B5C3FB06C50F2A7F447149DFCB4004A6DB
310
88505A6611FC088393C710D7AE03D3AB2834889BD8277106451992251FB2C9E9C9E4C53EA666E886C0C6465B42216C47192A7A506F05445D8F3835F8967A8F523765564428CB4B36C850BC59D79B2CF9AE5A15D981FCAA5211CAC68AB025180684C93AAB56311B4C5D075670231DA87691405941CD29EC8DC4E3D7DEA429F7
310
6EC0AD9FBEEF0619147E3DDA6B46D4790583E5B15518882724E37B375CE9EBE80AEAEF0427FB545FD59ACD0A10105391BCE4C4AAE8EB12CA1B5BA3B9E11D9262FDD164DDEAFA75E941F72318C31AA85DEA854B0574869944AA32B95337F4770421B845C38C2F554E3D86CA6592E8AA11D15BD2A7CE5619D1DA34235E718F59
310
9EC18FAD098B6999E0354AC443742769B4228A752BA597910AE35705FCEDE3AA030F8C0C10E98B2AF0F05367AD1D5DA872E92011795F661B860804C19668A9D18D57B0D46AA4D2727D55670AA8BBC0C0AC8AE7FF9F2C9AED88FF4F16A9358CEF3A595CED7E45BB665FA491CE6365D7471D03EAFCA4A8BCC73140B71D6AAA75
310
1631C9DCCA6F9D2982A05845F9C1D55815340CC13E8EFF75D6EECB8266BB0EFFC7656DFF45C5715456694D565DAA0395EBB299C3CE27F39BF3D9F466E44F6FCF47F3B96AD05E9E9D8D2E6FAF6657F39B0FFEE9E2B246533B6A18D4C14CE72E783641AD1A564F1603E8CA8A9C92044EF389936288F912CEF403DAE73CC30292
310
67B3D99DD8A6FC80D58FA6CF29D186E28A937B040D622A20AD0346652CDBE3CE0FD09A9470D0BE70A169E43DC09FB54AD781CC73E142AB4092180B6F036D26D5D0D3C421E5EADC6F89013E88A52A259A45F573BD4A61D30AFFF5942169C0CAD5EA6140E15640F7ABD5A1D0BC599EE2A304AFD8719084DB4D29A15A33B2EC07
310
6A61F4367BF51BD928610F76EB6770DDD7C5F23D3DA785C8A04F06AF1A81A13A9288A7BADFAD18B32C5D5E7F19439FCD59FEE614B44C4197C3298D3806632E5541055604566169164882A92E7E5E7FE1397CE2C91C5D15393F3E9F9DFEB45EE459963333B4BE845359021F8A9CD53D7CF649D6503C60D55C17EBE9C49FAE75
310
53DBF6D9A30D12D85355110C54C58412A4637260972F1A54B67D3956AAE84C5F5E3B36884233C0D8D18B1EAFF9C8E5800FA9CF29CA63B49F57D2BEDAD71EEBA960131C3AD2E13F504B0304140006080000B096E842000000000000000000000000350000006662782F32433131433843392D463536412D344630302D384632
310
372D3334413639434433434339412F76657274696365732E62696E504B0304140006080800B096E842F270F1330600000004000000360000006662782F32433131433843392D463536412D344630302D384632372D3334413639434433434339412F747269616E676C65732E62696E636660600000504B0304140006080000
310
B096E842000000000000000000000000370000006662782F32433131433843392D463536412D344630302D384632372D3334413639434433434339412F617474726962757465732E62696E504B0304140006080800B096E842D5987DFC8F00000041010000360000006662782F32433131433843392D463536412D34463030
310
2D384632372D3334413639434433434339412F6469726563746F72792E786D6C858F410EC2201045AF4266AF15DDB800BA74E7C21B903225242D6328188F2FA5C4183471359997F9FF81E89FF3C41E1816475E02DF1F80A11FC8386F25A438EECEC07A250251FC3803E6F58C12560C4AD840E95E91C151A72936F496F35732
310
D860FE635F62C8F2DA16B505C545B74125BAA2FA9E05D7CC053D063734D5C7665FD55B6B8D15D5E9BFEAFD8490FFA45E504B0304140006080800B096E842157EF6FCFF000000A00100003B0000006662782F32433131433843392D463536412D344630302D384632372D3334413639434433434339412F7265736F75726365
310
732F636F72652E786D6C8D504B6E833010BD0A9A6D65B0434920328E42A027E8052C33A156821DF953F5F835814AEDAE9B99D1FB689E1E3F7DCDF7EC139DD7D6B4C0720A191A65476DA61662B8921AB293E0CEDAF04B06999133B6B0C020F8E46C7C6C90B226A009093576C40D94DE63804CDDD3D182571F38CB5CC69014FE
310
963FA4BAC9097396273AE904F7C1A500D9FA6499201C7A1B9D42CF8B95153C463D6E1A3DA69FFAAAD181E887E1ADDB1F7AD2F4FB3379ED1823E74BD791AAA94B5A0DF4325C1A5E2C66C1839E7F322A8732E00862475949E881D0FA9DD5C7AA3C96BB175A1D4BCA8B45FEC7141FE33F4D519B50EEB6B8ABCD836029C89310BC
310
58FA4AEB5966DA4BB7E21B504B010214000A0000080000B096E8423DEE336E79000000790000001B00000000000000000000000000000000006175746F6465736B2D64657369676E2D7061636B6167652E786D6C504B01021400140006080800B096E842D486FD9CA0000000F40000001300000000000000000000000000B2
310
0000005B436F6E74656E745F54797065735D2E786D6C504B01021400140006080800B096E84206D5D864ED0000007C010000080000000000000000000000000083010000636F72652E786D6C504B01021400140006080800B096E84255019EA25F0000007C000000070000000000000000000000000096020000636E782E78
310
6D6C504B01021400140006080800B096E84211509D1669010000020300000C000000000000000000000000001A0300006662782F636F72652E786D6C504B01021400140006080800B096E842C2EA591B7E0000009D0000000B00000000000000000000000000AD0400006662782F636E782E786D6C504B0102140014000608
310
0800B096E842243D760E2C010000150200003100000000000000000000000000540500006662782F32433131433843392D463536412D344630302D384632372D3334413639434433434339412F636F72652E786D6C504B01021400140006080800B096E842EDB74EC056010000330300003000000000000000000000000000
310
CF0600006662782F32433131433843392D463536412D344630302D384632372D3334413639434433434339412F636E782E786D6C504B01021400140006080800B096E842DB6A78C3620700009A1B00003400000000000000000000000000730800006662782F32433131433843392D463536412D344630302D384632372D33
310
34413639434433434339412F6F626A656374732E786D6C504B01021400140006080000B096E8420000000000000000000000003500000000000000000000000000271000006662782F32433131433843392D463536412D344630302D384632372D3334413639434433434339412F76657274696365732E62696E504B010214
310
00140006080800B096E842F270F133060000000400000036000000000000000000000000007A1000006662782F32433131433843392D463536412D344630302D384632372D3334413639434433434339412F747269616E676C65732E62696E504B01021400140006080000B096E84200000000000000000000000037000000
310
00000000000000000000D41000006662782F32433131433843392D463536412D344630302D384632372D3334413639434433434339412F617474726962757465732E62696E504B01021400140006080800B096E842D5987DFC8F000000410100003600000000000000000000000000291100006662782F3243313143384339
310
2D463536412D344630302D384632372D3334413639434433434339412F6469726563746F72792E786D6C504B01021400140006080800B096E842157EF6FCFF000000A00100003B000000000000000000000000000C1200006662782F32433131433843392D463536412D344630302D384632372D3334413639434433434339
310
412F7265736F75726365732F636F72652E786D6C504B0506000000000E000E0080040000641300000000
  0
XRECORD
  5
17
102
{ACAD_REACTORS
330
12
102
}
330
12
100
AcDbXrecord
280
     1
270
     1
271
     1
  0
XRECORD
  5
16
102
{ACAD_REACTORS
330
12
102
}
330
12
100
AcDbXrecord
280
     1
270
     1
271
     1
  0
XRECORD
  5
18
102
{ACAD_REACTORS
330
12
102
}
330
12
100
AcDbXrecord
280
     1
270
     1
271
     1
  0
XRECORD
  5
15
102
{ACAD_REACTORS
330
12
102
}
330
12
100
AcDbXrecord
280
     1
270
     1
271
     1
  0
XRECORD
  5
C6E
102
{ACAD_REACTORS
330
22
102
}
330
22
100
AcDbXrecord
280
     1
102
MATERIAL
148
0.0
149
0.0
149
0.0
 93
        0
 94
      127
282
     0
 72
     0
 77
     0
171
     0
175
     0
179
     0
273
     0
  0
XRECORD
  5
24
102
{ACAD_REACTORS
330
22
102
}
330
22
100
AcDbXrecord
280
     1
270
     1
271
     1
  0
XRECORD
  5
23
102
{ACAD_REACTORS
330
22
102
}
330
22
100
AcDbXrecord
280
     1
270
     1
271
     1
  0
XRECORD
  5
BA
102
{ACAD_REACTORS
330
22
102
}
330
22
100
AcDbXrecord
280
     1
 70
     1
 90
1959938040
 71
     1
  1
EF0E5461-332B-4DAC-AD9F-DBD63D07EC5D
311
504B03040A0000080000AE96E8423DEE336E79000000790000001B0000006175746F6465736B2D64657369676E2D7061636B6167652E786D6C3C3F786D6C2076657273696F6E3D22312E302220656E636F64696E673D227574662D3822203F3E3C666F726D6174733E3C666F726D61743E687474703A2F2F736368656D612E
311
6175746F6465736B2E636F6D2F64657369676E2D7061636B6167652F323030393C2F666F726D61743E3C2F666F726D6174733E504B0304140006080800AE96E842D486FD9CA0000000F4000000130000005B436F6E74656E745F54797065735D2E786D6C7D8EC10E82300C865F65E91D8A1E8C310C0EEA1BF002731658846E
311
D98AC1B77784ABF1D8FE5FBFBF75BBCE937A534CCEB38643598122B6FEE978D0B0485F9C41B54DDD7D022595594E1A469170414C76A4D9A4D207E29CF43ECE46F218070CC6BECC4078ACAA135ACF422C856C0E68EA1BF5669944DDD7BCDE7B1F8E415D77AECB980613C2E4AC91FC167A2B244592486606FC29C8FD7F045B9A
311
EF7053A7E60B504B0304140006080800AE96E8422CE7F308EA0000007C01000008000000636F72652E786D6C8D90D16E842010457F85F0DAA020DAAA413656FB07FD0102AC4B760523D0F4F30BBB6ED2BEF5692677EE99995C76FA5E6FE04BEFDE383B40526008B4954E19BB0C3086336A213871B63B177ED920B062D503CC
311
32E46CD95DDC0E493A1BB40D49B54EE94314DEEB0081BCA566805E5EF42A0A114372F86BB10979158B2EC8B34B708C4681C711A3D23E73367A87BC1969354DAF23A2EDDCA11A930E8DEDF88E9A699CBBA69EEBFA83B032C39C05B33EEFCB5D8BA015E4152614E13784DB4FD2F60DEDABEE05373DC5ACCCF63F50DCD43FA168
311
6CA0D5F1EE03F390E747EE03CECA9C452AF7A052CDB9F11F504B0304140006080800AE96E84255019EA25F0000007C00000007000000636E782E786D6C4DCB3B0E80201045D1AD90E915ED2CF8AC45050C11660C8261F98AB1B07AC9C97D42D718D865D3E909258CFD00CCE24AC6E326A164D74DC0B4128928FF326038472B
311
A13128B1252AC747C6BAB984FC68F0B87FE8960A5C09FE86CFB69FBA01504B0304140006080800AE96E842CFB3646467010000020300000C0000006662782F636F72652E786D6C8D525B6E833010BC8AE5DFCA98670B91714493DEA01770C0A128602363A31CBFCB23A2A9A2284232D6CCCEEEEC00DB5FBB168DD20C8D5639
311
0E3C1F23A94A5D35AACEB1B3679262B4E7CC686DFF9461A44427733CC198B3DA68D7AF50A99595CA02AA742557500C83B418952D5C723C943FB2139E70162A868BD78BF2226AE9051ED050C7D9600D1840CB90E9C4FC7CBA32BAE09C39D7542BDB5430AD3937D2609E14517838BC17244A8F1989FD2023455A7C92E4501CB3
311
243EC6F157C0E824E6CC36DDCD5D69A4B0B2C23CF48388F81FC44FBF83749744BB307BF3935DE4333A95DF895C5FBD28728DB251B8DA5D6403E6939199F8B72D4464D12046F04339A35388F09A13BE0F1A028190AD38B5B73D2E008DB2B4DAC4C054DA6DD4285A2761AA8FE687D18585CE7303D8EC619FF0499FE73DE0030A
311
55833561E17A72769ACE96A96B14BD3464B457A4B4E944BB995B2C6EE736E8A1BCD4AD36AFA8E9BA2A5DC3A4D3DFCB7F01504B0304140006080800AE96E842A595C4967E0000009D0000000B0000006662782F636E782E786D6C4DCCDF0A83201C86E15B91DFB92BFBEB408D0DF53E6259C84C87E9D8E5AF46073BFAE0E1E3
311
65C36775E86DE26683E7402E2520E31F61B27EE190D38C29A041B01842FABB01F2E36A381C0C822D31E4D7499399C7ECD2AECEFAE789F4269B4EF61D26AD22B8B9B63DA65A13ACAB5A2952D2BB9215148215BFD2BE47587C01504B0304140006080800AE96E842CF0602822C01000015020000310000006662782F38414434
311
364437362D313545312D343935372D384646312D4632334545313038424544322F636F72652E786D6C8D515B6EC32010BC8AC557AACA36E017893051AB3827E8051C20094A0C168F2AC72FD48ED4FEE58745B333B3A35DBA7F4CF7EC5B5AA78CEE012A20C8A4E646287DE941F0E79C806CCFA835C6FFA1814C8F93EC418201
311
A3176BC2BC42DC682FB58FA83642AEE0E89CF420E3F7F8E981E357398DC5187C64B85B318FFC365E64818AD88E3C469DB73140B60C492F60E4E350B787AECD5133A0BCDE365D4E8E47941F71350C0892CFE18069B908190D418955AE448CA3CE4ADA574D929851AFA6677C6EE5E8A5000C4354E5B0CB21F94264D7543BBC7D
311
87CDAE82B44CF47FA2308B174541695FE135EE227380215A2E0D468509A7FB338C7CCCC6FA2CCDDB38C9DF0083058404775BDC46CDC28D1B88A66DBD9A3A6F6CDCF0E6768A74D42CCE6DCD68998E14CBEF05634D07653F504B0304140006080800AE96E842813FB9084F01000033030000300000006662782F384144343644
311
37362D313545312D343935372D384646312D4632334545313038424544322F636E782E786D6CD593CD6E022114855F85B06DE6CF516B0D8349177D822EBA45B82A9581093F4D7DFB5E14AD1B175D764326E71ECEB9F9C2B0CDF768C817F8A09D1D6857B79480954E69BB1F688ABB6A45C98633EF5CBCB35162C50803CD32E5
311
6CEF5D9A8AA460279289A81A6D8F45F4105CF21202CAF926314E0A830160AB84228C5B500A14B919F16B071E5741717B22F100E4EDF583B8ED27C818589353386B720767F92C4D77264AA411210C34C8038CA216293A05E1582B1145DDD5D7AE073BFD26917CE15A99BC26B97CA0F9A4BC6C542347D6E090B3103DD22BA678
311
9A8072314D464B11117273365E3C9C256DE3725EBC1AC17B7477CB7E3EC7B0F38CB3A847280EE941445094CFDAAEAFDAE7AA5DBD77ABF5A25FCF5E9EDAC5BA6F5993ED9C6D9D33E512C680771391CE46B091F28E3579FC085FF111A53DB276FEF4079008A0B45EE8DC32FE339FE6FCBE1197C7BF80FF00504B030414000608
311
0800AE96E84208F78E7EA505000080100000340000006662782F38414434364437362D313545312D343935372D384646312D4632334545313038424544322F6F626A656374732E786D6CAD57DB6EDB3810FD1541FBB2FBE08B6C274D168A0AC74E0AA3485BD468B10F060C4AA2146E285120A9C4D9AFDF43899225D74EBD8B
311
BE5816351CCE9C3973A1FF7E9771E7994AC5447EE37AC3B1EBD03C1231CBD31BB7D4C9E0CA75DE07BE144277C45C272719BD71CDB21BF8A914656197629A9092EB83D5FBDBBF1C15D19CBA4EC4895237AE8A1E694686A4D422A6EA6918134D8669B21B7AC35AB0AF3695A4783C505A1049730D4BB19E438B531BE5F55FC7EE
311
28F047E67BE09B5F2B353D2D35AAFCE99FCF72A5491EFD70D8819AA9375BDE4D2EAE0717B3D97430BB9C7883DBFBDBE5C07B371D2F2E178BEBF9DD350E565A4293B544D2C40D3E001BC9227F547F0AFC92E57A3AB122364023499F9989941B4C1CCF1FD532AD77D6C963E64722CF69546105342AFFACEA9816348F11734615
311
2CEB2034EEBF7A06C7CEE7A979B7477697CF43A0BBA3A3A8B1BD79762D15E1DF70419DC320A9A861608DA575B4E6EA788F702804B7DF987232A2A964843B9C8592C8573780A81109FC9E1AC36469B2C178E0068842FDB94F17A4D1CF797ECCCAA4E4DCD0D80DAA2CD82257A8569565EC1F2AF7D67791814D889561C3957548
311
BF16D40DAE6B8A5C1DB0A906D24938491172B869764E27078E2E4C9EAE966EF0F13EDCAD4DEE1E3FBC90A2A0521BFA805A4DE09AA741C9DAE49D1539B3C13D30650FCA5720FF09A9BE370571936C37DBCDEC295A925C254266888D33760663FC8C1DAFFA35FF3BFFFC51BBB91FBD537822D806AA5F8067DF876E2C3B7006FE
311
33082FE4D4BAB68E0847D978603900322471B8C012EA7012EEDC60852A87AA8C5D84071E5C86B9CFF8EB8FAC1A148AEAA4CE3307960765F18C020DD82A46C28C9AFCD6C07D9C7E2867D5C156EC14BC17BF84AEF3E5FAE3BA940989E883CDE9254D58CE345ADC9E375D837A98F73C7AA2AF2F42C670F447BCD75DBC337B9402
311
DA0673037CDAD474F3B23FB97740847DA930E5C6FFC90970C234D68EFE07A622CA39C9A9289B73DFEC1F681B35C426D90D93DB06B36F2C204DFDE52007D1A423C90A0362DBADDAA2393CE1DDB7D5273012F25C8484EF85C27DE98D0417721BBE6EEBAA7414E9EF7D6A5B0846460BD85EE54893FE16F36DCC92A454A8814760
311
FDBE5A744367AA022A44A3B54E9619DC476E116939DBE845B396048D54E45B86B689B43B7A40573F10B504A8149EB258519E6C19E765B64D184733DA66A43801C7FFB73F2CB3624B3251E6FA84EE9EE9680E7DDB7BE4552F44478F6EB0AE9E835B94DE98C6FB30F7844D2B3982552FB477F7E3BB8BD9A537984E27B783D972
311
BE18CC97D7F783E5EDF272BA1CBFBB5B5C2C9B38D5CA03BFE934DD844694D0D9FC52321BBE6F2BA48FAD016EF040B4DA7CA8B3B3797E5B0D310AFB23EC41BB6C37CEE3678C7D34FEB982BDE45145ABACE034A3B92626851ECC1FFE9560CCE81953AFAF3292D233B47CFEB03E70062B67ECFB62D29DBE1CECB5AB0B93904795
311
E8C7320B73C2F8C1C6B4467258E4A9C5AF8949FBACFB4CF36ADE6C6030982AC1598C32183B291519D5288667F420995105EA7547FAD85E3DCED8FD5C0F889A849C36963C12CCC85C212D40AD32D2FD75E737CC7466ACBA71D16D874FF8B195C275C0991B1733BA661155C310FDD94C42957270A93BC863EE2779CA316AD79B
311
DAF77697C1A6D7915B9173C627EB575DC1AD03282305C606CC43884E654CE057B6D9EFD17F72BC31C7211A7FC352B7BEEC175A67AA6390A2B553F6B28019E6C91EBD43A2BEED9637AC647A889C75C97A9304B5D6812632AD2E0AC63E6BD27CF9658401C5597D760A5EA688E5F99A069282CCA54970B008ACB03A0BA241D5C5
311
9F9B2F52E0229B39F70C14707EDF5D5DFEB159882C1379BDB499DBEBB0B37EC4E536DEA03850732B519BC9D89B6CAADB80BDA06C43A2E890C4EA090B88AC642DD0BDF08397F595117DA8FED0CA8D4C280E18BA5A3AB6B1CDA0D4D2A55B5B0D38983B72EA2087CC8DD2644C57A078F34230AA446182C4281FFC0B504B030414
311
0006080000AE96E842000000000000000000000000350000006662782F38414434364437362D313545312D343935372D384646312D4632334545313038424544322F76657274696365732E62696E504B0304140006080800AE96E842F270F1330600000004000000360000006662782F38414434364437362D313545312D34
311
3935372D384646312D4632334545313038424544322F747269616E676C65732E62696E636660600000504B0304140006080000AE96E842000000000000000000000000370000006662782F38414434364437362D313545312D343935372D384646312D4632334545313038424544322F617474726962757465732E62696E50
311
4B0304140006080800AE96E842D5987DFC8F00000041010000360000006662782F38414434364437362D313545312D343935372D384646312D4632334545313038424544322F6469726563746F72792E786D6C858F410EC2201045AF4266AF15DDB800BA74E7C21B903225242D6328188F2FA5C4183471359997F9FF81E89F
311
F3C41E1816475E02DF1F80A11FC8386F25A438EECEC07A250251FC3803E6F58C12560C4AD840E95E91C151A72936F496F35732D860FE635F62C8F2DA16B505C545B74125BAA2FA9E05D7CC053D063734D5C7665FD55B6B8D15D5E9BFEAFD8490FFA45E504B0304140006080800AE96E842912E90C9FD000000A00100003B00
311
00006662782F38414434364437362D313545312D343935372D384646312D4632334545313038424544322F7265736F75726365732F636F72652E786D6C8D50594EC33010BD4A34BFC8899D0592C871155A6EC0052C671AAC3676E505717CEC3648F0C7CFCCE82D9AA7C70F5FDBB5F844E7B53513B092428146D9459B758218
311
CEA487E220B8B336FC924161E486136418045F9D8DB71D52D6043421A1C62EB883D27B0C50A86B3A26F0EA033759CA1892C25FCA9B5417B962C9CA44279DE03EB814A0783CC91384436FA353E879F560058F512FBB462FE9A73E6B7420BAB9A98FC7E78134FD69202D650399FBF99574C7F93474EDA96DDF18AFB259F0A0B7
311
9F8CCAA10CB880A8296B087D21B47F67FDD835633D3CD16E6C28AFB2FC8F29DE967F9AA236A1A9F7B80F9B079183DC09C1ABDC575AF732D3CEDD8A6F504B010214000A0000080000AE96E8423DEE336E79000000790000001B00000000000000000000000000000000006175746F6465736B2D64657369676E2D7061636B61
311
67652E786D6C504B01021400140006080800AE96E842D486FD9CA0000000F40000001300000000000000000000000000B20000005B436F6E74656E745F54797065735D2E786D6C504B01021400140006080800AE96E8422CE7F308EA0000007C010000080000000000000000000000000083010000636F72652E786D6C504B
311
01021400140006080800AE96E84255019EA25F0000007C000000070000000000000000000000000093020000636E782E786D6C504B01021400140006080800AE96E842CFB3646467010000020300000C00000000000000000000000000170300006662782F636F72652E786D6C504B01021400140006080800AE96E842A595
311
C4967E0000009D0000000B00000000000000000000000000A80400006662782F636E782E786D6C504B01021400140006080800AE96E842CF0602822C0100001502000031000000000000000000000000004F0500006662782F38414434364437362D313545312D343935372D384646312D4632334545313038424544322F63
311
6F72652E786D6C504B01021400140006080800AE96E842813FB9084F010000330300003000000000000000000000000000CA0600006662782F38414434364437362D313545312D343935372D384646312D4632334545313038424544322F636E782E786D6C504B01021400140006080800AE96E84208F78E7EA50500008010
311
00003400000000000000000000000000670800006662782F38414434364437362D313545312D343935372D384646312D4632334545313038424544322F6F626A656374732E786D6C504B01021400140006080000AE96E84200000000000000000000000035000000000000000000000000005E0E00006662782F3841443436
311
4437362D313545312D343935372D384646312D4632334545313038424544322F76657274696365732E62696E504B01021400140006080800AE96E842F270F13306000000040000003600000000000000000000000000B10E00006662782F38414434364437362D313545312D343935372D384646312D463233454531303842
311
4544322F747269616E676C65732E62696E504B01021400140006080000AE96E84200000000000000000000000037000000000000000000000000000B0F00006662782F38414434364437362D313545312D343935372D384646312D4632334545313038424544322F617474726962757465732E62696E504B01021400140006
311
080800AE96E842D5987DFC8F000000410100003600000000000000000000000000600F00006662782F38414434364437362D313545312D343935372D384646312D4632334545313038424544322F6469726563746F72792E786D6C504B01021400140006080800AE96E842912E90C9FD000000A00100003B00000000000000
311
000000000000431000006662782F38414434364437362D313545312D343935372D384646312D4632334545313038424544322F7265736F75726365732F636F72652E786D6C504B0506000000000E000E0080040000991100000000
310
504B03040A0000080000AE96E8423DEE336E79000000790000001B0000006175746F6465736B2D64657369676E2D7061636B6167652E786D6C3C3F786D6C2076657273696F6E3D22312E302220656E636F64696E673D227574662D3822203F3E3C666F726D6174733E3C666F726D61743E687474703A2F2F736368656D612E
310
6175746F6465736B2E636F6D2F64657369676E2D7061636B6167652F323030393C2F666F726D61743E3C2F666F726D6174733E504B0304140006080800AE96E842D486FD9CA0000000F4000000130000005B436F6E74656E745F54797065735D2E786D6C7D8EC10E82300C865F65E91D8A1E8C310C0EEA1BF002731658846E
310
D98AC1B77784ABF1D8FE5FBFBF75BBCE937A534CCEB38643598122B6FEE978D0B0485F9C41B54DDD7D022595594E1A469170414C76A4D9A4D207E29CF43ECE46F218070CC6BECC4078ACAA135ACF422C856C0E68EA1BF5669944DDD7BCDE7B1F8E415D77AECB980613C2E4AC91FC167A2B244592486606FC29C8FD7F045B9A
310
EF7053A7E60B504B0304140006080800AE96E842C7580EAEEB0000007C01000008000000636F72652E786D6C8D90416EC3201045AF82665B61839DC8D8C2448A939EA01740405C94182C03558E1F9C3852BBEB6A467FFE9B197D7EB84F37F4639660BDEB8116049071CA6BEBC61E52BC6006E820F8E27DFC6503E4E4647A58
310
65107C5C7C9A374979178D8B59755E9B4D9421980848DD72D34350DF6692854C313BC2B598A5BACAD114F4DD653825ABD1EB88D5799FBD58B38038D381B52D6BF0AE3DD77837B001B7474A7033349FE4C458458F275EAEB0E0D14EEFFB6A31321A0DA222B4C6A4C1847D51D6EDEBAE6A3FC8BEAB092F57FB1F28CDFA9F50B2
310
2ED6D5F6EE0B0B20687EE43910BC5CB3C8E51954AE6B6EE201504B0304140006080800AE96E84255019EA25F0000007C00000007000000636E782E786D6C4DCB3B0E80201045D1AD90E915ED2CF8AC45050C11660C8261F98AB1B07AC9C97D42D718D865D3E909258CFD00CCE24AC6E326A164D74DC0B4128928FF32603847
310
2BA13128B1252AC747C6BAB984FC68F0B87FE8960A5C09FE86CFB69FBA01504B0304140006080800AE96E8422B961A1E67010000020300000C0000006662782F636F72652E786D6C8D52ED8A8330107C9590BF474CD416B5C4146A7B4F702F906AEA49359198481FFFD68FD2EB51CA21C430B3B33B3BCAF7B7AE45A3B24363
310
748EC38061A47469AA46D739F6EE42528CF6825B63DCAF328CB4EC548E27180B5E5BE3FB152A8D764A3B40B5A9D40ACA61500EA3B2854B8E87F25B753290DE41C5700D7A595E65AD8230001AEA041F9C05036819329D585CCE374E175C70EF9B6A659B0AA6359746592C4E619166599A904D768AC9A6480B921D42469222F9
310
64C7348DC2C391D3492CB86BBABBBBD22AE9548545C4C298B084B0F42B4C77DB7817651F6CBB8B19A753F993C8F7D53F45BED12E8E56BB8B6CC022042333F1675B88C8A1418EE0870A4EA710E13527FC1C340402213B796EEF7B5C011A55E98CDD005319FFA046D97A0553199A1F4E17163ACF0D60B3977DA2377DDEF7800F
310
28750DD6A483EBD9BB693A5FA6AE51F4CA92D1DD9036B693EDC3DC62F1713E06BD9497A635F63F6ABAAE4AD730E9F4F78A1F504B0304140006080800AE96E842C9378A047D0000009D0000000B0000006662782F636E782E786D6C4DCCD10A83201886E15B91FFDC65A269A0C6C25D482C0B99E9703A76F9ABD1C18E3E78F8
310
78D5F0D9027ABBFCF2296A682F04908BF734FBB86AA865C112D060544EA9FCDD00C569731A0E06A3D69CEAF3A4D92D530D65D7E0E3E344D677965B2A30A53DC7ACE3028FFCCAB0905612226F634B5B688C6A7EA57D8FB0F902504B0304140006080800AE96E84207D17F062B01000015020000310000006662782F34393644
310
354432372D323239352D343635372D423541342D3738443830303845423132312F636F72652E786D6C8D515B6EC32010BC0AE22B55858D1FD824C2448DD21BF4020E26094A0C168F2AC7EFBA76A4F62F3F80666766875DB17F8C77F4AD7D30CE76B8C82846DA2A37187BE9708A67C231DA4BE19D8B7F6818D97ED41D9E612C
310
C5C5BB34AD9072366A1B01B56ED02BD887A02346EA0E8F0E0775D5639FF5290223DCB2A957B7FEA2B3228332F0A408D14300B434994F2CEB6D7364C7B22565B965A46E584B0EECA3262D3F724AF9E7A1280B912F42295232C32A3703C43167A3FDAB26B3588A68C6677CE5751FF58065498B8AD09650FE55F01DAB76E5F69D
310
B25D45453ED3FF89D234BC284AC6C6AA5CE32EB28025FC66294831B874BA3FC3E8C7E47C4473BF4DD0EA0D4B9AC10038AF19E7225FB83001306DEAD53444E761C29BDB09E8D5EADCD452E4F392E0FADD20DCF342E50F504B0304140006080800AE96E842E798761F5701000033030000300000006662782F34393644354432
310
372D323239352D343635372D423541342D3738443830303845423132312F636E782E786D6CBD93CD6EC32010845F0571ADFC1727A91B6122F5D027E8A1570C9B84068305B86ADEBE4B42D25C7AA854F582ACD96166F509B3EDE768C807F8A09DED6953D69480954E69BBEFE91C774547C99633EF5CBCB35162C5083D4D32E5
310
6CEFDD3C6549C14ECC26A26AB43D66D14370B39710504E37897152180C005BCC28C2388052A0C8CD885F3BF0B80A8AC389C4039097E737E286779031B02AA57056A50ECED2999BEE4C94482342E8699007184529E6E8148463A9441465535EBB7ED8E93B89A40BD7CAD96B92CA7B9A4ECAF346257264150E390BD123BD6C8A
310
A7092817D364B41411215767E3C5C3D9AC6D5C2FB35723788FEE76B1EE3A0C3BCF388B7A84EC901E440445F9A26EDAA27E2CEAEEB5E936AB76B3787AA8579BB66655B273363867F2258C01EF26229D8D6023E50DABD2F8277CD94794F6C8DAF9D32F402280DC7AA173CBF84B3ECDBA5D2EFF914F757EDF88CBE35FC0BF0050
310
4B0304140006080800AE96E842FEDD271162070000991B0000340000006662782F34393644354432372D323239352D343635372D423541342D3738443830303845423132312F6F626A656374732E786D6CED595B73A33614FE2B0C7D691F8C4DEC64930EA193D849C6B393DD9D7577A70F9E616490891A211849E4D25FDFA3
310
0B18884970377DDB071B10D2D139DFB9EA10FCF19451E70173417276EEFADEC475308BF384B0F4DC2DE57674EA3A7F8401CF73D998E63A0C65F8DC55C36E18A43C2F0B3B94E02D2AA9EC8C5E5FFEE5881833EC3A3145429CBB22BEC319F25029F3048B7B2F411279E9F6C9F33D33B14D36E5A8B8EB102D10C74C02A730CE80
310
8A6398F2DB8F13771C0663F53E0CD4BF9D351D346BD63F6BACA56E7349989088C52F58EA90990E6269EACF165747C767A3E3D96C3A9A9D1CF9A3CBEBCBC5C8FF309DCC4FE6F3B38BAB33606F93E7D4CA94E002B304F4F7EC867E30566F6AD12D02FBB88E73C670AC8104A8B4585D82040BD8AA01DFA4FDE82B891AAFB5848D
310
E7997A6F59680C4FDB54FA660D03A2451704B1DB551257D7A67CF9E66F105C0C314A2EB0046E85E4A05D0B0F07AF70C3493036A361B0D9E982082743127382A843C986230E4A81A96A4A189805968C720E0EA41C2581D69C79DDB62DF0CCB75D671F97DB9252E5196EA81D2B02F7C35268CEC83F98EFB86F22033C81B42561
310
F2D472299F0BEC8667C1580F8681BA4C8FEC4B03A4B3A528151A11F3B623E85CB9FE72E1861FAF374F2B150EF66F5EF0BCC05C2AA3537AD47C8121DBAB42C96EEB0FD29C5A00C21850EDCA1D285F01F94F103D76AC80DE38799A3DCDEC5CC91113DB9C67A01B67E28C26F037717CFDAFEE1B77C1B85EDCD65E1F9EE0A60AAA
310
D31FC7B32D83C6CAF2DF80330C1EC0E0733EB5AF5631A260CFB7840140CA481C9AC31084F6EDE6C90D97103821D0C32A44431F4406761FE036185B323BAD54EE65BD8E01A2768FE91025016CDA22818D1E3DDD40F6E024DEA9A929621FBCC7EF62AE178BD5C755C9B728C6B7D6A717784B18919035F733D4C2BC25D13D7E7E
310
CC790282BEC47BD5C43BB35B09405B61AE804F2B10D4C36EE7D60631AC4B73156E823776002154AE6ED0BF2522C6942286F3B2DAB78E6ECA506B8FB735831B1E1988A7471D13E6F881A8AA029C6637A3C528E4FD98934281E8863746B23A687A3DD27D5B7E028BACE7F7CC5A3208BD0CD13F75D0DA8343CBB22BA42D10B5C0
310
9B5D388F739AF368F31C9948E7422D016CB4BDE57B8B28C47AA32445053C48FB5D155252236D9490EDB6141057F7B0F87D396F9AC3C49BFAC74EF3BFE38C3388B6E0BB885BBFEBEC11910CA538DAA2A46FBBE66E356DA149F690E6784B412EF240E47384643449707A083407113F7B57EA29CD85200C0BC8577BC16FA231F1
310
2090186D562C2BAD76802622CAB044F4100414991E7075DAD1356E0CA5C3DB3CD6D6FB9AC69A44FF278BE0086AC99C45044A51C8216F32EE7BC71043DAE81A943BF882B555B4B518B48412227E8E1E3149EFE421A81BF23DB8C77024296594172806B31E40F685AF28A57678DFA0F85EE58F282EE97B1988C0741B114ACB2C
310
821F6170F218E2DA75607A1585067113FB24CEA02843B2E4433639399EBCD8C7D40CDD10D8D8684B2884ED2843450FEAAD80A8EB11A706DF52EF51EAA6CC8A086579C906198A37ED7A9325DF55AB223B905F552A42D95811B604C380305967D52A6683A9EBC00A6EA403D57324505650730A7B23F1F8B53769CABD1B70EBA7
310
EFBB4106855F8FF69A117556C160796C1506E211C9F8CE0D57FA3ABA84FA3BC1C92ED557B566B30204C454242F39B12AFAB684F2C6D6686E788BA458DF98AC5B5DBF2D3DE87E04635803B54BBD70A980CE3093485526B7EA867E4510825B34CCF852E5D443A85C2489AE1A11BD267DEA6C9511AD4D33E2157798E519FCD89A
310
B09896095EA344DC47B792462BA258B7527A19A9307E55C0CF37AB0E3C303240A42FAAC0C38F9DB57674AECAA5BD44E45D996D182210045BA2A546375EC152AB914ACBF5559D29A0EE0203B32A9EFD3C5934DB113F4F16A9358C1F3B59D07C83E82EDA34B279ACCCFAA053409D9E1495F73805E8AE434DB54E2226975BF1AD
310
2F451013AB203FB818AB628621D8C7F17F4EDA7D49D06CD7E1FFB0A4EDBF28380E4A2AADC9AA49B5A7705D3653D8D5F5E4EA7876E28FA6D3A3CBD16C71311F5D2CCEAE478BCBC5C97431F970353F5ED4686A3F0D833A96E9D405CF26A655C3EAC962004D59915392C0613E71520C215FC2917E40F79C675840EE6CF6BA13DB
310
931FB0FAC1B43925DA505C717287A03F4C056475C0A88C657BDCF9053A9312CED9E72EF48CBC7BF8B356E93A9078CE5DE814481263E16DA0CBA4FA799A38645C9DFA2D31C007B1546544B3A87EAE57296C5AD1BF9E32240B58B95A2D0CA8DB0A687EB51A149A37CB537C90E0153B0E9270BB2925146B4696DD402D8CDE66A7
310
7E231B25ECDE6EFD04AEFBBA58BEA7E7B41019F4C5E0552330544712F154B7BB156396A58BC59731B4D99CE567A7A0650ABA1C4E69C4311873A9EA29B022B00A4BB340124C75FEFBFA0BCFE10B4FE6E8A2C8F9F5E9F4E4B7F53CCFB29C99A1F5051CCA12F84EE4ACEEE0AB4FB286DA01ABDEBA581F4DFCA3B5EE69DB367BB4
310
41027BAA288281AA965082744C0EECF2457FCA762FC74A159DE9CB85638328F4028C1DBD68F19A6F5C0EF890FA9AA23C46FB7925EDAB6DEDB19E0A36C1A1211DFE0B504B0304140006080000AE96E842000000000000000000000000350000006662782F34393644354432372D323239352D343635372D423541342D373844
310
3830303845423132312F76657274696365732E62696E504B0304140006080800AE96E842F270F1330600000004000000360000006662782F34393644354432372D323239352D343635372D423541342D3738443830303845423132312F747269616E676C65732E62696E636660600000504B0304140006080000AE96E84200
310
0000000000000000000000370000006662782F34393644354432372D323239352D343635372D423541342D3738443830303845423132312F617474726962757465732E62696E504B0304140006080800AE96E842D5987DFC8F00000041010000360000006662782F34393644354432372D323239352D343635372D42354134
310
2D3738443830303845423132312F6469726563746F72792E786D6C858F410EC2201045AF4266AF15DDB800BA74E7C21B903225242D6328188F2FA5C4183471359997F9FF81E89FF3C41E1816475E02DF1F80A11FC8386F25A438EECEC07A250251FC3803E6F58C12560C4AD840E95E91C151A72936F496F35732D860FE635F
310
62C8F2DA16B505C545B74125BAA2FA9E05D7CC053D063734D5C7665FD55B6B8D15D5E9BFEAFD8490FFA45E504B0304140006080800AE96E842D4F32036FE000000A00100003B0000006662782F34393644354432372D323239352D343635372D423541342D3738443830303845423132312F7265736F75726365732F636F72
310
652E786D6C8D504B6E833010BD0A9A6D65B0212926328E14929EA017B0CC845A0976E44FD5E3D7042AB5BB6E6646EFA3797AE2F835DF8B4FF4C138DB032B291468B51B8D9D7A48F14A38144729BC73F1970C0AAB66EC6181418AC9BBF4D820ED6C441B336ADD881BA842C00885BEE7A387A03F7056A54A312BC2AD7C287D53
310
1396ACCC74D64911A2CF018AF5C932417A0C2E798D41542B2B454A66DC3466CC3FCDD5A007796103EF3AFE4A76DDA521BB810FA43B314ADAA17DA367CE6B763A8B6A314B11CDFC93517B5411479035650DA12DA1FC9DF1C3BE39D4DD0BDD1F1A2AAA45FEC7941EE33F4DC9D8D8D45BDCD51640B21CE44948512D7DE5F52C33
310
EFA55BF90D504B010214000A0000080000AE96E8423DEE336E79000000790000001B00000000000000000000000000000000006175746F6465736B2D64657369676E2D7061636B6167652E786D6C504B01021400140006080800AE96E842D486FD9CA0000000F40000001300000000000000000000000000B20000005B436F
310
6E74656E745F54797065735D2E786D6C504B01021400140006080800AE96E842C7580EAEEB0000007C010000080000000000000000000000000083010000636F72652E786D6C504B01021400140006080800AE96E84255019EA25F0000007C000000070000000000000000000000000094020000636E782E786D6C504B0102
310
1400140006080800AE96E8422B961A1E67010000020300000C00000000000000000000000000180300006662782F636F72652E786D6C504B01021400140006080800AE96E842C9378A047D0000009D0000000B00000000000000000000000000A90400006662782F636E782E786D6C504B01021400140006080800AE96E842
310
07D17F062B0100001502000031000000000000000000000000004F0500006662782F34393644354432372D323239352D343635372D423541342D3738443830303845423132312F636F72652E786D6C504B01021400140006080800AE96E842E798761F57010000330300003000000000000000000000000000C90600006662
310
782F34393644354432372D323239352D343635372D423541342D3738443830303845423132312F636E782E786D6C504B01021400140006080800AE96E842FEDD271162070000991B000034000000000000000000000000006E0800006662782F34393644354432372D323239352D343635372D423541342D37384438303038
310
45423132312F6F626A656374732E786D6C504B01021400140006080000AE96E8420000000000000000000000003500000000000000000000000000221000006662782F34393644354432372D323239352D343635372D423541342D3738443830303845423132312F76657274696365732E62696E504B010214001400060808
310
00AE96E842F270F13306000000040000003600000000000000000000000000751000006662782F34393644354432372D323239352D343635372D423541342D3738443830303845423132312F747269616E676C65732E62696E504B01021400140006080000AE96E84200000000000000000000000037000000000000000000
310
00000000CF1000006662782F34393644354432372D323239352D343635372D423541342D3738443830303845423132312F617474726962757465732E62696E504B01021400140006080800AE96E842D5987DFC8F000000410100003600000000000000000000000000241100006662782F34393644354432372D323239352D
310
343635372D423541342D3738443830303845423132312F6469726563746F72792E786D6C504B01021400140006080800AE96E842D4F32036FE000000A00100003B00000000000000000000000000071200006662782F34393644354432372D323239352D343635372D423541342D3738443830303845423132312F7265736F
310
75726365732F636F72652E786D6C504B0506000000000E000E00800400005E1300000000
  0
XRECORD
  5
27
102
{ACAD_REACTORS
330
22
102
}
330
22
100
AcDbXrecord
280
     1
270
     1
271
     1
  0
XRECORD
  5
26
102
{ACAD_REACTORS
330
22
102
}
330
22
100
AcDbXrecord
280
     1
270
     1
271
     1
  0
XRECORD
  5
28
102
{ACAD_REACTORS
330
22
102
}
330
22
100
AcDbXrecord
280
     1
270
     1
271
     1
  0
XRECORD
  5
25
102
{ACAD_REACTORS
330
22
102
}
330
22
100
AcDbXrecord
280
     1
270
     1
271
     1
  0
XRECORD
  5
C68
102
{ACAD_REACTORS
330
C67
102
}
330
C67
100
AcDbXrecord
280
     1
102
ACAD_ROUNDTRIP_2012_MLEADER_STYLE
298
     1
  0
CELLSTYLEMAP
  5
C66
102
{ACAD_REACTORS
330
C65
102
}
330
C65
100
AcDbCellStyleMap
 90
        3
300
CELLSTYLE
  1
TABLEFORMAT_BEGIN
 90
        5
170
     1
 91
        0
 92
    32768
 62
   257
 93
        1
300
CONTENTFORMAT
  1
CONTENTFORMAT_BEGIN
 90
        0
 91
        0
 92
      512
 93
        0
300

 40
0.0
140
1.0
 94
        5
 62
     0
340
55
144
0.25
309
CONTENTFORMAT_END
171
     0
 94
        0
309
TABLEFORMAT_END
  1
CELLSTYLE_BEGIN
 90
        1
 91
        1
300
_TITLE
309
CELLSTYLE_END
300
CELLSTYLE
  1
TABLEFORMAT_BEGIN
 90
        5
170
     1
 91
        0
 92
        0
 62
   257
 93
        1
300
CONTENTFORMAT
  1
CONTENTFORMAT_BEGIN
 90
        0
 91
        0
 92
      512
 93
        0
300

 40
0.0
140
1.0
 94
        5
 62
     0
340
55
144
0.18
309
CONTENTFORMAT_END
171
     0
 94
        0
309
TABLEFORMAT_END
  1
CELLSTYLE_BEGIN
 90
        2
 91
        1
300
_HEADER
309
CELLSTYLE_END
300
CELLSTYLE
  1
TABLEFORMAT_BEGIN
 90
        5
170
     1
 91
        0
 92
        0
 62
   257
 93
        1
300
CONTENTFORMAT
  1
CONTENTFORMAT_BEGIN
 90
        0
 91
        0
 92
      512
 93
        0
300

 40
0.0
140
1.0
 94
        2
 62
     0
340
55
144
0.18
309
CONTENTFORMAT_END
171
     0
 94
        0
309
TABLEFORMAT_END
  1
CELLSTYLE_BEGIN
 90
        3
 91
        2
300
_DATA
309
CELLSTYLE_END
  0
XRECORD
  5
C9F
102
{ACAD_REACTORS
330
C65
102
}
330
C65
100
AcDbXrecord
280
     1
102
ACAD_ROUNDTRIP_PRE2007_TABLESTYLE
 90
      512
 91
        0
  1

 92
      512
 93
        0
  2

 94
      512
 95
        0
  3

  0
XRECORD
  5
C7A
102
{ACAD_REACTORS
330
C79
102
}
330
C79
100
AcDbXrecord
280
     1
102
RTVSPropertyOp0
 70
     1
102
RTVSPropertyOp1
 70
     1
102
RTVSPropertyOp2
 70
     1
102
RTVSPropertyOp3
 70
     1
102
RTVSPropertyOp4
 70
     1
102
RTVSPropertyOp5
 70
     1
102
RTVSPropertyOp6
 70
     1
102
RTVSPropertyOp7
 70
     1
102
RTVSPropertyOp8
 70
     1
102
RTVSPropertyOp9
 70
     1
102
RTVSPropertyOp10
 70
     1
102
RTVSPropertyOp11
 70
     1
102
RTVSPropertyOp12
 70
     1
102
RTVSPropertyOp13
 70
     1
102
RTVSPropertyOp14
 70
     1
102
RTVSPropertyOp15
 70
     1
102
RTVSPropertyOp16
 70
     1
102
RTVSPropertyOp17
 70
     1
102
RTVSPropertyOp18
 70
     1
102
RTVSPropertyOp19
 70
     1
102
RTVSPropertyOp20
 70
     1
102
RTVSPropertyOp21
 70
     1
102
RTVSPropertyOp22
 70
     1
102
RTVSPropertyOp23
 70
     1
102
RTVSPropertyOp24
 70
     1
102
RTVSPropertyOp25
 70
     1
102
RTVSPropertyOp26
 70
     1
102
RTVSPropertyOp27
 70
     1
102
RTVSPropertyOp28
 70
     1
102
RTVSPropertyOp29
 70
     1
102
RTVSPropertyOp30
 70
     1
102
RTVSPropertyOp31
 70
     1
102
RTVSPropertyOp32
 70
     1
  0
XRECORD
  5
C78
102
{ACAD_REACTORS
330
C77
102
}
330
C77
100
AcDbXrecord
280
     1
102
RTVSPropertyOp0
 70
     1
102
RTVSPropertyOp1
 70
     1
102
RTVSPropertyOp2
 70
     1
102
RTVSPropertyOp3
 70
     1
102
RTVSPropertyOp4
 70
     1
102
RTVSPropertyOp5
 70
     1
102
RTVSPropertyOp6
 70
     1
102
RTVSPropertyOp7
 70
     1
102
RTVSPropertyOp8
 70
     1
102
RTVSPropertyOp9
 70
     1
102
RTVSPropertyOp10
 70
     1
102
RTVSPropertyOp11
 70
     1
102
RTVSPropertyOp12
 70
     1
102
RTVSPropertyOp13
 70
     1
102
RTVSPropertyOp14
 70
     1
102
RTVSPropertyOp15
 70
     1
102
RTVSPropertyOp16
 70
     1
102
RTVSPropertyOp17
 70
     1
102
RTVSPropertyOp18
 70
     1
102
RTVSPropertyOp19
 70
     1
102
RTVSPropertyOp20
 70
     1
102
RTVSPropertyOp21
 70
     1
102
RTVSPropertyOp22
 70
     1
102
RTVSPropertyOp23
 70
     1
102
RTVSPropertyOp24
 70
     1
102
RTVSPropertyOp25
 70
     1
102
RTVSPropertyOp26
 70
     1
102
RTVSPropertyOp27
 70
     1
102
RTVSPropertyOp28
 70
     1
102
RTVSPropertyOp29
 70
     1
102
RTVSPropertyOp30
 70
     1
102
RTVSPropertyOp31
 70
     1
102
RTVSPropertyOp32
 70
     1
  0
XRECORD
  5
C86
102
{ACAD_REACTORS
330
C85
102
}
330
C85
100
AcDbXrecord
280
     1
102
RTVSPropertyOp0
 70
     1
102
RTVSPropertyOp1
 70
     1
102
RTVSPropertyOp2
 70
     1
102
RTVSPropertyOp3
 70
     1
102
RTVSPropertyOp4
 70
     1
102
RTVSPropertyOp5
 70
     1
102
RTVSPropertyOp6
 70
     1
102
RTVSPropertyOp7
 70
     1
102
RTVSPropertyOp8
 70
     1
102
RTVSPropertyOp9
 70
     1
102
RTVSPropertyOp10
 70
     1
102
RTVSPropertyOp11
 70
     1
102
RTVSPropertyOp12
 70
     1
102
RTVSPropertyOp13
 70
     1
102
RTVSPropertyOp14
 70
     1
102
RTVSPropertyOp15
 70
     1
102
RTVSPropertyOp16
 70
     1
102
RTVSPropertyOp17
 70
     1
102
RTVSPropertyOp18
 70
     1
102
RTVSPropertyOp19
 70
     1
102
RTVSPropertyOp20
 70
     1
102
RTVSPropertyOp21
 70
     1
102
RTVSPropertyOp22
 70
     1
102
RTVSPropertyOp23
 70
     1
102
RTVSPropertyOp24
 70
     1
102
RTVSPropertyOp25
 70
     1
102
RTVSPropertyOp26
 70
     1
102
RTVSPropertyOp27
 70
     1
102
RTVSPropertyOp28
 70
     1
102
RTVSPropertyOp29
 70
     1
102
RTVSPropertyOp30
 70
     1
102
RTVSPropertyOp31
 70
     1
102
RTVSPropertyOp32
 70
     1
  0
XRECORD
  5
C8E
102
{ACAD_REACTORS
330
C8D
102
}
330
C8D
100
AcDbXrecord
280
     1
102
RTVSPropertyOp0
 70
     1
102
RTVSPropertyOp1
 70
     1
102
RTVSPropertyOp2
 70
     1
102
RTVSPropertyOp3
 70
     1
102
RTVSPropertyOp4
 70
     1
102
RTVSPropertyOp5
 70
     1
102
RTVSPropertyOp6
 70
     1
102
RTVSPropertyOp7
 70
     1
102
RTVSPropertyOp8
 70
     1
102
RTVSPropertyOp9
 70
     1
102
RTVSPropertyOp10
 70
     1
102
RTVSPropertyOp11
 70
     1
102
RTVSPropertyOp12
 70
     1
102
RTVSPropertyOp13
 70
     1
102
RTVSPropertyOp14
 70
     1
102
RTVSPropertyOp15
 70
     1
102
RTVSPropertyOp16
 70
     1
102
RTVSPropertyOp17
 70
     1
102
RTVSPropertyOp18
 70
     1
102
RTVSPropertyOp19
 70
     1
102
RTVSPropertyOp20
 70
     1
102
RTVSPropertyOp21
 70
     1
102
RTVSPropertyOp22
 70
     1
102
RTVSPropertyOp23
 70
     1
102
RTVSPropertyOp24
 70
     1
102
RTVSPropertyOp25
 70
     1
102
RTVSPropertyOp26
 70
     1
102
RTVSPropertyOp27
 70
     1
102
RTVSPropertyOp28
 70
     1
102
RTVSPropertyOp29
 70
     1
102
RTVSPropertyOp30
 70
     1
102
RTVSPropertyOp31
 70
     1
102
RTVSPropertyOp32
 70
     1
  0
XRECORD
  5
C80
102
{ACAD_REACTORS
330
C7F
102
}
330
C7F
100
AcDbXrecord
280
     1
102
RTVSPropertyOp0
 70
     1
102
RTVSPropertyOp1
 70
     1
102
RTVSPropertyOp2
 70
     1
102
RTVSPropertyOp3
 70
     1
102
RTVSPropertyOp4
 70
     1
102
RTVSPropertyOp5
 70
     1
102
RTVSPropertyOp6
 70
     1
102
RTVSPropertyOp7
 70
     1
102
RTVSPropertyOp8
 70
     1
102
RTVSPropertyOp9
 70
     1
102
RTVSPropertyOp10
 70
     1
102
RTVSPropertyOp11
 70
     1
102
RTVSPropertyOp12
 70
     1
102
RTVSPropertyOp13
 70
     1
102
RTVSPropertyOp14
 70
     1
102
RTVSPropertyOp15
 70
     1
102
RTVSPropertyOp16
 70
     1
102
RTVSPropertyOp17
 70
     1
102
RTVSPropertyOp18
 70
     1
102
RTVSPropertyOp19
 70
     1
102
RTVSPropertyOp20
 70
     1
102
RTVSPropertyOp21
 70
     1
102
RTVSPropertyOp22
 70
     1
102
RTVSPropertyOp23
 70
     1
102
RTVSPropertyOp24
 70
     1
102
RTVSPropertyOp25
 70
     1
102
RTVSPropertyOp26
 70
     1
102
RTVSPropertyOp27
 70
     1
102
RTVSPropertyOp28
 70
     1
102
RTVSPropertyOp29
 70
     1
102
RTVSPropertyOp30
 70
     1
102
RTVSPropertyOp31
 70
     1
102
RTVSPropertyOp32
 70
     1
  0
XRECORD
  5
C84
102
{ACAD_REACTORS
330
C83
102
}
330
C83
100
AcDbXrecord
280
     1
102
RTVSPropertyOp0
 70
     1
102
RTVSPropertyOp1
 70
     1
102
RTVSPropertyOp2
 70
     1
102
RTVSPropertyOp3
 70
     1
102
RTVSPropertyOp4
 70
     1
102
RTVSPropertyOp5
 70
     1
102
RTVSPropertyOp6
 70
     1
102
RTVSPropertyOp7
 70
     1
102
RTVSPropertyOp8
 70
     1
102
RTVSPropertyOp9
 70
     1
102
RTVSPropertyOp10
 70
     1
102
RTVSPropertyOp11
 70
     1
102
RTVSPropertyOp12
 70
     1
102
RTVSPropertyOp13
 70
     1
102
RTVSPropertyOp14
 70
     1
102
RTVSPropertyOp15
 70
     1
102
RTVSPropertyOp16
 70
     1
102
RTVSPropertyOp17
 70
     1
102
RTVSPropertyOp18
 70
     1
102
RTVSPropertyOp19
 70
     1
102
RTVSPropertyOp20
 70
     1
102
RTVSPropertyOp21
 70
     1
102
RTVSPropertyOp22
 70
     1
102
RTVSPropertyOp23
 70
     1
102
RTVSPropertyOp24
 70
     1
102
RTVSPropertyOp25
 70
     1
102
RTVSPropertyOp26
 70
     1
102
RTVSPropertyOp27
 70
     1
102
RTVSPropertyOp28
 70
     1
102
RTVSPropertyOp29
 70
     1
102
RTVSPropertyOp30
 70
     1
102
RTVSPropertyOp31
 70
     1
102
RTVSPropertyOp32
 70
     1
  0
XRECORD
  5
C9E
102
{ACAD_REACTORS
330
C9D
102
}
330
C9D
100
AcDbXrecord
280
     1
102
RTVSPropertyOp0
 70
     0
102
RTVSPropertyOp1
 70
     0
102
RTVSPropertyOp2
 70
     0
102
RTVSPropertyOp3
 70
     0
102
RTVSPropertyOp4
 70
     0
102
RTVSPropertyOp5
 70
     0
102
RTVSPropertyOp6
 70
     0
102
RTVSPropertyOp7
 70
     0
102
RTVSPropertyOp8
 70
     0
102
RTVSPropertyOp9
 70
     0
102
RTVSPropertyOp10
 70
     0
102
RTVSPropertyOp11
 70
     0
102
RTVSPropertyOp12
 70
     0
102
RTVSPropertyOp13
 70
     0
102
RTVSPropertyOp14
 70
     2
102
RTVSPropertyOp15
 70
     0
102
RTVSPropertyOp16
 70
     0
102
RTVSPropertyOp17
 70
     0
102
RTVSPropertyOp18
 70
     0
102
RTVSPropertyOp19
 70
     0
102
RTVSPropertyOp20
 70
     0
102
RTVSPropertyOp21
 70
     0
102
RTVSPropertyOp22
 70
     0
102
RTVSPropertyOp23
 70
     0
102
RTVSPropertyOp24
 70
     0
102
RTVSPropertyOp25
 70
     0
102
RTVSPropertyOp26
 70
     0
102
RTVSPropertyOp27
 70
     0
102
RTVSPropertyOp28
 70
     1
102
RTVSPropertyOp29
 70
     1
102
RTVSPropertyOp30
 70
     1
102
RTVSPropertyOp31
 70
     1
102
RTVSPropertyOp32
 70
     1
  0
XRECORD
  5
C8C
102
{ACAD_REACTORS
330
C8B
102
}
330
C8B
100
AcDbXrecord
280
     1
102
RTVSPropertyOp0
 70
     1
102
RTVSPropertyOp1
 70
     1
102
RTVSPropertyOp2
 70
     1
102
RTVSPropertyOp3
 70
     1
102
RTVSPropertyOp4
 70
     1
102
RTVSPropertyOp5
 70
     1
102
RTVSPropertyOp6
 70
     1
102
RTVSPropertyOp7
 70
     1
102
RTVSPropertyOp8
 70
     1
102
RTVSPropertyOp9
 70
     1
102
RTVSPropertyOp10
 70
     1
102
RTVSPropertyOp11
 70
     1
102
RTVSPropertyOp12
 70
     1
102
RTVSPropertyOp13
 70
     1
102
RTVSPropertyOp14
 70
     1
102
RTVSPropertyOp15
 70
     1
102
RTVSPropertyOp16
 70
     1
102
RTVSPropertyOp17
 70
     1
102
RTVSPropertyOp18
 70
     1
102
RTVSPropertyOp19
 70
     1
102
RTVSPropertyOp20
 70
     1
102
RTVSPropertyOp21
 70
     1
102
RTVSPropertyOp22
 70
     1
102
RTVSPropertyOp23
 70
     1
102
RTVSPropertyOp24
 70
     1
102
RTVSPropertyOp25
 70
     1
102
RTVSPropertyOp26
 70
     1
102
RTVSPropertyOp27
 70
     1
102
RTVSPropertyOp28
 70
     1
102
RTVSPropertyOp29
 70
     1
102
RTVSPropertyOp30
 70
     1
102
RTVSPropertyOp31
 70
     1
102
RTVSPropertyOp32
 70
     1
  0
XRECORD
  5
C70
102
{ACAD_REACTORS
330
C6F
102
}
330
C6F
100
AcDbXrecord
280
     1
102
RTVSPropertyOp0
 70
     1
102
RTVSPropertyOp1
 70
     1
102
RTVSPropertyOp2
 70
     1
102
RTVSPropertyOp3
 70
     1
102
RTVSPropertyOp4
 70
     1
102
RTVSPropertyOp5
 70
     1
102
RTVSPropertyOp6
 70
     1
102
RTVSPropertyOp7
 70
     1
102
RTVSPropertyOp8
 70
     1
102
RTVSPropertyOp9
 70
     1
102
RTVSPropertyOp10
 70
     1
102
RTVSPropertyOp11
 70
     1
102
RTVSPropertyOp12
 70
     1
102
RTVSPropertyOp13
 70
     1
102
RTVSPropertyOp14
 70
     1
102
RTVSPropertyOp15
 70
     1
102
RTVSPropertyOp16
 70
     1
102
RTVSPropertyOp17
 70
     1
102
RTVSPropertyOp18
 70
     1
102
RTVSPropertyOp19
 70
     1
102
RTVSPropertyOp20
 70
     1
102
RTVSPropertyOp21
 70
     1
102
RTVSPropertyOp22
 70
     1
102
RTVSPropertyOp23
 70
     1
102
RTVSPropertyOp24
 70
     1
102
RTVSPropertyOp25
 70
     1
102
RTVSPropertyOp26
 70
     1
102
RTVSPropertyOp27
 70
     1
102
RTVSPropertyOp28
 70
     1
102
RTVSPropertyOp29
 70
     1
102
RTVSPropertyOp30
 70
     1
102
RTVSPropertyOp31
 70
     1
102
RTVSPropertyOp32
 70
     1
  0
XRECORD
  5
C72
102
{ACAD_REACTORS
330
C71
102
}
330
C71
100
AcDbXrecord
280
     1
102
RTVSPropertyOp0
 70
     1
102
RTVSPropertyOp1
 70
     1
102
RTVSPropertyOp2
 70
     1
102
RTVSPropertyOp3
 70
     1
102
RTVSPropertyOp4
 70
     1
102
RTVSPropertyOp5
 70
     1
102
RTVSPropertyOp6
 70
     1
102
RTVSPropertyOp7
 70
     1
102
RTVSPropertyOp8
 70
     1
102
RTVSPropertyOp9
 70
     1
102
RTVSPropertyOp10
 70
     1
102
RTVSPropertyOp11
 70
     1
102
RTVSPropertyOp12
 70
     1
102
RTVSPropertyOp13
 70
     1
102
RTVSPropertyOp14
 70
     1
102
RTVSPropertyOp15
 70
     1
102
RTVSPropertyOp16
 70
     1
102
RTVSPropertyOp17
 70
     1
102
RTVSPropertyOp18
 70
     1
102
RTVSPropertyOp19
 70
     1
102
RTVSPropertyOp20
 70
     1
102
RTVSPropertyOp21
 70
     1
102
RTVSPropertyOp22
 70
     1
102
RTVSPropertyOp23
 70
     1
102
RTVSPropertyOp24
 70
     1
102
RTVSPropertyOp25
 70
     1
102
RTVSPropertyOp26
 70
     1
102
RTVSPropertyOp27
 70
     1
102
RTVSPropertyOp28
 70
     1
102
RTVSPropertyOp29
 70
     1
102
RTVSPropertyOp30
 70
     1
102
RTVSPropertyOp31
 70
     1
102
RTVSPropertyOp32
 70
     1
  0
XRECORD
  5
C74
102
{ACAD_REACTORS
330
C73
102
}
330
C73
100
AcDbXrecord
280
     1
102
RTVSPropertyOp0
 70
     1
102
RTVSPropertyOp1
 70
     1
102
RTVSPropertyOp2
 70
     1
102
RTVSPropertyOp3
 70
     1
102
RTVSPropertyOp4
 70
     1
102
RTVSPropertyOp5
 70
     1
102
RTVSPropertyOp6
 70
     1
102
RTVSPropertyOp7
 70
     1
102
RTVSPropertyOp8
 70
     1
102
RTVSPropertyOp9
 70
     1
102
RTVSPropertyOp10
 70
     1
102
RTVSPropertyOp11
 70
     1
102
RTVSPropertyOp12
 70
     1
102
RTVSPropertyOp13
 70
     1
102
RTVSPropertyOp14
 70
     1
102
RTVSPropertyOp15
 70
     1
102
RTVSPropertyOp16
 70
     1
102
RTVSPropertyOp17
 70
     1
102
RTVSPropertyOp18
 70
     1
102
RTVSPropertyOp19
 70
     1
102
RTVSPropertyOp20
 70
     1
102
RTVSPropertyOp21
 70
     1
102
RTVSPropertyOp22
 70
     1
102
RTVSPropertyOp23
 70
     1
102
RTVSPropertyOp24
 70
     1
102
RTVSPropertyOp25
 70
     1
102
RTVSPropertyOp26
 70
     1
102
RTVSPropertyOp27
 70
     1
102
RTVSPropertyOp28
 70
     1
102
RTVSPropertyOp29
 70
     1
102
RTVSPropertyOp30
 70
     1
102
RTVSPropertyOp31
 70
     1
102
RTVSPropertyOp32
 70
     1
  0
XRECORD
  5
C76
102
{ACAD_REACTORS
330
C75
102
}
330
C75
100
AcDbXrecord
280
     1
102
RTVSPropertyOp0
 70
     1
102
RTVSPropertyOp1
 70
     1
102
RTVSPropertyOp2
 70
     1
102
RTVSPropertyOp3
 70
     1
102
RTVSPropertyOp4
 70
     1
102
RTVSPropertyOp5
 70
     1
102
RTVSPropertyOp6
 70
     1
102
RTVSPropertyOp7
 70
     1
102
RTVSPropertyOp8
 70
     1
102
RTVSPropertyOp9
 70
     1
102
RTVSPropertyOp10
 70
     1
102
RTVSPropertyOp11
 70
     1
102
RTVSPropertyOp12
 70
     1
102
RTVSPropertyOp13
 70
     1
102
RTVSPropertyOp14
 70
     1
102
RTVSPropertyOp15
 70
     1
102
RTVSPropertyOp16
 70
     1
102
RTVSPropertyOp17
 70
     1
102
RTVSPropertyOp18
 70
     1
102
RTVSPropertyOp19
 70
     1
102
RTVSPropertyOp20
 70
     1
102
RTVSPropertyOp21
 70
     1
102
RTVSPropertyOp22
 70
     1
102
RTVSPropertyOp23
 70
     1
102
RTVSPropertyOp24
 70
     1
102
RTVSPropertyOp25
 70
     1
102
RTVSPropertyOp26
 70
     1
102
RTVSPropertyOp27
 70
     1
102
RTVSPropertyOp28
 70
     1
102
RTVSPropertyOp29
 70
     1
102
RTVSPropertyOp30
 70
     1
102
RTVSPropertyOp31
 70
     1
102
RTVSPropertyOp32
 70
     1
  0
XRECORD
  5
C7E
102
{ACAD_REACTORS
330
C7D
102
}
330
C7D
100
AcDbXrecord
280
     1
102
RTVSPropertyOp0
 70
     1
102
RTVSPropertyOp1
 70
     1
102
RTVSPropertyOp2
 70
     1
102
RTVSPropertyOp3
 70
     1
102
RTVSPropertyOp4
 70
     1
102
RTVSPropertyOp5
 70
     1
102
RTVSPropertyOp6
 70
     1
102
RTVSPropertyOp7
 70
     1
102
RTVSPropertyOp8
 70
     1
102
RTVSPropertyOp9
 70
     1
102
RTVSPropertyOp10
 70
     1
102
RTVSPropertyOp11
 70
     1
102
RTVSPropertyOp12
 70
     1
102
RTVSPropertyOp13
 70
     1
102
RTVSPropertyOp14
 70
     1
102
RTVSPropertyOp15
 70
     1
102
RTVSPropertyOp16
 70
     1
102
RTVSPropertyOp17
 70
     1
102
RTVSPropertyOp18
 70
     1
102
RTVSPropertyOp19
 70
     1
102
RTVSPropertyOp20
 70
     1
102
RTVSPropertyOp21
 70
     1
102
RTVSPropertyOp22
 70
     1
102
RTVSPropertyOp23
 70
     1
102
RTVSPropertyOp24
 70
     1
102
RTVSPropertyOp25
 70
     1
102
RTVSPropertyOp26
 70
     1
102
RTVSPropertyOp27
 70
     1
102
RTVSPropertyOp28
 70
     1
102
RTVSPropertyOp29
 70
     1
102
RTVSPropertyOp30
 70
     1
102
RTVSPropertyOp31
 70
     1
102
RTVSPropertyOp32
 70
     1
  0
XRECORD
  5
C9A
102
{ACAD_REACTORS
330
C99
102
}
330
C99
100
AcDbXrecord
280
     1
102
RTVSPropertyOp0
 70
     0
102
RTVSPropertyOp1
 70
     0
102
RTVSPropertyOp2
 70
     0
102
RTVSPropertyOp3
 70
     0
102
RTVSPropertyOp4
 70
     0
102
RTVSPropertyOp5
 70
     0
102
RTVSPropertyOp6
 70
     0
102
RTVSPropertyOp7
 70
     0
102
RTVSPropertyOp8
 70
     0
102
RTVSPropertyOp9
 70
     0
102
RTVSPropertyOp10
 70
     0
102
RTVSPropertyOp11
 70
     0
102
RTVSPropertyOp12
 70
     0
102
RTVSPropertyOp13
 70
     0
102
RTVSPropertyOp14
 70
     2
102
RTVSPropertyOp15
 70
     0
102
RTVSPropertyOp16
 70
     0
102
RTVSPropertyOp17
 70
     0
102
RTVSPropertyOp18
 70
     0
102
RTVSPropertyOp19
 70
     0
102
RTVSPropertyOp20
 70
     0
102
RTVSPropertyOp21
 70
     0
102
RTVSPropertyOp22
 70
     0
102
RTVSPropertyOp23
 70
     0
102
RTVSPropertyOp24
 70
     0
102
RTVSPropertyOp25
 70
     0
102
RTVSPropertyOp26
 70
     0
102
RTVSPropertyOp27
 70
     0
102
RTVSPropertyOp28
 70
     1
102
RTVSPropertyOp29
 70
     1
102
RTVSPropertyOp30
 70
     1
102
RTVSPropertyOp31
 70
     1
102
RTVSPropertyOp32
 70
     1
  0
XRECORD
  5
C8A
102
{ACAD_REACTORS
330
C89
102
}
330
C89
100
AcDbXrecord
280
     1
102
RTVSPropertyOp0
 70
     1
102
RTVSPropertyOp1
 70
     1
102
RTVSPropertyOp2
 70
     1
102
RTVSPropertyOp3
 70
     1
102
RTVSPropertyOp4
 70
     1
102
RTVSPropertyOp5
 70
     1
102
RTVSPropertyOp6
 70
     1
102
RTVSPropertyOp7
 70
     1
102
RTVSPropertyOp8
 70
     1
102
RTVSPropertyOp9
 70
     1
102
RTVSPropertyOp10
 70
     1
102
RTVSPropertyOp11
 70
     1
102
RTVSPropertyOp12
 70
     1
102
RTVSPropertyOp13
 70
     1
102
RTVSPropertyOp14
 70
     1
102
RTVSPropertyOp15
 70
     1
102
RTVSPropertyOp16
 70
     1
102
RTVSPropertyOp17
 70
     1
102
RTVSPropertyOp18
 70
     1
102
RTVSPropertyOp19
 70
     1
102
RTVSPropertyOp20
 70
     1
102
RTVSPropertyOp21
 70
     1
102
RTVSPropertyOp22
 70
     1
102
RTVSPropertyOp23
 70
     1
102
RTVSPropertyOp24
 70
     1
102
RTVSPropertyOp25
 70
     1
102
RTVSPropertyOp26
 70
     1
102
RTVSPropertyOp27
 70
     1
102
RTVSPropertyOp28
 70
     1
102
RTVSPropertyOp29
 70
     1
102
RTVSPropertyOp30
 70
     1
102
RTVSPropertyOp31
 70
     1
102
RTVSPropertyOp32
 70
     1
  0
XRECORD
  5
C9C
102
{ACAD_REACTORS
330
C9B
102
}
330
C9B
100
AcDbXrecord
280
     1
102
RTVSPropertyOp0
 70
     0
102
RTVSPropertyOp1
 70
     0
102
RTVSPropertyOp2
 70
     0
102
RTVSPropertyOp3
 70
     0
102
RTVSPropertyOp4
 70
     0
102
RTVSPropertyOp5
 70
     0
102
RTVSPropertyOp6
 70
     0
102
RTVSPropertyOp7
 70
     0
102
RTVSPropertyOp8
 70
     0
102
RTVSPropertyOp9
 70
     0
102
RTVSPropertyOp10
 70
     0
102
RTVSPropertyOp11
 70
     0
102
RTVSPropertyOp12
 70
     0
102
RTVSPropertyOp13
 70
     0
102
RTVSPropertyOp14
 70
     2
102
RTVSPropertyOp15
 70
     0
102
RTVSPropertyOp16
 70
     0
102
RTVSPropertyOp17
 70
     0
102
RTVSPropertyOp18
 70
     0
102
RTVSPropertyOp19
 70
     0
102
RTVSPropertyOp20
 70
     0
102
RTVSPropertyOp21
 70
     0
102
RTVSPropertyOp22
 70
     0
102
RTVSPropertyOp23
 70
     0
102
RTVSPropertyOp24
 70
     0
102
RTVSPropertyOp25
 70
     0
102
RTVSPropertyOp26
 70
     0
102
RTVSPropertyOp27
 70
     0
102
RTVSPropertyOp28
 70
     1
102
RTVSPropertyOp29
 70
     1
102
RTVSPropertyOp30
 70
     1
102
RTVSPropertyOp31
 70
     1
102
RTVSPropertyOp32
 70
     1
  0
XRECORD
  5
C82
102
{ACAD_REACTORS
330
C81
102
}
330
C81
100
AcDbXrecord
280
     1
102
RTVSPropertyOp0
 70
     1
102
RTVSPropertyOp1
 70
     1
102
RTVSPropertyOp2
 70
     1
102
RTVSPropertyOp3
 70
     1
102
RTVSPropertyOp4
 70
     1
102
RTVSPropertyOp5
 70
     1
102
RTVSPropertyOp6
 70
     1
102
RTVSPropertyOp7
 70
     1
102
RTVSPropertyOp8
 70
     1
102
RTVSPropertyOp9
 70
     1
102
RTVSPropertyOp10
 70
     1
102
RTVSPropertyOp11
 70
     1
102
RTVSPropertyOp12
 70
     1
102
RTVSPropertyOp13
 70
     1
102
RTVSPropertyOp14
 70
     1
102
RTVSPropertyOp15
 70
     1
102
RTVSPropertyOp16
 70
     1
102
RTVSPropertyOp17
 70
     1
102
RTVSPropertyOp18
 70
     1
102
RTVSPropertyOp19
 70
     1
102
RTVSPropertyOp20
 70
     1
102
RTVSPropertyOp21
 70
     1
102
RTVSPropertyOp22
 70
     1
102
RTVSPropertyOp23
 70
     1
102
RTVSPropertyOp24
 70
     1
102
RTVSPropertyOp25
 70
     1
102
RTVSPropertyOp26
 70
     1
102
RTVSPropertyOp27
 70
     1
102
RTVSPropertyOp28
 70
     1
102
RTVSPropertyOp29
 70
     1
102
RTVSPropertyOp30
 70
     1
102
RTVSPropertyOp31
 70
     1
102
RTVSPropertyOp32
 70
     1
  0
XRECORD
  5
C98
102
{ACAD_REACTORS
330
C97
102
}
330
C97
100
AcDbXrecord
280
     1
102
RTVSPropertyOp0
 70
     1
102
RTVSPropertyOp1
 70
     1
102
RTVSPropertyOp2
 70
     1
102
RTVSPropertyOp3
 70
     1
102
RTVSPropertyOp4
 70
     1
102
RTVSPropertyOp5
 70
     1
102
RTVSPropertyOp6
 70
     1
102
RTVSPropertyOp7
 70
     1
102
RTVSPropertyOp8
 70
     1
102
RTVSPropertyOp9
 70
     1
102
RTVSPropertyOp10
 70
     1
102
RTVSPropertyOp11
 70
     1
102
RTVSPropertyOp12
 70
     1
102
RTVSPropertyOp13
 70
     1
102
RTVSPropertyOp14
 70
     1
102
RTVSPropertyOp15
 70
     1
102
RTVSPropertyOp16
 70
     1
102
RTVSPropertyOp17
 70
     1
102
RTVSPropertyOp18
 70
     1
102
RTVSPropertyOp19
 70
     1
102
RTVSPropertyOp20
 70
     1
102
RTVSPropertyOp21
 70
     1
102
RTVSPropertyOp22
 70
     1
102
RTVSPropertyOp23
 70
     1
102
RTVSPropertyOp24
 70
     1
102
RTVSPropertyOp25
 70
     1
102
RTVSPropertyOp26
 70
     1
102
RTVSPropertyOp27
 70
     1
102
RTVSPropertyOp28
 70
     1
102
RTVSPropertyOp29
 70
     1
102
RTVSPropertyOp30
 70
     1
102
RTVSPropertyOp31
 70
     1
102
RTVSPropertyOp32
 70
     1
  0
XRECORD
  5
C96
102
{ACAD_REACTORS
330
C95
102
}
330
C95
100
AcDbXrecord
280
     1
102
RTVSPropertyOp0
 70
     1
102
RTVSPropertyOp1
 70
     1
102
RTVSPropertyOp2
 70
     1
102
RTVSPropertyOp3
 70
     1
102
RTVSPropertyOp4
 70
     1
102
RTVSPropertyOp5
 70
     1
102
RTVSPropertyOp6
 70
     1
102
RTVSPropertyOp7
 70
     1
102
RTVSPropertyOp8
 70
     1
102
RTVSPropertyOp9
 70
     1
102
RTVSPropertyOp10
 70
     1
102
RTVSPropertyOp11
 70
     1
102
RTVSPropertyOp12
 70
     1
102
RTVSPropertyOp13
 70
     1
102
RTVSPropertyOp14
 70
     1
102
RTVSPropertyOp15
 70
     1
102
RTVSPropertyOp16
 70
     1
102
RTVSPropertyOp17
 70
     1
102
RTVSPropertyOp18
 70
     1
102
RTVSPropertyOp19
 70
     1
102
RTVSPropertyOp20
 70
     1
102
RTVSPropertyOp21
 70
     1
102
RTVSPropertyOp22
 70
     1
102
RTVSPropertyOp23
 70
     1
102
RTVSPropertyOp24
 70
     1
102
RTVSPropertyOp25
 70
     1
102
RTVSPropertyOp26
 70
     1
102
RTVSPropertyOp27
 70
     1
102
RTVSPropertyOp28
 70
     1
102
RTVSPropertyOp29
 70
     1
102
RTVSPropertyOp30
 70
     1
102
RTVSPropertyOp31
 70
     1
102
RTVSPropertyOp32
 70
     1
  0
XRECORD
  5
C90
102
{ACAD_REACTORS
330
C8F
102
}
330
C8F
100
AcDbXrecord
280
     1
102
RTVSPropertyOp0
 70
     1
102
RTVSPropertyOp1
 70
     1
102
RTVSPropertyOp2
 70
     1
102
RTVSPropertyOp3
 70
     1
102
RTVSPropertyOp4
 70
     1
102
RTVSPropertyOp5
 70
     1
102
RTVSPropertyOp6
 70
     1
102
RTVSPropertyOp7
 70
     1
102
RTVSPropertyOp8
 70
     1
102
RTVSPropertyOp9
 70
     1
102
RTVSPropertyOp10
 70
     1
102
RTVSPropertyOp11
 70
     1
102
RTVSPropertyOp12
 70
     1
102
RTVSPropertyOp13
 70
     1
102
RTVSPropertyOp14
 70
     1
102
RTVSPropertyOp15
 70
     1
102
RTVSPropertyOp16
 70
     1
102
RTVSPropertyOp17
 70
     1
102
RTVSPropertyOp18
 70
     1
102
RTVSPropertyOp19
 70
     1
102
RTVSPropertyOp20
 70
     1
102
RTVSPropertyOp21
 70
     1
102
RTVSPropertyOp22
 70
     1
102
RTVSPropertyOp23
 70
     1
102
RTVSPropertyOp24
 70
     1
102
RTVSPropertyOp25
 70
     1
102
RTVSPropertyOp26
 70
     1
102
RTVSPropertyOp27
 70
     1
102
RTVSPropertyOp28
 70
     1
102
RTVSPropertyOp29
 70
     1
102
RTVSPropertyOp30
 70
     1
102
RTVSPropertyOp31
 70
     1
102
RTVSPropertyOp32
 70
     1
  0
XRECORD
  5
C92
102
{ACAD_REACTORS
330
C91
102
}
330
C91
100
AcDbXrecord
280
     1
102
RTVSPropertyOp0
 70
     1
102
RTVSPropertyOp1
 70
     1
102
RTVSPropertyOp2
 70
     1
102
RTVSPropertyOp3
 70
     1
102
RTVSPropertyOp4
 70
     1
102
RTVSPropertyOp5
 70
     1
102
RTVSPropertyOp6
 70
     1
102
RTVSPropertyOp7
 70
     1
102
RTVSPropertyOp8
 70
     1
102
RTVSPropertyOp9
 70
     1
102
RTVSPropertyOp10
 70
     1
102
RTVSPropertyOp11
 70
     1
102
RTVSPropertyOp12
 70
     1
102
RTVSPropertyOp13
 70
     1
102
RTVSPropertyOp14
 70
     1
102
RTVSPropertyOp15
 70
     1
102
RTVSPropertyOp16
 70
     1
102
RTVSPropertyOp17
 70
     1
102
RTVSPropertyOp18
 70
     1
102
RTVSPropertyOp19
 70
     1
102
RTVSPropertyOp20
 70
     1
102
RTVSPropertyOp21
 70
     1
102
RTVSPropertyOp22
 70
     1
102
RTVSPropertyOp23
 70
     1
102
RTVSPropertyOp24
 70
     1
102
RTVSPropertyOp25
 70
     1
102
RTVSPropertyOp26
 70
     1
102
RTVSPropertyOp27
 70
     1
102
RTVSPropertyOp28
 70
     1
102
RTVSPropertyOp29
 70
     1
102
RTVSPropertyOp30
 70
     1
102
RTVSPropertyOp31
 70
     1
102
RTVSPropertyOp32
 70
     1
  0
XRECORD
  5
C88
102
{ACAD_REACTORS
330
C87
102
}
330
C87
100
AcDbXrecord
280
     1
102
RTVSPropertyOp0
 70
     1
102
RTVSPropertyOp1
 70
     1
102
RTVSPropertyOp2
 70
     1
102
RTVSPropertyOp3
 70
     1
102
RTVSPropertyOp4
 70
     1
102
RTVSPropertyOp5
 70
     1
102
RTVSPropertyOp6
 70
     1
102
RTVSPropertyOp7
 70
     1
102
RTVSPropertyOp8
 70
     1
102
RTVSPropertyOp9
 70
     1
102
RTVSPropertyOp10
 70
     1
102
RTVSPropertyOp11
 70
     1
102
RTVSPropertyOp12
 70
     1
102
RTVSPropertyOp13
 70
     1
102
RTVSPropertyOp14
 70
     1
102
RTVSPropertyOp15
 70
     1
102
RTVSPropertyOp16
 70
     1
102
RTVSPropertyOp17
 70
     1
102
RTVSPropertyOp18
 70
     1
102
RTVSPropertyOp19
 70
     1
102
RTVSPropertyOp20
 70
     1
102
RTVSPropertyOp21
 70
     1
102
RTVSPropertyOp22
 70
     1
102
RTVSPropertyOp23
 70
     1
102
RTVSPropertyOp24
 70
     1
102
RTVSPropertyOp25
 70
     1
102
RTVSPropertyOp26
 70
     1
102
RTVSPropertyOp27
 70
     1
102
RTVSPropertyOp28
 70
     1
102
RTVSPropertyOp29
 70
     1
102
RTVSPropertyOp30
 70
     1
102
RTVSPropertyOp31
 70
     1
102
RTVSPropertyOp32
 70
     1
  0
XRECORD
  5
C7C
102
{ACAD_REACTORS
330
C7B
102
}
330
C7B
100
AcDbXrecord
280
     1
102
RTVSPropertyOp0
 70
     1
102
RTVSPropertyOp1
 70
     1
102
RTVSPropertyOp2
 70
     1
102
RTVSPropertyOp3
 70
     1
102
RTVSPropertyOp4
 70
     1
102
RTVSPropertyOp5
 70
     1
102
RTVSPropertyOp6
 70
     1
102
RTVSPropertyOp7
 70
     1
102
RTVSPropertyOp8
 70
     1
102
RTVSPropertyOp9
 70
     1
102
RTVSPropertyOp10
 70
     1
102
RTVSPropertyOp11
 70
     1
102
RTVSPropertyOp12
 70
     1
102
RTVSPropertyOp13
 70
     1
102
RTVSPropertyOp14
 70
     1
102
RTVSPropertyOp15
 70
     1
102
RTVSPropertyOp16
 70
     1
102
RTVSPropertyOp17
 70
     1
102
RTVSPropertyOp18
 70
     1
102
RTVSPropertyOp19
 70
     1
102
RTVSPropertyOp20
 70
     1
102
RTVSPropertyOp21
 70
     1
102
RTVSPropertyOp22
 70
     1
102
RTVSPropertyOp23
 70
     1
102
RTVSPropertyOp24
 70
     1
102
RTVSPropertyOp25
 70
     1
102
RTVSPropertyOp26
 70
     1
102
RTVSPropertyOp27
 70
     1
102
RTVSPropertyOp28
 70
     1
102
RTVSPropertyOp29
 70
     1
102
RTVSPropertyOp30
 70
     1
102
RTVSPropertyOp31
 70
     1
102
RTVSPropertyOp32
 70
     1
  0
XRECORD
  5
C94
102
{ACAD_REACTORS
330
C93
102
}
330
C93
100
AcDbXrecord
280
     1
102
RTVSPropertyOp0
 70
     1
102
RTVSPropertyOp1
 70
     1
102
RTVSPropertyOp2
 70
     1
102
RTVSPropertyOp3
 70
     1
102
RTVSPropertyOp4
 70
     1
102
RTVSPropertyOp5
 70
     1
102
RTVSPropertyOp6
 70
     1
102
RTVSPropertyOp7
 70
     1
102
RTVSPropertyOp8
 70
     1
102
RTVSPropertyOp9
 70
     1
102
RTVSPropertyOp10
 70
     1
102
RTVSPropertyOp11
 70
     1
102
RTVSPropertyOp12
 70
     1
102
RTVSPropertyOp13
 70
     1
102
RTVSPropertyOp14
 70
     1
102
RTVSPropertyOp15
 70
     1
102
RTVSPropertyOp16
 70
     1
102
RTVSPropertyOp17
 70
     1
102
RTVSPropertyOp18
 70
     1
102
RTVSPropertyOp19
 70
     1
102
RTVSPropertyOp20
 70
     1
102
RTVSPropertyOp21
 70
     1
102
RTVSPropertyOp22
 70
     1
102
RTVSPropertyOp23
 70
     1
102
RTVSPropertyOp24
 70
     1
102
RTVSPropertyOp25
 70
     1
102
RTVSPropertyOp26
 70
     1
102
RTVSPropertyOp27
 70
     1
102
RTVSPropertyOp28
 70
     1
102
RTVSPropertyOp29
 70
     1
102
RTVSPropertyOp30
 70
     1
102
RTVSPropertyOp31
 70
     1
102
RTVSPropertyOp32
 70
     1
  0
ENDSEC
  0
EOF