0
SECTION
  2
HEADER
  9
$ACADVER
  1
AC1018
  9
$ACADMAINTVER
 70
   104
  9
$DWGCODEPAGE
  3
ANSI_1252
  9
$AUTHOR
  1
PS
  9
$REVISIONNUMBER
  1
-
  9
$CUSTOMPROPERTYTAG
  1
Manager
  9
$CUSTOMPROPERTY
  1

  9
$CUSTOMPROPERTYTAG
  1
Company
  9
$CUSTOMPROPERTY
  1

  9
$CUSTOMPROPERTYTAG
  1
Category
  9
$CUSTOMPROPERTY
  1

  9
$CUSTOMPROPERTYTAG
  1
Part Number
  9
$CUSTOMPROPERTY
  1
N1P1220PP-S
  9
$CUSTOMPROPERTYTAG
  1
Description
  9
$CUSTOMPROPERTY
  1

  9
$CUSTOMPROPERTYTAG
  1
Project
  9
$CUSTOMPROPERTY
  1

  9
$CUSTOMPROPERTYTAG
  1
Designer
  9
$CUSTOMPROPERTY
  1
PS
  9
$CUSTOMPROPERTYTAG
  1
Engineer
  9
$CUSTOMPROPERTY
  1

  9
$CUSTOMPROPERTYTAG
  1
Authority
  9
$CUSTOMPROPERTY
  1

  9
$CUSTOMPROPERTYTAG
  1
Cost Center
  9
$CUSTOMPROPERTY
  1

  9
$CUSTOMPROPERTYTAG
  1
Vendor
  9
$CUSTOMPROPERTY
  1

  9
$CUSTOMPROPERTYTAG
  1
User Status
  9
$CUSTOMPROPERTY
  1

  9
$CUSTOMPROPERTYTAG
  1
Design Status
  9
$CUSTOMPROPERTY
  1
WorkInProgress
  9
$CUSTOMPROPERTYTAG
  1
Checked by
  9
$CUSTOMPROPERTY
  1
NJ
  9
$CUSTOMPROPERTYTAG
  1
Date Checked
  9
$CUSTOMPROPERTY
  1
06/21/2013
  9
$CUSTOMPROPERTYTAG
  1
Engr Approved by
  9
$CUSTOMPROPERTY
  1

  9
$CUSTOMPROPERTYTAG
  1
Date Eng Approved
  9
$CUSTOMPROPERTY
  1
06/21/2013
  9
$CUSTOMPROPERTYTAG
  1
Mfg Approved by
  9
$CUSTOMPROPERTY
  1

  9
$CUSTOMPROPERTYTAG
  1
DWG. NO
  9
$CUSTOMPROPERTY
  1

  9
$CUSTOMPROPERTYTAG
  1
NUMBER OF SHEETS
  9
$CUSTOMPROPERTY
  1
1
  9
$CUSTOMPROPERTYTAG
  1
DRAWING #
  9
$CUSTOMPROPERTY
  1
1
  9
$INSBASE
 10
0.0
 20
0.0
 30
0.0
  9
$EXTMIN
 10
0.0
 20
0.0
 30
0.0
  9
$EXTMAX
 10
56.66666666666667
 20
36.66666666666667
 30
0.0
  9
$LIMMIN
 10
0.0
 20
0.0
  9
$LIMMAX
 10
56.66666666666667
 20
36.66666666666667
  9
$ORTHOMODE
 70
     0
  9
$REGENMODE
 70
     1
  9
$FILLMODE
 70
     1
  9
$QTEXTMODE
 70
     0
  9
$MIRRTEXT
 70
     0
  9
$LTSCALE
 40
3.333333333333333
  9
$ATTMODE
 70
     1
  9
$TEXTSIZE
 40
0.2
  9
$TRACEWID
 40
0.05
  9
$TEXTSTYLE
  7
Standard
  9
$CLAYER
  8
0
  9
$CELTYPE
  6
ByLayer
  9
$CECOLOR
 62
   256
  9
$CELTSCALE
 40
1.0
  9
$DISPSILH
 70
     0
  9
$DIMSCALE
 40
1.0
  9
$DIMASZ
 40
0.0708661417322835
  9
$DIMEXO
 40
0.0625
  9
$DIMDLI
 40
0.38
  9
$DIMRND
 40
0.0
  9
$DIMDLE
 40
0.0
  9
$DIMEXE
 40
0.18
  9
$DIMTP
 40
0.0
  9
$DIMTM
 40
0.0
  9
$DIMTXT
 40
0.0708661417322835
  9
$DIMCEN
 40
0.09
  9
$DIMTSZ
 40
0.0
  9
$DIMTOL
 70
     0
  9
$DIMLIM
 70
     0
  9
$DIMTIH
 70
     1
  9
$DIMTOH
 70
     1
  9
$DIMSE1
 70
     0
  9
$DIMSE2
 70
     0
  9
$DIMTAD
 70
     0
  9
$DIMZIN
 70
     0
  9
$DIMBLK
  1

  9
$DIMASO
 70
     1
  9
$DIMSHO
 70
     1
  9
$DIMPOST
  1

  9
$DIMAPOST
  1

  9
$DIMALT
 70
     0
  9
$DIMALTD
 70
     2
  9
$DIMALTF
 40
25.4
  9
$DIMLFAC
 40
1.0
  9
$DIMTOFL
 70
     0
  9
$DIMTVP
 40
0.0
  9
$DIMTIX
 70
     0
  9
$DIMSOXD
 70
     0
  9
$DIMSAH
 70
     0
  9
$DIMBLK1
  1

  9
$DIMBLK2
  1

  9
$DIMSTYLE
  2
STANDARD
  9
$DIMCLRD
 70
     0
  9
$DIMCLRE
 70
     0
  9
$DIMCLRT
 70
     0
  9
$DIMTFAC
 40
1.0
  9
$DIMGAP
 40
0.09
  9
$DIMJUST
 70
     0
  9
$DIMSD1
 70
     0
  9
$DIMSD2
 70
     0
  9
$DIMTOLJ
 70
     1
  9
$DIMTZIN
 70
     0
  9
$DIMALTZ
 70
     0
  9
$DIMALTTZ
 70
     0
  9
$DIMUPT
 70
     0
  9
$DIMDEC
 70
     4
  9
$DIMTDEC
 70
     4
  9
$DIMALTU
 70
     2
  9
$DIMALTTD
 70
     2
  9
$DIMTXSTY
  7
Standard
  9
$DIMAUNIT
 70
     0
  9
$DIMADEC
 70
     0
  9
$DIMALTRND
 40
0.0
  9
$DIMAZIN
 70
     0
  9
$DIMDSEP
 70
    46
  9
$DIMATFIT
 70
     3
  9
$DIMFRAC
 70
     0
  9
$DIMLDRBLK
  1

  9
$DIMLUNIT
 70
     2
  9
$DIMLWD
 70
    -2
  9
$DIMLWE
 70
    -2
  9
$DIMTMOVE
 70
     0
  9
$LUNITS
 70
     2
  9
$LUPREC
 70
     4
  9
$SKETCHINC
 40
0.1
  9
$FILLETRAD
 40
0.0
  9
$AUNITS
 70
     0
  9
$AUPREC
 70
     0
  9
$MENU
  1
.
  9
$ELEVATION
 40
0.0
  9
$PELEVATION
 40
0.0
  9
$THICKNESS
 40
0.0
  9
$LIMCHECK
 70
     0
  9
$CHAMFERA
 40
0.0
  9
$CHAMFERB
 40
0.0
  9
$CHAMFERC
 40
0.0
  9
$CHAMFERD
 40
0.0
  9
$SKPOLY
 70
     0
  9
$TDCREATE
 40
2456476.364941412
  9
$TDUCREATE
 40
2456476.135774745
  9
$TDUPDATE
 40
2456476.364941412
  9
$TDUUPDATE
 40
2456476.135774745
  9
$TDINDWG
 40
0.0000493287
  9
$TDUSRTIMER
 40
0.0000493287
  9
$USRTIMER
 70
     1
  9
$ANGBASE
 50
0.0
  9
$ANGDIR
 70
     0
  9
$PDMODE
 70
     0
  9
$PDSIZE
 40
0.0
  9
$PLINEWID
 40
0.0
  9
$SPLFRAME
 70
     0
  9
$SPLINETYPE
 70
     6
  9
$SPLINESEGS
 70
     8
  9
$HANDSEED
  5
EA6
  9
$SURFTAB1
 70
     6
  9
$SURFTAB2
 70
     6
  9
$SURFTYPE
 70
     6
  9
$SURFU
 70
     6
  9
$SURFV
 70
     6
  9
$UCSBASE
  2

  9
$UCSNAME
  2

  9
$UCSORG
 10
0.0
 20
0.0
 30
0.0
  9
$UCSXDIR
 10
1.0
 20
0.0
 30
0.0
  9
$UCSYDIR
 10
0.0
 20
1.0
 30
0.0
  9
$UCSORTHOREF
  2

  9
$UCSORTHOVIEW
 70
     0
  9
$UCSORGTOP
 10
0.0
 20
0.0
 30
0.0
  9
$UCSORGBOTTOM
 10
0.0
 20
0.0
 30
0.0
  9
$UCSORGLEFT
 10
0.0
 20
0.0
 30
0.0
  9
$UCSORGRIGHT
 10
0.0
 20
0.0
 30
0.0
  9
$UCSORGFRONT
 10
0.0
 20
0.0
 30
0.0
  9
$UCSORGBACK
 10
0.0
 20
0.0
 30
0.0
  9
$PUCSBASE
  2

  9
$PUCSNAME
  2

  9
$PUCSORG
 10
0.0
 20
0.0
 30
0.0
  9
$PUCSXDIR
 10
1.0
 20
0.0
 30
0.0
  9
$PUCSYDIR
 10
0.0
 20
1.0
 30
0.0
  9
$PUCSORTHOREF
  2

  9
$PUCSORTHOVIEW
 70
     0
  9
$PUCSORGTOP
 10
0.0
 20
0.0
 30
0.0
  9
$PUCSORGBOTTOM
 10
0.0
 20
0.0
 30
0.0
  9
$PUCSORGLEFT
 10
0.0
 20
0.0
 30
0.0
  9
$PUCSORGRIGHT
 10
0.0
 20
0.0
 30
0.0
  9
$PUCSORGFRONT
 10
0.0
 20
0.0
 30
0.0
  9
$PUCSORGBACK
 10
0.0
 20
0.0
 30
0.0
  9
$USERI1
 70
     0
  9
$USERI2
 70
     0
  9
$USERI3
 70
     0
  9
$USERI4
 70
     0
  9
$USERI5
 70
     0
  9
$USERR1
 40
0.0
  9
$USERR2
 40
0.0
  9
$USERR3
 40
0.0
  9
$USERR4
 40
0.0
  9
$USERR5
 40
0.0
  9
$WORLDVIEW
 70
     1
  9
$SHADEDGE
 70
     3
  9
$SHADEDIF
 70
    70
  9
$TILEMODE
 70
     1
  9
$MAXACTVP
 70
    64
  9
$PINSBASE
 10
0.0
 20
0.0
 30
0.0
  9
$PLIMCHECK
 70
     0
  9
$PEXTMIN
 10
0.0
 20
0.0
 30
0.0
  9
$PEXTMAX
 10
56.66666666666667
 20
36.66666666666667
 30
0.0
  9
$PLIMMIN
 10
0.0
 20
0.0
  9
$PLIMMAX
 10
56.66666666666667
 20
36.66666666666667
  9
$UNITMODE
 70
     0
  9
$VISRETAIN
 70
     1
  9
$PLINEGEN
 70
     0
  9
$PSLTSCALE
 70
     1
  9
$TREEDEPTH
 70
  3020
  9
$CMLSTYLE
  2
Standard
  9
$CMLJUST
 70
     0
  9
$CMLSCALE
 40
1.0
  9
$PROXYGRAPHICS
 70
     1
  9
$MEASUREMENT
 70
     0
  9
$CELWEIGHT
370
    -1
  9
$ENDCAPS
280
     0
  9
$JOINSTYLE
280
     0
  9
$LWDISPLAY
290
     0
  9
$INSUNITS
 70
     1
  9
$HYPERLINKBASE
  1

  9
$STYLESHEET
  1

  9
$XEDIT
290
     1
  9
$CEPSNTYPE
380
     0
  9
$PSTYLEMODE
290
     1
  9
$FINGERPRINTGUID
  2
{42154C38-10BF-4056-A22D-8D23C98A4B56}
  9
$VERSIONGUID
  2
{551E71B3-45C7-4602-9ECE-9C2E4995730E}
  9
$EXTNAMES
290
     1
  9
$PSVPSCALE
 40
0.0
  9
$OLESTARTUP
290
     0
  9
$SORTENTS
280
   127
  9
$INDEXCTL
280
     0
  9
$HIDETEXT
280
     1
  9
$XCLIPFRAME
290
     0
  9
$HALOGAP
280
     0
  9
$OBSCOLOR
 70
   257
  9
$OBSLTYPE
280
     0
  9
$INTERSECTIONDISPLAY
280
     0
  9
$INTERSECTIONCOLOR
 70
   257
  9
$DIMASSOC
280
     1
  9
$PROJECTNAME
  1

  0
ENDSEC
  0
SECTION
  2
CLASSES
  0
CLASS
  1
ACDBDICTIONARYWDFLT
  2
AcDbDictionaryWithDefault
  3
ObjectDBX Classes
 90
        0
 91
        1
280
     0
281
     0
  0
CLASS
  1
MATERIAL
  2
AcDbMaterial
  3
ObjectDBX Classes
 90
     1153
 91
        3
280
     0
281
     0
  0
CLASS
  1
VISUALSTYLE
  2
AcDbVisualStyle
  3
ObjectDBX Classes
 90
     4095
 91
       24
280
     0
281
     0
  0
CLASS
  1
SCALE
  2
AcDbScale
  3
ObjectDBX Classes
 90
     1153
 91
       17
280
     0
281
     0
  0
CLASS
  1
TABLESTYLE
  2
AcDbTableStyle
  3
ObjectDBX Classes
 90
     4095
 91
        1
280
     0
281
     0
  0
CLASS
  1
MLEADERSTYLE
  2
AcDbMLeaderStyle
  3
ACDB_MLEADERSTYLE_CLASS
 90
     4095
 91
        1
280
     0
281
     0
  0
CLASS
  1
DICTIONARYVAR
  2
AcDbDictionaryVar
  3
ObjectDBX Classes
 90
        0
 91
        8
280
     0
281
     0
  0
CLASS
  1
CELLSTYLEMAP
  2
AcDbCellStyleMap
  3
ObjectDBX Classes
 90
     1152
 91
        1
280
     0
281
     0
  0
ENDSEC
  0
SECTION
  2
TABLES
  0
TABLE
  2
VPORT
  5
8
330
0
100
AcDbSymbolTable
 70
     1
  0
VPORT
  5
57
330
8
100
AcDbSymbolTableRecord
100
AcDbViewportTableRecord
  2
*Active
 70
     0
 10
0.0
 20
0.0
 11
1.0
 21
1.0
 12
28.33333333333334
 22
18.33333333333333
 13
0.0
 23
0.0
 14
1.0
 24
1.0
 15
0.0
 25
0.0
 16
0.0
 26
0.0
 36
1.0
 17
0.0
 27
0.0
 37
0.0
 40
36.66666666666667
 41
1.545454545454545
 42
50.0
 43
0.0
 44
0.0
 50
0.0
 51
0.0
 71
     0
 72
   100
 73
     1
 74
     1
 75
     0
 76
     0
 77
     0
 78
     0
281
     0
 65
     1
110
0.0
120
0.0
130
0.0
111
1.0
121
0.0
131
0.0
112
0.0
122
1.0
132
0.0
 79
     0
146
0.0
  0
ENDTAB
  0
TABLE
  2
LTYPE
  5
5
330
0
100
AcDbSymbolTable
 70
    59
  0
LTYPE
  5
5B
330
5
100
AcDbSymbolTableRecord
100
AcDbLinetypeTableRecord
  2
ByBlock
 70
     0
  3

 72
    65
 73
     0
 40
0.0
  0
LTYPE
  5
5C
330
5
100
AcDbSymbolTableRecord
100
AcDbLinetypeTableRecord
  2
ByLayer
 70
     0
  3

 72
    65
 73
     0
 40
0.0
  0
LTYPE
  5
5D
330
5
100
AcDbSymbolTableRecord
100
AcDbLinetypeTableRecord
  2
Continuous
 70
     0
  3
Solid line
 72
    65
 73
     0
 40
0.0
  0
LTYPE
  5
7C
330
5
100
AcDbSymbolTableRecord
100
AcDbLinetypeTableRecord
  2
BY_STANDARD
 70
     0
  3
By Standard ____________    ____    ____   _
 72
    65
 73
     6
 40
1.240299999999999
 49
0.6614
 74
     0
 49
-0.0827
 74
     0
 49
0.1654
 74
     0
 49
-0.0827
 74
     0
 49
0.1654
 74
     0
 49
-0.0827
 74
     0
  0
LTYPE
  5
7D
330
5
100
AcDbSymbolTableRecord
100
AcDbLinetypeTableRecord
  2
CHAIN
 70
     0
  3
Chain ____ _ ____ _ ____ _ ____ _ ____ _ ____
 72
    65
 73
     4
 40
0.7087
 49
0.4724000000000001
 74
     0
 49
-0.0591
 74
     0
 49
0.1181
 74
     0
 49
-0.0591
 74
     0
  0
LTYPE
  5
7E
330
5
100
AcDbSymbolTableRecord
100
AcDbLinetypeTableRecord
  2
DASH_DOT
 70
     0
  3
Dash dot __ . __ . __ . __ . __ . __ . __ . __
 72
    65
 73
     4
 40
0.37
 49
0.24
 74
     0
 49
-0.06
 74
     0
 49
0.01
 74
     0
 49
-0.06
 74
     0
  0
LTYPE
  5
7F
330
5
100
AcDbSymbolTableRecord
100
AcDbLinetypeTableRecord
  2
DOUBLE_DASH_DOT
 70
     0
  3
Double-Dash Dot __ __ . __ __ . __ __ . __ _
 72
    65
 73
     6
 40
0.4398
 49
0.24
 74
     0
 49
-0.06
 74
     0
 49
0.0098
 74
     0
 49
-0.06
 74
     0
 49
0.01
 74
     0
 49
-0.06
 74
     0
  0
LTYPE
  5
80
330
5
100
AcDbSymbolTableRecord
100
AcDbLinetypeTableRecord
  2
DASH_TRIPLE_DOT
 70
     0
  3
Dash Triple-Dot _ . . . _ . . . _ . . . _
 72
    65
 73
     8
 40
0.51
 49
0.24
 74
     0
 49
-0.06
 74
     0
 49
0.01
 74
     0
 49
-0.06
 74
     0
 49
0.01
 74
     0
 49
-0.06
 74
     0
 49
0.01
 74
     0
 49
-0.06
 74
     0
  0
LTYPE
  5
81
330
5
100
AcDbSymbolTableRecord
100
AcDbLinetypeTableRecord
  2
DASHED
 70
     0
  3
Dashed __ __ __ __ __ __ __ __ __ __ __ __ __ _
 72
    65
 73
     2
 40
0.2067
 49
0.1654
 74
     0
 49
-0.0413
 74
     0
  0
LTYPE
  5
82
330
5
100
AcDbSymbolTableRecord
100
AcDbLinetypeTableRecord
  2
DASH_DOUBLE_DOT
 70
     0
  3
Dash Double-Dot __ . . __ . . __ . . __ . .
 72
    65
 73
     6
 40
0.4398
 49
0.24
 74
     0
 49
-0.06
 74
     0
 49
0.0098
 74
     0
 49
-0.06
 74
     0
 49
0.01
 74
     0
 49
-0.06
 74
     0
  0
LTYPE
  5
83
330
5
100
AcDbSymbolTableRecord
100
AcDbLinetypeTableRecord
  2
DASHED_SPACE
 70
     0
  3
Dashed Space __ __ __ __ __ __ __ __ __ __ __ _
 72
    65
 73
     2
 40
0.2067
 49
0.1654
 74
     0
 49
-0.0413
 74
     0
  0
LTYPE
  5
84
330
5
100
AcDbSymbolTableRecord
100
AcDbLinetypeTableRecord
  2
DOTTED
 70
     0
  3
Dotted . . . . . . . . . . . . . . . . . . . . 
 72
    65
 73
     2
 40
0.0482
 49
0.0069
 74
     0
 49
-0.0413
 74
     0
  0
LTYPE
  5
85
330
5
100
AcDbSymbolTableRecord
100
AcDbLinetypeTableRecord
  2
DOUBLE_DASH_CHAIN
 70
     0
  3
Double-Dash Chain ______  __  __  ______  __  _
 72
    65
 73
     6
 40
1.240299999999999
 49
0.6614
 74
     0
 49
-0.0827
 74
     0
 49
0.1654
 74
     0
 49
-0.0827
 74
     0
 49
0.1654
 74
     0
 49
-0.0827
 74
     0
  0
LTYPE
  5
87
330
5
100
AcDbSymbolTableRecord
100
AcDbLinetypeTableRecord
  2
DOUBLE_DASH_DOUBLE_DOT
 70
     0
  3
Double-Dash Double-dot _ _ . . _ _ . . _
 72
    65
 73
     8
 40
0.7400000000000001
 49
0.24
 74
     0
 49
-0.06
 74
     0
 49
0.24
 74
     0
 49
-0.06
 74
     0
 49
0.01
 74
     0
 49
-0.06
 74
     0
 49
0.01
 74
     0
 49
-0.06
 74
     0
  0
LTYPE
  5
88
330
5
100
AcDbSymbolTableRecord
100
AcDbLinetypeTableRecord
  2
DOUBLE_DASH_TRIPLE_DOT
 70
     0
  3
Double Dash Triple Dot __ __ . . . __ __ . .
 72
    65
 73
    10
 40
0.8100000000000001
 49
0.24
 74
     0
 49
-0.06
 74
     0
 49
0.24
 74
     0
 49
-0.06
 74
     0
 49
0.01
 74
     0
 49
-0.06
 74
     0
 49
0.01
 74
     0
 49
-0.06
 74
     0
 49
0.01
 74
     0
 49
-0.06
 74
     0
  0
LTYPE
  5
89
330
5
100
AcDbSymbolTableRecord
100
AcDbLinetypeTableRecord
  2
LONG_DASH_DOTTED
 70
     0
  3
Long Dash Dotted ____ . ____ . ____ . ____ . _
 72
    65
 73
     4
 40
0.3543
 49
0.2362
 74
     0
 49
-0.0295
 74
     0
 49
0.0591
 74
     0
 49
-0.0295
 74
     0
  0
LTYPE
  5
8A
330
5
100
AcDbSymbolTableRecord
100
AcDbLinetypeTableRecord
  2
LONG_DASH_DOUBLE_DOT
 70
     0
  3
Long Dash Double Dot ________  .  .  ________  
 72
    65
 73
     6
 40
0.6799999999999999
 49
0.48
 74
     0
 49
-0.06
 74
     0
 49
0.01
 74
     0
 49
-0.06
 74
     0
 49
0.01
 74
     0
 49
-0.06
 74
     0
  0
LTYPE
  5
8B
330
5
100
AcDbSymbolTableRecord
100
AcDbLinetypeTableRecord
  2
LONG_DASH_TRIPLE_DOT
 70
     0
  3
Long Dash Triple Dot ____ ... ____ ... ____
 72
    65
 73
     8
 40
0.3689
 49
0.2362
 74
     0
 49
-0.0295
 74
     0
 49
0.0049
 74
     0
 49
-0.0295
 74
     0
 49
0.0049
 74
     0
 49
-0.0295
 74
     0
 49
0.0049
 74
     0
 49
-0.0295
 74
     0
  0
LTYPE
  5
8C
330
5
100
AcDbSymbolTableRecord
100
AcDbLinetypeTableRecord
  2
BORDER
 70
     0
  3
Border __ __ . __ __ . __ __ . __ __ . __ __ .
 72
    65
 73
     6
 40
1.75
 49
0.5
 74
     0
 49
-0.25
 74
     0
 49
0.5
 74
     0
 49
-0.25
 74
     0
 49
0.0
 74
     0
 49
-0.25
 74
     0
  0
LTYPE
  5
8D
330
5
100
AcDbSymbolTableRecord
100
AcDbLinetypeTableRecord
  2
BORDER2
 70
     0
  3
Border (.5x) __.__.__.__.__.__.__.__.__.__.__.
 72
    65
 73
     6
 40
0.875
 49
0.25
 74
     0
 49
-0.125
 74
     0
 49
0.25
 74
     0
 49
-0.125
 74
     0
 49
0.0
 74
     0
 49
-0.125
 74
     0
  0
LTYPE
  5
8E
330
5
100
AcDbSymbolTableRecord
100
AcDbLinetypeTableRecord
  2
BORDERX2
 70
     0
  3
Border (2x) ____  ____  .  ____  ____  .  ___
 72
    65
 73
     6
 40
3.5
 49
1.0
 74
     0
 49
-0.5
 74
     0
 49
1.0
 74
     0
 49
-0.5
 74
     0
 49
0.0
 74
     0
 49
-0.5
 74
     0
  0
LTYPE
  5
8F
330
5
100
AcDbSymbolTableRecord
100
AcDbLinetypeTableRecord
  2
CENTER
 70
     0
  3
Center ____ _ ____ _ ____ _ ____ _ ____ _ ____
 72
    65
 73
     4
 40
2.0
 49
1.25
 74
     0
 49
-0.25
 74
     0
 49
0.25
 74
     0
 49
-0.25
 74
     0
  0
LTYPE
  5
90
330
5
100
AcDbSymbolTableRecord
100
AcDbLinetypeTableRecord
  2
CENTER2
 70
     0
  3
Center (.5x) ___ _ ___ _ ___ _ ___ _ ___ _ ___
 72
    65
 73
     4
 40
1.125
 49
0.75
 74
     0
 49
-0.125
 74
     0
 49
0.125
 74
     0
 49
-0.125
 74
     0
  0
LTYPE
  5
91
330
5
100
AcDbSymbolTableRecord
100
AcDbLinetypeTableRecord
  2
CENTERX2
 70
     0
  3
Center (2x) ________  __  ________  __  _____
 72
    65
 73
     4
 40
4.0
 49
2.5
 74
     0
 49
-0.5
 74
     0
 49
0.5
 74
     0
 49
-0.5
 74
     0
  0
LTYPE
  5
92
330
5
100
AcDbSymbolTableRecord
100
AcDbLinetypeTableRecord
  2
DASHDOT2
 70
     0
  3
Dash dot (.5x) _._._._._._._._._._._._._._._.
 72
    65
 73
     4
 40
0.5
 49
0.25
 74
     0
 49
-0.125
 74
     0
 49
0.0
 74
     0
 49
-0.125
 74
     0
  0
LTYPE
  5
93
330
5
100
AcDbSymbolTableRecord
100
AcDbLinetypeTableRecord
  2
DASHDOTX2
 70
     0
  3
Dash dot (2x) ____  .  ____  .  ____  .  ___
 72
    65
 73
     4
 40
2.0
 49
1.0
 74
     0
 49
-0.5
 74
     0
 49
0.0
 74
     0
 49
-0.5
 74
     0
  0
LTYPE
  5
95
330
5
100
AcDbSymbolTableRecord
100
AcDbLinetypeTableRecord
  2
DASHED2
 70
     0
  3
Dashed (.5x) _ _ _ _ _ _ _ _ _ _ _ _ _ _ _ _ _
 72
    65
 73
     2
 40
0.375
 49
0.25
 74
     0
 49
-0.125
 74
     0
  0
LTYPE
  5
96
330
5
100
AcDbSymbolTableRecord
100
AcDbLinetypeTableRecord
  2
DASHEDX2
 70
     0
  3
Dashed (2x) ____  ____  ____  ____  ____  ___
 72
    65
 73
     2
 40
1.5
 49
1.0
 74
     0
 49
-0.5
 74
     0
  0
LTYPE
  5
97
330
5
100
AcDbSymbolTableRecord
100
AcDbLinetypeTableRecord
  2
DIVIDE
 70
     0
  3
Divide ____ . . ____ . . ____ . . ____ . . ____
 72
    65
 73
     6
 40
1.25
 49
0.5
 74
     0
 49
-0.25
 74
     0
 49
0.0
 74
     0
 49
-0.25
 74
     0
 49
0.0
 74
     0
 49
-0.25
 74
     0
  0
LTYPE
  5
98
330
5
100
AcDbSymbolTableRecord
100
AcDbLinetypeTableRecord
  2
DIVIDE2
 70
     0
  3
Divide (.5x) __..__..__..__..__..__..__..__.._
 72
    65
 73
     6
 40
0.625
 49
0.25
 74
     0
 49
-0.125
 74
     0
 49
0.0
 74
     0
 49
-0.125
 74
     0
 49
0.0
 74
     0
 49
-0.125
 74
     0
  0
LTYPE
  5
99
330
5
100
AcDbSymbolTableRecord
100
AcDbLinetypeTableRecord
  2
DIVIDEX2
 70
     0
  3
Divide (2x) ________  .  .  ________  .  .  _
 72
    65
 73
     6
 40
2.5
 49
1.0
 74
     0
 49
-0.5
 74
     0
 49
0.0
 74
     0
 49
-0.5
 74
     0
 49
0.0
 74
     0
 49
-0.5
 74
     0
  0
LTYPE
  5
9A
330
5
100
AcDbSymbolTableRecord
100
AcDbLinetypeTableRecord
  2
DOT
 70
     0
  3
Dot . . . . . . . . . . . . . . . . . . . . . .
 72
    65
 73
     2
 40
0.25
 49
0.0
 74
     0
 49
-0.25
 74
     0
  0
LTYPE
  5
9B
330
5
100
AcDbSymbolTableRecord
100
AcDbLinetypeTableRecord
  2
DOT2
 70
     0
  3
Dot (.5x) .....................................
 72
    65
 73
     2
 40
0.125
 49
0.0
 74
     0
 49
-0.125
 74
     0
  0
LTYPE
  5
9C
330
5
100
AcDbSymbolTableRecord
100
AcDbLinetypeTableRecord
  2
DOTX2
 70
     0
  3
Dot (2x) .  .  .  .  .  .  .  .  .  .  .  .  . 
 72
    65
 73
     2
 40
0.5
 49
0.0
 74
     0
 49
-0.5
 74
     0
  0
LTYPE
  5
9D
330
5
100
AcDbSymbolTableRecord
100
AcDbLinetypeTableRecord
  2
HIDDEN
 70
     0
  3
Hidden __ __ __ __ __ __ __ __ __ __ __ __ __ _
 72
    65
 73
     2
 40
0.375
 49
0.25
 74
     0
 49
-0.125
 74
     0
  0
LTYPE
  5
9E
330
5
100
AcDbSymbolTableRecord
100
AcDbLinetypeTableRecord
  2
HIDDEN2
 70
     0
  3
Hidden (.5x) _ _ _ _ _ _ _ _ _ _ _ _ _ _ _ _ _
 72
    65
 73
     2
 40
0.1875
 49
0.125
 74
     0
 49
-0.0625
 74
     0
  0
LTYPE
  5
9F
330
5
100
AcDbSymbolTableRecord
100
AcDbLinetypeTableRecord
  2
HIDDENX2
 70
     0
  3
Hidden (2x) ____ ____ ____ ____ ____ ____ ____
 72
    65
 73
     2
 40
0.75
 49
0.5
 74
     0
 49
-0.25
 74
     0
  0
LTYPE
  5
A0
330
5
100
AcDbSymbolTableRecord
100
AcDbLinetypeTableRecord
  2
PHANTOM
 70
     0
  3
Phantom ______  __  __  ______  __  __  ______
 72
    65
 73
     6
 40
2.5
 49
1.25
 74
     0
 49
-0.25
 74
     0
 49
0.25
 74
     0
 49
-0.25
 74
     0
 49
0.25
 74
     0
 49
-0.25
 74
     0
  0
LTYPE
  5
A1
330
5
100
AcDbSymbolTableRecord
100
AcDbLinetypeTableRecord
  2
PHANTOM2
 70
     0
  3
Phantom (.5x) ___ _ _ ___ _ _ ___ _ _ ___ _ _
 72
    65
 73
     6
 40
1.25
 49
0.625
 74
     0
 49
-0.125
 74
     0
 49
0.125
 74
     0
 49
-0.125
 74
     0
 49
0.125
 74
     0
 49
-0.125
 74
     0
  0
LTYPE
  5
A2
330
5
100
AcDbSymbolTableRecord
100
AcDbLinetypeTableRecord
  2
PHANTOMX2
 70
     0
  3
Phantom (2x) ____________    ____    ____   _
 72
    65
 73
     6
 40
5.0
 49
2.5
 74
     0
 49
-0.5
 74
     0
 49
0.5
 74
     0
 49
-0.5
 74
     0
 49
0.5
 74
     0
 49
-0.5
 74
     0
  0
LTYPE
  5
A3
330
5
100
AcDbSymbolTableRecord
100
AcDbLinetypeTableRecord
  2
ACAD_ISO02W100
 70
     0
  3
ISO dash __ __ __ __ __ __ __ __ __ __ __ __ __
 72
    65
 73
     2
 40
0.59
 49
0.47
 74
     0
 49
-0.12
 74
     0
  0
LTYPE
  5
A4
330
5
100
AcDbSymbolTableRecord
100
AcDbLinetypeTableRecord
  2
ACAD_ISO03W100
 70
     0
  3
ISO dash space __    __    __    __    __    __
 72
    65
 73
     2
 40
1.179999999999999
 49
0.47
 74
     0
 49
-0.71
 74
     0
  0
LTYPE
  5
A5
330
5
100
AcDbSymbolTableRecord
100
AcDbLinetypeTableRecord
  2
ACAD_ISO04W100
 70
     0
  3
ISO long-dash dot ____ . ____ . ____ . ____ . _
 72
    65
 73
     4
 40
1.179999999999999
 49
0.9399999999999998
 74
     0
 49
-0.12
 74
     0
 49
0.0
 74
     0
 49
-0.12
 74
     0
  0
LTYPE
  5
A6
330
5
100
AcDbSymbolTableRecord
100
AcDbLinetypeTableRecord
  2
ACAD_ISO05W100
 70
     0
  3
ISO long-dash double-dot ____ .. ____ .. ____ .
 72
    65
 73
     6
 40
1.299999999999999
 49
0.9399999999999998
 74
     0
 49
-0.12
 74
     0
 49
0.0
 74
     0
 49
-0.12
 74
     0
 49
0.0
 74
     0
 49
-0.12
 74
     0
  0
LTYPE
  5
A7
330
5
100
AcDbSymbolTableRecord
100
AcDbLinetypeTableRecord
  2
ACAD_ISO06W100
 70
     0
  3
ISO long-dash triple-dot ____ ... ____ ... ____
 72
    65
 73
     8
 40
1.419999999999999
 49
0.9399999999999998
 74
     0
 49
-0.12
 74
     0
 49
0.0
 74
     0
 49
-0.12
 74
     0
 49
0.0
 74
     0
 49
-0.12
 74
     0
 49
0.0
 74
     0
 49
-0.12
 74
     0
  0
LTYPE
  5
A8
330
5
100
AcDbSymbolTableRecord
100
AcDbLinetypeTableRecord
  2
ACAD_ISO07W100
 70
     0
  3
ISO dot . . . . . . . . . . . . . . . . . . . .
 72
    65
 73
     2
 40
0.12
 49
0.0
 74
     0
 49
-0.12
 74
     0
  0
LTYPE
  5
A9
330
5
100
AcDbSymbolTableRecord
100
AcDbLinetypeTableRecord
  2
ACAD_ISO08W100
 70
     0
  3
ISO long-dash short-dash ____ __ ____ __ ____ _
 72
    65
 73
     4
 40
0.95
 49
0.47
 74
     0
 49
-0.12
 74
     0
 49
0.24
 74
     0
 49
-0.12
 74
     0
  0
LTYPE
  5
AA
330
5
100
AcDbSymbolTableRecord
100
AcDbLinetypeTableRecord
  2
ACAD_ISO09W100
 70
     0
  3
ISO long-dash double-short-dash ____ __ __ ____
 72
    65
 73
     6
 40
1.31
 49
0.47
 74
     0
 49
-0.12
 74
     0
 49
0.24
 74
     0
 49
-0.12
 74
     0
 49
0.24
 74
     0
 49
-0.12
 74
     0
  0
LTYPE
  5
AB
330
5
100
AcDbSymbolTableRecord
100
AcDbLinetypeTableRecord
  2
ACAD_ISO10W100
 70
     0
  3
ISO dash dot __ . __ . __ . __ . __ . __ . __ .
 72
    65
 73
     4
 40
0.71
 49
0.47
 74
     0
 49
-0.12
 74
     0
 49
0.0
 74
     0
 49
-0.12
 74
     0
  0
LTYPE
  5
AC
330
5
100
AcDbSymbolTableRecord
100
AcDbLinetypeTableRecord
  2
ACAD_ISO11W100
 70
     0
  3
ISO double-dash dot __ __ . __ __ . __ __ . __ 
 72
    65
 73
     6
 40
1.299999999999999
 49
0.47
 74
     0
 49
-0.12
 74
     0
 49
0.47
 74
     0
 49
-0.12
 74
     0
 49
0.0
 74
     0
 49
-0.12
 74
     0
  0
LTYPE
  5
AD
330
5
100
AcDbSymbolTableRecord
100
AcDbLinetypeTableRecord
  2
ACAD_ISO12W100
 70
     0
  3
ISO dash double-dot __ . . __ . . __ . . __ . .
 72
    65
 73
     6
 40
0.8299999999999998
 49
0.47
 74
     0
 49
-0.12
 74
     0
 49
0.0
 74
     0
 49
-0.12
 74
     0
 49
0.0
 74
     0
 49
-0.12
 74
     0
  0
LTYPE
  5
AE
330
5
100
AcDbSymbolTableRecord
100
AcDbLinetypeTableRecord
  2
ACAD_ISO13W100
 70
     0
  3
ISO double-dash double-dot __ __ . . __ __ . . 
 72
    65
 73
     8
 40
1.419999999999999
 49
0.47
 74
     0
 49
-0.12
 74
     0
 49
0.47
 74
     0
 49
-0.12
 74
     0
 49
0.0
 74
     0
 49
-0.12
 74
     0
 49
0.0
 74
     0
 49
-0.12
 74
     0
  0
LTYPE
  5
AF
330
5
100
AcDbSymbolTableRecord
100
AcDbLinetypeTableRecord
  2
ACAD_ISO14W100
 70
     0
  3
ISO dash triple-dot __ . . . __ . . . __ . . . 
 72
    65
 73
     8
 40
0.95
 49
0.47
 74
     0
 49
-0.12
 74
     0
 49
0.0
 74
     0
 49
-0.12
 74
     0
 49
0.0
 74
     0
 49
-0.12
 74
     0
 49
0.0
 74
     0
 49
-0.12
 74
     0
  0
LTYPE
  5
B0
330
5
100
AcDbSymbolTableRecord
100
AcDbLinetypeTableRecord
  2
ACAD_ISO15W100
 70
     0
  3
ISO double-dash triple-dot __ __ . . . __ __ . 
 72
    65
 73
    10
 40
1.539999999999999
 49
0.47
 74
     0
 49
-0.12
 74
     0
 49
0.47
 74
     0
 49
-0.12
 74
     0
 49
0.0
 74
     0
 49
-0.12
 74
     0
 49
0.0
 74
     0
 49
-0.12
 74
     0
 49
0.0
 74
     0
 49
-0.12
 74
     0
  0
LTYPE
  5
B3
330
5
100
AcDbSymbolTableRecord
100
AcDbLinetypeTableRecord
  2
FENCELINE1
 70
     0
  3
Fenceline circle ----0-----0----0-----0----0---
 72
    65
 73
     4
 40
1.45
 49
0.25
 74
     0
 49
-0.1
 74
     4
 75
   133
340
B2
 46
0.1
 50
0.0
 44
-0.1
 45
0.0
 49
-0.1
 74
     0
 49
1.0
 74
     0
  0
LTYPE
  5
B4
330
5
100
AcDbSymbolTableRecord
100
AcDbLinetypeTableRecord
  2
FENCELINE2
 70
     0
  3
Fenceline square ----[]-----[]----[]-----[]----
 72
    65
 73
     4
 40
1.45
 49
0.25
 74
     0
 49
-0.1
 74
     4
 75
   132
340
B2
 46
0.1
 50
0.0
 44
-0.1
 45
0.0
 49
-0.1
 74
     0
 49
1.0
 74
     0
  0
LTYPE
  5
B5
330
5
100
AcDbSymbolTableRecord
100
AcDbLinetypeTableRecord
  2
TRACKS
 70
     0
  3
Tracks -|-|-|-|-|-|-|-|-|-|-|-|-|-|-|-|-|-|-|-|
 72
    65
 73
     2
 40
0.3
 49
0.15
 74
     4
 75
   130
340
B2
 46
0.25
 50
0.0
 44
0.0
 45
0.0
 49
0.15
 74
     0
  0
LTYPE
  5
B6
330
5
100
AcDbSymbolTableRecord
100
AcDbLinetypeTableRecord
  2
BATTING
 70
     0
  3
Batting SSSSSSSSSSSSSSSSSSSSSSSSSSSSSSSSSSSSSSS
 72
    65
 73
     4
 40
0.4001000000000001
 49
0.0001
 74
     0
 49
-0.1
 74
     4
 75
   134
340
B2
 46
0.1
 50
0.0
 44
-0.1
 45
0.0
 49
-0.2
 74
     4
 75
   134
340
B2
 46
0.1
 50
180.0
 44
0.1
 45
0.0
 49
-0.1
 74
     0
  0
LTYPE
  5
B7
330
5
100
AcDbSymbolTableRecord
100
AcDbLinetypeTableRecord
  2
HOT_WATER_SUPPLY
 70
     0
  3
Hot water supply ---- HW ---- HW ---- HW ----
 72
    65
 73
     3
 40
0.9
 49
0.5
 74
     0
 49
-0.2
 74
     2
 75
     0
340
55
 46
0.1
 50
0.0
 44
-0.1
 45
-0.05
  9
HW
 49
-0.2
 74
     0
  0
LTYPE
  5
B8
330
5
100
AcDbSymbolTableRecord
100
AcDbLinetypeTableRecord
  2
GAS_LINE
 70
     0
  3
Gas line ----GAS----GAS----GAS----GAS----GAS---
 72
    65
 73
     3
 40
0.95
 49
0.5
 74
     0
 49
-0.2
 74
     2
 75
     0
340
55
 46
0.1
 50
0.0
 44
-0.1
 45
-0.05
  9
GAS
 49
-0.25
 74
     0
  0
LTYPE
  5
B9
330
5
100
AcDbSymbolTableRecord
100
AcDbLinetypeTableRecord
  2
ZIGZAG
 70
     0
  3
Zig zag /\/\/\/\/\/\/\/\/\/\/\/\/\/\/\/\/\/\/\/
 72
    65
 73
     4
 40
0.8001000000000001
 49
0.0001
 74
     0
 49
-0.2
 74
     4
 75
   131
340
B2
 46
0.2
 50
0.0
 44
-0.2
 45
0.0
 49
-0.4
 74
     4
 75
   131
340
B2
 46
0.2
 50
180.0
 44
0.2
 45
0.0
 49
-0.2
 74
     0
  0
ENDTAB
  0
TABLE
  2
LAYER
  5
2
330
0
100
AcDbSymbolTable
 70
    27
  0
LAYER
  5
54
330
2
100
AcDbSymbolTableRecord
100
AcDbLayerTableRecord
  2
0
 70
     0
 62
     7
  6
Continuous
370
    18
390
F
  0
LAYER
  5
C0
330
2
100
AcDbSymbolTableRecord
100
AcDbLayerTableRecord
  2
Center Mark (ANSI)
 70
     0
 62
     7
  6
Continuous
370
    15
390
F
  0
LAYER
  5
C1
330
2
100
AcDbSymbolTableRecord
100
AcDbLayerTableRecord
  2
Centerline (ANSI)
 70
     0
 62
     7
  6
Continuous
370
    15
390
F
  0
LAYER
  5
C3
330
2
100
AcDbSymbolTableRecord
100
AcDbLayerTableRecord
  2
Dimension (ANSI)
 70
     0
 62
     7
  6
Continuous
370
    13
390
F
  0
LAYER
  5
C5
330
2
100
AcDbSymbolTableRecord
100
AcDbLayerTableRecord
  2
Hidden (ANSI)
 70
     0
 62
     7
  6
DASHED
370
    15
390
F
  0
LAYER
  5
CB
330
2
100
AcDbSymbolTableRecord
100
AcDbLayerTableRecord
  2
Sketch Geometry (ANSI)
 70
     0
 62
     7
  6
Continuous
370
    20
390
F
  0
LAYER
  5
CC
330
2
100
AcDbSymbolTableRecord
100
AcDbLayerTableRecord
  2
Symbol (ANSI)
 70
     0
 62
     7
  6
Continuous
370
    18
390
F
  0
LAYER
  5
CF
330
2
100
AcDbSymbolTableRecord
100
AcDbLayerTableRecord
  2
Visible (ANSI)
 70
     0
 62
     7
  6
Continuous
370
    13
390
F
  0
LAYER
  5
D0
330
2
100
AcDbSymbolTableRecord
100
AcDbLayerTableRecord
  2
Visible Narrow (ANSI)
 70
     0
 62
     7
  6
Continuous
370
    18
390
F
  0
LAYER
  5
16F
330
2
100
AcDbSymbolTableRecord
100
AcDbLayerTableRecord
  2
Defpoints
 70
     0
 62
     7
  6
Continuous
290
     0
370
    -3
390
F
  0
ENDTAB
  0
TABLE
  2
STYLE
  5
3
330
0
100
AcDbSymbolTable
 70
    18
  0
STYLE
  5
55
330
3
100
AcDbSymbolTableRecord
100
AcDbTextStyleTableRecord
  2
Standard
 70
     0
 40
0.0
 41
1.0
 50
0.0
 71
     0
 42
0.2
  3
txt
  4

  0
STYLE
  5
5A
330
3
100
AcDbSymbolTableRecord
100
AcDbTextStyleTableRecord
  2
Annotative
 70
     0
 40
0.0
 41
1.0
 50
0.0
 71
     0
 42
0.2
  3
txt
  4

1001
AcadAnnotative
1000
AnnotativeData
1002
{
1070
     1
1070
     1
1002
}
  0
STYLE
  5
B2
330
3
100
AcDbSymbolTableRecord
100
AcDbTextStyleTableRecord
  2

 70
     1
 40
0.0
 41
1.0
 50
0.0
 71
     0
 42
0.2
  3
ltypeshp.shx
  4

  0
STYLE
  5
D4
330
3
100
AcDbSymbolTableRecord
100
AcDbTextStyleTableRecord
  2
ITALICC_120
 70
     0
 40
0.0
 41
1.0
 50
0.0
 71
     0
 42
0.2
  3
italicc.shx
  4

  0
STYLE
  5
D5
330
3
100
AcDbSymbolTableRecord
100
AcDbTextStyleTableRecord
  2
Label Text (ANSI)
 70
     0
 40
0.0
 41
1.0
 50
0.0
 71
     0
 42
0.2
  3
tahoma.ttf
  4

1001
ACAD
1000
Tahoma
1071
      256
  0
STYLE
  5
D6
330
3
100
AcDbSymbolTableRecord
100
AcDbTextStyleTableRecord
  2
Note Text (ANSI)
 70
     0
 40
0.0
 41
1.0
 50
0.0
 71
     0
 42
0.2
  3
tahoma.ttf
  4

1001
ACAD
1000
Tahoma
1071
      256
  0
STYLE
  5
D7
330
3
100
AcDbSymbolTableRecord
100
AcDbTextStyleTableRecord
  2
ROMANS
 70
     0
 40
0.0
 41
1.0
 50
0.0
 71
     0
 42
0.2
  3
romans.shx
  4

  0
STYLE
  5
D8
330
3
100
AcDbSymbolTableRecord
100
AcDbTextStyleTableRecord
  2
SANSSERIF_114
 70
     0
 40
0.0
 41
1.0
 50
0.0
 71
     0
 42
0.2
  3
tahoma.ttf
  4

1001
ACAD
1000
Tahoma
1071
      256
  0
STYLE
  5
D9
330
3
100
AcDbSymbolTableRecord
100
AcDbTextStyleTableRecord
  2
SANSSERIF_117
 70
     0
 40
0.0
 41
1.0
 50
0.0
 71
     0
 42
0.2
  3
tahoma.ttf
  4

1001
ACAD
1000
Tahoma
1071
      256
  0
STYLE
  5
DA
330
3
100
AcDbSymbolTableRecord
100
AcDbTextStyleTableRecord
  2
STANDARDAM_ANSI
 70
     0
 40
0.0
 41
1.0
 50
0.0
 71
     0
 42
0.2
  3
txt.shx
  4

  0
STYLE
  5
DB
330
3
100
AcDbSymbolTableRecord
100
AcDbTextStyleTableRecord
  2
StandardAM_ANSI$0
 70
     0
 40
0.0
 41
1.0
 50
0.0
 71
     0
 42
0.2
  3
txt.shx
  4

  0
STYLE
  5
DC
330
3
100
AcDbSymbolTableRecord
100
AcDbTextStyleTableRecord
  2
STANDARDAM_ANSI$3
 70
     0
 40
0.0
 41
1.0
 50
0.0
 71
     0
 42
0.2
  3
txt.shx
  4

  0
STYLE
  5
DD
330
3
100
AcDbSymbolTableRecord
100
AcDbTextStyleTableRecord
  2
STANDARDAM_ANSI$4
 70
     0
 40
0.0
 41
1.0
 50
0.0
 71
     0
 42
0.2
  3
txt.shx
  4

  0
STYLE
  5
DE
330
3
100
AcDbSymbolTableRecord
100
AcDbTextStyleTableRecord
  2
STANDARDAM_ANSI$7
 70
     0
 40
0.0
 41
1.0
 50
0.0
 71
     0
 42
0.2
  3
txt.shx
  4

  0
STYLE
  5
DF
330
3
100
AcDbSymbolTableRecord
100
AcDbTextStyleTableRecord
  2
STANDARDAM_ANSI$SF
 70
     0
 40
0.0
 41
1.0
 50
0.0
 71
     0
 42
0.2
  3
txt.shx
  4

  0
STYLE
  5
E0
330
3
100
AcDbSymbolTableRecord
100
AcDbTextStyleTableRecord
  2
STANDARDAM_ANSI$SH
 70
     0
 40
0.0
 41
1.0
 50
0.0
 71
     0
 42
0.2
  3
txt.shx
  4

  0
STYLE
  5
E1
330
3
100
AcDbSymbolTableRecord
100
AcDbTextStyleTableRecord
  2
STANDARDSTANDARD
 70
     0
 40
0.0
 41
1.0
 50
0.0
 71
     0
 42
0.2
  3
txt.shx
  4

  0
STYLE
  5
130
330
3
100
AcDbSymbolTableRecord
100
AcDbTextStyleTableRecord
  2
Text Style166
 70
     0
 40
0.0
 41
1.0
 50
0.0
 71
     0
 42
0.2
  3
tahoma.ttf
  4

1001
ACAD
1000
Tahoma
1071
      256
  0
ENDTAB
  0
TABLE
  2
VIEW
  5
6
330
0
100
AcDbSymbolTable
 70
     0
  0
ENDTAB
  0
TABLE
  2
UCS
  5
7
330
0
100
AcDbSymbolTable
 70
     0
  0
ENDTAB
  0
TABLE
  2
APPID
  5
9
330
0
100
AcDbSymbolTable
 70
     4
  0
APPID
  5
56
330
9
100
AcDbSymbolTableRecord
100
AcDbRegAppTableRecord
  2
ACAD
 70
     0
  0
APPID
  5
5E
330
9
100
AcDbSymbolTableRecord
100
AcDbRegAppTableRecord
  2
AcadAnnotative
 70
     0
  0
APPID
  5
5C7
330
9
100
AcDbSymbolTableRecord
100
AcDbRegAppTableRecord
  2
ACAD_DSTYLE_DIMRADIAL_EXTENSION
 70
     0
  0
APPID
  5
EA1
330
9
100
AcDbSymbolTableRecord
100
AcDbRegAppTableRecord
  2
ACAD_MLEADERVER
 70
     0
  0
ENDTAB
  0
TABLE
  2
DIMSTYLE
  5
A
330
0
100
AcDbSymbolTable
 70
    27
100
AcDbDimStyleTable
 71
     2
340
F6
340
58
  0
DIMSTYLE
105
58
330
A
100
AcDbSymbolTableRecord
100
AcDbDimStyleTableRecord
  2
STANDARD
 70
     0
 41
0.1800000071525573
 42
0.0625
140
0.1800000071525574
144
1.0
147
0.0900000035762787
176
   256
177
   256
178
   256
274
     3
340
55
371
    -1
372
    -1
  0
DIMSTYLE
105
59
330
A
100
AcDbSymbolTableRecord
100
AcDbDimStyleTableRecord
  2
Annotative
 70
     0
340
55
1001
AcadAnnotative
1000
AnnotativeData
1002
{
1070
     1
1070
     1
1002
}
  0
DIMSTYLE
105
E2
330
A
100
AcDbSymbolTableRecord
100
AcDbDimStyleTableRecord
  2
AM_ANSI
 70
     0
  4
 mm
 40
3.333333333333333
 41
0.119999997317791
 42
0.05
 43
0.5
 44
0.1
 45
0.00000001
 78
     4
 79
     2
140
0.1200000047683716
146
0.7099999189376831
147
0.0599999986588955
176
   256
177
   256
178
     2
284
     4
340
DA
371
    -1
372
    -1
  0
DIMSTYLE
105
E3
330
A
100
AcDbSymbolTableRecord
100
AcDbDimStyleTableRecord
  2
AM_ANSI$7
 70
     0
  4
 mm
 40
3.333333333333333
 41
0.119999997317791
 42
0.05
 43
0.5
 44
0.1
 45
0.00000001
 78
     4
 79
     2
140
0.1200000047683716
146
0.7099999189376831
147
0.0599999986588955
176
   256
177
   256
178
     2
284
     4
340
DA
371
    -1
372
    -1
  0
DIMSTYLE
105
E4
330
A
100
AcDbSymbolTableRecord
100
AcDbDimStyleTableRecord
  2
AM_ANSI$0
 70
     0
  4
 mm
 40
3.333333333333333
 41
0.119999997317791
 42
0.05
 43
0.5
 44
0.1
 45
0.00000001
 78
     4
 79
     2
140
0.1200000047683716
146
0.7099999189376831
147
0.0599999986588955
176
   256
177
   256
178
     2
284
     4
340
DB
371
    -1
372
    -1
  0
DIMSTYLE
105
E5
330
A
100
AcDbSymbolTableRecord
100
AcDbDimStyleTableRecord
  2
AM_ANSI$0$7
 70
     0
  4
 mm
 40
3.333333333333333
 41
0.119999997317791
 42
0.05
 43
0.5
 44
0.1
 45
0.00000001
 78
     4
 79
     2
140
0.1200000047683716
146
0.7099999189376831
147
0.0599999986588955
176
   256
177
   256
178
     2
284
     4
340
DB
371
    -1
372
    -1
  0
DIMSTYLE
105
E6
330
A
100
AcDbSymbolTableRecord
100
AcDbDimStyleTableRecord
  2
AM_ANSI$3
 70
     0
  4
 mm
 40
3.333333333333333
 41
0.119999997317791
 42
0.05
 43
0.5
 44
0.1
 45
0.00000001
 78
     4
 79
     2
140
0.1200000047683716
146
0.7099999189376831
147
0.0599999986588955
176
   256
177
   256
178
     2
284
     4
340
DC
371
    -1
372
    -1
  0
DIMSTYLE
105
E7
330
A
100
AcDbSymbolTableRecord
100
AcDbDimStyleTableRecord
  2
AM_ANSI$3$7
 70
     0
  4
 mm
 40
3.333333333333333
 41
0.119999997317791
 42
0.05
 43
0.5
 44
0.1
 45
0.00000001
 78
     4
 79
     2
140
0.1200000047683716
146
0.7099999189376831
147
0.0599999986588955
176
   256
177
   256
178
     2
284
     4
340
DC
371
    -1
372
    -1
  0
DIMSTYLE
105
E8
330
A
100
AcDbSymbolTableRecord
100
AcDbDimStyleTableRecord
  2
AM_ANSI$4
 70
     0
  4
 mm
 40
3.333333333333333
 41
0.119999997317791
 42
0.05
 43
0.5
 44
0.1
 45
0.00000001
 78
     4
 79
     2
140
0.1200000047683716
146
0.7099999189376831
147
0.0599999986588955
176
   256
177
   256
178
     2
284
     4
340
DD
371
    -1
372
    -1
  0
DIMSTYLE
105
E9
330
A
100
AcDbSymbolTableRecord
100
AcDbDimStyleTableRecord
  2
AM_ANSI$4$7
 70
     0
  4
 mm
 40
3.333333333333333
 41
0.119999997317791
 42
0.05
 43
0.5
 44
0.1
 45
0.00000001
 78
     4
 79
     2
140
0.1200000047683716
146
0.7099999189376831
147
0.0599999986588955
176
   256
177
   256
178
     2
284
     4
340
DD
371
    -1
372
    -1
  0
DIMSTYLE
105
EA
330
A
100
AcDbSymbolTableRecord
100
AcDbDimStyleTableRecord
  2
AM_ANSI$SF
 70
     0
  4
 mm
 40
3.333333333333333
 41
0.119999997317791
 42
0.05
 43
0.5
 44
0.1
 45
0.00000001
 75
     1
 76
     1
 78
     4
 79
     2
140
0.1200000047683716
146
0.7099999189376831
147
0.0599999986588955
176
   256
177
   256
178
     2
284
     4
340
DF
371
    -1
372
    -1
  0
DIMSTYLE
105
EB
330
A
100
AcDbSymbolTableRecord
100
AcDbDimStyleTableRecord
  2
AM_ANSI$SF$7
 70
     0
  4
 mm
 40
3.333333333333333
 41
0.119999997317791
 42
0.05
 43
0.5
 44
0.1
 45
0.00000001
 75
     1
 76
     1
 78
     4
 79
     2
140
0.1200000047683716
146
0.7099999189376831
147
0.0599999986588955
176
   256
177
   256
178
     2
284
     4
340
DF
371
    -1
372
    -1
  0
DIMSTYLE
105
EC
330
A
100
AcDbSymbolTableRecord
100
AcDbDimStyleTableRecord
  2
AM_ANSI$SH
 70
     0
  4
 mm
 40
3.333333333333333
 41
0.119999997317791
 42
0.05
 43
0.5
 44
0.1
 45
0.00000001
 75
     1
 76
     1
 78
     4
 79
     2
140
0.1200000047683716
146
0.7099999189376831
147
0.0599999986588955
176
   256
177
   256
178
     2
284
     4
340
E0
371
    -1
372
    -1
  0
DIMSTYLE
105
ED
330
A
100
AcDbSymbolTableRecord
100
AcDbDimStyleTableRecord
  2
AM_ANSI$SH$7
 70
     0
  4
 mm
 40
3.333333333333333
 41
0.119999997317791
 42
0.05
 43
0.5
 44
0.1
 45
0.00000001
 75
     1
 76
     1
 78
     4
 79
     2
140
0.1200000047683716
146
0.7099999189376831
147
0.0599999986588955
176
   256
177
   256
178
     2
284
     4
340
E0
371
    -1
372
    -1
  0
DIMSTYLE
105
EE
330
A
100
AcDbSymbolTableRecord
100
AcDbDimStyleTableRecord
  2
Architectural (ANSI)
 70
     0
 40
3.333333333333333
 41
0.0984251946210861
 43
0.2362204724409449
 44
0.125
 45
0.00000001
 46
0.3937007874015748
 78
     3
 79
     3
140
0.1200000047683716
147
0.031496062992126
171
     1
176
   256
177
   256
178
   256
272
     2
274
     1
276
     2
277
     4
284
    12
285
     4
286
    12
340
D6
371
    -1
372
    -1
  0
DIMSTYLE
105
EF
330
A
100
AcDbSymbolTableRecord
100
AcDbDimStyleTableRecord
  2
Architectural (ANSI)$7
 70
     0
 40
3.333333333333333
 41
0.0984251946210861
 43
0.2362204724409449
 44
0.125
 45
0.00000001
 46
0.3937007874015748
 78
     3
 79
     3
140
0.1200000047683716
147
0.031496062992126
171
     1
176
   256
177
   256
178
   256
272
     2
274
     1
276
     2
277
     4
284
    12
285
     4
286
    12
340
D6
371
    -1
372
    -1
  0
DIMSTYLE
105
F0
330
A
100
AcDbSymbolTableRecord
100
AcDbDimStyleTableRecord
  2
Default - Fraction (ANSI)
 70
     0
 40
3.333333333333333
 41
0.0984251946210861
 43
0.2362204724409449
 44
0.125
 45
0.00000001
 46
0.3937007874015748
 79
     3
140
0.1200000047683716
147
0.031496062992126
171
     1
176
   256
177
   256
178
   256
272
     2
274
     1
276
     2
277
     5
284
    12
285
     4
286
    12
340
D6
371
    -1
372
    -1
  0
DIMSTYLE
105
F1
330
A
100
AcDbSymbolTableRecord
100
AcDbDimStyleTableRecord
  2
Default - Fraction (ANSI)$7
 70
     0
 40
3.333333333333333
 41
0.0984251946210861
 43
0.2362204724409449
 44
0.125
 45
0.00000001
 46
0.3937007874015748
 79
     3
140
0.1200000047683716
147
0.031496062992126
171
     1
176
   256
177
   256
178
   256
272
     2
274
     1
276
     2
277
     5
284
    12
285
     4
286
    12
340
D6
371
    -1
372
    -1
  0
DIMSTYLE
105
F2
330
A
100
AcDbSymbolTableRecord
100
AcDbDimStyleTableRecord
  2
Default - mm (ANSI)
 70
     0
 40
3.333333333333333
 41
0.0984251946210861
 42
0.063
 43
0.2362204724409449
 44
0.125
 45
0.00000001
 46
0.3937007874015748
 73
     0
 78
     4
 79
     1
140
0.1200000047683716
143
1.0
144
25.4
147
0.031496062992126
171
     1
176
   256
177
   256
178
   256
179
     1
271
     2
272
     2
274
     1
284
     4
285
     4
340
D6
371
    -1
372
    -1
  0
DIMSTYLE
105
F3
330
A
100
AcDbSymbolTableRecord
100
AcDbDimStyleTableRecord
  2
Default - mm (ANSI)$7
 70
     0
 40
3.333333333333333
 41
0.0984251946210861
 42
0.063
 43
0.2362204724409449
 44
0.125
 45
0.00000001
 46
0.3937007874015748
 73
     0
 78
     4
 79
     1
140
0.1200000047683716
143
1.0
144
25.4
147
0.031496062992126
171
     1
176
   256
177
   256
178
   256
179
     1
271
     2
272
     2
274
     1
284
     4
285
     4
340
D6
371
    -1
372
    -1
  0
DIMSTYLE
105
F4
330
A
100
AcDbSymbolTableRecord
100
AcDbDimStyleTableRecord
  2
Default - mm [in] (ANSI)
 70
     0
  4
 in
 40
3.333333333333333
 41
0.0984251946210861
 42
0.063
 43
0.25
 44
0.125
 45
0.00000001
 46
0.3937007874015748
 73
     0
 78
     4
 79
     1
140
0.1200000047683716
143
0.03937
144
25.4
147
0.031496062992126
170
     1
171
     3
176
   256
177
   256
178
   256
179
     1
271
     2
272
     2
274
     3
284
     4
285
     4
286
     4
340
D6
371
    -1
372
    -1
  0
DIMSTYLE
105
F5
330
A
100
AcDbSymbolTableRecord
100
AcDbDimStyleTableRecord
  2
Default - mm [in] (ANSI)$7
 70
     0
  4
 in
 40
3.333333333333333
 41
0.0984251946210861
 42
0.063
 43
0.25
 44
0.125
 45
0.00000001
 46
0.3937007874015748
 73
     0
 78
     4
 79
     1
140
0.1200000047683716
143
0.03937
144
25.4
147
0.031496062992126
170
     1
171
     3
176
   256
177
   256
178
   256
179
     1
271
     2
272
     2
274
     3
284
     4
285
     4
286
     4
340
D6
371
    -1
372
    -1
  0
DIMSTYLE
105
F6
102
{ACAD_REACTORS
330
16D
330
259
330
343
330
42D
330
52D
330
5E8
330
6F0
330
7DA
330
8C4
330
9D4
330
AD4
330
BBD
330
CA7
330
DA3
102
}
330
A
100
AcDbSymbolTableRecord
100
AcDbDimStyleTableRecord
  2
Default (ANSI)
 70
     0
 40
3.333333333333333
 41
0.0984251946210861
 43
0.2362204724409449
 44
0.125
 45
0.00000001
 46
0.3937007874015748
 79
     1
140
0.1200000047683716
147
0.031496062992126
171
     1
176
   256
177
   256
178
   256
271
     2
272
     2
274
     1
284
     4
285
     4
340
D6
371
    -1
372
    -1
  0
DIMSTYLE
105
F7
330
A
100
AcDbSymbolTableRecord
100
AcDbDimStyleTableRecord
  2
Default (ANSI)$7
 70
     0
 40
3.333333333333333
 41
0.0984251946210861
 43
0.2362204724409449
 44
0.125
 45
0.00000001
 46
0.3937007874015748
 79
     1
140
0.1200000047683716
147
0.031496062992126
171
     1
176
   256
177
   256
178
   256
271
     2
272
     2
274
     1
284
     4
285
     4
340
D6
371
    -1
372
    -1
  0
DIMSTYLE
105
F8
330
A
100
AcDbSymbolTableRecord
100
AcDbDimStyleTableRecord
  2
Alternate (ANSI)
 70
     0
 40
3.333333333333333
 41
0.0979999974370003
340
55
342
F9
  0
DIMSTYLE
105
10B
330
A
100
AcDbSymbolTableRecord
100
AcDbDimStyleTableRecord
  2
Datum (ANSI)
 70
     0
 40
3.333333333333333
 41
0.0979999974370003
340
55
342
F9
  0
DIMSTYLE
105
11A
330
A
100
AcDbSymbolTableRecord
100
AcDbDimStyleTableRecord
  2
Large (ANSI)
 70
     0
 40
3.333333333333333
 41
0.1959999948740005
340
55
342
F9
  0
ENDTAB
  0
TABLE
  2
BLOCK_RECORD
  5
1
330
0
100
AcDbSymbolTable
 70
    18
  0
BLOCK_RECORD
  5
6C
330
1
100
AcDbSymbolTableRecord
100
AcDbBlockTableRecord
  2
*Model_Space
340
6F
  0
BLOCK_RECORD
  5
68
330
1
100
AcDbSymbolTableRecord
100
AcDbBlockTableRecord
  2
*Paper_Space
340
6B
  0
BLOCK_RECORD
  5
70
330
1
100
AcDbSymbolTableRecord
100
AcDbBlockTableRecord
  2
*Paper_Space0
340
73
  0
BLOCK_RECORD
  5
F9
330
1
100
AcDbSymbolTableRecord
100
AcDbBlockTableRecord
  2
_Closed
340
0
  0
BLOCK_RECORD
  5
100
330
1
100
AcDbSymbolTableRecord
100
AcDbBlockTableRecord
  2
DatumFilled45
340
0
  0
BLOCK_RECORD
  5
10C
330
1
100
AcDbSymbolTableRecord
100
AcDbBlockTableRecord
  2
Filled-1
340
0
  0
BLOCK_RECORD
  5
170
330
1
100
AcDbSymbolTableRecord
100
AcDbBlockTableRecord
  2
*D4
340
0
  0
BLOCK_RECORD
  5
25A
330
1
100
AcDbSymbolTableRecord
100
AcDbBlockTableRecord
  2
*D5
340
0
  0
BLOCK_RECORD
  5
344
330
1
100
AcDbSymbolTableRecord
100
AcDbBlockTableRecord
  2
*D6
340
0
  0
BLOCK_RECORD
  5
42E
330
1
100
AcDbSymbolTableRecord
100
AcDbBlockTableRecord
  2
*D7
340
0
  0
BLOCK_RECORD
  5
52E
330
1
100
AcDbSymbolTableRecord
100
AcDbBlockTableRecord
  2
*D8
340
0
  0
BLOCK_RECORD
  5
5E9
330
1
100
AcDbSymbolTableRecord
100
AcDbBlockTableRecord
  2
*D9
340
0
  0
BLOCK_RECORD
  5
6F1
330
1
100
AcDbSymbolTableRecord
100
AcDbBlockTableRecord
  2
*D10
340
0
  0
BLOCK_RECORD
  5
7DB
330
1
100
AcDbSymbolTableRecord
100
AcDbBlockTableRecord
  2
*D11
340
0
  0
BLOCK_RECORD
  5
8C5
330
1
100
AcDbSymbolTableRecord
100
AcDbBlockTableRecord
  2
*D12
340
0
  0
BLOCK_RECORD
  5
9D5
330
1
100
AcDbSymbolTableRecord
100
AcDbBlockTableRecord
  2
*D13
340
0
  0
BLOCK_RECORD
  5
AD5
330
1
100
AcDbSymbolTableRecord
100
AcDbBlockTableRecord
  2
*D14
340
0
  0
BLOCK_RECORD
  5
BBE
330
1
100
AcDbSymbolTableRecord
100
AcDbBlockTableRecord
  2
*D15
340
0
  0
BLOCK_RECORD
  5
CA8
330
1
100
AcDbSymbolTableRecord
100
AcDbBlockTableRecord
  2
*D16
340
0
  0
BLOCK_RECORD
  5
DA4
330
1
100
AcDbSymbolTableRecord
100
AcDbBlockTableRecord
  2
*D17
340
0
  0
ENDTAB
  0
ENDSEC
  0
SECTION
  2
BLOCKS
  0
BLOCK
  5
6D
330
6C
100
AcDbEntity
  8
0
100
AcDbBlockBegin
  2
*Model_Space
 70
     0
 10
0.0
 20
0.0
 30
0.0
  3
*Model_Space
  1

  0
ENDBLK
  5
6E
330
6C
100
AcDbEntity
  8
0
100
AcDbBlockEnd
  0
BLOCK
  5
69
330
68
100
AcDbEntity
 67
     1
  8
0
100
AcDbBlockBegin
  2
*Paper_Space
 70
     0
 10
0.0
 20
0.0
 30
0.0
  3
*Paper_Space
  1

  0
ENDBLK
  5
6A
330
68
100
AcDbEntity
 67
     1
  8
0
100
AcDbBlockEnd
  0
BLOCK
  5
71
330
70
100
AcDbEntity
 67
     1
  8
0
100
AcDbBlockBegin
  2
*Paper_Space0
 70
     0
 10
0.0
 20
0.0
 30
0.0
  3
*Paper_Space0
  1

  0
ENDBLK
  5
72
330
70
100
AcDbEntity
 67
     1
  8
0
100
AcDbBlockEnd
  0
BLOCK
  5
FE
330
F9
100
AcDbEntity
  8
0
100
AcDbBlockBegin
  2
_Closed
 70
     0
 10
0.0
 20
0.0
 30
0.0
  3
_Closed
  1

  0
LINE
  5
FA
330
F9
100
AcDbEntity
  8
0
  6
ByBlock
 62
     0
370
    -2
100
AcDbLine
 10
-1.0
 20
0.1666666666666666
 30
0.0
 11
0.0
 21
0.0
 31
0.0
  0
LINE
  5
FB
330
F9
100
AcDbEntity
  8
0
  6
ByBlock
 62
     0
370
    -2
100
AcDbLine
 10
0.0
 20
0.0
 30
0.0
 11
-1.0
 21
-0.1666666666666666
 31
0.0
  0
LINE
  5
FC
330
F9
100
AcDbEntity
  8
0
  6
ByBlock
 62
     0
370
    -2
100
AcDbLine
 10
-1.0
 20
0.1666666666666666
 30
0.0
 11
-1.0
 21
-0.1666666666666666
 31
0.0
  0
LINE
  5
FD
330
F9
100
AcDbEntity
  8
0
  6
ByBlock
 62
     0
370
    -2
100
AcDbLine
 10
0.0
 20
0.0
 30
0.0
 11
-1.0
 21
0.0
 31
0.0
  0
ENDBLK
  5
FF
330
F9
100
AcDbEntity
  8
0
100
AcDbBlockEnd
  0
BLOCK
  5
101
330
100
100
AcDbEntity
  8
0
100
AcDbBlockBegin
  2
DatumFilled45
 70
     0
 10
0.0
 20
0.0
 30
0.0
  3
DatumFilled45
  1

  0
POLYLINE
  5
103
330
100
100
AcDbEntity
  8
0
 62
     0
100
AcDb2dPolyline
 66
     1
 10
0.0
 20
0.0
 30
0.0
 70
   128
  0
VERTEX
  5
104
330
103
100
AcDbEntity
  8
0
 62
     0
100
AcDbVertex
100
AcDb2dVertex
 10
0.0
 20
0.9999999999999998
 30
0.0
  0
VERTEX
  5
105
330
103
100
AcDbEntity
  8
0
 62
     0
100
AcDbVertex
100
AcDb2dVertex
 10
0.0
 20
-0.9999999999999998
 30
0.0
  0
VERTEX
  5
107
330
103
100
AcDbEntity
  8
0
 62
     0
100
AcDbVertex
100
AcDb2dVertex
 10
-0.9999999999999998
 20
0.0
 30
0.0
  0
VERTEX
  5
108
330
103
100
AcDbEntity
  8
0
 62
     0
100
AcDbVertex
100
AcDb2dVertex
 10
0.0
 20
0.9999999999999998
 30
0.0
  0
SEQEND
  5
106
330
103
100
AcDbEntity
  8
0
 62
     0
  0
SOLID
  5
10A
330
100
100
AcDbEntity
  8
0
 62
     0
100
AcDbTrace
 10
0.0
 20
0.9999999999999998
 30
0.0
 11
0.0
 21
-0.9999999999999998
 31
0.0
 12
-0.9999999999999998
 22
0.0
 32
0.0
 13
0.0
 23
0.9999999999999998
 33
0.0
  0
ENDBLK
  5
102
330
100
100
AcDbEntity
  8
0
100
AcDbBlockEnd
  0
BLOCK
  5
10D
330
10C
100
AcDbEntity
  8
0
100
AcDbBlockBegin
  2
Filled-1
 70
     0
 10
0.0
 20
0.0
 30
0.0
  3
Filled-1
  1

  0
LINE
  5
10F
330
10C
100
AcDbEntity
  8
0
 62
     0
100
AcDbLine
 10
-0.9999999999999998
 20
0.0
 30
0.0
 11
0.0
 21
0.0
 31
0.0
  0
POLYLINE
  5
110
330
10C
100
AcDbEntity
  8
0
 62
     0
100
AcDb2dPolyline
 66
     1
 10
0.0
 20
0.0
 30
0.0
 70
   128
  0
VERTEX
  5
111
330
110
100
AcDbEntity
  8
0
 62
     0
100
AcDbVertex
100
AcDb2dVertex
 10
-0.9999999999999998
 20
-0.0994897959183674
 30
0.0
  0
VERTEX
  5
112
330
110
100
AcDbEntity
  8
0
 62
     0
100
AcDbVertex
100
AcDb2dVertex
 10
0.0
 20
0.0
 30
0.0
  0
VERTEX
  5
114
330
110
100
AcDbEntity
  8
0
 62
     0
100
AcDbVertex
100
AcDb2dVertex
 10
-0.9999999999999998
 20
0.0994897959183674
 30
0.0
  0
VERTEX
  5
115
330
110
100
AcDbEntity
  8
0
 62
     0
100
AcDbVertex
100
AcDb2dVertex
 10
-0.9999999999999998
 20
-0.0994897959183674
 30
0.0
  0
SEQEND
  5
113
330
110
100
AcDbEntity
  8
0
 62
     0
  0
SOLID
  5
116
330
10C
100
AcDbEntity
  8
0
 62
     0
100
AcDbTrace
 10
-0.9999999999999998
 20
-0.0994897959183674
 30
0.0
 11
0.0
 21
0.0
 31
0.0
 12
-0.9999999999999998
 22
0.0994897959183674
 32
0.0
 13
-0.9999999999999998
 23
-0.0994897959183674
 33
0.0
  0
LINE
  5
117
330
10C
100
AcDbEntity
  8
0
 62
     0
100
AcDbLine
 10
-0.9999999999999998
 20
-0.0994897959183674
 30
0.0
 11
0.0
 21
0.0
 31
0.0
  0
LINE
  5
118
330
10C
100
AcDbEntity
  8
0
 62
     0
100
AcDbLine
 10
0.0
 20
0.0
 30
0.0
 11
-0.9999999999999998
 21
0.0994897959183674
 31
0.0
  0
LINE
  5
119
330
10C
100
AcDbEntity
  8
0
 62
     0
100
AcDbLine
 10
-0.9999999999999998
 20
0.0994897959183674
 30
0.0
 11
-0.9999999999999998
 21
-0.0994897959183674
 31
0.0
  0
ENDBLK
  5
10E
330
10C
100
AcDbEntity
  8
0
100
AcDbBlockEnd
  0
BLOCK
  5
171
330
170
100
AcDbEntity
  8
0
100
AcDbBlockBegin
  2
*D4
 70
     1
 10
0.0
 20
0.0
 30
0.0
  3
*D4
  1

  0
LINE
  5
24F
330
170
100
AcDbEntity
  8
Dimension (ANSI)
440
 16777216
100
AcDbLine
 10
13.06268157727911
 20
10.02779599559242
 30
0.0
 11
9.816316267723102
 21
10.02779599559242
 31
0.0
  0
LINE
  5
250
330
170
100
AcDbEntity
  8
Dimension (ANSI)
440
 16777216
100
AcDbLine
 10
13.0626815772791
 20
28.27779599559242
 30
0.0
 11
9.816316267723108
 21
28.27779599559242
 31
0.0
  0
LINE
  5
251
330
170
100
AcDbEntity
  8
Dimension (ANSI)
440
 16777216
100
AcDbLine
 10
10.23298293438977
 20
10.35587997766271
 30
0.0
 11
10.23298293438977
 21
18.83867546525021
 31
0.0
  0
LINE
  5
252
330
170
100
AcDbEntity
  8
Dimension (ANSI)
440
 16777216
100
AcDbLine
 10
10.23298293438977
 20
27.94971201352213
 30
0.0
 11
10.23298293438977
 21
19.46691652593462
 31
0.0
  0
SOLID
  5
253
330
170
100
AcDbEntity
  8
Dimension (ANSI)
440
 16777216
100
AcDbTrace
 10
10.17830227071139
 20
10.35587997766271
 30
0.0
 11
10.28766359806815
 21
10.35587997766271
 31
0.0
 12
10.23298293438977
 22
10.02779599559242
 32
0.0
 13
10.23298293438977
 23
10.02779599559242
 33
0.0
  0
SOLID
  5
254
330
170
100
AcDbEntity
  8
Dimension (ANSI)
440
 16777216
100
AcDbTrace
 10
10.17830227071139
 20
27.94971201352213
 30
0.0
 11
10.28766359806815
 21
27.94971201352213
 31
0.0
 12
10.23298293438977
 22
28.27779599559242
 32
0.0
 13
10.23298293438977
 23
28.27779599559242
 33
0.0
  0
MTEXT
  5
255
330
170
100
AcDbEntity
  8
Dimension (ANSI)
440
 16777216
100
AcDbMText
 10
9.593761959459275
 20
19.3619296492942
 30
0.0
 40
0.400000015894572
 41
0.0
 71
     1
 72
     1
  1
\A1;18.25
  7
Note Text (ANSI)
 73
     1
 44
1.0
  0
POINT
  5
256
330
170
100
AcDbEntity
  8
Defpoints
 62
     0
440
 16777216
100
AcDbPoint
 10
13.27101491061244
 20
10.02779599559242
 30
0.0
  0
POINT
  5
257
330
170
100
AcDbEntity
  8
Defpoints
 62
     0
440
 16777216
100
AcDbPoint
 10
13.27101491061244
 20
28.27779599559242
 30
0.0
  0
POINT
  5
258
330
170
100
AcDbEntity
  8
Defpoints
 62
     0
440
 16777216
100
AcDbPoint
 10
10.23298293438977
 20
28.27779599559242
 30
0.0
  0
ENDBLK
  5
172
330
170
100
AcDbEntity
  8
0
100
AcDbBlockEnd
  0
BLOCK
  5
25B
330
25A
100
AcDbEntity
  8
0
100
AcDbBlockBegin
  2
*D5
 70
     1
 10
0.0
 20
0.0
 30
0.0
  3
*D5
  1

  0
LINE
  5
339
330
25A
100
AcDbEntity
  8
Dimension (ANSI)
440
 16777216
100
AcDbLine
 10
13.27101491061244
 20
28.48612932892575
 30
0.0
 11
13.27101491061244
 21
32.0704103658229
 31
0.0
  0
LINE
  5
33A
330
25A
100
AcDbEntity
  8
Dimension (ANSI)
440
 16777216
100
AcDbLine
 10
23.52101491061244
 20
28.48612932892575
 30
0.0
 11
23.52101491061244
 21
32.0704103658229
 31
0.0
  0
LINE
  5
33B
330
25A
100
AcDbEntity
  8
Dimension (ANSI)
440
 16777216
100
AcDbLine
 10
13.59909889268272
 20
31.65374369915624
 30
0.0
 11
17.65180705904153
 21
31.65374369915624
 31
0.0
  0
LINE
  5
33C
330
25A
100
AcDbEntity
  8
Dimension (ANSI)
440
 16777216
100
AcDbLine
 10
23.19293092854215
 20
31.65374369915624
 30
0.0
 11
19.14022276218335
 21
31.65374369915624
 31
0.0
  0
SOLID
  5
33D
330
25A
100
AcDbEntity
  8
Dimension (ANSI)
440
 16777216
100
AcDbTrace
 10
13.59909889268272
 20
31.70842436283462
 30
0.0
 11
13.59909889268272
 21
31.59906303547785
 31
0.0
 12
13.27101491061244
 22
31.65374369915624
 32
0.0
 13
13.27101491061244
 23
31.65374369915624
 33
0.0
  0
SOLID
  5
33E
330
25A
100
AcDbEntity
  8
Dimension (ANSI)
440
 16777216
100
AcDbTrace
 10
23.19293092854215
 20
31.70842436283462
 30
0.0
 11
23.19293092854215
 21
31.59906303547785
 31
0.0
 12
23.52101491061244
 22
31.65374369915624
 32
0.0
 13
23.52101491061244
 23
31.65374369915624
 33
0.0
  0
MTEXT
  5
33F
330
25A
100
AcDbEntity
  8
Dimension (ANSI)
440
 16777216
100
AcDbMText
 10
17.75679393568194
 20
31.86207144282449
 30
0.0
 40
0.400000015894572
 41
0.0
 71
     1
 72
     1
  1
\A1;10.25
  7
Note Text (ANSI)
 73
     1
 44
1.0
  0
POINT
  5
340
330
25A
100
AcDbEntity
  8
Defpoints
 62
     0
440
 16777216
100
AcDbPoint
 10
13.27101491061244
 20
28.27779599559242
 30
0.0
  0
POINT
  5
341
330
25A
100
AcDbEntity
  8
Defpoints
 62
     0
440
 16777216
100
AcDbPoint
 10
23.52101491061244
 20
28.27779599559242
 30
0.0
  0
POINT
  5
342
330
25A
100
AcDbEntity
  8
Defpoints
 62
     0
440
 16777216
100
AcDbPoint
 10
23.52101491061244
 20
31.65374369915624
 30
0.0
  0
ENDBLK
  5
25C
330
25A
100
AcDbEntity
  8
0
100
AcDbBlockEnd
  0
BLOCK
  5
345
330
344
100
AcDbEntity
  8
0
100
AcDbBlockBegin
  2
*D6
 70
     1
 10
0.0
 20
0.0
 30
0.0
  3
*D6
  1

  0
LINE
  5
423
330
344
100
AcDbEntity
  8
Dimension (ANSI)
440
 16777216
100
AcDbLine
 10
23.52101491061244
 20
28.48612932892575
 30
0.0
 11
23.52101491061244
 21
31.26315708675105
 31
0.0
  0
LINE
  5
424
330
344
100
AcDbEntity
  8
Dimension (ANSI)
440
 16777216
100
AcDbLine
 10
23.20801491061244
 20
28.71479599559242
 30
0.0
 11
23.20801491061244
 21
31.26315708675105
 31
0.0
  0
LINE
  5
425
330
344
100
AcDbEntity
  8
Dimension (ANSI)
440
 16777216
100
AcDbLine
 10
22.87993092854215
 20
30.84649042008438
 30
0.0
 11
22.55184694647186
 21
30.84649042008438
 31
0.0
  0
LINE
  5
426
330
344
100
AcDbEntity
  8
Dimension (ANSI)
440
 16777216
100
AcDbLine
 10
23.84909889268273
 20
30.84649042008438
 30
0.0
 11
24.17718287475302
 21
30.84649042008438
 31
0.0
  0
SOLID
  5
427
330
344
100
AcDbEntity
  8
Dimension (ANSI)
440
 16777216
100
AcDbTrace
 10
22.87993092854215
 20
30.90117108376277
 30
0.0
 11
22.87993092854215
 21
30.791809756406
 31
0.0
 12
23.20801491061244
 22
30.84649042008438
 32
0.0
 13
23.20801491061244
 23
30.84649042008438
 33
0.0
  0
SOLID
  5
428
330
344
100
AcDbEntity
  8
Dimension (ANSI)
440
 16777216
100
AcDbTrace
 10
23.84909889268273
 20
30.90117108376277
 30
0.0
 11
23.84909889268273
 21
30.791809756406
 31
0.0
 12
23.52101491061244
 22
30.84649042008438
 32
0.0
 13
23.52101491061244
 23
30.84649042008438
 33
0.0
  0
MTEXT
  5
429
330
344
100
AcDbEntity
  8
Dimension (ANSI)
440
 16777216
100
AcDbMText
 10
24.9393893837395
 20
30.84649042008438
 30
0.0
 40
0.400000015894572
 41
0.0
 71
     5
 72
     1
  1
\A1;0.313
  7
Note Text (ANSI)
 73
     1
 44
1.0
  0
POINT
  5
42A
330
344
100
AcDbEntity
  8
Defpoints
 62
     0
440
 16777216
100
AcDbPoint
 10
23.52101491061244
 20
28.27779599559242
 30
0.0
  0
POINT
  5
42B
330
344
100
AcDbEntity
  8
Defpoints
 62
     0
440
 16777216
100
AcDbPoint
 10
23.20801491061244
 20
28.50646266225909
 30
0.0
  0
POINT
  5
42C
330
344
100
AcDbEntity
  8
Defpoints
 62
     0
440
 16777216
100
AcDbPoint
 10
23.20801491061244
 20
30.84649042008438
 30
0.0
  0
ENDBLK
  5
346
330
344
100
AcDbEntity
  8
0
100
AcDbBlockEnd
  0
BLOCK
  5
42F
330
42E
100
AcDbEntity
  8
0
100
AcDbBlockBegin
  2
*D7
 70
     1
 10
0.0
 20
0.0
 30
0.0
  3
*D7
  1

  0
LINE
  5
522
330
42E
100
AcDbEntity
  8
Dimension (ANSI)
440
 16777216
100
AcDbLine
 10
23.72934824394577
 20
28.27779599559242
 30
0.0
 11
24.67703342535035
 21
28.27779599559242
 31
0.0
  0
LINE
  5
523
330
42E
100
AcDbEntity
  8
Dimension (ANSI)
440
 16777216
100
AcDbLine
 10
23.57234824394577
 20
27.96479599559242
 30
0.0
 11
24.67703342535035
 21
27.96479599559241
 31
0.0
  0
LINE
  5
524
330
42E
100
AcDbEntity
  8
Dimension (ANSI)
440
 16777216
100
AcDbLine
 10
24.26036675868369
 20
27.63671201352213
 30
0.0
 11
24.26036675868369
 21
27.30862803145184
 31
0.0
  0
LINE
  5
525
330
42E
100
AcDbEntity
  8
Dimension (ANSI)
440
 16777216
100
AcDbLine
 10
24.26036675868369
 20
28.6058799776627
 30
0.0
 11
24.26036675868369
 21
29.23348243443334
 31
0.0
  0
LINE
  5
526
330
42E
100
AcDbEntity
  8
Dimension (ANSI)
440
 16777216
100
AcDbLine
 10
24.26036675868369
 20
29.23348243443334
 30
0.0
 11
24.58845074075397
 21
29.23348243443334
 31
0.0
  0
SOLID
  5
527
330
42E
100
AcDbEntity
  8
Dimension (ANSI)
440
 16777216
100
AcDbTrace
 10
24.2056860950053
 20
27.63671201352213
 30
0.0
 11
24.31504742236207
 21
27.63671201352213
 31
0.0
 12
24.26036675868369
 22
27.96479599559241
 32
0.0
 13
24.26036675868369
 23
27.96479599559241
 33
0.0
  0
SOLID
  5
528
330
42E
100
AcDbEntity
  8
Dimension (ANSI)
440
 16777216
100
AcDbTrace
 10
24.2056860950053
 20
28.6058799776627
 30
0.0
 11
24.31504742236207
 21
28.6058799776627
 31
0.0
 12
24.26036675868369
 22
28.27779599559242
 32
0.0
 13
24.26036675868369
 23
28.27779599559242
 33
0.0
  0
MTEXT
  5
529
330
42E
100
AcDbEntity
  8
Dimension (ANSI)
440
 16777216
100
AcDbMText
 10
24.69343761739439
 20
29.4418101781016
 30
0.0
 40
0.400000015894572
 41
0.0
 71
     1
 72
     1
  1
\A1;0.313
  7
Note Text (ANSI)
 73
     1
 44
1.0
  0
POINT
  5
52A
330
42E
100
AcDbEntity
  8
Defpoints
 62
     0
440
 16777216
100
AcDbPoint
 10
23.52101491061244
 20
28.27779599559242
 30
0.0
  0
POINT
  5
52B
330
42E
100
AcDbEntity
  8
Defpoints
 62
     0
440
 16777216
100
AcDbPoint
 10
23.36401491061244
 20
27.96479599559242
 30
0.0
  0
POINT
  5
52C
330
42E
100
AcDbEntity
  8
Defpoints
 62
     0
440
 16777216
100
AcDbPoint
 10
24.26036675868369
 20
27.96479599559241
 30
0.0
  0
ENDBLK
  5
430
330
42E
100
AcDbEntity
  8
0
100
AcDbBlockEnd
  0
BLOCK
  5
52F
330
52E
100
AcDbEntity
  8
0
100
AcDbBlockBegin
  2
*D8
 70
     1
 10
0.0
 20
0.0
 30
0.0
  3
*D8
  1

  0
LINE
  5
5E0
330
52E
100
AcDbEntity
  8
Dimension (ANSI)
440
 16777216
100
AcDbLine
 10
16.40405246036764
 20
8.932126435002714
 30
0.0
 11
15.99268447120258
 21
8.932126435002714
 31
0.0
  0
LINE
  5
5E1
330
52E
100
AcDbEntity
  8
Dimension (ANSI)
440
 16777216
100
AcDbLine
 10
15.99268447120258
 20
8.932126435002714
 30
0.0
 11
14.90439366678139
 21
10.02041723942356
 31
0.0
  0
MTEXT
  5
5E2
102
{ACAD_XDICTIONARY
360
EA2
102
}
330
52E
100
AcDbEntity
  8
Dimension (ANSI)
440
 16777216
100
AcDbMText
 10
16.50903933700806
 20
9.206640473372718
 30
0.0
 40
0.400000015894572
 41
0.0
 71
     1
 72
     1
  1
\A1;\U+22050.250{\PGROUND HOLE}
  7
Note Text (ANSI)
 73
     1
 44
1.0
  0
SOLID
  5
5E3
330
52E
100
AcDbEntity
  8
Dimension (ANSI)
440
 16777216
100
AcDbTrace
 10
14.94305873486815
 20
10.05908230751034
 30
0.0
 11
14.86572859869464
 21
9.981752171336797
 31
0.0
 12
14.67240325826077
 22
10.25240764794411
 32
0.0
 13
14.67240325826077
 23
10.25240764794411
 33
0.0
  0
LINE
  5
5E4
330
52E
100
AcDbEntity
  8
Dimension (ANSI)
440
 16777216
100
AcDbLine
 10
14.28401491061244
 20
10.34079599559242
 30
0.0
 11
14.88401491061244
 21
10.34079599559242
 31
0.0
  0
LINE
  5
5E5
330
52E
100
AcDbEntity
  8
Dimension (ANSI)
440
 16777216
100
AcDbLine
 10
14.58401491061244
 20
10.04079599559242
 30
0.0
 11
14.58401491061244
 21
10.64079599559242
 31
0.0
  0
POINT
  5
5E6
330
52E
100
AcDbEntity
  8
Defpoints
 62
     0
440
 16777216
100
AcDbPoint
 10
14.67240325826077
 20
10.25240764794411
 30
0.0
  0
POINT
  5
5E7
330
52E
100
AcDbEntity
  8
Defpoints
 62
     0
440
 16777216
100
AcDbPoint
 10
14.49562656296411
 20
10.42918434324072
 30
0.0
  0
ENDBLK
  5
530
330
52E
100
AcDbEntity
  8
0
100
AcDbBlockEnd
  0
BLOCK
  5
5EA
330
5E9
100
AcDbEntity
  8
0
100
AcDbBlockBegin
  2
*D9
 70
     1
 10
0.0
 20
0.0
 30
0.0
  3
*D9
  1

  0
LINE
  5
6E6
330
5E9
100
AcDbEntity
  8
Dimension (ANSI)
440
 16777216
100
AcDbLine
 10
36.73952511405776
 20
28.48612932892575
 30
0.0
 11
36.73952511405776
 21
29.30015618133844
 31
0.0
  0
LINE
  5
6E7
330
5E9
100
AcDbEntity
  8
Dimension (ANSI)
440
 16777216
100
AcDbLine
 10
36.81352511405775
 20
28.48612932892575
 30
0.0
 11
36.81352511405775
 21
29.30015618133844
 31
0.0
  0
LINE
  5
6E8
330
5E9
100
AcDbEntity
  8
Dimension (ANSI)
440
 16777216
100
AcDbLine
 10
37.14160909612804
 20
28.88348951467177
 30
0.0
 11
37.46969307819833
 21
28.88348951467177
 31
0.0
  0
LINE
  5
6E9
330
5E9
100
AcDbEntity
  8
Dimension (ANSI)
440
 16777216
100
AcDbLine
 10
36.41144113198747
 20
28.88348951467177
 30
0.0
 11
35.39514413792189
 21
28.88348951467177
 31
0.0
  0
SOLID
  5
6EA
330
5E9
100
AcDbEntity
  8
Dimension (ANSI)
440
 16777216
100
AcDbTrace
 10
37.14160909612804
 20
28.93817017835015
 30
0.0
 11
37.14160909612804
 21
28.82880885099339
 31
0.0
 12
36.81352511405775
 22
28.88348951467177
 32
0.0
 13
36.81352511405775
 23
28.88348951467177
 33
0.0
  0
SOLID
  5
6EB
330
5E9
100
AcDbEntity
  8
Dimension (ANSI)
440
 16777216
100
AcDbTrace
 10
36.41144113198747
 20
28.93817017835015
 30
0.0
 11
36.41144113198747
 21
28.82880885099339
 31
0.0
 12
36.73952511405776
 22
28.88348951467177
 32
0.0
 13
36.73952511405776
 23
28.88348951467177
 33
0.0
  0
MTEXT
  5
6EC
330
5E9
100
AcDbEntity
  8
Dimension (ANSI)
440
 16777216
100
AcDbMText
 10
33.76752457126002
 20
28.88348951467177
 30
0.0
 40
0.400000015894572
 41
0.0
 71
     5
 72
     1
  1
\A1;{14 GA. C.R.S\P}(0.074)
  7
Note Text (ANSI)
 73
     1
 44
1.0
  0
POINT
  5
6ED
330
5E9
100
AcDbEntity
  8
Defpoints
 62
     0
440
 16777216
100
AcDbPoint
 10
36.73952511405776
 20
28.27779599559242
 30
0.0
  0
POINT
  5
6EE
330
5E9
100
AcDbEntity
  8
Defpoints
 62
     0
440
 16777216
100
AcDbPoint
 10
36.81352511405775
 20
28.27779599559242
 30
0.0
  0
POINT
  5
6EF
330
5E9
100
AcDbEntity
  8
Defpoints
 62
     0
440
 16777216
100
AcDbPoint
 10
36.81352511405775
 20
28.88348951467177
 30
0.0
  0
ENDBLK
  5
5EB
330
5E9
100
AcDbEntity
  8
0
100
AcDbBlockEnd
  0
BLOCK
  5
6F2
330
6F1
100
AcDbEntity
  8
0
100
AcDbBlockBegin
  2
*D10
 70
     1
 10
0.0
 20
0.0
 30
0.0
  3
*D10
  1

  0
LINE
  5
7D0
330
6F1
100
AcDbEntity
  8
Dimension (ANSI)
440
 16777216
100
AcDbLine
 10
13.63634824394577
 20
10.34079599559242
 30
0.0
 11
25.76732391640712
 21
10.34079599559242
 31
0.0
  0
LINE
  5
7D1
330
6F1
100
AcDbEntity
  8
Dimension (ANSI)
440
 16777216
100
AcDbLine
 10
13.63634824394577
 20
27.96479599559242
 30
0.0
 11
25.76732391640712
 21
27.96479599559241
 31
0.0
  0
LINE
  5
7D2
330
6F1
100
AcDbEntity
  8
Dimension (ANSI)
440
 16777216
100
AcDbLine
 10
25.35065724974046
 20
10.66887997766271
 30
0.0
 11
25.35065724974046
 21
18.83948137528374
 31
0.0
  0
LINE
  5
7D3
330
6F1
100
AcDbEntity
  8
Dimension (ANSI)
440
 16777216
100
AcDbLine
 10
25.35065724974046
 20
27.63671201352213
 30
0.0
 11
25.35065724974046
 21
19.46611061590108
 31
0.0
  0
SOLID
  5
7D4
330
6F1
100
AcDbEntity
  8
Dimension (ANSI)
440
 16777216
100
AcDbTrace
 10
25.29597658606207
 20
10.66887997766271
 30
0.0
 11
25.40533791341884
 21
10.66887997766271
 31
0.0
 12
25.35065724974046
 22
10.34079599559242
 32
0.0
 13
25.35065724974046
 23
10.34079599559242
 33
0.0
  0
SOLID
  5
7D5
330
6F1
100
AcDbEntity
  8
Dimension (ANSI)
440
 16777216
100
AcDbTrace
 10
25.29597658606208
 20
27.63671201352213
 30
0.0
 11
25.40533791341884
 21
27.63671201352213
 31
0.0
 12
25.35065724974046
 22
27.96479599559241
 32
0.0
 13
25.35065724974046
 23
27.96479599559241
 33
0.0
  0
MTEXT
  5
7D6
330
6F1
100
AcDbEntity
  8
Dimension (ANSI)
440
 16777216
100
AcDbMText
 10
24.55374654491536
 20
19.36112373926067
 30
0.0
 40
0.400000015894572
 41
0.0
 71
     1
 72
     1
  1
\A1;17.624
  7
Note Text (ANSI)
 73
     1
 44
1.0
  0
POINT
  5
7D7
330
6F1
100
AcDbEntity
  8
Defpoints
 62
     0
440
 16777216
100
AcDbPoint
 10
13.42801491061244
 20
10.34079599559242
 30
0.0
  0
POINT
  5
7D8
330
6F1
100
AcDbEntity
  8
Defpoints
 62
     0
440
 16777216
100
AcDbPoint
 10
13.42801491061244
 20
27.96479599559242
 30
0.0
  0
POINT
  5
7D9
330
6F1
100
AcDbEntity
  8
Defpoints
 62
     0
440
 16777216
100
AcDbPoint
 10
25.35065724974046
 20
27.96479599559241
 30
0.0
  0
ENDBLK
  5
6F3
330
6F1
100
AcDbEntity
  8
0
100
AcDbBlockEnd
  0
BLOCK
  5
7DC
330
7DB
100
AcDbEntity
  8
0
100
AcDbBlockBegin
  2
*D11
 70
     1
 10
0.0
 20
0.0
 30
0.0
  3
*D11
  1

  0
LINE
  5
8BA
330
7DB
100
AcDbEntity
  8
Dimension (ANSI)
440
 16777216
100
AcDbLine
 10
13.58401491061244
 20
28.71479599559242
 30
0.0
 11
13.58401491061244
 21
31.26315708675105
 31
0.0
  0
LINE
  5
8BB
330
7DB
100
AcDbEntity
  8
Dimension (ANSI)
440
 16777216
100
AcDbLine
 10
23.20801491061244
 20
28.71479599559242
 30
0.0
 11
23.20801491061244
 21
31.26315708675105
 31
0.0
  0
LINE
  5
8BC
330
7DB
100
AcDbEntity
  8
Dimension (ANSI)
440
 16777216
100
AcDbLine
 10
13.91209889268272
 20
30.84649042008438
 30
0.0
 11
17.62292861617326
 21
30.84649042008438
 31
0.0
  0
LINE
  5
8BD
330
7DB
100
AcDbEntity
  8
Dimension (ANSI)
440
 16777216
100
AcDbLine
 10
22.87993092854215
 20
30.84649042008438
 30
0.0
 11
19.16910120505161
 21
30.84649042008438
 31
0.0
  0
SOLID
  5
8BE
330
7DB
100
AcDbEntity
  8
Dimension (ANSI)
440
 16777216
100
AcDbTrace
 10
13.91209889268272
 20
30.90117108376277
 30
0.0
 11
13.91209889268272
 21
30.791809756406
 31
0.0
 12
13.58401491061244
 22
30.84649042008438
 32
0.0
 13
13.58401491061244
 23
30.84649042008438
 33
0.0
  0
SOLID
  5
8BF
330
7DB
100
AcDbEntity
  8
Dimension (ANSI)
440
 16777216
100
AcDbTrace
 10
22.87993092854215
 20
30.90117108376277
 30
0.0
 11
22.87993092854215
 21
30.791809756406
 31
0.0
 12
23.20801491061244
 22
30.84649042008438
 32
0.0
 13
23.20801491061244
 23
30.84649042008438
 33
0.0
  0
MTEXT
  5
8C0
330
7DB
100
AcDbEntity
  8
Dimension (ANSI)
440
 16777216
100
AcDbMText
 10
17.72791549281368
 20
31.05481816375263
 30
0.0
 40
0.400000015894572
 41
0.0
 71
     1
 72
     1
  1
\A1;9.624
  7
Note Text (ANSI)
 73
     1
 44
1.0
  0
POINT
  5
8C1
330
7DB
100
AcDbEntity
  8
Defpoints
 62
     0
440
 16777216
100
AcDbPoint
 10
13.58401491061244
 20
28.50646266225909
 30
0.0
  0
POINT
  5
8C2
330
7DB
100
AcDbEntity
  8
Defpoints
 62
     0
440
 16777216
100
AcDbPoint
 10
23.20801491061244
 20
28.50646266225909
 30
0.0
  0
POINT
  5
8C3
330
7DB
100
AcDbEntity
  8
Defpoints
 62
     0
440
 16777216
100
AcDbPoint
 10
23.20801491061244
 20
30.84649042008438
 30
0.0
  0
ENDBLK
  5
7DD
330
7DB
100
AcDbEntity
  8
0
100
AcDbBlockEnd
  0
BLOCK
  5
8C6
330
8C5
100
AcDbEntity
  8
0
100
AcDbBlockBegin
  2
*D12
 70
     1
 10
0.0
 20
0.0
 30
0.0
  3
*D12
  1

  0
LINE
  5
9A4
330
8C5
100
AcDbEntity
  8
Dimension (ANSI)
440
 16777216
100
AcDbLine
 10
13.58401491061244
 20
10.00746266225909
 30
0.0
 11
13.58401491061244
 21
8.486793370920509
 31
0.0
  0
LINE
  5
9A5
330
8C5
100
AcDbEntity
  8
Dimension (ANSI)
440
 16777216
100
AcDbLine
 10
14.58401491061244
 20
10.00746266225909
 30
0.0
 11
14.58401491061244
 21
8.486793370920509
 31
0.0
  0
LINE
  5
9A6
330
8C5
100
AcDbEntity
  8
Dimension (ANSI)
440
 16777216
100
AcDbLine
 10
14.91209889268273
 20
8.903460037587175
 30
0.0
 11
15.24018287475302
 21
8.903460037587175
 31
0.0
  0
LINE
  5
9A7
330
8C5
100
AcDbEntity
  8
Dimension (ANSI)
440
 16777216
100
AcDbLine
 10
13.25593092854215
 20
8.903460037587175
 30
0.0
 11
12.92784694647187
 21
8.903460037587175
 31
0.0
  0
SOLID
  5
9A8
330
8C5
100
AcDbEntity
  8
Dimension (ANSI)
440
 16777216
100
AcDbTrace
 10
14.91209889268273
 20
8.958140701265556
 30
0.0
 11
14.91209889268273
 21
8.848779373908794
 31
0.0
 12
14.58401491061244
 22
8.903460037587175
 32
0.0
 13
14.58401491061244
 23
8.903460037587175
 33
0.0
  0
SOLID
  5
9A9
330
8C5
100
AcDbEntity
  8
Dimension (ANSI)
440
 16777216
100
AcDbTrace
 10
13.25593092854215
 20
8.958140701265556
 30
0.0
 11
13.25593092854215
 21
8.848779373908794
 31
0.0
 12
13.58401491061244
 22
8.903460037587175
 32
0.0
 13
13.58401491061244
 23
8.903460037587175
 33
0.0
  0
MTEXT
  5
9AA
330
8C5
100
AcDbEntity
  8
Dimension (ANSI)
440
 16777216
100
AcDbMText
 10
11.5379708397022
 20
9.111653462916502
 30
0.0
 40
0.400000015894572
 41
0.0
 71
     1
 72
     1
  1
\A1;1.000
  7
Note Text (ANSI)
 73
     1
 44
1.0
  0
POINT
  5
9AB
330
8C5
100
AcDbEntity
  8
Defpoints
 62
     0
440
 16777216
100
AcDbPoint
 10
13.58401491061244
 20
10.21579599559242
 30
0.0
  0
POINT
  5
9AC
330
8C5
100
AcDbEntity
  8
Defpoints
 62
     0
440
 16777216
100
AcDbPoint
 10
14.58401491061244
 20
10.21579599559242
 30
0.0
  0
POINT
  5
9AD
330
8C5
100
AcDbEntity
  8
Defpoints
 62
     0
440
 16777216
100
AcDbPoint
 10
14.58401491061244
 20
8.903460037587175
 30
0.0
  0
ENDBLK
  5
8C7
330
8C5
100
AcDbEntity
  8
0
100
AcDbBlockEnd
  0
BLOCK
  5
9D6
330
9D5
100
AcDbEntity
  8
0
100
AcDbBlockBegin
  2
*D13
 70
     1
 10
0.0
 20
0.0
 30
0.0
  3
*D13
  1

  0
LINE
  5
AC9
330
9D5
100
AcDbEntity
  8
Dimension (ANSI)
440
 16777216
100
AcDbLine
 10
12.83101491061244
 20
27.02779599559242
 30
0.0
 11
12.50817534808317
 21
27.02779599559242
 31
0.0
  0
LINE
  5
ACA
330
9D5
100
AcDbEntity
  8
Dimension (ANSI)
440
 16777216
100
AcDbLine
 10
12.83101491061244
 20
27.27779599559242
 30
0.0
 11
12.50817534808317
 21
27.27779599559242
 31
0.0
  0
LINE
  5
ACB
330
9D5
100
AcDbEntity
  8
Dimension (ANSI)
440
 16777216
100
AcDbLine
 10
12.92484201474984
 20
27.60587997766271
 30
0.0
 11
12.92484201474984
 21
27.933963959733
 31
0.0
  0
LINE
  5
ACC
330
9D5
100
AcDbEntity
  8
Dimension (ANSI)
440
 16777216
100
AcDbLine
 10
12.92484201474984
 20
26.69971201352213
 30
0.0
 11
12.92484201474984
 21
25.8398864871235
 31
0.0
  0
LINE
  5
ACD
330
9D5
100
AcDbEntity
  8
Dimension (ANSI)
440
 16777216
100
AcDbLine
 10
12.92484201474984
 20
25.8398864871235
 30
0.0
 11
12.59675803267955
 21
25.8398864871235
 31
0.0
  0
SOLID
  5
ACE
330
9D5
100
AcDbEntity
  8
Dimension (ANSI)
440
 16777216
100
AcDbTrace
 10
12.87016135107145
 20
27.60587997766271
 30
0.0
 11
12.97952267842822
 21
27.60587997766271
 31
0.0
 12
12.92484201474984
 22
27.27779599559242
 32
0.0
 13
12.92484201474984
 23
27.27779599559242
 33
0.0
  0
SOLID
  5
ACF
330
9D5
100
AcDbEntity
  8
Dimension (ANSI)
440
 16777216
100
AcDbTrace
 10
12.87016135107145
 20
26.69971201352213
 30
0.0
 11
12.97952267842822
 21
26.69971201352213
 31
0.0
 12
12.92484201474984
 22
27.02779599559242
 32
0.0
 13
12.92484201474984
 23
27.02779599559242
 33
0.0
  0
MTEXT
  5
AD0
330
9D5
100
AcDbEntity
  8
Dimension (ANSI)
440
 16777216
100
AcDbMText
 10
11.16846688097814
 20
26.04821423079175
 30
0.0
 40
0.400000015894572
 41
0.0
 71
     1
 72
     1
  1
\A1;0.250
  7
Note Text (ANSI)
 73
     1
 44
1.0
  0
POINT
  5
AD1
330
9D5
100
AcDbEntity
  8
Defpoints
 62
     0
440
 16777216
100
AcDbPoint
 10
13.03934824394577
 20
27.02779599559242
 30
0.0
  0
POINT
  5
AD2
330
9D5
100
AcDbEntity
  8
Defpoints
 62
     0
440
 16777216
100
AcDbPoint
 10
13.03934824394577
 20
27.27779599559242
 30
0.0
  0
POINT
  5
AD3
330
9D5
100
AcDbEntity
  8
Defpoints
 62
     0
440
 16777216
100
AcDbPoint
 10
12.92484201474984
 20
27.27779599559242
 30
0.0
  0
ENDBLK
  5
9D7
330
9D5
100
AcDbEntity
  8
0
100
AcDbBlockEnd
  0
BLOCK
  5
AD6
330
AD5
100
AcDbEntity
  8
0
100
AcDbBlockBegin
  2
*D14
 70
     1
 10
0.0
 20
0.0
 30
0.0
  3
*D14
  1

  0
LINE
  5
BB0
330
AD5
100
AcDbEntity
  8
Dimension (ANSI)
440
 16777216
100
AcDbLine
 10
13.52101491061244
 20
26.33779599559242
 30
0.0
 11
13.52101491061244
 21
24.47206729529193
 31
0.0
  0
LINE
  5
BB1
330
AD5
100
AcDbEntity
  8
Dimension (ANSI)
440
 16777216
100
AcDbLine
 10
13.84909889268272
 20
24.8887339619586
 30
0.0
 11
14.17718287475301
 21
24.8887339619586
 31
0.0
  0
LINE
  5
BB2
330
AD5
100
AcDbEntity
  8
Dimension (ANSI)
440
 16777216
100
AcDbLine
 10
12.94293092854215
 20
24.8887339619586
 30
0.0
 11
12.56264874181773
 21
24.8887339619586
 31
0.0
  0
SOLID
  5
BB3
330
AD5
100
AcDbEntity
  8
Dimension (ANSI)
440
 16777216
100
AcDbTrace
 10
13.84909889268272
 20
24.94341462563698
 30
0.0
 11
13.84909889268272
 21
24.83405329828022
 31
0.0
 12
13.52101491061244
 22
24.8887339619586
 32
0.0
 13
13.52101491061244
 23
24.8887339619586
 33
0.0
  0
SOLID
  5
BB4
330
AD5
100
AcDbEntity
  8
Dimension (ANSI)
440
 16777216
100
AcDbTrace
 10
12.94293092854215
 20
24.94341462563698
 30
0.0
 11
12.94293092854215
 21
24.83405329828022
 31
0.0
 12
13.27101491061244
 22
24.8887339619586
 32
0.0
 13
13.27101491061244
 23
24.8887339619586
 33
0.0
  0
MTEXT
  5
BB5
330
AD5
100
AcDbEntity
  8
Dimension (ANSI)
440
 16777216
100
AcDbMText
 10
11.13435759011632
 20
25.09706170562685
 30
0.0
 40
0.400000015894572
 41
0.0
 71
     1
 72
     1
  1
\A1;0.250
  7
Note Text (ANSI)
 73
     1
 44
1.0
  0
POINT
  5
BB6
330
AD5
100
AcDbEntity
  8
Defpoints
 62
     0
440
 16777216
100
AcDbPoint
 10
13.52101491061244
 20
26.54612932892576
 30
0.0
  0
POINT
  5
BB7
330
AD5
100
AcDbEntity
  8
Defpoints
 62
     0
440
 16777216
100
AcDbPoint
 10
13.27101491061244
 20
19.58300772743251
 30
0.0
  0
POINT
  5
BB8
330
AD5
100
AcDbEntity
  8
Defpoints
 62
     0
440
 16777216
100
AcDbPoint
 10
13.27101491061244
 20
24.8887339619586
 30
0.0
  0
ENDBLK
  5
AD7
330
AD5
100
AcDbEntity
  8
0
100
AcDbBlockEnd
  0
BLOCK
  5
BBF
330
BBE
100
AcDbEntity
  8
0
100
AcDbBlockBegin
  2
*D15
 70
     1
 10
0.0
 20
0.0
 30
0.0
  3
*D15
  1

  0
LINE
  5
C9D
330
BBE
100
AcDbEntity
  8
Dimension (ANSI)
440
 16777216
100
AcDbLine
 10
14.02101491061244
 20
28.71779599559242
 30
0.0
 11
14.02101491061244
 21
29.75679862026434
 31
0.0
  0
LINE
  5
C9E
330
BBE
100
AcDbEntity
  8
Dimension (ANSI)
440
 16777216
100
AcDbLine
 10
14.27101491061244
 20
28.71779599559242
 30
0.0
 11
14.27101491061244
 21
29.75679862026434
 31
0.0
  0
LINE
  5
C9F
330
BBE
100
AcDbEntity
  8
Dimension (ANSI)
440
 16777216
100
AcDbLine
 10
13.69293092854215
 20
29.34013195359767
 30
0.0
 11
13.36484694647186
 21
29.34013195359767
 31
0.0
  0
LINE
  5
CA0
330
BBE
100
AcDbEntity
  8
Dimension (ANSI)
440
 16777216
100
AcDbLine
 10
14.59909889268272
 20
29.34013195359767
 30
0.0
 11
14.92718287475301
 21
29.34013195359767
 31
0.0
  0
SOLID
  5
CA1
330
BBE
100
AcDbEntity
  8
Dimension (ANSI)
440
 16777216
100
AcDbTrace
 10
13.69293092854215
 20
29.39481261727605
 30
0.0
 11
13.69293092854215
 21
29.28545128991929
 31
0.0
 12
14.02101491061244
 22
29.34013195359767
 32
0.0
 13
14.02101491061244
 23
29.34013195359767
 33
0.0
  0
SOLID
  5
CA2
330
BBE
100
AcDbEntity
  8
Dimension (ANSI)
440
 16777216
100
AcDbTrace
 10
14.59909889268272
 20
29.39481261727605
 30
0.0
 11
14.59909889268272
 21
29.28545128991929
 31
0.0
 12
14.27101491061244
 22
29.34013195359767
 32
0.0
 13
14.27101491061244
 23
29.34013195359767
 33
0.0
  0
MTEXT
  5
CA3
330
BBE
100
AcDbEntity
  8
Dimension (ANSI)
440
 16777216
100
AcDbMText
 10
15.03216975139343
 20
29.54845969726592
 30
0.0
 40
0.400000015894572
 41
0.0
 71
     1
 72
     1
  1
\A1;0.250
  7
Note Text (ANSI)
 73
     1
 44
1.0
  0
POINT
  5
CA4
330
BBE
100
AcDbEntity
  8
Defpoints
 62
     0
440
 16777216
100
AcDbPoint
 10
14.02101491061244
 20
28.50946266225909
 30
0.0
  0
POINT
  5
CA5
330
BBE
100
AcDbEntity
  8
Defpoints
 62
     0
440
 16777216
100
AcDbPoint
 10
14.27101491061244
 20
28.50946266225909
 30
0.0
  0
POINT
  5
CA6
330
BBE
100
AcDbEntity
  8
Defpoints
 62
     0
440
 16777216
100
AcDbPoint
 10
14.27101491061244
 20
29.34013195359767
 30
0.0
  0
ENDBLK
  5
BC0
330
BBE
100
AcDbEntity
  8
0
100
AcDbBlockEnd
  0
BLOCK
  5
CA9
330
CA8
100
AcDbEntity
  8
0
100
AcDbBlockBegin
  2
*D16
 70
     1
 10
0.0
 20
0.0
 30
0.0
  3
*D16
  1

  0
LINE
  5
D99
330
CA8
100
AcDbEntity
  8
Dimension (ANSI)
440
 16777216
100
AcDbLine
 10
14.96101491061244
 20
28.02779599559242
 30
0.0
 11
16.80283531064297
 21
28.02779599559242
 31
0.0
  0
LINE
  5
D9A
330
CA8
100
AcDbEntity
  8
Dimension (ANSI)
440
 16777216
100
AcDbLine
 10
16.3861686439763
 20
27.69971201352213
 30
0.0
 11
16.3861686439763
 21
27.37162803145185
 31
0.0
  0
LINE
  5
D9B
330
CA8
100
AcDbEntity
  8
Dimension (ANSI)
440
 16777216
100
AcDbLine
 10
16.3861686439763
 20
28.60587997766271
 30
0.0
 11
16.3861686439763
 21
29.341638025601
 31
0.0
  0
LINE
  5
D9C
330
CA8
100
AcDbEntity
  8
Dimension (ANSI)
440
 16777216
100
AcDbLine
 10
16.3861686439763
 20
29.341638025601
 30
0.0
 11
16.71425262604659
 21
29.341638025601
 31
0.0
  0
SOLID
  5
D9D
330
CA8
100
AcDbEntity
  8
Dimension (ANSI)
440
 16777216
100
AcDbTrace
 10
16.33148798029792
 20
27.69971201352213
 30
0.0
 11
16.44084930765468
 21
27.69971201352213
 31
0.0
 12
16.3861686439763
 22
28.02779599559242
 32
0.0
 13
16.3861686439763
 23
28.02779599559242
 33
0.0
  0
SOLID
  5
D9E
330
CA8
100
AcDbEntity
  8
Dimension (ANSI)
440
 16777216
100
AcDbTrace
 10
16.33148798029792
 20
28.60587997766271
 30
0.0
 11
16.44084930765468
 21
28.60587997766271
 31
0.0
 12
16.3861686439763
 22
28.27779599559242
 32
0.0
 13
16.3861686439763
 23
28.27779599559242
 33
0.0
  0
MTEXT
  5
D9F
330
CA8
100
AcDbEntity
  8
Dimension (ANSI)
440
 16777216
100
AcDbMText
 10
16.819239502687
 20
29.54996576926925
 30
0.0
 40
0.400000015894572
 41
0.0
 71
     1
 72
     1
  1
\A1;0.250
  7
Note Text (ANSI)
 73
     1
 44
1.0
  0
POINT
  5
DA0
330
CA8
100
AcDbEntity
  8
Defpoints
 62
     0
440
 16777216
100
AcDbPoint
 10
14.7526815772791
 20
28.02779599559242
 30
0.0
  0
POINT
  5
DA1
330
CA8
100
AcDbEntity
  8
Defpoints
 62
     0
440
 16777216
100
AcDbPoint
 10
18.15842398710606
 20
28.27779599559242
 30
0.0
  0
POINT
  5
DA2
330
CA8
100
AcDbEntity
  8
Defpoints
 62
     0
440
 16777216
100
AcDbPoint
 10
16.3861686439763
 20
28.27779599559242
 30
0.0
  0
ENDBLK
  5
CAA
330
CA8
100
AcDbEntity
  8
0
100
AcDbBlockEnd
  0
BLOCK
  5
DA5
330
DA4
100
AcDbEntity
  8
0
100
AcDbBlockBegin
  2
*D17
 70
     1
 10
0.0
 20
0.0
 30
0.0
  3
*D17
  1

  0
LINE
  5
E54
330
DA4
100
AcDbEntity
  8
Dimension (ANSI)
440
 16777216
100
AcDbLine
 10
15.35904165050109
 20
26.51785323777419
 30
0.0
 11
15.0309576684308
 21
26.51785323777419
 31
0.0
  0
LINE
  5
E55
330
DA4
100
AcDbEntity
  8
Dimension (ANSI)
440
 16777216
100
AcDbLine
 10
15.0309576684308
 20
26.51785323777419
 30
0.0
 11
14.79896725991018
 21
26.74984364629474
 31
0.0
  0
MTEXT
  5
E56
102
{ACAD_XDICTIONARY
360
EA4
102
}
330
DA4
100
AcDbEntity
  8
Dimension (ANSI)
440
 16777216
100
AcDbMText
 10
16.3428318247004
 20
26.51785323777419
 30
0.0
 40
0.400000015894572
 41
0.0
 71
     5
 72
     1
  1
\A1;\U+22050.130{\PTYP.}
  7
Note Text (ANSI)
 73
     1
 44
1.0
  0
SOLID
  5
E57
330
DA4
100
AcDbEntity
  8
Dimension (ANSI)
440
 16777216
100
AcDbTrace
 10
14.83763232799694
 20
26.78850871438152
 30
0.0
 11
14.76030219182342
 21
26.71117857820798
 31
0.0
 12
14.56697685138957
 22
26.9818340548153
 32
0.0
 13
14.56697685138957
 23
26.9818340548153
 33
0.0
  0
LINE
  5
E58
330
DA4
100
AcDbEntity
  8
Dimension (ANSI)
440
 16777216
100
AcDbLine
 10
14.22101491061243
 20
27.02779599559242
 30
0.0
 11
14.82101491061244
 21
27.02779599559242
 31
0.0
  0
LINE
  5
E59
330
DA4
100
AcDbEntity
  8
Dimension (ANSI)
440
 16777216
100
AcDbLine
 10
14.52101491061243
 20
26.72779599559242
 30
0.0
 11
14.52101491061243
 21
27.32779599559242
 31
0.0
  0
POINT
  5
E5A
330
DA4
100
AcDbEntity
  8
Defpoints
 62
     0
440
 16777216
100
AcDbPoint
 10
14.56697685138957
 20
26.9818340548153
 30
0.0
  0
POINT
  5
E5B
330
DA4
100
AcDbEntity
  8
Defpoints
 62
     0
440
 16777216
100
AcDbPoint
 10
14.4750529698353
 20
27.07375793636954
 30
0.0
  0
ENDBLK
  5
DA6
330
DA4
100
AcDbEntity
  8
0
100
AcDbBlockEnd
  0
ENDSEC
  0
SECTION
  2
ENTITIES
  0
CIRCLE
  5
11B
330
6C
100
AcDbEntity
  8
Visible (ANSI)
100
AcDbCircle
 10
14.58401491061244
 20
10.34079599559242
 30
0.0
 40
0.125
  0
LINE
  5
11C
330
6C
100
AcDbEntity
  8
Visible (ANSI)
100
AcDbLine
 10
23.23901491061244
 20
10.21579599559242
 30
0.0
 11
23.17701491061244
 21
10.21579599559242
 31
0.0
  0
ARC
  5
11D
330
6C
100
AcDbEntity
  8
Visible (ANSI)
100
AcDbCircle
 10
23.23901491061244
 20
10.34079599559242
 30
0.0
 40
0.125
100
AcDbArc
 50
270.0
 51
90.0
  0
LINE
  5
11E
330
6C
100
AcDbEntity
  8
Visible (ANSI)
100
AcDbLine
 10
23.17701491061244
 20
10.46579599559242
 30
0.0
 11
23.23901491061244
 21
10.46579599559242
 31
0.0
  0
ARC
  5
11F
330
6C
100
AcDbEntity
  8
Visible (ANSI)
100
AcDbCircle
 10
23.17701491061244
 20
10.34079599559242
 30
0.0
 40
0.125
100
AcDbArc
 50
90.0
 51
270.0
  0
LINE
  5
120
330
6C
100
AcDbEntity
  8
Visible (ANSI)
100
AcDbLine
 10
13.61501491061244
 20
10.21579599559242
 30
0.0
 11
13.55301491061244
 21
10.21579599559242
 31
0.0
  0
ARC
  5
121
330
6C
100
AcDbEntity
  8
Visible (ANSI)
100
AcDbCircle
 10
13.61501491061244
 20
10.34079599559242
 30
0.0
 40
0.125
100
AcDbArc
 50
270.0
 51
90.0
  0
LINE
  5
122
330
6C
100
AcDbEntity
  8
Visible (ANSI)
100
AcDbLine
 10
13.55301491061244
 20
10.46579599559242
 30
0.0
 11
13.61501491061244
 21
10.46579599559242
 31
0.0
  0
ARC
  5
123
330
6C
100
AcDbEntity
  8
Visible (ANSI)
100
AcDbCircle
 10
13.55301491061244
 20
10.34079599559242
 30
0.0
 40
0.125
100
AcDbArc
 50
90.0
 51
270.0
  0
LINE
  5
124
330
6C
100
AcDbEntity
  8
Visible (ANSI)
100
AcDbLine
 10
23.23901491061244
 20
27.83979599559243
 30
0.0
 11
23.17701491061244
 21
27.83979599559243
 31
0.0
  0
ARC
  5
125
330
6C
100
AcDbEntity
  8
Visible (ANSI)
100
AcDbCircle
 10
23.23901491061244
 20
27.96479599559242
 30
0.0
 40
0.125000000000001
100
AcDbArc
 50
270.0
 51
90.0
  0
LINE
  5
126
330
6C
100
AcDbEntity
  8
Visible (ANSI)
100
AcDbLine
 10
23.17701491061244
 20
28.08979599559243
 30
0.0
 11
23.23901491061244
 21
28.08979599559243
 31
0.0
  0
ARC
  5
127
330
6C
100
AcDbEntity
  8
Visible (ANSI)
100
AcDbCircle
 10
23.17701491061244
 20
27.96479599559242
 30
0.0
 40
0.125000000000001
100
AcDbArc
 50
90.0
 51
270.0
  0
LINE
  5
128
330
6C
100
AcDbEntity
  8
Visible (ANSI)
100
AcDbLine
 10
13.61501491061243
 20
27.83979599559243
 30
0.0
 11
13.55301491061243
 21
27.83979599559243
 31
0.0
  0
ARC
  5
129
330
6C
100
AcDbEntity
  8
Visible (ANSI)
100
AcDbCircle
 10
13.61501491061243
 20
27.96479599559242
 30
0.0
 40
0.125000000000001
100
AcDbArc
 50
270.0
 51
90.0
  0
LINE
  5
12A
330
6C
100
AcDbEntity
  8
Visible (ANSI)
100
AcDbLine
 10
13.55301491061243
 20
28.08979599559243
 30
0.0
 11
13.61501491061243
 21
28.08979599559243
 31
0.0
  0
ARC
  5
12B
330
6C
100
AcDbEntity
  8
Visible (ANSI)
100
AcDbCircle
 10
13.55301491061243
 20
27.96479599559242
 30
0.0
 40
0.125000000000001
100
AcDbArc
 50
90.0
 51
270.0
  0
LINE
  5
12C
330
6C
100
AcDbEntity
  8
Visible (ANSI)
100
AcDbLine
 10
13.27101491061244
 20
10.02779599559242
 30
0.0
 11
13.27101491061244
 21
28.27779599559242
 31
0.0
  0
LINE
  5
12D
330
6C
100
AcDbEntity
  8
Visible (ANSI)
100
AcDbLine
 10
13.27101491061244
 20
28.27779599559242
 30
0.0
 11
23.52101491061244
 21
28.27779599559242
 31
0.0
  0
LINE
  5
12E
330
6C
100
AcDbEntity
  8
Visible (ANSI)
100
AcDbLine
 10
23.52101491061244
 20
28.27779599559242
 30
0.0
 11
23.52101491061244
 21
10.02779599559242
 31
0.0
  0
LINE
  5
12F
330
6C
100
AcDbEntity
  8
Visible (ANSI)
100
AcDbLine
 10
23.52101491061244
 20
10.02779599559242
 30
0.0
 11
13.27101491061244
 21
10.02779599559242
 31
0.0
  0
MTEXT
  5
131
330
6C
100
AcDbEntity
  8
Symbol (ANSI)
100
AcDbMText
 10
16.66463902277489
 20
6.428982557137069
 30
0.0
 40
0.4000000049435874
 41
0.0
 71
     7
 72
     1
  1
FRONT VIEW
  7
Text Style166
 73
     1
 44
1.0
  0
LINE
  5
133
330
6C
100
AcDbEntity
  8
Symbol (ANSI)
370
    30
100
AcDbLine
 10
16.62463891988027
 20
6.347410432554101
 30
0.0
 11
19.84052226749919
 21
6.347410432554101
 31
0.0
  0
LINE
  5
134
330
6C
100
AcDbEntity
  8
Hidden (ANSI)
 48
0.0421842634677887
100
AcDbLine
 10
36.73952511405767
 20
10.21579599559242
 30
0.0
 11
36.81352511405767
 21
10.21579599559242
 31
0.0
  0
LINE
  5
135
330
6C
100
AcDbEntity
  8
Hidden (ANSI)
 48
0.0421842634677887
100
AcDbLine
 10
36.73952511405767
 20
10.46579599559242
 30
0.0
 11
36.81352511405767
 21
10.46579599559242
 31
0.0
  0
LINE
  5
136
330
6C
100
AcDbEntity
  8
Hidden (ANSI)
 48
0.0421842634677887
100
AcDbLine
 10
36.73952511405767
 20
27.83979599559243
 30
0.0
 11
36.81352511405767
 21
27.83979599559243
 31
0.0
  0
LINE
  5
137
330
6C
100
AcDbEntity
  8
Hidden (ANSI)
 48
0.0421842634677887
100
AcDbLine
 10
36.73952511405767
 20
28.08979599559243
 30
0.0
 11
36.81352511405767
 21
28.08979599559243
 31
0.0
  0
LINE
  5
138
330
6C
100
AcDbEntity
  8
Visible (ANSI)
100
AcDbLine
 10
36.81352511405775
 20
28.27779599559242
 30
0.0
 11
36.73952511405776
 21
28.27779599559242
 31
0.0
  0
LINE
  5
139
330
6C
100
AcDbEntity
  8
Visible (ANSI)
100
AcDbLine
 10
36.73952511405776
 20
28.27779599559242
 30
0.0
 11
36.73952511405776
 21
10.02779599559242
 31
0.0
  0
LINE
  5
13A
330
6C
100
AcDbEntity
  8
Visible (ANSI)
100
AcDbLine
 10
36.81352511405775
 20
10.02779599559242
 30
0.0
 11
36.73952511405776
 21
10.02779599559242
 31
0.0
  0
LINE
  5
13B
330
6C
100
AcDbEntity
  8
Visible (ANSI)
100
AcDbLine
 10
36.81352511405775
 20
10.02779599559242
 30
0.0
 11
36.81352511405775
 21
28.27779599559242
 31
0.0
  0
MTEXT
  5
13C
330
6C
100
AcDbEntity
  8
Symbol (ANSI)
100
AcDbMText
 10
35.48632404529462
 20
7.493898942131409
 30
0.0
 40
0.4000000049435874
 41
0.0
 71
     7
 72
     1
  1
SIDE VIEW
  7
Text Style166
 73
     1
 44
1.0
  0
LINE
  5
13D
330
6C
100
AcDbEntity
  8
Symbol (ANSI)
370
    30
100
AcDbLine
 10
35.46584399261256
 20
7.411030221582385
 30
0.0
 11
38.16892339396421
 21
7.411030221582385
 31
0.0
  0
ELLIPSE
  5
13E
330
6C
100
AcDbEntity
  8
Visible (ANSI)
100
AcDbEllipse
 10
45.31152194292617
 20
14.04699289902271
 30
0.0
 11
0.0623790264480572
 21
-0.108322929518143
 31
0.0
210
0.0
220
0.0
230
1.0
 40
0.578093115915809
 41
3.572615253427297
 42
5.85216270734122
  0
ELLIPSE
  5
13F
330
6C
100
AcDbEntity
  8
Visible (ANSI)
100
AcDbEllipse
 10
45.25919604111837
 20
14.01686041620207
 30
0.0
 11
-0.0623790264480507
 21
0.1083229295181468
 31
0.0
210
0.0
220
0.0
230
1.0
 40
0.5780931159158092
 41
0.0
 42
6.283185307179586
  0
LINE
  5
140
330
6C
100
AcDbEntity
  8
Visible (ANSI)
100
AcDbLine
 10
51.38769051366307
 20
10.44576673980035
 30
0.0
 11
51.43153113409664
 21
10.42052060554523
 31
0.0
  0
LINE
  5
141
330
6C
100
AcDbEntity
  8
Visible Narrow (ANSI)
100
AcDbLine
 10
51.33536461185528
 20
10.41563425697971
 30
0.0
 11
51.38769051366307
 21
10.44576673980035
 31
0.0
  0
LINE
  5
142
330
6C
100
AcDbEntity
  8
Visible (ANSI)
100
AcDbLine
 10
51.37920523228885
 20
10.39038812272459
 30
0.0
 11
51.33536461185528
 21
10.41563425697971
 31
0.0
  0
LINE
  5
143
330
6C
100
AcDbEntity
  8
Visible Narrow (ANSI)
100
AcDbLine
 10
51.37920523228885
 20
10.39038812272459
 30
0.0
 11
51.43153113409664
 21
10.42052060554523
 31
0.0
  0
ELLIPSE
  5
144
330
6C
100
AcDbEntity
  8
Visible (ANSI)
100
AcDbEllipse
 10
51.43153113409664
 20
10.52271399615054
 30
0.0
 11
0.0623790264480505
 21
-0.1083229295181465
 31
0.0
210
0.0
220
0.0
230
1.0
 40
0.578093115915809
 41
5.49972085220502
 42
5.852162707341591
  0
ELLIPSE
  5
145
330
6C
100
AcDbEntity
  8
Visible (ANSI)
100
AcDbEllipse
 10
51.37920523228885
 20
10.49258151332991
 30
0.0
 11
0.0623790264480442
 21
-0.1083229295181505
 31
0.0
210
0.0
220
0.0
230
1.0
 40
0.578093115915809
 41
5.499720852205298
 42
8.641313505795091
  0
LINE
  5
146
330
6C
100
AcDbEntity
  8
Visible (ANSI)
100
AcDbLine
 10
51.33536461185528
 20
10.62002103819035
 30
0.0
 11
51.37920523228885
 21
10.59477490393523
 31
0.0
  0
ELLIPSE
  5
147
330
6C
100
AcDbEntity
  8
Visible (ANSI)
100
AcDbEllipse
 10
51.38769051366307
 20
10.54796013040566
 30
0.0
 11
0.0623790264480571
 21
-0.1083229295181429
 31
0.0
210
0.0
220
0.0
230
0.9999999999999998
 40
0.5780931159158092
 41
3.572615253427297
 42
5.499720852204742
  0
ELLIPSE
  5
148
330
6C
100
AcDbEntity
  8
Visible (ANSI)
100
AcDbEllipse
 10
51.33536461185528
 20
10.51782764758502
 30
0.0
 11
-0.0623790264480442
 21
0.1083229295181505
 31
0.0
210
0.0
220
0.0
230
1.0
 40
0.578093115915809
 41
5.499720852205298
 42
8.641313505795091
  0
LINE
  5
149
330
6C
100
AcDbEntity
  8
Visible (ANSI)
100
AcDbLine
 10
44.58249485152273
 20
14.36461828933723
 30
0.0
 11
44.6263354719563
 21
14.33937215508211
 31
0.0
  0
LINE
  5
14A
330
6C
100
AcDbEntity
  8
Visible Narrow (ANSI)
100
AcDbLine
 10
44.53016894971493
 20
14.33448580651659
 30
0.0
 11
44.58249485152273
 21
14.36461828933723
 31
0.0
  0
LINE
  5
14B
330
6C
100
AcDbEntity
  8
Visible (ANSI)
100
AcDbLine
 10
44.5740095701485
 20
14.30923967226147
 30
0.0
 11
44.53016894971493
 21
14.33448580651659
 31
0.0
  0
LINE
  5
14C
330
6C
100
AcDbEntity
  8
Visible Narrow (ANSI)
100
AcDbLine
 10
44.5740095701485
 20
14.30923967226147
 30
0.0
 11
44.6263354719563
 21
14.33937215508211
 31
0.0
  0
ELLIPSE
  5
14D
330
6C
100
AcDbEntity
  8
Visible (ANSI)
100
AcDbEllipse
 10
44.6263354719563
 20
14.44156554568742
 30
0.0
 11
0.0623790264480506
 21
-0.1083229295181467
 31
0.0
210
0.0
220
0.0
230
1.0
 40
0.578093115915809
 41
5.49972085220502
 42
5.852162707341591
  0
ELLIPSE
  5
14E
330
6C
100
AcDbEntity
  8
Visible (ANSI)
100
AcDbEllipse
 10
44.5740095701485
 20
14.41143306286679
 30
0.0
 11
0.0623790264480442
 21
-0.1083229295181505
 31
0.0
210
0.0
220
0.0
230
1.0
 40
0.578093115915809
 41
5.499720852205298
 42
8.641313505795091
  0
LINE
  5
14F
330
6C
100
AcDbEntity
  8
Visible (ANSI)
100
AcDbLine
 10
44.53016894971493
 20
14.53887258772723
 30
0.0
 11
44.5740095701485
 21
14.51362645347211
 31
0.0
  0
ELLIPSE
  5
150
330
6C
100
AcDbEntity
  8
Visible (ANSI)
100
AcDbEllipse
 10
44.58249485152273
 20
14.46681167994255
 30
0.0
 11
0.0623790264480572
 21
-0.1083229295181431
 31
0.0
210
0.0
220
0.0
230
1.0
 40
0.578093115915809
 41
3.572615253427297
 42
5.499720852204742
  0
ELLIPSE
  5
151
330
6C
100
AcDbEntity
  8
Visible (ANSI)
100
AcDbEllipse
 10
44.53016894971493
 20
14.43667919712191
 30
0.0
 11
-0.0623790264480442
 21
0.1083229295181505
 31
0.0
210
0.0
220
0.0
230
1.0
 40
0.578093115915809
 41
5.499720852205298
 42
8.641313505795091
  0
LINE
  5
152
330
6C
100
AcDbEntity
  8
Visible (ANSI)
100
AcDbLine
 10
51.3876905136631
 20
24.85421726802523
 30
0.0
 11
51.43153113409668
 21
24.8289711337701
 31
0.0
  0
LINE
  5
153
330
6C
100
AcDbEntity
  8
Visible Narrow (ANSI)
100
AcDbLine
 10
51.33536461185531
 20
24.82408478520459
 30
0.0
 11
51.3876905136631
 21
24.85421726802523
 31
0.0
  0
LINE
  5
154
330
6C
100
AcDbEntity
  8
Visible (ANSI)
100
AcDbLine
 10
51.37920523228888
 20
24.79883865094946
 30
0.0
 11
51.33536461185531
 21
24.82408478520459
 31
0.0
  0
LINE
  5
155
330
6C
100
AcDbEntity
  8
Visible Narrow (ANSI)
100
AcDbLine
 10
51.37920523228888
 20
24.79883865094946
 30
0.0
 11
51.43153113409668
 21
24.8289711337701
 31
0.0
  0
ELLIPSE
  5
156
330
6C
100
AcDbEntity
  8
Visible (ANSI)
100
AcDbEllipse
 10
51.43153113409667
 20
24.93116452437548
 30
0.0
 11
0.0623790264480833
 21
-0.1083229295182034
 31
0.0
210
0.0
220
0.0
230
1.0
 40
0.578093115915809
 41
5.499720852205125
 42
5.852162707341511
  0
ELLIPSE
  5
157
330
6C
100
AcDbEntity
  8
Visible (ANSI)
100
AcDbEllipse
 10
51.37920523228888
 20
24.90103204155478
 30
0.0
 11
0.0623790264480447
 21
-0.1083229295181514
 31
0.0
210
0.0
220
0.0
230
0.9999999999999998
 40
0.578093115915809
 41
5.499720852205298
 42
8.641313505795091
  0
LINE
  5
158
330
6C
100
AcDbEntity
  8
Visible (ANSI)
100
AcDbLine
 10
51.33536461185531
 20
25.02847156641522
 30
0.0
 11
51.37920523228888
 21
25.0032254321601
 31
0.0
  0
ELLIPSE
  5
159
330
6C
100
AcDbEntity
  8
Visible (ANSI)
100
AcDbEllipse
 10
51.3876905136631
 20
24.95641065863055
 30
0.0
 11
0.0623790264480563
 21
-0.1083229295181416
 31
0.0
210
0.0
220
0.0
230
1.0
 40
0.578093115915809
 41
3.572615253427319
 42
5.499720852204742
  0
ELLIPSE
  5
15A
330
6C
100
AcDbEntity
  8
Visible (ANSI)
100
AcDbEllipse
 10
51.3353646118553
 20
24.9262781758099
 30
0.0
 11
-0.0623790264480447
 21
0.1083229295181514
 31
0.0
210
0.0
220
0.0
230
0.9999999999999998
 40
0.578093115915809
 41
5.499720852205298
 42
8.641313505795091
  0
LINE
  5
15B
330
6C
100
AcDbEntity
  8
Visible (ANSI)
100
AcDbLine
 10
44.58249485152276
 20
28.77306881756211
 30
0.0
 11
44.62633547195633
 21
28.74782268330699
 31
0.0
  0
LINE
  5
15C
330
6C
100
AcDbEntity
  8
Visible Narrow (ANSI)
100
AcDbLine
 10
44.53016894971496
 20
28.74293633474147
 30
0.0
 11
44.58249485152276
 21
28.77306881756211
 31
0.0
  0
LINE
  5
15D
330
6C
100
AcDbEntity
  8
Visible (ANSI)
100
AcDbLine
 10
44.57400957014853
 20
28.71769020048635
 30
0.0
 11
44.53016894971496
 21
28.74293633474147
 31
0.0
  0
LINE
  5
15E
330
6C
100
AcDbEntity
  8
Visible Narrow (ANSI)
100
AcDbLine
 10
44.57400957014853
 20
28.71769020048635
 30
0.0
 11
44.62633547195633
 21
28.74782268330699
 31
0.0
  0
ELLIPSE
  5
15F
330
6C
100
AcDbEntity
  8
Visible (ANSI)
100
AcDbEllipse
 10
44.62633547195633
 20
28.85001607391236
 30
0.0
 11
0.0623790264480833
 21
-0.1083229295182034
 31
0.0
210
0.0
220
0.0
230
1.0
 40
0.5780931159158092
 41
5.499720852205125
 42
5.852162707341511
  0
ELLIPSE
  5
160
330
6C
100
AcDbEntity
  8
Visible (ANSI)
100
AcDbEllipse
 10
44.57400957014853
 20
28.81988359109167
 30
0.0
 11
0.0623790264480447
 21
-0.1083229295181514
 31
0.0
210
0.0
220
0.0
230
1.0
 40
0.578093115915809
 41
5.499720852205298
 42
8.641313505795091
  0
LINE
  5
161
330
6C
100
AcDbEntity
  8
Visible (ANSI)
100
AcDbLine
 10
44.53016894971496
 20
28.9473231159521
 30
0.0
 11
44.57400957014853
 21
28.92207698169698
 31
0.0
  0
ELLIPSE
  5
162
330
6C
100
AcDbEntity
  8
Visible (ANSI)
100
AcDbEllipse
 10
44.58249485152276
 20
28.87526220816742
 30
0.0
 11
0.062379026448057
 21
-0.1083229295181427
 31
0.0
210
0.0
220
0.0
230
1.0
 40
0.578093115915809
 41
3.572615253427319
 42
5.499720852204742
  0
ELLIPSE
  5
163
330
6C
100
AcDbEntity
  8
Visible (ANSI)
100
AcDbEllipse
 10
44.53016894971496
 20
28.84512972534679
 30
0.0
 11
-0.0623790264480447
 21
0.1083229295181514
 31
0.0
210
0.0
220
0.0
230
0.9999999999999998
 40
0.578093115915809
 41
5.499720852205298
 42
8.641313505795091
  0
LINE
  5
164
330
6C
100
AcDbEntity
  8
Visible (ANSI)
100
AcDbLine
 10
44.3307648374203
 20
14.29561613833562
 30
0.0
 11
44.33076483742033
 21
29.21585116671192
 31
0.0
  0
LINE
  5
165
330
6C
100
AcDbEntity
  8
Visible (ANSI)
100
AcDbLine
 10
44.38309073922813
 20
29.24598364953256
 30
0.0
 11
44.33076483742033
 21
29.21585116671192
 31
0.0
  0
LINE
  5
166
330
6C
100
AcDbEntity
  8
Visible (ANSI)
100
AcDbLine
 10
44.33076483742033
 20
29.21585116671192
 30
0.0
 11
51.57860934458351
 21
25.04209510034107
 31
0.0
  0
LINE
  5
167
330
6C
100
AcDbEntity
  8
Visible (ANSI)
100
AcDbLine
 10
51.63093524639132
 20
25.07222758316171
 30
0.0
 11
51.57860934458351
 21
25.04209510034107
 31
0.0
  0
LINE
  5
168
330
6C
100
AcDbEntity
  8
Visible (ANSI)
100
AcDbLine
 10
51.63093524639132
 20
25.07222758316171
 30
0.0
 11
44.38309073922813
 21
29.24598364953256
 31
0.0
  0
LINE
  5
169
330
6C
100
AcDbEntity
  8
Visible (ANSI)
100
AcDbLine
 10
51.57860934458351
 20
25.04209510034107
 30
0.0
 11
51.57860934458348
 21
10.12186007196477
 31
0.0
  0
LINE
  5
16A
330
6C
100
AcDbEntity
  8
Visible (ANSI)
100
AcDbLine
 10
51.63093524639128
 20
10.15199255478541
 30
0.0
 11
51.57860934458348
 21
10.12186007196477
 31
0.0
  0
LINE
  5
16B
330
6C
100
AcDbEntity
  8
Visible (ANSI)
100
AcDbLine
 10
51.63093524639128
 20
10.15199255478541
 30
0.0
 11
51.63093524639132
 21
25.07222758316171
 31
0.0
  0
LINE
  5
16C
330
6C
100
AcDbEntity
  8
Visible (ANSI)
100
AcDbLine
 10
51.57860934458348
 20
10.12186007196477
 30
0.0
 11
44.3307648374203
 21
14.29561613833562
 31
0.0
  0
DIMENSION
  5
16D
330
6C
100
AcDbEntity
  8
Dimension (ANSI)
100
AcDbDimension
  2
*D4
 10
10.23298293438977
 20
28.27779599559242
 30
0.0
 11
10.23298293438977
 21
19.15279599559242
 31
0.0
 70
   160
  1
<>
 42
18.25
  3
Default (ANSI)
100
AcDbAlignedDimension
 13
13.27101491061244
 23
10.02779599559242
 33
0.0
 14
13.27101491061244
 24
28.27779599559242
 34
0.0
 50
90.0
100
AcDbRotatedDimension
1001
ACAD
1000
DSTYLE
1002
{
1070
   289
1070
     1
1070
   271
1070
     2
1070
   272
1070
     2
1070
    48
1040
0.0
1070
    47
1040
0.0
1002
}
  0
DIMENSION
  5
259
330
6C
100
AcDbEntity
  8
Dimension (ANSI)
100
AcDbDimension
  2
*D5
 10
23.52101491061244
 20
31.65374369915624
 30
0.0
 11
18.39601491061244
 21
31.65374369915624
 31
0.0
 70
   160
  1
<>
 42
10.25
  3
Default (ANSI)
100
AcDbAlignedDimension
 13
13.27101491061244
 23
28.27779599559242
 33
0.0
 14
23.52101491061244
 24
28.27779599559242
 34
0.0
 50
180.0
100
AcDbRotatedDimension
1001
ACAD
1000
DSTYLE
1002
{
1070
   289
1070
     1
1070
    73
1070
     0
1070
    74
1070
     0
1070
   271
1070
     2
1070
   272
1070
     2
1070
    48
1040
0.0
1070
    47
1040
0.0
1002
}
  0
DIMENSION
  5
343
330
6C
100
AcDbEntity
  8
Dimension (ANSI)
100
AcDbDimension
  2
*D6
 10
23.20801491061244
 20
30.84649042008438
 30
0.0
 11
24.9393893837395
 21
30.84649042008438
 31
0.0
 70
   160
  1
<>
 71
     5
 42
0.3130000000000024
  3
Default (ANSI)
100
AcDbAlignedDimension
 13
23.52101491061244
 23
28.27779599559242
 33
0.0
 14
23.20801491061244
 24
28.50646266225909
 34
0.0
 50
180.0
100
AcDbRotatedDimension
1001
ACAD
1000
DSTYLE
1002
{
1070
   289
1070
     1
1070
    73
1070
     0
1070
    74
1070
     0
1070
   271
1070
     3
1070
   272
1070
     3
1070
    48
1040
0.0
1070
    47
1040
0.0
1002
}
  0
DIMENSION
  5
42D
330
6C
100
AcDbEntity
  8
Dimension (ANSI)
100
AcDbDimension
  2
*D7
 10
24.26036675868369
 20
27.96479599559241
 30
0.0
 11
25.35065724974045
 21
29.23348243443335
 31
0.0
 70
   160
  1
<>
 42
0.3130000000000024
  3
Default (ANSI)
100
AcDbAlignedDimension
 13
23.52101491061244
 23
28.27779599559242
 33
0.0
 14
23.36401491061244
 24
27.96479599559242
 34
0.0
 50
90.0
100
AcDbRotatedDimension
1001
ACAD
1000
DSTYLE
1002
{
1070
   289
1070
     1
1070
   271
1070
     3
1070
   272
1070
     3
1070
    48
1040
0.0
1070
    47
1040
0.0
1002
}
  0
DIMENSION
  5
52D
330
6C
100
AcDbEntity
  8
Dimension (ANSI)
100
AcDbDimension
  2
*D8
 10
14.49562656296411
 20
10.42918434324072
 30
0.0
 11
18.34826035186901
 21
8.932126435002714
 31
0.0
 70
   163
  1
<>{\PGROUND HOLE}
 42
0.25
  3
Default (ANSI)
100
AcDbDiametricDimension
 15
14.67240325826077
 25
10.25240764794411
 35
0.0
 40
0.0
1001
ACAD_DSTYLE_DIMRADIAL_EXTENSION
1070
   387
1070
     1
1070
   388
1040
0.0
1070
   390
1040
0.0
1001
ACAD
1000
DSTYLE
1002
{
1070
   145
1040
-0.25
1070
   144
1040
0.9999999999999964
1070
   271
1070
     3
1070
   272
1070
     2
1070
    48
1040
0.0
1070
    47
1040
0.0
1002
}
  0
DIMENSION
  5
5E8
330
6C
100
AcDbEntity
  8
Dimension (ANSI)
100
AcDbDimension
  2
*D9
 10
36.81352511405775
 20
28.88348951467177
 30
0.0
 11
33.76752457126002
 21
28.88348951467177
 31
0.0
 70
   160
  1
{14 GA. C.R.S\P}(<>)
 71
     5
 42
0.0739999999999981
  3
Default (ANSI)
100
AcDbAlignedDimension
 13
36.73952511405776
 23
28.27779599559242
 33
0.0
 14
36.81352511405775
 24
28.27779599559242
 34
0.0
 50
180.0
100
AcDbRotatedDimension
1001
ACAD
1000
DSTYLE
1002
{
1070
   289
1070
     1
1070
    73
1070
     0
1070
    74
1070
     0
1070
   271
1070
     3
1070
   147
1040
0.031496062992126
1070
    72
1070
     0
1070
    71
1070
     0
1070
   272
1070
     2
1070
    48
1040
0.0
1070
    47
1040
0.0
1002
}
  0
DIMENSION
  5
6F0
330
6C
100
AcDbEntity
  8
Dimension (ANSI)
100
AcDbDimension
  2
*D10
 10
25.35065724974046
 20
27.96479599559241
 30
0.0
 11
25.35065724974045
 21
19.15279599559242
 31
0.0
 70
   160
  1
<>
 42
17.62399999999999
  3
Default (ANSI)
100
AcDbAlignedDimension
 13
13.42801491061244
 23
10.34079599559242
 33
0.0
 14
13.42801491061244
 24
27.96479599559242
 34
0.0
 50
90.0
100
AcDbRotatedDimension
1001
ACAD
1000
DSTYLE
1002
{
1070
   289
1070
     1
1070
   271
1070
     3
1070
   272
1070
     3
1070
    48
1040
0.0
1070
    47
1040
0.0
1002
}
  0
DIMENSION
  5
7DA
330
6C
100
AcDbEntity
  8
Dimension (ANSI)
100
AcDbDimension
  2
*D11
 10
23.20801491061244
 20
30.84649042008438
 30
0.0
 11
18.39601491061244
 21
30.84649042008438
 31
0.0
 70
   160
  1
<>
 42
9.623999999999998
  3
Default (ANSI)
100
AcDbAlignedDimension
 13
13.58401491061244
 23
28.50646266225909
 33
0.0
 14
23.20801491061244
 24
28.50646266225909
 34
0.0
 50
180.0
100
AcDbRotatedDimension
1001
ACAD
1000
DSTYLE
1002
{
1070
   289
1070
     1
1070
    73
1070
     0
1070
    74
1070
     0
1070
   271
1070
     3
1070
   272
1070
     3
1070
    48
1040
0.0
1070
    47
1040
0.0
1002
}
  0
DIMENSION
  5
8C4
330
6C
100
AcDbEntity
  8
Dimension (ANSI)
100
AcDbDimension
  2
*D12
 10
14.58401491061244
 20
8.903460037587175
 30
0.0
 11
12.18041545476682
 21
8.903460037587175
 31
0.0
 70
   160
  1
<>
  3
Default (ANSI)
100
AcDbAlignedDimension
 13
13.58401491061244
 23
10.21579599559242
 33
0.0
 14
14.58401491061244
 24
10.21579599559242
 34
0.0
 50
180.0
100
AcDbRotatedDimension
1001
ACAD
1000
DSTYLE
1002
{
1070
   289
1070
     1
1070
    73
1070
     0
1070
    74
1070
     0
1070
   271
1070
     3
1070
   272
1070
     3
1070
    48
1040
0.0
1070
    47
1040
0.0
1002
}
  0
CIRCLE
  5
9AE
330
6C
100
AcDbEntity
  8
Sketch Geometry (ANSI)
100
AcDbCircle
 10
14.02101491061244
 20
28.02779599559242
 30
0.0
 40
0.065
  0
CIRCLE
  5
9AF
330
6C
100
AcDbEntity
  8
Sketch Geometry (ANSI)
100
AcDbCircle
 10
14.27101491061244
 20
28.02779599559242
 30
0.0
 40
0.065
  0
CIRCLE
  5
9B0
330
6C
100
AcDbEntity
  8
Sketch Geometry (ANSI)
100
AcDbCircle
 10
14.52101491061244
 20
28.02779599559242
 30
0.0
 40
0.065
  0
CIRCLE
  5
9B1
330
6C
100
AcDbEntity
  8
Sketch Geometry (ANSI)
100
AcDbCircle
 10
13.52101491061244
 20
27.77779599559242
 30
0.0
 40
0.065
  0
CIRCLE
  5
9B2
330
6C
100
AcDbEntity
  8
Sketch Geometry (ANSI)
100
AcDbCircle
 10
13.77101491061244
 20
27.77779599559242
 30
0.0
 40
0.065
  0
CIRCLE
  5
9B3
330
6C
100
AcDbEntity
  8
Sketch Geometry (ANSI)
100
AcDbCircle
 10
14.02101491061244
 20
27.77779599559242
 30
0.0
 40
0.065
  0
CIRCLE
  5
9B4
330
6C
100
AcDbEntity
  8
Sketch Geometry (ANSI)
100
AcDbCircle
 10
14.27101491061244
 20
27.77779599559242
 30
0.0
 40
0.065
  0
CIRCLE
  5
9B5
330
6C
100
AcDbEntity
  8
Sketch Geometry (ANSI)
100
AcDbCircle
 10
14.52101491061244
 20
27.77779599559242
 30
0.0
 40
0.065
  0
CIRCLE
  5
9B6
330
6C
100
AcDbEntity
  8
Sketch Geometry (ANSI)
100
AcDbCircle
 10
13.52101491061244
 20
27.52779599559242
 30
0.0
 40
0.065
  0
CIRCLE
  5
9B7
330
6C
100
AcDbEntity
  8
Sketch Geometry (ANSI)
100
AcDbCircle
 10
13.77101491061244
 20
27.52779599559242
 30
0.0
 40
0.065
  0
CIRCLE
  5
9B8
330
6C
100
AcDbEntity
  8
Sketch Geometry (ANSI)
100
AcDbCircle
 10
14.02101491061244
 20
27.52779599559242
 30
0.0
 40
0.065
  0
CIRCLE
  5
9B9
330
6C
100
AcDbEntity
  8
Sketch Geometry (ANSI)
100
AcDbCircle
 10
14.27101491061244
 20
27.52779599559242
 30
0.0
 40
0.065
  0
CIRCLE
  5
9BA
330
6C
100
AcDbEntity
  8
Sketch Geometry (ANSI)
100
AcDbCircle
 10
14.52101491061244
 20
27.52779599559242
 30
0.0
 40
0.065
  0
CIRCLE
  5
9BB
330
6C
100
AcDbEntity
  8
Sketch Geometry (ANSI)
100
AcDbCircle
 10
13.52101491061244
 20
27.27779599559242
 30
0.0
 40
0.065
  0
CIRCLE
  5
9BC
330
6C
100
AcDbEntity
  8
Sketch Geometry (ANSI)
100
AcDbCircle
 10
13.77101491061244
 20
27.27779599559242
 30
0.0
 40
0.065
  0
CIRCLE
  5
9BD
330
6C
100
AcDbEntity
  8
Sketch Geometry (ANSI)
100
AcDbCircle
 10
14.02101491061244
 20
27.27779599559242
 30
0.0
 40
0.065
  0
CIRCLE
  5
9BE
330
6C
100
AcDbEntity
  8
Sketch Geometry (ANSI)
100
AcDbCircle
 10
14.27101491061244
 20
27.27779599559242
 30
0.0
 40
0.065
  0
CIRCLE
  5
9BF
330
6C
100
AcDbEntity
  8
Sketch Geometry (ANSI)
100
AcDbCircle
 10
14.52101491061244
 20
27.27779599559242
 30
0.0
 40
0.065
  0
CIRCLE
  5
9C0
330
6C
100
AcDbEntity
  8
Sketch Geometry (ANSI)
100
AcDbCircle
 10
13.52101491061244
 20
27.02779599559242
 30
0.0
 40
0.065
  0
CIRCLE
  5
9C1
330
6C
100
AcDbEntity
  8
Sketch Geometry (ANSI)
100
AcDbCircle
 10
13.77101491061244
 20
27.02779599559242
 30
0.0
 40
0.065
  0
CIRCLE
  5
9C2
330
6C
100
AcDbEntity
  8
Sketch Geometry (ANSI)
100
AcDbCircle
 10
14.02101491061244
 20
27.02779599559242
 30
0.0
 40
0.065
  0
CIRCLE
  5
9C3
330
6C
100
AcDbEntity
  8
Sketch Geometry (ANSI)
100
AcDbCircle
 10
14.27101491061244
 20
27.02779599559242
 30
0.0
 40
0.065
  0
CIRCLE
  5
9C4
330
6C
100
AcDbEntity
  8
Sketch Geometry (ANSI)
100
AcDbCircle
 10
14.52101491061244
 20
27.02779599559242
 30
0.0
 40
0.065
  0
CIRCLE
  5
9C5
330
6C
100
AcDbEntity
  8
Sketch Geometry (ANSI)
100
AcDbCircle
 10
13.58601491061239
 20
27.96271119478598
 30
0.0
 40
0.5500000000000002
  0
MTEXT
  5
9C6
102
{ACAD_REACTORS
330
9C7
102
}
330
6C
100
AcDbEntity
  8
Symbol (ANSI)
100
AcDbMText
 10
12.32586491507285
 20
29.37806241306754
 30
0.0
 40
0.4000000049435874
 41
3.303727765721598
 71
     6
 72
     1
  1
{PREFORATED\PDETAIL}
  7
Note Text (ANSI)
 73
     2
 44
0.9878841638565063
  0
LEADER
  5
9C7
330
6C
100
AcDbEntity
  8
Symbol (ANSI)
100
AcDbLeader
  3
Default (ANSI)$7
 73
     0
 75
     1
 40
1.191922790635273
 41
3.246205526197566
 76
     3
 10
13.18248081984106
 20
28.33642263103775
 30
0.0
 10
12.75893577378356
 20
29.37806241306754
 30
0.0
 10
12.43085179171327
 20
29.37806241306754
 30
0.0
340
9C6
1001
ACAD
1000
DSTYLE
1002
{
1070
    77
1070
     0
1002
}
  0
LINE
  5
9C8
330
6C
100
AcDbEntity
  8
Centerline (ANSI)
  6
CHAIN
 48
0.9524481296539306
100
AcDbLine
 10
13.58401491061244
 20
28.50646266225909
 30
0.0
 11
13.58401491061244
 21
9.799129328925758
 31
0.0
  0
LINE
  5
9C9
330
6C
100
AcDbEntity
  8
Centerline (ANSI)
  6
CHAIN
 48
0.9524481296539306
100
AcDbLine
 10
13.01134824394577
 20
10.34079599559242
 30
0.0
 11
23.78068157727911
 21
10.34079599559242
 31
0.0
  0
LINE
  5
9CA
330
6C
100
AcDbEntity
  8
Centerline (ANSI)
  6
CHAIN
 48
0.9524481296539306
100
AcDbLine
 10
23.20801491061244
 20
9.799129328925756
 30
0.0
 11
23.20801491061244
 21
28.50646266225909
 31
0.0
  0
LINE
  5
9CB
330
6C
100
AcDbEntity
  8
Centerline (ANSI)
  6
CHAIN
 48
0.9524481296539306
100
AcDbLine
 10
23.78068157727911
 20
27.96479599559242
 30
0.0
 11
13.01134824394577
 21
27.96479599559242
 31
0.0
  0
LINE
  5
9CC
330
6C
100
AcDbEntity
  8
Center Mark (ANSI)
  6
CHAIN
 48
0.1804457306861877
100
AcDbLine
 10
15.12568157727911
 20
10.34079599559242
 30
0.0
 11
14.04234824394577
 21
10.34079599559242
 31
0.0
  0
LINE
  5
9CD
330
6C
100
AcDbEntity
  8
Center Mark (ANSI)
  6
CHAIN
 48
0.1804457306861877
100
AcDbLine
 10
14.58401491061244
 20
10.88246266225908
 30
0.0
 11
14.58401491061244
 21
9.799129328925754
 31
0.0
  0
MTEXT
  5
9CE
102
{ACAD_REACTORS
330
9CF
102
}
330
6C
100
AcDbEntity
  8
Symbol (ANSI)
100
AcDbMText
 10
24.4765848301017
 20
8.618966633574219
 30
0.0
 40
0.4000000049435874
 41
2.797082653195839
 71
     4
 72
     1
  1
{.250 X .312\POBROUND\PHOLE}
  7
Note Text (ANSI)
 73
     2
 44
0.9878841638565063
  0
LEADER
  5
9CF
330
6C
100
AcDbEntity
  8
Symbol (ANSI)
100
AcDbLeader
  3
Default (ANSI)$7
 73
     0
 74
     0
 75
     1
 40
1.850512241345763
 41
2.723169928754115
 76
     3
 10
23.26364603084616
 20
10.21824678949123
 30
0.0
 10
24.04351397139099
 20
8.618966633574219
 30
0.0
 10
24.37159795346128
 20
8.618966633574219
 30
0.0
340
9CE
1001
ACAD
1000
DSTYLE
1002
{
1070
    77
1070
     0
1002
}
  0
LINE
  5
9D0
330
6C
100
AcDbEntity
  8
Center Mark (ANSI)
  6
CHAIN
 48
0.1604468077421188
100
AcDbLine
 10
14.0026815772791
 20
27.27779599559242
 30
0.0
 11
13.03934824394577
 21
27.27779599559242
 31
0.0
  0
LINE
  5
9D1
330
6C
100
AcDbEntity
  8
Center Mark (ANSI)
  6
CHAIN
 48
0.1604468077421188
100
AcDbLine
 10
13.52101491061244
 20
27.75946266225909
 30
0.0
 11
13.52101491061244
 21
26.79612932892576
 31
0.0
  0
LINE
  5
9D2
330
6C
100
AcDbEntity
  8
Center Mark (ANSI)
  6
CHAIN
 48
0.1604468077421188
100
AcDbLine
 10
14.0026815772791
 20
27.02779599559242
 30
0.0
 11
13.03934824394577
 21
27.02779599559242
 31
0.0
  0
LINE
  5
9D3
330
6C
100
AcDbEntity
  8
Center Mark (ANSI)
  6
CHAIN
 48
0.1604468077421188
100
AcDbLine
 10
13.52101491061244
 20
27.50946266225909
 30
0.0
 11
13.52101491061244
 21
26.54612932892576
 31
0.0
  0
DIMENSION
  5
9D4
330
6C
100
AcDbEntity
  8
Dimension (ANSI)
100
AcDbDimension
  2
*D13
 10
12.92484201474984
 20
27.27779599559242
 30
0.0
 11
11.83011901850863
 21
25.8398864871235
 31
0.0
 70
   160
  1
<>
 42
0.25
  3
Default (ANSI)
100
AcDbAlignedDimension
 13
13.03934824394577
 23
27.02779599559242
 33
0.0
 14
13.03934824394577
 24
27.27779599559242
 34
0.0
 50
90.0
100
AcDbRotatedDimension
1001
ACAD
1000
DSTYLE
1002
{
1070
   289
1070
     1
1070
   271
1070
     3
1070
   272
1070
     3
1070
    48
1040
0.0
1070
    47
1040
0.0
1002
}
  0
DIMENSION
  5
AD4
330
6C
100
AcDbEntity
  8
Dimension (ANSI)
100
AcDbDimension
  2
*D14
 10
13.27101491061244
 20
24.8887339619586
 30
0.0
 11
11.79600972764681
 21
24.8887339619586
 31
0.0
 70
   160
  1
<>
 42
0.25
  3
Default (ANSI)
100
AcDbAlignedDimension
 13
13.52101491061244
 23
26.54612932892576
 33
0.0
 14
13.27101491061244
 24
19.58300772743251
 34
0.0
 50
180.0
100
AcDbRotatedDimension
1001
ACAD
1000
DSTYLE
1002
{
1070
   289
1070
     1
1070
    73
1070
     0
1070
    74
1070
     0
1070
   271
1070
     3
1070
    76
1070
     1
1070
   272
1070
     3
1070
    48
1040
0.0
1070
    47
1040
0.0
1002
}
  0
LINE
  5
BB9
330
6C
100
AcDbEntity
  8
Center Mark (ANSI)
  6
CHAIN
 48
0.1604468077421188
100
AcDbLine
 10
14.5026815772791
 20
28.02779599559242
 30
0.0
 11
13.53934824394577
 21
28.02779599559242
 31
0.0
  0
LINE
  5
BBA
330
6C
100
AcDbEntity
  8
Center Mark (ANSI)
  6
CHAIN
 48
0.1604468077421188
100
AcDbLine
 10
14.02101491061244
 20
28.50946266225909
 30
0.0
 11
14.02101491061244
 21
27.54612932892575
 31
0.0
  0
LINE
  5
BBB
330
6C
100
AcDbEntity
  8
Center Mark (ANSI)
  6
CHAIN
 48
0.1604468077421188
100
AcDbLine
 10
14.7526815772791
 20
28.02779599559242
 30
0.0
 11
13.78934824394577
 21
28.02779599559242
 31
0.0
  0
LINE
  5
BBC
330
6C
100
AcDbEntity
  8
Center Mark (ANSI)
  6
CHAIN
 48
0.1604468077421188
100
AcDbLine
 10
14.27101491061244
 20
28.50946266225909
 30
0.0
 11
14.27101491061244
 21
27.54612932892575
 31
0.0
  0
DIMENSION
  5
BBD
330
6C
100
AcDbEntity
  8
Dimension (ANSI)
100
AcDbDimension
  2
*D15
 10
14.27101491061244
 20
29.34013195359767
 30
0.0
 11
15.69382188892392
 21
29.34013195359767
 31
0.0
 70
   160
  1
<>
 42
0.25
  3
Default (ANSI)
100
AcDbAlignedDimension
 13
14.02101491061244
 23
28.50946266225909
 33
0.0
 14
14.27101491061244
 24
28.50946266225909
 34
0.0
 50
180.0
100
AcDbRotatedDimension
1001
ACAD
1000
DSTYLE
1002
{
1070
   289
1070
     1
1070
    73
1070
     0
1070
    74
1070
     0
1070
   271
1070
     3
1070
   272
1070
     3
1070
    48
1040
0.0
1070
    47
1040
0.0
1002
}
  0
DIMENSION
  5
CA7
330
6C
100
AcDbEntity
  8
Dimension (ANSI)
100
AcDbDimension
  2
*D16
 10
16.3861686439763
 20
28.27779599559242
 30
0.0
 11
17.4808916402175
 21
29.341638025601
 31
0.0
 70
   160
  1
<>
 42
0.25
  3
Default (ANSI)
100
AcDbAlignedDimension
 13
14.7526815772791
 23
28.02779599559242
 33
0.0
 14
18.15842398710606
 24
28.27779599559242
 34
0.0
 50
90.0
100
AcDbRotatedDimension
1001
ACAD
1000
DSTYLE
1002
{
1070
   289
1070
     1
1070
   271
1070
     3
1070
    76
1070
     1
1070
   272
1070
     3
1070
    48
1040
0.0
1070
    47
1040
0.0
1002
}
  0
DIMENSION
  5
DA3
330
6C
100
AcDbEntity
  8
Dimension (ANSI)
100
AcDbDimension
  2
*D17
 10
14.4750529698353
 20
27.07375793636954
 30
0.0
 11
16.3428318247004
 21
26.51785323777419
 31
0.0
 70
    35
  1
<>{\PTYP.}
 71
     5
 42
0.13
  3
Default (ANSI)
100
AcDbDiametricDimension
 15
14.56697685138957
 25
26.9818340548153
 35
0.0
 40
0.0
1001
ACAD
1000
DSTYLE
1002
{
1070
   144
1040
0.9999999999999802
1070
   271
1070
     3
1070
   272
1070
     2
1070
    48
1040
0.0
1070
    47
1040
0.0
1002
}
1001
ACAD_DSTYLE_DIMRADIAL_EXTENSION
1070
   387
1070
     1
1070
   388
1040
0.0
1070
   390
1040
0.0
  0
LINE
  5
E5C
330
6C
100
AcDbEntity
  8
Center Mark (ANSI)
  6
CHAIN
 48
0.1604468077421188
100
AcDbLine
 10
15.0026815772791
 20
28.02779599559242
 30
0.0
 11
14.03934824394577
 21
28.02779599559242
 31
0.0
  0
LINE
  5
E5D
330
6C
100
AcDbEntity
  8
Center Mark (ANSI)
  6
CHAIN
 48
0.1604468077421188
100
AcDbLine
 10
14.52101491061244
 20
28.50946266225909
 30
0.0
 11
14.52101491061244
 21
27.54612932892575
 31
0.0
  0
MTEXT
  5
E5E
102
{ACAD_XDICTIONARY
360
E6A
102
}
330
6C
100
AcDbEntity
  8
Symbol (ANSI)
100
AcDbMText
 10
31.4385855551114
 20
3.292741641410714
 30
0.0
 40
0.3333333439714327
 41
24.61129035849585
 71
     4
 72
     1
  3
{\fRomanS|b0|i0|c0|p2;\H2.0001x;PART#: N1P1220PP\P(DATA SUBJECT TO CHANGE WITHOUT NOTICE)\H1.6157x; \H0.61893x;\P \H1.352x; \H0.73963x;\P\H0.59997x;THIS DRAWING IS PROPERTY OF HUBBELL INC. WIEGMANN\H1.5634x; \H0.63965x;\PALL INFORMATION IS PROPRIETAR
  1
Y AND NOT TO BE DUPLICATED\H1.234x; \H0.81039x;\P\H1.2571x; }
  7
Note Text (ANSI)
 73
     1
 44
0.8026435375213623
  0
ENDSEC
  0
SECTION
  2
OBJECTS
  0
DICTIONARY
  5
C
330
0
100
AcDbDictionary
281
     1
  3
ACAD_CIP_PREVIOUS_PRODUCT_INFO
350
E60
  3
ACAD_COLOR
350
63
  3
ACAD_GROUP
350
D
  3
ACAD_LAYOUT
350
62
  3
ACAD_MATERIAL
350
10
  3
ACAD_MLEADERSTYLE
350
66
  3
ACAD_MLINESTYLE
350
5F
  3
ACAD_PLOTSETTINGS
350
61
  3
ACAD_PLOTSTYLENAME
350
E
  3
ACAD_SCALELIST
350
42
  3
ACAD_TABLESTYLE
350
64
  3
ACAD_VISUALSTYLE
350
29
  3
ACDB_RECOMPOSE_DATA
350
E6C
  3
AcDbVariableDictionary
350
76
  0
DICTIONARY
  5
EA2
330
5E2
100
AcDbDictionary
280
     1
281
     1
  3
ACAD_MTEXT_2008_RT
360
EA3
  0
DICTIONARY
  5
EA4
330
E56
100
AcDbDictionary
280
     1
281
     1
  3
ACAD_MTEXT_2008_RT
360
EA5
  0
DICTIONARY
  5
E6A
330
E5E
100
AcDbDictionary
280
     1
281
     1
  3
ACAD_MTEXT_2008_RT
360
E6B
  0
XRECORD
  5
E60
102
{ACAD_REACTORS
330
C
102
}
330
C
100
AcDbXrecord
280
     1
300
INVPROSA
300
2012
300
INVPROSA_F_S
  0
DICTIONARY
  5
63
102
{ACAD_REACTORS
330
C
102
}
330
C
100
AcDbDictionary
281
     1
  0
DICTIONARY
  5
D
102
{ACAD_REACTORS
330
C
102
}
330
C
100
AcDbDictionary
281
     1
  0
DICTIONARY
  5
62
102
{ACAD_REACTORS
330
C
102
}
330
C
100
AcDbDictionary
281
     1
  3
Layout1
350
6B
  3
Layout2
350
73
  3
Model
350
6F
  0
DICTIONARY
  5
10
102
{ACAD_REACTORS
330
C
102
}
330
C
100
AcDbDictionary
281
     1
  3
ByBlock
350
19
  3
ByLayer
350
11
  3
Global
350
21
  0
DICTIONARY
  5
66
102
{ACAD_REACTORS
330
C
102
}
330
C
100
AcDbDictionary
281
     1
  3
Standard
350
67
  0
DICTIONARY
  5
5F
102
{ACAD_REACTORS
330
C
102
}
330
C
100
AcDbDictionary
281
     1
  3
Standard
350
60
  0
DICTIONARY
  5
61
102
{ACAD_REACTORS
330
C
102
}
330
C
100
AcDbDictionary
281
     1
  0
ACDBDICTIONARYWDFLT
  5
E
102
{ACAD_REACTORS
330
C
102
}
330
C
100
AcDbDictionary
281
     1
  3
Normal
350
F
100
AcDbDictionaryWithDefault
340
F
  0
DICTIONARY
  5
42
102
{ACAD_REACTORS
330
C
102
}
330
C
100
AcDbDictionary
281
     1
  3
A0
350
43
  3
A1
350
44
  3
A2
350
45
  3
A3
350
46
  3
A4
350
47
  3
A5
350
48
  3
A6
350
49
  3
A7
350
4A
  3
A8
350
4B
  3
A9
350
4C
  3
B0
350
4D
  3
B1
350
4E
  3
B2
350
4F
  3
B3
350
50
  3
B4
350
51
  3
B5
350
52
  3
B6
350
53
  0
DICTIONARY
  5
64
102
{ACAD_REACTORS
330
C
102
}
330
C
100
AcDbDictionary
281
     1
  3
Standard
350
65
  0
DICTIONARY
  5
29
102
{ACAD_REACTORS
330
C
102
}
330
C
100
AcDbDictionary
281
     1
  3
2dWireframe
350
2F
  3
Basic
350
2E
  3
Brighten
350
35
  3
ColorChange
350
39
  3
Conceptual
350
32
  3
Dim
350
34
  3
EdgeColorOff
350
41
  3
Facepattern
350
38
  3
Flat
350
2A
  3
FlatWithEdges
350
2B
  3
Gouraud
350
2C
  3
GouraudWithEdges
350
2D
  3
Hidden
350
31
  3
JitterOff
350
3F
  3
Linepattern
350
37
  3
OverhangOff
350
40
  3
Realistic
350
33
  3
Shaded
350
3E
  3
Shaded with edges
350
3D
  3
Shades of Gray
350
3A
  3
Sketchy
350
3B
  3
Thicken
350
36
  3
Wireframe
350
30
  3
X-Ray
350
3C
  0
XRECORD
  5
E6C
102
{ACAD_REACTORS
330
C
102
}
330
C
100
AcDbXrecord
280
     1
 90
        1
330
65
330
E5E
  0
DICTIONARY
  5
76
102
{ACAD_REACTORS
330
C
102
}
330
C
100
AcDbDictionary
281
     1
  3
CANNOSCALE
350
79
  3
CMLEADERSTYLE
350
78
  3
CTABLESTYLE
350
77
  3
LAYEREVAL
350
E63
  3
LAYERNOTIFY
350
E64
  3
LIGHTINGUNITS
350
E62
  3
MSLTSCALE
350
E61
  3
XCLIPFRAME
350
E65
  0
XRECORD
  5
EA3
102
{ACAD_REACTORS
330
EA2
102
}
330
EA2
100
AcDbXrecord
280
     1
 40
36037.0
  1
\A1;\U+22050.250{\PGROUND HOLE}
  0
XRECORD
  5
EA5
102
{ACAD_REACTORS
330
EA4
102
}
330
EA4
100
AcDbXrecord
280
     1
 40
21816.0
  1
\A1;\U+22050.130{\PTYP.}
  0
XRECORD
  5
E6B
102
{ACAD_REACTORS
330
E6A
102
}
330
E6A
100
AcDbXrecord
280
     1
 40
3266095.0
  1
\pxsm0.94;{\fRomanS|b0|i0;\H0.6667;PART#: N1P1220PP\P(DATA SUBJECT TO CHANGE WITHOUT NOTICE)\P \P\fRomanS|b0|i0;\H0.4000;THIS DRAWING IS PROPERTY OF HUBBELL INC. WIEGMANN\PALL INFORMATION IS PROPRIETARY AND NOT TO BE DUPLICATED\P}
  0
LAYOUT
  5
6B
102
{ACAD_REACTORS
330
62
102
}
330
62
100
AcDbPlotSettings
  1

  2

  4

  6

 40
0.0
 41
0.0
 42
0.0
 43
0.0
 44
0.0
 45
0.0
 46
0.0
 47
0.0
 48
0.0
 49
0.0
140
0.0
141
0.0
142
1.0
143
1.0
 70
   688
 72
     0
 73
     0
 74
     5
  7

 75
    16
147
1.0
 76
     0
 77
     2
 78
   300
148
0.0
149
0.0
100
AcDbLayout
  1
Layout1
 70
     1
 71
     1
 10
0.0
 20
0.0
 11
12.0
 21
9.0
 12
0.0
 22
0.0
 32
0.0
 14
0.0
 24
0.0
 34
0.0
 15
0.0
 25
0.0
 35
0.0
146
0.0
 13
0.0
 23
0.0
 33
0.0
 16
1.0
 26
0.0
 36
0.0
 17
0.0
 27
1.0
 37
0.0
 76
     0
330
68
  0
LAYOUT
  5
73
102
{ACAD_REACTORS
330
62
102
}
330
62
100
AcDbPlotSettings
  1

  2

  4

  6

 40
0.0
 41
0.0
 42
0.0
 43
0.0
 44
0.0
 45
0.0
 46
0.0
 47
0.0
 48
0.0
 49
0.0
140
0.0
141
0.0
142
1.0
143
1.0
 70
   688
 72
     0
 73
     0
 74
     5
  7

 75
    16
147
1.0
 76
     0
 77
     2
 78
   300
148
0.0
149
0.0
100
AcDbLayout
  1
Layout2
 70
     1
 71
     2
 10
0.0
 20
0.0
 11
12.0
 21
9.0
 12
0.0
 22
0.0
 32
0.0
 14
0.0
 24
0.0
 34
0.0
 15
0.0
 25
0.0
 35
0.0
146
0.0
 13
0.0
 23
0.0
 33
0.0
 16
1.0
 26
0.0
 36
0.0
 17
0.0
 27
1.0
 37
0.0
 76
     0
330
70
  0
LAYOUT
  5
6F
102
{ACAD_REACTORS
330
62
102
}
330
62
100
AcDbPlotSettings
  1

  2

  4

  6

 40
0.0
 41
0.0
 42
0.0
 43
0.0
 44
0.0
 45
0.0
 46
0.0
 47
0.0
 48
0.0
 49
0.0
140
0.0
141
0.0
142
1.0
143
1.0
 70
  1712
 72
     0
 73
     0
 74
     0
  7

 75
     0
147
1.0
 76
     0
 77
     2
 78
   300
148
0.0
149
0.0
100
AcDbLayout
  1
Model
 70
     1
 71
     0
 10
0.0
 20
0.0
 11
12.0
 21
9.0
 12
0.0
 22
0.0
 32
0.0
 14
0.0
 24
0.0
 34
0.0
 15
0.0
 25
0.0
 35
0.0
146
0.0
 13
0.0
 23
0.0
 33
0.0
 16
1.0
 26
0.0
 36
0.0
 17
0.0
 27
1.0
 37
0.0
 76
     0
330
6C
  0
MATERIAL
  5
19
102
{ACAD_XDICTIONARY
360
1A
102
}
102
{ACAD_REACTORS
330
10
102
}
330
10
100
AcDbMaterial
  1
ByBlock
 72
     0
 43
0.0208333333333333
 43
0.0
 43
0.0
 43
0.0
 43
0.0
 43
0.0208333333333333
 43
0.0
 43
0.0
 43
0.0
 43
0.0
 43
1.0
 43
0.0
 43
0.0
 43
0.0
 43
0.0
 43
1.0
 77
     0
 47
0.0208333333333333
 47
0.0
 47
0.0
 47
0.0
 47
0.0
 47
0.0208333333333333
 47
0.0
 47
0.0
 47
0.0
 47
0.0
 47
1.0
 47
0.0
 47
0.0
 47
0.0
 47
0.0
 47
1.0
171
     0
 49
0.0208333333333333
 49
0.0
 49
0.0
 49
0.0
 49
0.0
 49
0.0208333333333333
 49
0.0
 49
0.0
 49
0.0
 49
0.0
 49
1.0
 49
0.0
 49
0.0
 49
0.0
 49
0.0
 49
1.0
175
     0
142
0.0208333333333333
142
0.0
142
0.0
142
0.0
142
0.0
142
0.0208333333333333
142
0.0
142
0.0
142
0.0
142
0.0
142
1.0
142
0.0
142
0.0
142
0.0
142
0.0
142
1.0
179
     0
144
0.0208333333333333
144
0.0
144
0.0
144
0.0
144
0.0
144
0.0208333333333333
144
0.0
144
0.0
144
0.0
144
0.0
144
1.0
144
0.0
144
0.0
144
0.0
144
0.0
144
1.0
147
0.0208333333333333
147
0.0
147
0.0
147
0.0
147
0.0
147
0.0208333333333333
147
0.0
147
0.0
147
0.0
147
0.0
147
1.0
147
0.0
147
0.0
147
0.0
147
0.0
147
1.0
  0
MATERIAL
  5
11
102
{ACAD_XDICTIONARY
360
12
102
}
102
{ACAD_REACTORS
330
10
102
}
330
10
100
AcDbMaterial
  1
ByLayer
 72
     0
 43
0.0208333333333333
 43
0.0
 43
0.0
 43
0.0
 43
0.0
 43
0.0208333333333333
 43
0.0
 43
0.0
 43
0.0
 43
0.0
 43
1.0
 43
0.0
 43
0.0
 43
0.0
 43
0.0
 43
1.0
 77
     0
 47
0.0208333333333333
 47
0.0
 47
0.0
 47
0.0
 47
0.0
 47
0.0208333333333333
 47
0.0
 47
0.0
 47
0.0
 47
0.0
 47
1.0
 47
0.0
 47
0.0
 47
0.0
 47
0.0
 47
1.0
171
     0
 49
0.0208333333333333
 49
0.0
 49
0.0
 49
0.0
 49
0.0
 49
0.0208333333333333
 49
0.0
 49
0.0
 49
0.0
 49
0.0
 49
1.0
 49
0.0
 49
0.0
 49
0.0
 49
0.0
 49
1.0
175
     0
142
0.0208333333333333
142
0.0
142
0.0
142
0.0
142
0.0
142
0.0208333333333333
142
0.0
142
0.0
142
0.0
142
0.0
142
1.0
142
0.0
142
0.0
142
0.0
142
0.0
142
1.0
179
     0
144
0.0208333333333333
144
0.0
144
0.0
144
0.0
144
0.0
144
0.0208333333333333
144
0.0
144
0.0
144
0.0
144
0.0
144
1.0
144
0.0
144
0.0
144
0.0
144
0.0
144
1.0
147
0.0208333333333333
147
0.0
147
0.0
147
0.0
147
0.0
147
0.0208333333333333
147
0.0
147
0.0
147
0.0
147
0.0
147
1.0
147
0.0
147
0.0
147
0.0
147
0.0
147
1.0
  0
MATERIAL
  5
21
102
{ACAD_XDICTIONARY
360
22
102
}
102
{ACAD_REACTORS
330
10
102
}
330
10
100
AcDbMaterial
  1
Global
 72
     0
 43
0.0208333333333333
 43
0.0
 43
0.0
 43
0.0
 43
0.0
 43
0.0208333333333333
 43
0.0
 43
0.0
 43
0.0
 43
0.0
 43
1.0
 43
0.0
 43
0.0
 43
0.0
 43
0.0
 43
1.0
 77
     0
 47
0.0208333333333333
 47
0.0
 47
0.0
 47
0.0
 47
0.0
 47
0.0208333333333333
 47
0.0
 47
0.0
 47
0.0
 47
0.0
 47
1.0
 47
0.0
 47
0.0
 47
0.0
 47
0.0
 47
1.0
171
     0
 49
0.0208333333333333
 49
0.0
 49
0.0
 49
0.0
 49
0.0
 49
0.0208333333333333
 49
0.0
 49
0.0
 49
0.0
 49
0.0
 49
1.0
 49
0.0
 49
0.0
 49
0.0
 49
0.0
 49
1.0
175
     0
142
0.0208333333333333
142
0.0
142
0.0
142
0.0
142
0.0
142
0.0208333333333333
142
0.0
142
0.0
142
0.0
142
0.0
142
1.0
142
0.0
142
0.0
142
0.0
142
0.0
142
1.0
179
     0
144
0.0208333333333333
144
0.0
144
0.0
144
0.0
144
0.0
144
0.0208333333333333
144
0.0
144
0.0
144
0.0
144
0.0
144
1.0
144
0.0
144
0.0
144
0.0
144
0.0
144
1.0
147
0.0208333333333333
147
0.0
147
0.0
147
0.0
147
0.0
147
0.0208333333333333
147
0.0
147
0.0
147
0.0
147
0.0
147
1.0
147
0.0
147
0.0
147
0.0
147
0.0
147
1.0
  0
MLEADERSTYLE
  5
67
102
{ACAD_XDICTIONARY
360
E68
102
}
102
{ACAD_REACTORS
330
66
102
}
330
66
100
AcDbMLeaderStyle
170
     2
171
     1
172
     0
 90
        2
 40
0.0
 41
0.0
173
     1
 91
-1056964608
340
5B
 92
       -2
290
     1
 42
0.09
291
     1
 43
0.36
  3
Standard
 44
0.18
300

342
55
174
     1
178
     6
175
     1
176
     0
 93
-1056964608
 45
0.18
292
     0
297
     0
 46
0.18
 94
-1056964608
 47
1.0
 49
1.0
140
1.0
293
     1
141
0.0
294
     1
177
     0
142
1.0
295
     0
296
     0
143
0.125
1001
ACAD_MLEADERVER
1070
     2
  0
MLINESTYLE
  5
60
102
{ACAD_REACTORS
330
5F
102
}
330
5F
100
AcDbMlineStyle
  2
STANDARD
 70
     0
  3

 62
   256
 51
90.0
 52
90.0
 71
     2
 49
0.5
 62
   256
  6
BYLAYER
 49
-0.5
 62
   256
  6
BYLAYER
  0
ACDBPLACEHOLDER
  5
F
102
{ACAD_REACTORS
330
E
102
}
330
E
  0
SCALE
  5
43
102
{ACAD_REACTORS
330
42
102
}
330
42
100
AcDbScale
 70
     0
300
1:1
140
1.0
141
1.0
290
     1
  0
SCALE
  5
44
102
{ACAD_REACTORS
330
42
102
}
330
42
100
AcDbScale
 70
     0
300
1/128" = 1'-0"
140
0.0078125
141
12.0
290
     0
  0
SCALE
  5
45
102
{ACAD_REACTORS
330
42
102
}
330
42
100
AcDbScale
 70
     0
300
1/64" = 1'-0"
140
0.015625
141
12.0
290
     0
  0
SCALE
  5
46
102
{ACAD_REACTORS
330
42
102
}
330
42
100
AcDbScale
 70
     0
300
1/32" = 1'-0"
140
0.03125
141
12.0
290
     0
  0
SCALE
  5
47
102
{ACAD_REACTORS
330
42
102
}
330
42
100
AcDbScale
 70
     0
300
1/16" = 1'-0"
140
0.0625
141
12.0
290
     0
  0
SCALE
  5
48
102
{ACAD_REACTORS
330
42
102
}
330
42
100
AcDbScale
 70
     0
300
3/32" = 1'-0"
140
0.09375
141
12.0
290
     0
  0
SCALE
  5
49
102
{ACAD_REACTORS
330
42
102
}
330
42
100
AcDbScale
 70
     0
300
1/8" = 1'-0"
140
0.125
141
12.0
290
     0
  0
SCALE
  5
4A
102
{ACAD_REACTORS
330
42
102
}
330
42
100
AcDbScale
 70
     0
300
3/16" = 1'-0"
140
0.1875
141
12.0
290
     0
  0
SCALE
  5
4B
102
{ACAD_REACTORS
330
42
102
}
330
42
100
AcDbScale
 70
     0
300
1/4" = 1'-0"
140
0.25
141
12.0
290
     0
  0
SCALE
  5
4C
102
{ACAD_REACTORS
330
42
102
}
330
42
100
AcDbScale
 70
     0
300
3/8" = 1'-0"
140
0.375
141
12.0
290
     0
  0
SCALE
  5
4D
102
{ACAD_REACTORS
330
42
102
}
330
42
100
AcDbScale
 70
     0
300
1/2" = 1'-0"
140
0.5
141
12.0
290
     0
  0
SCALE
  5
4E
102
{ACAD_REACTORS
330
42
102
}
330
42
100
AcDbScale
 70
     0
300
3/4" = 1'-0"
140
0.75
141
12.0
290
     0
  0
SCALE
  5
4F
102
{ACAD_REACTORS
330
42
102
}
330
42
100
AcDbScale
 70
     0
300
1" = 1'-0"
140
1.0
141
12.0
290
     0
  0
SCALE
  5
50
102
{ACAD_REACTORS
330
42
102
}
330
42
100
AcDbScale
 70
     0
300
1-1/2" = 1'-0"
140
1.5
141
12.0
290
     0
  0
SCALE
  5
51
102
{ACAD_REACTORS
330
42
102
}
330
42
100
AcDbScale
 70
     0
300
3" = 1'-0"
140
3.0
141
12.0
290
     0
  0
SCALE
  5
52
102
{ACAD_REACTORS
330
42
102
}
330
42
100
AcDbScale
 70
     0
300
6" = 1'-0"
140
6.0
141
12.0
290
     0
  0
SCALE
  5
53
102
{ACAD_REACTORS
330
42
102
}
330
42
100
AcDbScale
 70
     0
300
1'-0" = 1'-0"
140
12.0
141
12.0
290
     0
  0
TABLESTYLE
  5
65
102
{ACAD_XDICTIONARY
360
E66
102
}
102
{ACAD_REACTORS
330
64
102
}
330
64
100
AcDbTableStyle
  3
Standard
 70
     0
 71
     0
 40
0.06
 41
0.06
280
     0
281
     0
  7
Standard
140
0.18
170
     2
 62
     0
 63
     7
283
     0
274
    -2
284
     1
 64
     0
275
    -2
285
     1
 65
     0
276
    -2
286
     1
 66
     0
277
    -2
287
     1
 67
     0
278
    -2
288
     1
 68
     0
279
    -2
289
     1
 69
     0
  7
Standard
140
0.25
170
     5
 62
     0
 63
     7
283
     0
274
    -2
284
     1
 64
     0
275
    -2
285
     1
 65
     0
276
    -2
286
     1
 66
     0
277
    -2
287
     1
 67
     0
278
    -2
288
     1
 68
     0
279
    -2
289
     1
 69
     0
  7
Standard
140
0.18
170
     5
 62
     0
 63
     7
283
     0
274
    -2
284
     1
 64
     0
275
    -2
285
     1
 65
     0
276
    -2
286
     1
 66
     0
277
    -2
287
     1
 67
     0
278
    -2
288
     1
 68
     0
279
    -2
289
     1
 69
     0
  0
VISUALSTYLE
  5
2F
102
{ACAD_XDICTIONARY
360
E7A
102
}
102
{ACAD_REACTORS
330
29
102
}
330
29
100
AcDbVisualStyle
  2
2dWireframe
 70
     4
 71
     0
 72
     2
 73
     0
 90
        0
 40
-0.6
 41
-30.0
 62
     5
 63
     7
421
 16777215
 74
     1
 91
        4
 64
     7
 65
   257
 75
     1
175
     1
 42
1.0
 92
        0
 66
   257
 43
1.0
 76
     1
 77
     6
 78
     2
 67
     7
 79
     5
170
     0
171
     0
290
     0
174
     0
 93
        1
 44
0.0
173
     0
291
     0
 45
0.0
1001
ACAD
1000
AcDbSavedByObjectVersion
1070
     0
  0
VISUALSTYLE
  5
2E
102
{ACAD_XDICTIONARY
360
E78
102
}
102
{ACAD_REACTORS
330
29
102
}
330
29
100
AcDbVisualStyle
  2
Basic
 70
     7
 71
     1
 72
     0
 73
     1
 90
        0
 40
-0.6
 41
-30.0
 62
     5
 63
     7
421
 16777215
 74
     0
 91
        4
 64
     7
 65
   257
 75
     1
175
     1
 42
1.0
 92
        8
 66
     7
 43
1.0
 76
     1
 77
     6
 78
     2
 67
     7
 79
     5
170
     0
171
     0
290
     0
174
     0
 93
        1
 44
0.0
173
     0
291
     1
 45
0.0
1001
ACAD
1000
AcDbSavedByObjectVersion
1070
     0
  0
VISUALSTYLE
  5
35
102
{ACAD_XDICTIONARY
360
E86
102
}
102
{ACAD_REACTORS
330
29
102
}
330
29
100
AcDbVisualStyle
  2
Brighten
 70
    12
 71
     2
 72
     2
 73
     0
 90
        0
 40
-0.6
 41
-30.0
 62
     5
 63
     7
421
 16777215
 74
     1
 91
        4
 64
     7
 65
   257
 75
     1
175
     1
 42
1.0
 92
        8
 66
     7
 43
1.0
 76
     1
 77
     6
 78
     2
 67
     7
 79
     5
170
     0
171
     0
290
     0
174
     0
 93
        1
 44
50.0
173
     0
291
     1
 45
0.0
1001
ACAD
1000
AcDbSavedByObjectVersion
1070
     0
  0
VISUALSTYLE
  5
39
102
{ACAD_XDICTIONARY
360
E8E
102
}
102
{ACAD_REACTORS
330
29
102
}
330
29
100
AcDbVisualStyle
  2
ColorChange
 70
    16
 71
     2
 72
     2
 73
     3
 90
        0
 40
-0.6
 41
-30.0
 62
     5
 63
     8
421
  8421504
 74
     1
 91
        4
 64
     7
 65
   257
 75
     1
175
     1
 42
1.0
 92
        8
 66
     8
424
  8421504
 43
1.0
 76
     1
 77
     6
 78
     2
 67
     7
 79
     5
170
     0
171
     0
290
     0
174
     0
 93
        1
 44
0.0
173
     0
291
     1
 45
0.0
1001
ACAD
1000
AcDbSavedByObjectVersion
1070
     0
  0
VISUALSTYLE
  5
32
102
{ACAD_XDICTIONARY
360
E80
102
}
102
{ACAD_REACTORS
330
29
102
}
330
29
100
AcDbVisualStyle
  2
Conceptual
 70
     9
 71
     3
 72
     2
 73
     0
 90
        0
 40
-0.6
 41
-30.0
 62
     5
 63
     7
421
 16777215
 74
     2
 91
        2
 64
     7
 65
   257
 75
     1
175
     1
 42
179.0
 92
        8
 66
     7
 43
1.0
 76
     1
 77
     6
 78
     2
 67
     7
 79
     3
170
     0
171
     0
290
     0
174
     0
 93
        1
 44
0.0
173
     0
291
     0
 45
0.0
1001
ACAD
1000
AcDbSavedByObjectVersion
1070
     0
  0
VISUALSTYLE
  5
34
102
{ACAD_XDICTIONARY
360
E84
102
}
102
{ACAD_REACTORS
330
29
102
}
330
29
100
AcDbVisualStyle
  2
Dim
 70
    11
 71
     2
 72
     2
 73
     0
 90
        0
 40
-0.6
 41
-30.0
 62
     5
 63
     7
421
 16777215
 74
     1
 91
        4
 64
     7
 65
   257
 75
     1
175
     1
 42
1.0
 92
        8
 66
     7
 43
1.0
 76
     1
 77
     6
 78
     2
 67
     7
 79
     5
170
     0
171
     0
290
     0
174
     0
 93
        1
 44
-50.0
173
     0
291
     1
 45
0.0
1001
ACAD
1000
AcDbSavedByObjectVersion
1070
     0
  0
VISUALSTYLE
  5
41
102
{ACAD_XDICTIONARY
360
E9E
102
}
102
{ACAD_REACTORS
330
29
102
}
330
29
100
AcDbVisualStyle
  2
EdgeColorOff
 70
    22
 71
     2
 72
     2
 73
     0
 90
        0
 40
-0.6
 41
-30.0
 62
     5
 63
     7
421
 16777215
 74
     1
 91
        4
 64
     7
 65
   257
 75
     1
175
     1
 42
1.0
 92
        8
 66
     7
 43
1.0
 76
     1
 77
     6
 78
     2
 67
     7
 79
     5
170
     0
171
     0
290
     0
174
     0
 93
        1
 44
0.0
173
     0
291
     1
 45
0.0
1001
ACAD
1000
AcDbSavedByObjectVersion
1070
     0
  0
VISUALSTYLE
  5
38
102
{ACAD_XDICTIONARY
360
E8C
102
}
102
{ACAD_REACTORS
330
29
102
}
330
29
100
AcDbVisualStyle
  2
Facepattern
 70
    15
 71
     2
 72
     2
 73
     0
 90
        0
 40
-0.6
 41
-30.0
 62
     5
 63
     7
421
 16777215
 74
     1
 91
        4
 64
     7
 65
   257
 75
     1
175
     1
 42
1.0
 92
        8
 66
     7
 43
1.0
 76
     1
 77
     6
 78
     2
 67
     7
 79
     5
170
     0
171
     0
290
     0
174
     0
 93
        1
 44
0.0
173
     0
291
     1
 45
0.0
1001
ACAD
1000
AcDbSavedByObjectVersion
1070
     0
  0
VISUALSTYLE
  5
2A
102
{ACAD_XDICTIONARY
360
E70
102
}
102
{ACAD_REACTORS
330
29
102
}
330
29
100
AcDbVisualStyle
  2
Flat
 70
     0
 71
     2
 72
     1
 73
     1
 90
        2
 40
-0.6
 41
30.0
 62
     5
 63
     7
421
 16777215
 74
     0
 91
        0
 64
     7
 65
   257
 75
     1
175
     1
 42
1.0
 92
        8
 66
     7
 43
1.0
 76
     1
 77
     6
 78
     2
 67
     7
 79
     5
170
     0
171
     0
290
     0
174
     0
 93
       13
 44
0.0
173
     0
291
     1
 45
0.0
1001
ACAD
1000
AcDbSavedByObjectVersion
1070
     0
  0
VISUALSTYLE
  5
2B
102
{ACAD_XDICTIONARY
360
E72
102
}
102
{ACAD_REACTORS
330
29
102
}
330
29
100
AcDbVisualStyle
  2
FlatWithEdges
 70
     1
 71
     2
 72
     1
 73
     1
 90
        2
 40
-0.6
 41
30.0
 62
     5
 63
     7
421
 16777215
 74
     1
 91
        0
 64
     7
 65
   257
 75
     1
175
     1
 42
1.0
 92
        0
 66
   257
 43
1.0
 76
     1
 77
     6
 78
     2
 67
     7
 79
     5
170
     0
171
     0
290
     0
174
     0
 93
       13
 44
0.0
173
     0
291
     1
 45
0.0
1001
ACAD
1000
AcDbSavedByObjectVersion
1070
     0
  0
VISUALSTYLE
  5
2C
102
{ACAD_XDICTIONARY
360
E74
102
}
102
{ACAD_REACTORS
330
29
102
}
330
29
100
AcDbVisualStyle
  2
Gouraud
 70
     2
 71
     2
 72
     2
 73
     1
 90
        2
 40
-0.6
 41
30.0
 62
     5
 63
     7
421
 16777215
 74
     0
 91
        0
 64
     7
 65
   257
 75
     1
175
     1
 42
1.0
 92
        0
 66
     7
 43
1.0
 76
     1
 77
     6
 78
     2
 67
     7
 79
     5
170
     0
171
     0
290
     0
174
     0
 93
       13
 44
0.0
173
     0
291
     1
 45
0.0
1001
ACAD
1000
AcDbSavedByObjectVersion
1070
     0
  0
VISUALSTYLE
  5
2D
102
{ACAD_XDICTIONARY
360
E76
102
}
102
{ACAD_REACTORS
330
29
102
}
330
29
100
AcDbVisualStyle
  2
GouraudWithEdges
 70
     3
 71
     2
 72
     2
 73
     1
 90
        2
 40
-0.6
 41
30.0
 62
     5
 63
     7
421
 16777215
 74
     1
 91
        0
 64
     7
 65
   257
 75
     1
175
     1
 42
1.0
 92
        0
 66
   257
 43
1.0
 76
     1
 77
     6
 78
     2
 67
     7
 79
     5
170
     0
171
     0
290
     0
174
     0
 93
       13
 44
0.0
173
     0
291
     1
 45
0.0
1001
ACAD
1000
AcDbSavedByObjectVersion
1070
     0
  0
VISUALSTYLE
  5
31
102
{ACAD_XDICTIONARY
360
E7E
102
}
102
{ACAD_REACTORS
330
29
102
}
330
29
100
AcDbVisualStyle
  2
Hidden
 70
     6
 71
     1
 72
     2
 73
     2
 90
        0
 40
-0.6
 41
-30.0
 62
     5
 63
     7
421
 16777215
 74
     2
 91
        2
 64
     7
 65
   257
 75
     2
175
     1
 42
40.0
 92
        0
 66
   257
 43
1.0
 76
     1
 77
     6
 78
     2
 67
     7
 79
     3
170
     0
171
     0
290
     0
174
     0
 93
        1
 44
0.0
173
     0
291
     0
 45
0.0
1001
ACAD
1000
AcDbSavedByObjectVersion
1070
     0
  0
VISUALSTYLE
  5
3F
102
{ACAD_XDICTIONARY
360
E9A
102
}
102
{ACAD_REACTORS
330
29
102
}
330
29
100
AcDbVisualStyle
  2
JitterOff
 70
    20
 71
     2
 72
     2
 73
     0
 90
        0
 40
-0.6
 41
-30.0
 62
     5
 63
     7
421
 16777215
 74
     1
 91
        4
 64
     7
 65
   257
 75
     1
175
     1
 42
1.0
 92
       10
 66
     7
 43
1.0
 76
     1
 77
     6
 78
     2
 67
     7
 79
     5
170
     0
171
     0
290
     0
174
     0
 93
        1
 44
0.0
173
     0
291
     1
 45
0.0
1001
ACAD
1000
AcDbSavedByObjectVersion
1070
     0
  0
VISUALSTYLE
  5
37
102
{ACAD_XDICTIONARY
360
E8A
102
}
102
{ACAD_REACTORS
330
29
102
}
330
29
100
AcDbVisualStyle
  2
Linepattern
 70
    14
 71
     2
 72
     2
 73
     0
 90
        0
 40
-0.6
 41
-30.0
 62
     5
 63
     7
421
 16777215
 74
     1
 91
        4
 64
     7
 65
   257
 75
     7
175
     7
 42
1.0
 92
        8
 66
     7
 43
1.0
 76
     1
 77
     6
 78
     2
 67
     7
 79
     5
170
     0
171
     0
290
     0
174
     0
 93
        1
 44
0.0
173
     0
291
     1
 45
0.0
1001
ACAD
1000
AcDbSavedByObjectVersion
1070
     0
  0
VISUALSTYLE
  5
40
102
{ACAD_XDICTIONARY
360
E9C
102
}
102
{ACAD_REACTORS
330
29
102
}
330
29
100
AcDbVisualStyle
  2
OverhangOff
 70
    21
 71
     2
 72
     2
 73
     0
 90
        0
 40
-0.6
 41
-30.0
 62
     5
 63
     7
421
 16777215
 74
     1
 91
        4
 64
     7
 65
   257
 75
     1
175
     1
 42
1.0
 92
        9
 66
     7
 43
1.0
 76
     1
 77
     6
 78
     2
 67
     7
 79
     5
170
     0
171
     0
290
     0
174
     0
 93
        1
 44
0.0
173
     0
291
     1
 45
0.0
1001
ACAD
1000
AcDbSavedByObjectVersion
1070
     0
  0
VISUALSTYLE
  5
33
102
{ACAD_XDICTIONARY
360
E82
102
}
102
{ACAD_REACTORS
330
29
102
}
330
29
100
AcDbVisualStyle
  2
Realistic
 70
     8
 71
     2
 72
     3
 73
     0
 90
        2
 40
-0.6
 41
30.0
 62
     5
 63
     7
421
 16777215
 74
     0
 91
        0
 64
     7
 65
   257
 75
     1
175
     1
 42
1.0
 92
        8
 66
   257
 43
1.0
 76
     1
 77
     6
 78
     2
 67
     7
 79
     3
170
     0
171
     0
290
     0
174
     0
 93
       13
 44
0.0
173
     0
291
     0
 45
0.0
1001
ACAD
1000
AcDbSavedByObjectVersion
1070
     0
  0
VISUALSTYLE
  5
3E
102
{ACAD_XDICTIONARY
360
E98
102
}
102
{ACAD_REACTORS
330
29
102
}
330
29
100
AcDbVisualStyle
  2
Shaded
 70
    27
 71
     2
 72
     2
 73
     1
 90
        2
 40
-0.6
 41
30.0
 62
     5
 63
     7
421
 16777215
 74
     0
 91
        4
 64
     7
 65
   257
 75
     1
175
     1
 42
1.0
 92
        8
 66
   257
 43
1.0
 76
     1
 77
     6
 78
     2
 67
     8
425
  7895160
 79
     3
170
     0
171
     0
290
     0
174
     0
 93
        5
 44
0.0
173
     0
291
     0
 45
0.0
1001
ACAD
1000
AcDbSavedByObjectVersion
1070
     0
  0
VISUALSTYLE
  5
3D
102
{ACAD_XDICTIONARY
360
E96
102
}
102
{ACAD_REACTORS
330
29
102
}
330
29
100
AcDbVisualStyle
  2
Shaded with edges
 70
    26
 71
     2
 72
     2
 73
     1
 90
        2
 40
-0.6
 41
30.0
 62
     5
 63
     7
421
 16777215
 74
     1
 91
       10
 64
     7
 65
   257
 75
     2
175
     1
 42
1.0
 92
        8
 66
   257
 43
1.0
 76
     1
 77
     6
 78
     2
 67
     7
 79
     3
170
     0
171
     0
290
     0
174
     0
 93
        5
 44
0.0
173
     0
291
     0
 45
0.0
1001
ACAD
1000
AcDbSavedByObjectVersion
1070
     0
  0
VISUALSTYLE
  5
3A
102
{ACAD_XDICTIONARY
360
E90
102
}
102
{ACAD_REACTORS
330
29
102
}
330
29
100
AcDbVisualStyle
  2
Shades of Gray
 70
    23
 71
     2
 72
     2
 73
     3
 90
        0
 40
-0.6
 41
-30.0
 62
     5
 63
     7
421
 16777215
 74
     2
 91
        2
 64
     7
 65
     7
 75
     1
175
     1
 42
40.0
 92
        8
 66
     7
 43
1.0
 76
     1
 77
     6
 78
     2
 67
     7
 79
     3
170
     0
171
     0
290
     0
174
     0
 93
        1
 44
0.0
173
     0
291
     0
 45
0.0
1001
ACAD
1000
AcDbSavedByObjectVersion
1070
     0
  0
VISUALSTYLE
  5
3B
102
{ACAD_XDICTIONARY
360
E92
102
}
102
{ACAD_REACTORS
330
29
102
}
330
29
100
AcDbVisualStyle
  2
Sketchy
 70
    24
 71
     1
 72
     2
 73
     2
 90
        0
 40
-0.6
 41
-30.0
 62
     5
 63
     7
421
 16777215
 74
     2
 91
        2
 64
     7
 65
     7
 75
     1
175
     1
 42
40.0
 92
       11
 66
     7
 43
1.0
 76
     1
 77
     6
 78
     2
 67
     7
 79
     6
170
     0
171
     0
290
     0
174
     0
 93
        1
 44
0.0
173
     0
291
     0
 45
0.0
1001
ACAD
1000
AcDbSavedByObjectVersion
1070
     0
  0
VISUALSTYLE
  5
36
102
{ACAD_XDICTIONARY
360
E88
102
}
102
{ACAD_REACTORS
330
29
102
}
330
29
100
AcDbVisualStyle
  2
Thicken
 70
    13
 71
     2
 72
     2
 73
     0
 90
        0
 40
-0.6
 41
-30.0
 62
     5
 63
     7
421
 16777215
 74
     1
 91
        4
 64
     7
 65
   257
 75
     1
175
     1
 42
1.0
 92
       12
 66
     7
 43
1.0
 76
     1
 77
     6
 78
     2
 67
     7
 79
     5
170
     0
171
     0
290
     0
174
     0
 93
        1
 44
0.0
173
     0
291
     1
 45
0.0
1001
ACAD
1000
AcDbSavedByObjectVersion
1070
     0
  0
VISUALSTYLE
  5
30
102
{ACAD_XDICTIONARY
360
E7C
102
}
102
{ACAD_REACTORS
330
29
102
}
330
29
100
AcDbVisualStyle
  2
Wireframe
 70
     5
 71
     0
 72
     2
 73
     0
 90
        0
 40
-0.6
 41
-30.0
 62
     5
 63
     7
421
 16777215
 74
     1
 91
        4
 64
     7
 65
   257
 75
     1
175
     1
 42
1.0
 92
        0
 66
   257
 43
1.0
 76
     1
 77
     6
 78
     2
 67
     7
 79
     3
170
     0
171
     0
290
     0
174
     0
 93
        1
 44
0.0
173
     0
291
     0
 45
0.0
1001
ACAD
1000
AcDbSavedByObjectVersion
1070
     0
  0
VISUALSTYLE
  5
3C
102
{ACAD_XDICTIONARY
360
E94
102
}
102
{ACAD_REACTORS
330
29
102
}
330
29
100
AcDbVisualStyle
  2
X-Ray
 70
    25
 71
     2
 72
     2
 73
     1
 90
        1
 40
0.5
 41
-30.0
 62
     5
 63
     7
421
 16777215
 74
     1
 91
        0
 64
     7
 65
   257
 75
     1
175
     1
 42
1.0
 92
        8
 66
     7
 43
1.0
 76
     1
 77
     6
 78
     2
 67
     7
 79
     3
170
     0
171
     0
290
     0
174
     0
 93
       13
 44
0.0
173
     0
291
     0
 45
0.0
1001
ACAD
1000
AcDbSavedByObjectVersion
1070
     0
  0
DICTIONARYVAR
  5
79
102
{ACAD_REACTORS
330
76
102
}
330
76
100
DictionaryVariables
280
     0
  1
1:1
  0
DICTIONARYVAR
  5
78
102
{ACAD_REACTORS
330
76
102
}
330
76
100
DictionaryVariables
280
     0
  1
STANDARD
  0
DICTIONARYVAR
  5
77
102
{ACAD_REACTORS
330
76
102
}
330
76
100
DictionaryVariables
280
     0
  1
STANDARD
  0
DICTIONARYVAR
  5
E63
102
{ACAD_REACTORS
330
76
102
}
330
76
100
DictionaryVariables
280
     0
  1
0
  0
DICTIONARYVAR
  5
E64
102
{ACAD_REACTORS
330
76
102
}
330
76
100
DictionaryVariables
280
     0
  1
0
  0
DICTIONARYVAR
  5
E62
102
{ACAD_REACTORS
330
76
102
}
330
76
100
DictionaryVariables
280
     0
  1
2
  0
DICTIONARYVAR
  5
E61
102
{ACAD_REACTORS
330
76
102
}
330
76
100
DictionaryVariables
280
     0
  1
1
  0
DICTIONARYVAR
  5
E65
102
{ACAD_REACTORS
330
76
102
}
330
76
100
DictionaryVariables
280
     0
  1
2
  0
DICTIONARY
  5
1A
330
19
100
AcDbDictionary
280
     1
281
     1
  3
ACAD_XREC_ROUNDTRIP
360
E6E
  3
BUMPTILE
360
1C
  3
DIFFUSETILE
360
1B
  3
OPACITYTILE
360
1F
  3
REFLECTIONTILE
360
1E
  3
REFRACTIONTILE
360
20
  3
SPECULARTILE
360
1D
  0
DICTIONARY
  5
12
330
11
100
AcDbDictionary
280
     1
281
     1
  3
ACAD_XREC_ROUNDTRIP
360
E6D
  3
BUMPTILE
360
14
  3
DIFFUSETILE
360
13
  3
FBXASSET
360
109
  3
OPACITYTILE
360
17
  3
REFLECTIONTILE
360
16
  3
REFRACTIONTILE
360
18
  3
SPECULARTILE
360
15
  0
DICTIONARY
  5
22
330
21
100
AcDbDictionary
280
     1
281
     1
  3
ACAD_XREC_ROUNDTRIP
360
E6F
  3
BUMPTILE
360
24
  3
DIFFUSETILE
360
23
  3
FBXASSET
360
BA
  3
OPACITYTILE
360
27
  3
REFLECTIONTILE
360
26
  3
REFRACTIONTILE
360
28
  3
SPECULARTILE
360
25
  0
DICTIONARY
  5
E68
330
67
100
AcDbDictionary
280
     1
281
     1
  3
ACAD_XREC_ROUNDTRIP
360
E69
  0
DICTIONARY
  5
E66
330
65
100
AcDbDictionary
280
     1
281
     1
  3
ACAD_ROUNDTRIP_2008_TABLESTYLE_CELLSTYLEMAP
360
E67
  3
ACAD_XREC_ROUNDTRIP
360
EA0
  0
DICTIONARY
  5
E7A
330
2F
100
AcDbDictionary
280
     1
281
     1
  3
ACAD_XREC_ROUNDTRIP
360
E7B
  0
DICTIONARY
  5
E78
330
2E
100
AcDbDictionary
280
     1
281
     1
  3
ACAD_XREC_ROUNDTRIP
360
E79
  0
DICTIONARY
  5
E86
330
35
100
AcDbDictionary
280
     1
281
     1
  3
ACAD_XREC_ROUNDTRIP
360
E87
  0
DICTIONARY
  5
E8E
330
39
100
AcDbDictionary
280
     1
281
     1
  3
ACAD_XREC_ROUNDTRIP
360
E8F
  0
DICTIONARY
  5
E80
330
32
100
AcDbDictionary
280
     1
281
     1
  3
ACAD_XREC_ROUNDTRIP
360
E81
  0
DICTIONARY
  5
E84
330
34
100
AcDbDictionary
280
     1
281
     1
  3
ACAD_XREC_ROUNDTRIP
360
E85
  0
DICTIONARY
  5
E9E
330
41
100
AcDbDictionary
280
     1
281
     1
  3
ACAD_XREC_ROUNDTRIP
360
E9F
  0
DICTIONARY
  5
E8C
330
38
100
AcDbDictionary
280
     1
281
     1
  3
ACAD_XREC_ROUNDTRIP
360
E8D
  0
DICTIONARY
  5
E70
330
2A
100
AcDbDictionary
280
     1
281
     1
  3
ACAD_XREC_ROUNDTRIP
360
E71
  0
DICTIONARY
  5
E72
330
2B
100
AcDbDictionary
280
     1
281
     1
  3
ACAD_XREC_ROUNDTRIP
360
E73
  0
DICTIONARY
  5
E74
330
2C
100
AcDbDictionary
280
     1
281
     1
  3
ACAD_XREC_ROUNDTRIP
360
E75
  0
DICTIONARY
  5
E76
330
2D
100
AcDbDictionary
280
     1
281
     1
  3
ACAD_XREC_ROUNDTRIP
360
E77
  0
DICTIONARY
  5
E7E
330
31
100
AcDbDictionary
280
     1
281
     1
  3
ACAD_XREC_ROUNDTRIP
360
E7F
  0
DICTIONARY
  5
E9A
330
3F
100
AcDbDictionary
280
     1
281
     1
  3
ACAD_XREC_ROUNDTRIP
360
E9B
  0
DICTIONARY
  5
E8A
330
37
100
AcDbDictionary
280
     1
281
     1
  3
ACAD_XREC_ROUNDTRIP
360
E8B
  0
DICTIONARY
  5
E9C
330
40
100
AcDbDictionary
280
     1
281
     1
  3
ACAD_XREC_ROUNDTRIP
360
E9D
  0
DICTIONARY
  5
E82
330
33
100
AcDbDictionary
280
     1
281
     1
  3
ACAD_XREC_ROUNDTRIP
360
E83
  0
DICTIONARY
  5
E98
330
3E
100
AcDbDictionary
280
     1
281
     1
  3
ACAD_XREC_ROUNDTRIP
360
E99
  0
DICTIONARY
  5
E96
330
3D
100
AcDbDictionary
280
     1
281
     1
  3
ACAD_XREC_ROUNDTRIP
360
E97
  0
DICTIONARY
  5
E90
330
3A
100
AcDbDictionary
280
     1
281
     1
  3
ACAD_XREC_ROUNDTRIP
360
E91
  0
DICTIONARY
  5
E92
330
3B
100
AcDbDictionary
280
     1
281
     1
  3
ACAD_XREC_ROUNDTRIP
360
E93
  0
DICTIONARY
  5
E88
330
36
100
AcDbDictionary
280
     1
281
     1
  3
ACAD_XREC_ROUNDTRIP
360
E89
  0
DICTIONARY
  5
E7C
330
30
100
AcDbDictionary
280
     1
281
     1
  3
ACAD_XREC_ROUNDTRIP
360
E7D
  0
DICTIONARY
  5
E94
330
3C
100
AcDbDictionary
280
     1
281
     1
  3
ACAD_XREC_ROUNDTRIP
360
E95
  0
XRECORD
  5
E6E
102
{ACAD_REACTORS
330
1A
102
}
330
1A
100
AcDbXrecord
280
     1
102
MATERIAL
148
0.0
149
0.0
149
0.0
 93
        0
 94
      127
282
     0
 72
     0
 77
     0
171
     0
175
     0
179
     0
273
     0
  0
XRECORD
  5
1C
102
{ACAD_REACTORS
330
1A
102
}
330
1A
100
AcDbXrecord
280
     1
270
     1
271
     1
  0
XRECORD
  5
1B
102
{ACAD_REACTORS
330
1A
102
}
330
1A
100
AcDbXrecord
280
     1
270
     1
271
     1
  0
XRECORD
  5
1F
102
{ACAD_REACTORS
330
1A
102
}
330
1A
100
AcDbXrecord
280
     1
270
     1
271
     1
  0
XRECORD
  5
1E
102
{ACAD_REACTORS
330
1A
102
}
330
1A
100
AcDbXrecord
280
     1
270
     1
271
     1
  0
XRECORD
  5
20
102
{ACAD_REACTORS
330
1A
102
}
330
1A
100
AcDbXrecord
280
     1
270
     1
271
     1
  0
XRECORD
  5
1D
102
{ACAD_REACTORS
330
1A
102
}
330
1A
100
AcDbXrecord
280
     1
270
     1
271
     1
  0
XRECORD
  5
E6D
102
{ACAD_REACTORS
330
12
102
}
330
12
100
AcDbXrecord
280
     1
102
MATERIAL
148
0.0
149
0.0
149
0.0
 93
        0
 94
      127
282
     0
 72
     0
 77
     0
171
     0
175
     0
179
     0
273
     0
  0
XRECORD
  5
14
102
{ACAD_REACTORS
330
12
102
}
330
12
100
AcDbXrecord
280
     1
270
     1
271
     1
  0
XRECORD
  5
13
102
{ACAD_REACTORS
330
12
102
}
330
12
100
AcDbXrecord
280
     1
270
     1
271
     1
  0
XRECORD
  5
109
102
{ACAD_REACTORS
330
12
102
}
330
12
100
AcDbXrecord
280
     1
 70
     1
 90
1959938040
 71
     1
  1
F2CABD73-D478-4D0D-BD3A-B3277A81E128
311
504B03040A0000080000B145E2423DEE336E79000000790000001B0000006175746F6465736B2D64657369676E2D7061636B6167652E786D6C3C3F786D6C2076657273696F6E3D22312E302220656E636F64696E673D227574662D3822203F3E3C666F726D6174733E3C666F726D61743E687474703A2F2F736368656D612E
311
6175746F6465736B2E636F6D2F64657369676E2D7061636B6167652F323030393C2F666F726D61743E3C2F666F726D6174733E504B0304140006080800B145E242D486FD9CA0000000F4000000130000005B436F6E74656E745F54797065735D2E786D6C7D8EC10E82300C865F65E91D8A1E8C310C0EEA1BF002731658846E
311
D98AC1B77784ABF1D8FE5FBFBF75BBCE937A534CCEB38643598122B6FEE978D0B0485F9C41B54DDD7D022595594E1A469170414C76A4D9A4D207E29CF43ECE46F218070CC6BECC4078ACAA135ACF422C856C0E68EA1BF5669944DDD7BCDE7B1F8E415D77AECB980613C2E4AC91FC167A2B244592486606FC29C8FD7F045B9A
311
EF7053A7E60B504B0304140006080800B145E2422EE0A0E3EC0000007C01000008000000636F72652E786D6C8D90416EC3201045AF82665B61631BC74E84899ADA39412F8080B828315806A21EBF3871A476D70D33FAFC3733FAECF83DDDD05D2FDE38DB41911140DA4AA78C1D3B88E1825B4047CE16E7C22F1B202B26DDC1
311
2A0367E3E2E2BC49D2D9A06D48AA754A6FA2F05E0740F2969A0EBCFCD293C8440CC9E1AFD92CE4558C3A2B5E5D8263340A3D971895E6998BD10BF0FA44AB8FA6A5785F36EF98D63B82F7E4DCE3A1EEFB5D4F87F63CF42C5F61CE82995EFBE5A245D00A78498A0A930693F293B4075A1F2AFA46D24B58BEDAFF407156FF84A2
311
B1A12AB7739F98075EA4431E1F9CE56B16A93C824A75CD8DFF00504B0304140006080800B145E24255019EA25F0000007C00000007000000636E782E786D6C4DCB3B0E80201045D1AD90E915ED2CF8AC45050C11660C8261F98AB1B07AC9C97D42D718D865D3E909258CFD00CCE24AC6E326A164D74DC0B4128928FF326038
311
472BA13128B1252AC747C6BAB984FC68F0B87FE8960A5C09FE86CFB69FBA01504B0304140006080800B145E2421BF5B58267010000020300000C0000006662782F636F72652E786D6C8D525B6E833010BC8AE5DF0A6C5E09898CA3B62427E8051C70280AD8C8D828C7EFF28868AA28AA908C35B3B33B3BC00EB7B64183347D
311
AD5586039F622455A1CB5A551976F6E2A5181D38335ADB5F651829D1CA0C8F30E6AC32DA750B546865A5B2802A5DCA05147D2F2D464503970CF7C5B76C852F9C858AFEEA77A2B88A4AFA810F34D471D65B0306D03C643C31BF9C6F8CCC3867CED5E5C2D6254CAB2FB53498271F71F4B94D636F176EDFBD38D9506F474FB977
311
4CF27C93C7C7F474CC1919C59CD9BABDBB2B8C145696988734883CBAF568F845D37D9CECA3F88DC2491919CB1F44AE2BFF2972B5B251B8D89D653DE6011899883FDB424416F562003F8433328608AF29E1C7A0211008D98A7373DFE30AD0200BAB4D0C4CA9DD4A0DA27112A652343D8CCC2C749E1AC0664FFB842FFABCEE01
311
1F50A80AAC090BD7B3B3E374364F5DA2E8A4F1067B434A9B5634ABB9D9E27AAE839ECA0BDD68F31F355956254B9864FC7BF90F504B0304140006080800B145E2420A454C847D0000009D0000000B0000006662782F636E782E786D6C4DCCD10A83201886E15B91FFDC95CB32418DB6BC90581692E9703A76F9ABD1C18E3E78
311
F87845F7D91C7A9BF8B2C14B20971290F18F3059BF48C869C62DA04E891842FABB01F2E366241C0C4A2C31E4E7499399C7ECD2AECEFAF5447A1F2ADDE81EF3EAAA31AD698D3963374C869270469BBE251A0A258A5F69DF23ACBE504B0304140006080800B145E2423CB126502B01000015020000310000006662782F344344
311
33453645412D393332452D343534352D393737422D3144303139373436413831452F636F72652E786D6C8D515B6EC32010BC0AE22B55850D367E4598286D7C835EC0B5498A1283C5A3CAF1BBAE1DA9FDCB0F8B66676647BBE2709F6EE85B39AFAD69314B2846CA0C76D4E6D2E218CEA4C6E82085B336FCA16164FA49B57881
311
B1141767E3BC418335419900A8B1A3DAC0DE7B15301A6EF069B11FBED4D4277D0CC0F0D764EE876B7F51094BA00D3C297C701000AD4396174BFE7ECABBB23B9226CF3AC20B5E90A6AADE083B51D654BC3CD6AC13E92A9422463D6E723D421C7DD6CA3D6BB288A5087A7AC41F9CEA831AB1CC28CB09AD08CD3E68BDE7C53EE7
311
AF145E2AD285FE4F14E7F14951D426E4D9167795792C9948D78614A38D9FB74718759FAD0B6899B7F36A78C1922694564D5DF31C342B173600A625DF4C7DB00E36BCBB7E029D15AB73C9A548972341F9BD20D4E5A0F207504B0304140006080800B145E242C432E0F14D01000033030000300000006662782F344344334536
311
45412D393332452D343534352D393737422D3144303139373436413831452F636E782E786D6CD593BB6E023110457FC5721BED0B360421AF9152E40B52A4F5DA033878ED951F51F8FB8CC1101A8A946946AB3B77E68E8EBC6CFB3D19F2053E686707DAD52D2560A553DAEE079AE2AE5A53B2E5CC3B17EF6C945831C140B34C
311
39DB7B97E62229D8896422AA46DB63113D0497BC8480729E24C649617001D82AA108D3084A812237237EEDC0E329288E27120F40DE5E3F881B3F41C6C09ABC85B3266770966B49BA3351228D0861A0411E6012B548D12908C75A8928EAAEBE663DB8E97713C903D7C8E435C9E103CD95F272518D1C59834DCE42F448AF98E2
311
6906CAC53C1B2D4544C8CDD978F17096B48DABBE783582F7E8EE56CBBEC765E71E67514F501CD28388A0285FB4DDB26A5FAA76F1DEAE37FDF366D93FB5585BD6643B67A373A60CE11AF06E26D2D9083652DEB126B71FE12B3EA2B447D6CE9FFE00120194D40B9DDB8EFFCCA739BF6FC4E5F12FE03F504B0304140006080800
311
B145E2425F29B161A405000081100000340000006662782F34434433453645412D393332452D343534352D393737422D3144303139373436413831452F6F626A656374732E786D6CAD57D96EDB3814FD1541F332F3E045B6DB3803458597A630DAB4458D14F360C0A0254AE1845A4052A9335F3F8722254B8E9D7A067DD1C2
311
E5F2DE73CF5DE8BFDBA7DC79A242B23CBB71BDFED0756816E611CB921BB754716FEA3AEF025FE4B96A2D739D8CA4F4C6D5C36EE027222F0B3B14D198945C1D8DDECEFF72644833EA3A212752DEB8327CA029E99352E511958FFD8828D24FE27DDFEB9B855DB18920C5C391D082089A29688AF10C521CA394D7FD1DBA83C01F
311
E8F9C0D74FBB6A7C7ED5A0B2A77B3ECBA42259F8E2B02331636FB27C3F7A73DD7B33998C7B93B723AF37BF9D2F7BDED578B878BB585CCFDE5FE360A90424594D048DDDE003B0112CF407662AF04B96A9F1C82EB10E1A08FAC4B4A7DC60E478FEC0AC69ACB3469E523FCCB38C86155640A3B2CF8A8E6841B3083E675442B316
311
42C3EEAFA7716C4D8FF5BF3DB23D7C1902ED1D2D41B5EEF5BBAD69BEFB1B26C84B182424D50C34585A430D578707847779CEED1C934E4A14158C7087B39D20E2D90DB0542F09FC8E18CD64A1A3415BE006F08299EED20561F4739E9FD2322E39D73476832A0AB68815AA64A519FB878A83F66D64A0137CA5D930B506A9E782
311
BAC1B5A1C8F4884D064827E62481CB61A6DE391E1D19BAD071BA5ABAC1C7DBDD7EAD63F7F4E185C80B2A94A60FA8553BAE7E6B94AC4EDE459ED31BDC23550EA07C03F29F11EA0755E037C1F693FDC49EA204C9649C8B14BE71864E6F88C7D0F1AAA7FE6E7DF9836673D77BE7F084B33554BF00CFAE0D6D5FB6E00CFC27103E
311
17636BDA3A241C69E38E65004893C4E139869087E3DDDE0D56C872C8CAD84578E0C164A8FB844F7F60C520515427B5DE19B03C4A8B172468C05631126A18F25B050F7E7A91CEAA83EDB273F0BEF925749D2DD71FD7A5884948EF6C4C2F69CC32A650E20EBC692BD4C1BC63D1237DFE918B0886BEC47BDDC63BB54749A0AD31
311
D7C027754ED73F87933B0784D897E43ADDF83F390146E8C2DA927FC76448392719CDCBFADC57EB07CA86815807BB667253600E8505A43133473188221D0A5668109B6AD524CDFE19EBEE579FC14837983F7F22CFEDECB53BE4DE30E7B9D8EE9EB7262D9D84FA7B97DB1683819602BA574152C7BF057D1BB1382E2592E0095C
311
BFAF166DDFE9B48014514B35D13281FD082E222C696BB9A8D682A092E6D996A16E22EE4E1ED0960F482D032A81E7349694C75BC679996E63C6518DB62929CEC0F1FFF5DF9569B125695E66EA8CEC8EEAA80E5DDD3BEC953F880A1FDC605DBD7B73E4DE884667C8A06BC909AC3AAEBD1D2D66F3E5D5B8B79C5C4D7B93E570D9
311
9B2FC7B3DE7C3CBABA9A4DBDF7DE685AFBC96812F875A9694734BC84D2E6978259F7DDAF103F3609B8C11D5172F3C18467FDBE5FF5D10BFB03EC41BD6C36CEA227F47D34FAB980C3CA93825669C1694A3345740CDDE90FFE8DA0CFE82863C6572949E80552BE7C581F1983910BF67DD5F14E7F1CEDB5A30B1D902785A88732
311
DD6584F1A38D8941B25F6489C5AFF649F33685A6FED57FD631E84C65CE59843C183909CD53AA900D2F284222A512D46BF7F491BD7B5CB0FBC974888AEC38AD3579206892B94458805A65A8BAE3CE6F68EA745F75E3A2DCF61FF1B099C275C0991B174DBA622195FD1D0AB46E852AE1E052BB9347E34FB284A3D7369B9AFF66
311
97C6A653929B2597F44FD62E93C2AD01482305FA063444F04EA54CE057BAD9F9F03F195EABE31085CF5DA91A5B0E038D31D53108516394BD2DA08979B447EF11A8AF9BE5F5AB351D442EBA65BD4A0223B5A78848AA9B82D6CFAA345B7E1DA04371565F9C8297097C79B9A49EA02073A9031C2C022BACCC82285075F1E7E6AB
311
C871934D9D5B060A38BFEFA76FFFD82CF234CD3333B499D9FBB0B37EC0ED36DA2039507D2D919BD1D01B6DAAEB80BDA16C7744D23E89E42306E059C11AA03BEE072FCD9D1175C84C34EB06DA15470C5D2D1D5BD826106AE9D2CEAD1A1C341E19751043FA4AA923A6BDA078F54630A8964205815E3EF817504B030414000608
311
0000B145E242000000000000000000000000350000006662782F34434433453645412D393332452D343534352D393737422D3144303139373436413831452F76657274696365732E62696E504B0304140006080800B145E242F270F1330600000004000000360000006662782F34434433453645412D393332452D34353435
311
2D393737422D3144303139373436413831452F747269616E676C65732E62696E636660600000504B0304140006080000B145E242000000000000000000000000370000006662782F34434433453645412D393332452D343534352D393737422D3144303139373436413831452F617474726962757465732E62696E504B0304
311
140006080800B145E242D5987DFC8F00000041010000360000006662782F34434433453645412D393332452D343534352D393737422D3144303139373436413831452F6469726563746F72792E786D6C858F410EC2201045AF4266AF15DDB800BA74E7C21B903225242D6328188F2FA5C4183471359997F9FF81E89FF3C41E
311
1816475E02DF1F80A11FC8386F25A438EECEC07A250251FC3803E6F58C12560C4AD840E95E91C151A72936F496F35732D860FE635F62C8F2DA16B505C545B74125BAA2FA9E05D7CC053D063734D5C7665FD55B6B8D15D5E9BFEAFD8490FFA45E504B0304140006080800B145E242F18E6A5BFD000000A00100003B00000066
311
62782F34434433453645412D393332452D343534352D393737422D3144303139373436413831452F7265736F75726365732F636F72652E786D6C8D50596E833010BD0A9ADFCA60B64022E3A82DE404BD806526C44AB09197AAC7AF09546AFFFA33337A8BE6E9B1F3D7FC483ED13A657407794A21412DCDA8F4D441F057D242
311
72E6CC1AE37FC920D162C60E5618389BAC09CB0E49A33D6A1F516D46DC41E11C7A48E4231E1D3879C359A422F8A870F77411F22E264CF334D251C799F3360648B627EB046ED19960253A966D2C6721A871D7A831FE5457851678FD5695EF4D5B9263D1BC92AA3E5072A4979E0C75DF1FFA6A682F43CFB2D5CC9957F34F4669
311
51781C8117342F096D082D3E687BAAEA5359BDD03829CB56F91F5358C67F9A82D2BE2CF6B89BCD01CF639027C159B6F615D7B3CCB8D76EF937504B010214000A0000080000B145E2423DEE336E79000000790000001B00000000000000000000000000000000006175746F6465736B2D64657369676E2D7061636B6167652E
311
786D6C504B01021400140006080800B145E242D486FD9CA0000000F40000001300000000000000000000000000B20000005B436F6E74656E745F54797065735D2E786D6C504B01021400140006080800B145E2422EE0A0E3EC0000007C010000080000000000000000000000000083010000636F72652E786D6C504B010214
311
00140006080800B145E24255019EA25F0000007C000000070000000000000000000000000095020000636E782E786D6C504B01021400140006080800B145E2421BF5B58267010000020300000C00000000000000000000000000190300006662782F636F72652E786D6C504B01021400140006080800B145E2420A454C847D
311
0000009D0000000B00000000000000000000000000AA0400006662782F636E782E786D6C504B01021400140006080800B145E2423CB126502B010000150200003100000000000000000000000000500500006662782F34434433453645412D393332452D343534352D393737422D3144303139373436413831452F636F7265
311
2E786D6C504B01021400140006080800B145E242C432E0F14D010000330300003000000000000000000000000000CA0600006662782F34434433453645412D393332452D343534352D393737422D3144303139373436413831452F636E782E786D6C504B01021400140006080800B145E2425F29B161A40500008110000034
311
00000000000000000000000000650800006662782F34434433453645412D393332452D343534352D393737422D3144303139373436413831452F6F626A656374732E786D6C504B01021400140006080000B145E24200000000000000000000000035000000000000000000000000005B0E00006662782F3443443345364541
311
2D393332452D343534352D393737422D3144303139373436413831452F76657274696365732E62696E504B01021400140006080800B145E242F270F13306000000040000003600000000000000000000000000AE0E00006662782F34434433453645412D393332452D343534352D393737422D314430313937343641383145
311
2F747269616E676C65732E62696E504B01021400140006080000B145E2420000000000000000000000003700000000000000000000000000080F00006662782F34434433453645412D393332452D343534352D393737422D3144303139373436413831452F617474726962757465732E62696E504B01021400140006080800
311
B145E242D5987DFC8F0000004101000036000000000000000000000000005D0F00006662782F34434433453645412D393332452D343534352D393737422D3144303139373436413831452F6469726563746F72792E786D6C504B01021400140006080800B145E242F18E6A5BFD000000A00100003B00000000000000000000
311
000000401000006662782F34434433453645412D393332452D343534352D393737422D3144303139373436413831452F7265736F75726365732F636F72652E786D6C504B0506000000000E000E0080040000961100000000
310
504B03040A0000080000B145E2423DEE336E79000000790000001B0000006175746F6465736B2D64657369676E2D7061636B6167652E786D6C3C3F786D6C2076657273696F6E3D22312E302220656E636F64696E673D227574662D3822203F3E3C666F726D6174733E3C666F726D61743E687474703A2F2F736368656D612E
310
6175746F6465736B2E636F6D2F64657369676E2D7061636B6167652F323030393C2F666F726D61743E3C2F666F726D6174733E504B0304140006080800B145E242D486FD9CA0000000F4000000130000005B436F6E74656E745F54797065735D2E786D6C7D8EC10E82300C865F65E91D8A1E8C310C0EEA1BF002731658846E
310
D98AC1B77784ABF1D8FE5FBFBF75BBCE937A534CCEB38643598122B6FEE978D0B0485F9C41B54DDD7D022595594E1A469170414C76A4D9A4D207E29CF43ECE46F218070CC6BECC4078ACAA135ACF422C856C0E68EA1BF5669944DDD7BCDE7B1F8E415D77AECB980613C2E4AC91FC167A2B244592486606FC29C8FD7F045B9A
310
EF7053A7E60B504B0304140006080800B145E2425C2FB041EB0000007C01000008000000636F72652E786D6C8D90416EC3201045AF82665B6163632B6E84894A6A9FA01740405C94182C03558F5F9C3852BBEB86197DFE9B197D76FA9E6FE8CBACC17AD743551040C629AFAD9B7A48F1823B4027CE56EFE32F1B202767D3C3
310
260367D3EAD3B24BCABB685CCCAAF3DAECA20CC14440EA969B1E82FA34B32C648AD911AEC522D5554EA6A89E5D8653B21A3D96589DE7D98B352BF00369C558D5145332D4B819BA037E6DDF47FC4685389F8518C64EB07283398B767EEE57AB91D168E035A92826074CEA0FD21D9BF6489B17925FC2CACDFE074A8BFE2794AC
310
8BB4DECF7D600178950FB97F70566E59E4720F2AD72D37FE03504B0304140006080800B145E24255019EA25F0000007C00000007000000636E782E786D6C4DCB3B0E80201045D1AD90E915ED2CF8AC45050C11660C8261F98AB1B07AC9C97D42D718D865D3E909258CFD00CCE24AC6E326A164D74DC0B4128928FF32603847
310
2BA13128B1252AC747C6BAB984FC68F0B87FE8960A5C09FE86CFB69FBA01504B0304140006080800B145E2421ABC08E367010000020300000C0000006662782F636F72652E786D6C8D525B6E833010BC8AE5DFCAD83CA2D0C8382A6972825EC00187A2808D8C8D72FC2E8F88A68AA20AC958333BBBB3037C7F6B1B3428DBD7
310
4667380C18464A17A6AC759561EF2E24C5682FB835C6FD2AC348CB56657884B1E09535BE5BA0C268A7B403549B522DA0EC7BE5302A1AB864B82FBE552B03E91D54F4D7A093C555562A0803A0A14EF0DE593080E621E389C5E57CE374C605F7BE2E17B62E615A7DA995C562CB36F9298C6212B363449263BA25EF9BCF13F988
310
F3FC70C8F3E329CD391DC582BBBABDBB2BAC924E9558442C8C09DB12167DB174976C7671F2C6E0649C8EE50F22DF95FF14F95ABB385AECCEB21E8B108C4CC49F6D2122877A39801F2A381D4384D794F063D0100884ECE4B9B9EF7105685085333601A6347EA506D9780553199A1E4E67163A4F0D60B3A77DA2177D5EF7800F
310
287505D6A483EBD9BB713A9FA72E5174CA92C1DD9036B695CD6A6EB6B89EEBA0A7F2C234C6FE474D9755E912261DFF5EF103504B0304140006080800B145E2426ACF189F7E0000009D0000000B0000006662782F636E782E786D6C4DCCD10A83201886E15B91FFDCB5890D0533B2EDBF8F581632D3703A76F9ABD1C18E3E78
310
F87855FB593C79DBF472313470399D81D8F088A30B7303254F540069B54A31E6BF1B90302CB6819D41AB39C5B21E34DA69283E6FEA5D781E280C43141DA74C4A46798F772A6A73A3D274686AC46BCF39545A55BFD2B67B587F01504B0304140006080800B145E242DD771B3A2D01000015020000310000006662782F384232
310
46463841342D323939322D344346452D383542442D3942414642354646364334342F636F72652E786D6C8D515B6E833010BC0AF257ABCA608C4320328E425A4ED00B1070522BC1467E54397ED78548ED5F7EBCD6ECCCEC6897EFEFD32DF996D629A31B94A70425520F6654FAD2A0E0CFB842C95E706B8CFF434389EE27D9A0
310
0823C12FD684798506A3BDD41E506D46B982BD73D2A364B8C1A7416EF892539FF6C103C35DD3B91FAEFD45A6790A6DE009EEBC8500C93224BE48542DEDBAEAC030AD6B8AD9B1FBC0D5A67DC7757BE8DA4DD79547C678B608050F418DAB5C8D10479D95B4CF9A44B1E05E4D8FF88395BD97231294E405265B4CE827A9766CB3
310
2BD81B8197F02CD2FF89C23C3E290A4AFB82AE7117994322E7D9D2107C34E1747B8491F7D9589FC4792F4E0EAF489094908A6EABB206CDC2850D8069C95653E78D850DBF5C4F402F80159D4B2678168F04E5F78250E341C50F504B0304140006080800B145E242A2952FE65501000033030000300000006662782F38423246
310
463841342D323939322D344346452D383542442D3942414642354646364334342F636E782E786D6CBD93CB4EC33010457FC5F216E5D58412558E2BB1E00B58B075EC29354DECC80F44FF9E71EB966EBA40426C46D19D3B7347470EDB7ECD13F904E7B535036DCA9A1230D22A6DDE071AC3AEE829D972E6AC0D37364A8C9861
310
A049A69CBD3B1B972C29D889380554276D0E5974E06D74123CCA69924C568A09178029228A308FA014287235E2D70E1C9E82E27824610FE4E5F98DD8F10364F0AC4A5B38AB520667A9E6A41B13257212DE0FD4CB3DCCA214315805FE502A1144D99497AC3B37FD6C2269E012199D26297CA0A9529E2F2A9123ABB0C9990F0E
310
E96553382E40B95896494B11107275329E3D9C456DC2BACB5E8DE01DBADBD5BAEF71D9A9C759D033648774200228CA5775D316F55351AF5EEB7ED33D6EDAEEA1C65AB32AD9391BAD9DF210AE01671722AD096002E50DAB52FB1EBEEC234A3B646DDDF1172011404E3DD3B9EEF84B3ECDBAEDBA7FE4539DDE37E272F817F06F
310
504B0304140006080800B145E242118E5754640700009A1B0000340000006662782F38423246463841342D323939322D344346452D383542442D3942414642354646364334342F6F626A656374732E786D6CED59DD73A33610FF5718FAD23E181BDBB9241DC24D625F6E3CD75C6FEA5EA70F9E616490891A211849E4E2FEF5
310
5D7D80819804B7E9DB3DD8809056BBBFFDD412BC7FCAA8F388B92039BB727D6FE23A98C57942587AE5967237BA709DF761C0F35C36A6B90E4319BE72D5B01B0629CFCBC20E2578874A2A3BA3B7377F3A22C60CBB4E4C911057AE88EF71863C54CA3CC1E2C14B90445EBA7BF27CCF4C6C934D392AEE3B440BC43193C0298C33
310
A0E218A6FCF6E3C41D87C158BD0F03F56F67CD06CD9AF7CF1A6BA9DB5C12262462F133963A646683589AF9F3E587E9D9E5E86C3E9F8DE6EFA6FEE8E6F66639F2CF6793C5BBC5E2F2FAC325B0B7CD736A654A70815902FADBBBA11F8CD59B5A748BC031AEE39C311C6B20012A2D569720C102B66AC037693FFA4AA2C66B2D61
310
E379AEDE5B161AC3B33695BE59C38068D10541EC7695C4D5B5295FBEFD0B0417438C920B2C815B213968D7C2C3C12BDC70128CCD68186C0FBA20C2C990C49C20EA50B2E588835260AA9A1206668125A39C8303294749A035675EB76D0B3CF375D739C6E5AEA45479861B6AC78AC0FDB0149A33F237E607EE9BC8004F206D49
310
98BCB05CCA7D81DDF03218EBC1305097D9D4BE34403A3B8A52A111316F3B822E94EBAF966EF8E976FBB456E1E0F8E605CF0BCCA5323AA547CD1718B2BD2A94ECB6FE20CDA905208C01D5AE3C80F21B20FF19A2C78115D01B274FF3A7B99D2B39626297F30C74E34C9CD104FE268EAFFFD57DE32E18D78BDBDAEBC313DC5441
310
75F1DFF16CCBA0B1B2FC37E00C834730F89CCFECAB758C28D8F31D610090321287E63004A17DB77D72C315044E08F4B00AD1D0079181DD47B80DC696CC412B957B59AF6380A8DD63364449009BB64860A3474F1F217B70121FD4D414B10FDEB33731D7EBE5FAD3BAE43B14E33BEBD34BBC238C48C89AC7196A61DE92E801EF
310
BFE53C01419FE3BD6EE29DD9AD04A0AD3057C0A71508EAE1B0736B8318D6A5B90A37C12B3B80102A5737E8DF1111634A11C37959ED5B473765A8B5C7DB9AC10DA706E2D9B463C21C3F12555580D31C66B41885BC1F73522810DDF0A391AC0E9A5E8F745F579FC122EBF93DB3560C422F43F4771DB48EE0D0B2EC0A690B442D
310
F0F610CEE39CE63CDAEE2313E95CA825808DB6B7FCD1220AB1DE284951010FD27E578594D4481B2564B72B05C4D5232CFEB15A34CD61E2CDFC33A7F9DF71C639445BF05DC4ADDF75F6884886521CED50D2B75D73B79AB6D0247B4873BCA320177924721F21194D129C9E02CD49C42FDF947A4A732108C302F2D551F09B684C
310
3C0824469B15CB4AAB1DA08988322C113D050145A6075C9D76748D1B43E9F03A8FB5F5BEA4B126D1FFC92238825A32671181521472C8AB8CFBDE19C49036BA06E50EBE606D156D2D062DA18488F7D1374CD27B790AEA867C0FEE311C494A19E5058AC1AC07907DE62B4AA91DDEB7287E50F9238A4BFA56062230DD4584D232
310
8BE047189C3C86B8761D985E44A141DCC43E893328CA902CF9904DDE9D4D9EED636A866E086C6CB42314C27694A1A207F55640D4F58853836FA9F728755B664584B2BC64830CC59B75BDC992EFAA55911DC8AF2A15A16CAC085B82614098ACB36A15B3C1D475600537D2816A1F099415D49CC25E493C7EED4D9A72EF06DCFA
310
E9DB6E9041E1D7A3BD66449D5730581E5B8581F886647CEF866B7D1DDD40FD9DE0E490EAAB5AB3590102622A92979C58157D5D4179636B3437BC43526C3E9AAC5B5DBFAE3CE87E04635803B54BBD70A580CE309348552677EA86FE862004B76898F195CAA9A750B94E125D35227A4BFAD4D92A235A9B66C42BEE31CB33F8B1
310
0D61312D13BC41897888EE248DD644B16EA5F4325261FCA280BF7E5C77E0819101227D51051EFED6596B4717AA5C3A4A44DE97D996210241B0255A6A74E3152CB51AA9B45C5FD59902EA2E3030ABE2F9F79345B31DF1FD64915AC3F84F278B9BFD2F68DFEC8B34D279ACECFAA463409D9F1495B73806E8B6434DB5CE222699
310
5BF9AD33451014AB283FB81AAB828621D8C7F1BFCEDA7D59D06CD7E1FFB4ACED3FAB384ECA2AADC9AA4B75A4725D3573D8ED74717DB33C9F8D96F3F38BD17C39598E6E96B3EBD1CD6C7A7E7E7DE17FF0A717359ADA51C3A00E663A77C1B3096AD5B07AB218405756E49424709A4F9C1443CC9770A61FD03EE71916903C9BCD
310
EEC436E507AC7E347D4E89B614579CDC2368105301691D302A63D91E777E80D6A48483F6950B4D23EF01FEAC55BA0E649E2B175A0592C458785B6833A9869E260E2957E77E4B0CF0412C5529D12CAA9FEB550A9B56F8AFA70C490356AE560F030AB702BA5FAD0E85E6CDF2149F2478C58E8324DC6E4B09D59A91E530500BA3
310
B739A8DFC846097BB05B3F81EBBE2C96EFE9392D44067D3278D1080CD591443CD5FD6EC59865E97AF9650C7D3667F5AB53D032055D0EA734E2188CB954051558115885A5592009A6BAF879F385E7F08927737455E4FCF874F1EEA7CD22CFB29C99A1CD359CCA12F850E4ACEFE1B34FB281E201ABE6BAD84C27FE74A39BDAB6
310
CF1E6D91C09EAA8A60A02A2694201D9303BB7CD6A0B2EDCBB1524567FA6AE9D8200ACD006347CF7ABCE62397033EA43EA7288FD17E5E49FB625F7BACA7824D70E84887FF00504B0304140006080000B145E242000000000000000000000000350000006662782F38423246463841342D323939322D344346452D383542442D
310
3942414642354646364334342F76657274696365732E62696E504B0304140006080800B145E242F270F1330600000004000000360000006662782F38423246463841342D323939322D344346452D383542442D3942414642354646364334342F747269616E676C65732E62696E636660600000504B0304140006080000B145
310
E242000000000000000000000000370000006662782F38423246463841342D323939322D344346452D383542442D3942414642354646364334342F617474726962757465732E62696E504B0304140006080800B145E242D5987DFC8F00000041010000360000006662782F38423246463841342D323939322D344346452D38
310
3542442D3942414642354646364334342F6469726563746F72792E786D6C858F410EC2201045AF4266AF15DDB800BA74E7C21B903225242D6328188F2FA5C4183471359997F9FF81E89FF3C41E1816475E02DF1F80A11FC8386F25A438EECEC07A250251FC3803E6F58C12560C4AD840E95E91C151A72936F496F35732D860
310
FE635F62C8F2DA16B505C545B74125BAA2FA9E05D7CC053D063734D5C7665FD55B6B8D15D5E9BFEAFD8490FFA45E504B0304140006080800B145E2424F849ED9FD000000A00100003B0000006662782F38423246463841342D323939322D344346452D383542442D3942414642354646364334342F7265736F75726365732F
310
636F72652E786D6C8D50596E833010BD0A9ADFCA60364123E3A8A470825EC032136225D8C84BD5E3D7042AB57FFD9919BD45F3F4D8F96B79249F689D32BA833CA590A09666527AEE20F82B69213973668DF1BF649068B160071B0C9CCDD684F580A4D11EB58FA836131EA0700E3D24F2118F0E9CBCE12252117C54B87BBA0A
310
791733A6791AE9A8E3CC791B0324FB936D02B7E84CB0121DCB7696B310D47468D4147FAAAB420BBCA1753FE645414A3A14A41ADA86BCD6EF23792BFBFE72E9FB616C7B966D66CEBC5A7E324A8BC2E304BCA07949684368F141DB53559FCAEA85C64959B6C9FF98C23AFDD31494F66571C4DD6D0E781E833C09CEB2ADAFB89E
310
65C6BD75CBBF01504B010214000A0000080000B145E2423DEE336E79000000790000001B00000000000000000000000000000000006175746F6465736B2D64657369676E2D7061636B6167652E786D6C504B01021400140006080800B145E242D486FD9CA0000000F40000001300000000000000000000000000B20000005B
310
436F6E74656E745F54797065735D2E786D6C504B01021400140006080800B145E2425C2FB041EB0000007C010000080000000000000000000000000083010000636F72652E786D6C504B01021400140006080800B145E24255019EA25F0000007C000000070000000000000000000000000094020000636E782E786D6C504B
310
01021400140006080800B145E2421ABC08E367010000020300000C00000000000000000000000000180300006662782F636F72652E786D6C504B01021400140006080800B145E2426ACF189F7E0000009D0000000B00000000000000000000000000A90400006662782F636E782E786D6C504B01021400140006080800B145
310
E242DD771B3A2D010000150200003100000000000000000000000000500500006662782F38423246463841342D323939322D344346452D383542442D3942414642354646364334342F636F72652E786D6C504B01021400140006080800B145E242A2952FE655010000330300003000000000000000000000000000CC060000
310
6662782F38423246463841342D323939322D344346452D383542442D3942414642354646364334342F636E782E786D6C504B01021400140006080800B145E242118E5754640700009A1B000034000000000000000000000000006F0800006662782F38423246463841342D323939322D344346452D383542442D3942414642
310
354646364334342F6F626A656374732E786D6C504B01021400140006080000B145E2420000000000000000000000003500000000000000000000000000251000006662782F38423246463841342D323939322D344346452D383542442D3942414642354646364334342F76657274696365732E62696E504B01021400140006
310
080800B145E242F270F13306000000040000003600000000000000000000000000781000006662782F38423246463841342D323939322D344346452D383542442D3942414642354646364334342F747269616E676C65732E62696E504B01021400140006080000B145E2420000000000000000000000003700000000000000
310
000000000000D21000006662782F38423246463841342D323939322D344346452D383542442D3942414642354646364334342F617474726962757465732E62696E504B01021400140006080800B145E242D5987DFC8F000000410100003600000000000000000000000000271100006662782F38423246463841342D323939
310
322D344346452D383542442D3942414642354646364334342F6469726563746F72792E786D6C504B01021400140006080800B145E2424F849ED9FD000000A00100003B000000000000000000000000000A1200006662782F38423246463841342D323939322D344346452D383542442D3942414642354646364334342F7265
310
736F75726365732F636F72652E786D6C504B0506000000000E000E0080040000601300000000
  0
XRECORD
  5
17
102
{ACAD_REACTORS
330
12
102
}
330
12
100
AcDbXrecord
280
     1
270
     1
271
     1
  0
XRECORD
  5
16
102
{ACAD_REACTORS
330
12
102
}
330
12
100
AcDbXrecord
280
     1
270
     1
271
     1
  0
XRECORD
  5
18
102
{ACAD_REACTORS
330
12
102
}
330
12
100
AcDbXrecord
280
     1
270
     1
271
     1
  0
XRECORD
  5
15
102
{ACAD_REACTORS
330
12
102
}
330
12
100
AcDbXrecord
280
     1
270
     1
271
     1
  0
XRECORD
  5
E6F
102
{ACAD_REACTORS
330
22
102
}
330
22
100
AcDbXrecord
280
     1
102
MATERIAL
148
0.0
149
0.0
149
0.0
 93
        0
 94
      127
282
     0
 72
     0
 77
     0
171
     0
175
     0
179
     0
273
     0
  0
XRECORD
  5
24
102
{ACAD_REACTORS
330
22
102
}
330
22
100
AcDbXrecord
280
     1
270
     1
271
     1
  0
XRECORD
  5
23
102
{ACAD_REACTORS
330
22
102
}
330
22
100
AcDbXrecord
280
     1
270
     1
271
     1
  0
XRECORD
  5
BA
102
{ACAD_REACTORS
330
22
102
}
330
22
100
AcDbXrecord
280
     1
 70
     1
 90
1959938040
 71
     1
  1
A8828C90-C42A-44E6-8E29-90722240E3FD
311
504B03040A0000080000AF45E2423DEE336E79000000790000001B0000006175746F6465736B2D64657369676E2D7061636B6167652E786D6C3C3F786D6C2076657273696F6E3D22312E302220656E636F64696E673D227574662D3822203F3E3C666F726D6174733E3C666F726D61743E687474703A2F2F736368656D612E
311
6175746F6465736B2E636F6D2F64657369676E2D7061636B6167652F323030393C2F666F726D61743E3C2F666F726D6174733E504B0304140006080800AF45E242D486FD9CA0000000F4000000130000005B436F6E74656E745F54797065735D2E786D6C7D8EC10E82300C865F65E91D8A1E8C310C0EEA1BF002731658846E
311
D98AC1B77784ABF1D8FE5FBFBF75BBCE937A534CCEB38643598122B6FEE978D0B0485F9C41B54DDD7D022595594E1A469170414C76A4D9A4D207E29CF43ECE46F218070CC6BECC4078ACAA135ACF422C856C0E68EA1BF5669944DDD7BCDE7B1F8E415D77AECB980613C2E4AC91FC167A2B244592486606FC29C8FD7F045B9A
311
EF7053A7E60B504B0304140006080800AF45E2421FE41C4BEB0000007C01000008000000636F72652E786D6C8D90416EC3201045AF82665B6103B66B37C244AA9D9CA01740405C94182C03558F5F9C3852BBEB86197DFE9B197D7EFC9E6FE8CBACC17AD7032D0820E394D7D64D3DA478C11DA0A3E0ABF7F1970D9093B3E961
311
9341F069F569D925E55D342E66D5796D76518660222075CB4D0F417D9A591632C5EC08D76291EA2A2753D06797E194AC468F2556E779F662CD0AA219D9B91ECE0477E3E915D775CBF03B3D115C8F943655D30EC3F8C6CB0D163CDAF9B95FAD4646A34130422B4C5A4CD807E90E7573A8E80BC92FE1E566FF03A545FF134AD6
311
C58AEDE73EB00082E643EE1F82975B16B9DC83CA75CB4DFC00504B0304140006080800AF45E24255019EA25F0000007C00000007000000636E782E786D6C4DCB3B0E80201045D1AD90E915ED2CF8AC45050C11660C8261F98AB1B07AC9C97D42D718D865D3E909258CFD00CCE24AC6E326A164D74DC0B4128928FF32603847
311
2BA13128B1252AC747C6BAB984FC68F0B87FE8960A5C09FE86CFB69FBA01504B0304140006080800AF45E24230CA79A267010000020300000C0000006662782F636F72652E786D6C8D525B6E833010BC8AE5DFCAD8BC9A34328ED4909CA01770C0A128602363A31CBFCB23A2A9A2A84232D6CCCEEEEC00DFDFDA060DCAF6B5
311
D1190E038691D285296B5D65D8BB0BD962B417DC1AE37E9561A465AB323CC258F0CA1ADF2D5061B453DA01AA4DA91650F6BD7218150D5C32DC17DFAA9581F40E2AFA6BD0C9E22A2B158401D0502778EF2C1840F390F1C4E272BE713AE3827B5F970B5B9730ADBED4CA6291E6D129399C18D9E6C77792249B887C864746923C
311
0CD338DD1C0EF907A7A3587057B777778555D2A9128B888531611BC2A22FB6DD25E92E0EDF189C8CD3B1FC41E4BBF29F225F6B17478BDD59D66311829189F8B32D44E4502F07F04305A76388F09A127E0C1A0281909D3C37F73DAE000DAA70C626C094C6AFD4201BAF602A43D3C3E9CC42E7A9016CF6B44FF4A2CFEB1EF001
311
A5AEC09A74703D7B374EE7F3D4258A4E5932B81BD2C6B6B259CDCD16D7731DF4545E98C6D8FFA8E9B22A5DC2A4E3DF2B7E00504B0304140006080800AF45E2420462A8B67D0000009D0000000B0000006662782F636E782E786D6C4DCCD10AC2201886E15B91FFDCA65866A08E197A1FA3B9216D3A4CA3CB6F8B1D74F4C1C3
311
C72BDBCF32A3B7CFAF90A2027A22807C7CA421C449412D2316805A2D734AE5EF0628F68B57B0336839E554D783063FF6752E9BCE213E0FA4DC5A263A868925149F5967B1B8708EF9D5DD8CA3C6387B8746CBE657DA760FEB2F504B0304140006080800AF45E24217CE79C92B01000015020000310000006662782F31364545
311
333841332D304530312D343341452D383536362D3637463942463142424645432F636F72652E786D6C8D515B6EC32010BC0AE22B55651B62C771234C9454CE097A010A244589C1E251E5F85D6A476AFFF2C3A2D999D9D12EDBDFC71BFAD63E18677B4C4B8291B6D229632F3D4EF15C7418ED39F3CEC53F348CAC18758F338C
311
39BB7897A60592CE466D23A0D629BD8022041D319237F8F438C82F3D8A52A4088C702D2721AFE2A24B5A421B789C85E821009A87E41773DA0E43DD1DEA820C84164D7D188A6ED3B645BB3DBD1D4FF4783C0DEFAC9A859CA564D422370AE298B3D1FE59932CE62C9AF1115F7A2DA25698AF098500DB82AC3F48B76B36BB9ABE
311
127809AB32FD9F284DEA49513236D6EB25EE2C0B909555738333E5D2E7ED1146DF27E723CAF35641CB17CC494948D7D22DAD3B56CD5CD80098B6CD621AA2F3B0E1D5F513E874333BB70D67553E1294DF0B42CD07E53F504B0304140006080800AF45E2428075059D4D01000033030000300000006662782F31364545333841
311
332D304530312D343341452D383536362D3637463942463142424645432F636E782E786D6CD593BB6E023110457FC5721BED0B360421AF9152E40B52A4F5DA033878ED951F51F8FB8CC1101A8A946946AB3B77E68E8EBC6CFB3D19F2053E686707DAD52D2560A553DAEE079AE2AE5A53B2E5CC3B17EF6C945831C140B34C39
311
DB7B97E62229D8896422AA46DB63113D0497BC8480729E24C649617001D82AA108D3084A812237237EEDC0E329288E27120F40DE5E3F881B3F41C6C09ABC85B3266770966B49BA3351228D0861A0411E6012B548D12908C75A8928EAAEBE663DB8E97713C903D7C8E435C9E103CD95F272518D1C59834DCE42F448AF98E269
311
06CAC53C1B2D4544C8CDD978F17096B48DABBE783582F7E8EE56CBBEC765E71E67514F501CD28388A0285FB4DDB26A5FAA76F1DEAE37FDF366D93DB5585BD6643B67A373A60CE11AF06E26D2D9083652DEB126B71FE12B3EA2B447D6CE9FFE00120194D40B9DDB8EFFCCA739BF6FC4E5F12FE03F504B0304140006080800AF
311
45E24278340538A405000080100000340000006662782F31364545333841332D304530312D343341452D383536362D3637463942463142424645432F6F626A656374732E786D6CAD57DB6EDB3810FD1541FBB2FBE0BB9BDA0B458563278551A42D6AA4D807030625518A3694289054EAECD7EFA148C99263A7DE455F2C8B1A
311
0E67CE9CB9D0FBB0CF98F34C854C797EED8EFA43D7A179C8A3344FAEDD52C5BD99EB7CF03DC1B96A89B94E4E327AEDEA65D7F712C1CBC22E453426255347AB77377F3932A439759D901129AF5D193ED28CF449A97844E5533F228AF49378DF1FF58D60576D2248F178A4B42082E60A96623D8716C71835EABE0EDD81EF0DF4
311
77DFD3BF566A725E6A50F9D33D3FCDA52279F8EAB0233593D174753B7E37EFBD9B4E27BDE9D578D4BBB9BB59F546EF27C3E5D572395FDCCE71B054029AAC2582C6AEFF11D88834F406E693EF9569AE26632B62033410F439D59172FDB133F20646A6F1CE3A79CAFC90E7390D2BAC8046E59F551DD182E611629E5209CB5A08
311
0DBBAF238D63EBF344BFDB23DBCB9721D0DED15254DB5E3FDB96F2E06FB8202F6190905433D060691D355C1D1E100E3867F65B2A9D8C282A52C21C9606828817D787A816F1BD8E1ACD64A1B3417BE0FA8882F9DCA50BD2E8E73C3F65655C32A669ECFA5516EC902B54C9CAB2F41F2A0ED6B791814D889566C3CC3AA45E0AEA
311
FA734391D9119B0C904ECC488290C34DBD73323E7274A9F374BD72FD4F77C17EA373F7F4E185E005154AD307D4AA03573F354AD6A6D14591D31BDC23530EA07C03F29F91EA0753103791EEA7FBA93D450992CB988B0CB171864E6F889FA133AA7EF5FFD63F6FD06CEE46EF1C9E08B686EA17E0D9F5A11DCB169CBEF70CC273
311
31B1AE6D42C25036EED31C006992388C630975380EF6AEBF46954355C62EC2FC115C86B9CFF8EB0DAC1A148AEAA4D63307964765F182020DD82A46C20C437E6BE0214EAFCA5975B0153B07EFBB5F42D7C56AF369538A9884F4DEE6F48AC6699E2AB4B8036FDA067530EF78F4445F7E7011C1D1D7786FDA7867F62809B435E6
311
1AF8A4AEE9FAE57072E78010FB12AECB8DF79313E0846EAC2DFDF7A90C296324A7BCACCF7DB37FA06D188875B26B26370DE6D058401AF3E52807D1A44391161AC4A65B3545B37FC6BB87F5673012F28C07841D848243E90D39E36217BCEC4C553A89F4F72EB52D0403AD056CAF72A44E7F8BF92E4AE3B894A8812760FDBE5E
311
B643A7AB022A44ADD524CB14EE23B788B09CADF5A2590B8246CAF35D8AB689B43B79405B3F10B504A8149EB3585216EF52C6CA6C17A70CCD689791E20C1CFFDFFEA0CC8A1DC97899AB33BA3BA6A339746DEF9057FE202A7C74FD4DF5ECDDA0F446343A84B923AC5BC909AC3AA15DCC66E3D9723EEC2DA7E3456F3ABDBDEACD
311
6EC7F3DE7CF87E3C1E4F87B793BB551D27A3DCF7EA4ED34E6844099DCD2B456AC3F7B046FAD81AE0FAF744C9ED47939DF5F361DDC728EC0DB007EDB2D9B8889E31F6D1E8E70A0E922715ADB382D18CE68AE814BAD77FD8378231A3638C595F6724A11768F9F27173E40C562ED8F755A73BFD71B4D7AE2E75429E54A21ECB2C
311
C849CA8E362606C97E912716BF3A26CDD3F499FA55BFD9C06030959CA511CA60E424946754A1185ED083444625A8D71EE9237BF5B860F7B31910150918AD2D7924989199445A805A65A8BAEBCE6F98E9F45875EDA2DBF69FF0632B85EB8033D72E6674958654F603F4673D0955CAC1A5F6208FB99FE409C3A86D3635EFCD2E
311
8D4DA7233722978C4FD62F53C1AD03282305C606CC43884E658CEF55B6D9EFE17F72BC36C7210A7F835235BE1C161A67AA6390A2C6297B59C00CF3648FDE2351DF766BD4AF643A885C74C97A9304466B4F11915417056D9F3569B1FA3AC080E2ACBF38052B13C4F2724D3D4141E6522738580456589D0551A0EAF2CFED57C1
311
7191CD9CBB1414707EDFCFAEFED82E7996F1DC2C6D17F63AEC6C1E71B98DB6280E54DF4AE4763C1C8DB7D56DC05E50760191B44F22F984054456A40DD09DF08397E6CA883E643E3472031D8A2386AE578E6D6C5328B57469D7560D0EE68E9C3AC8217DA3D419D31628DEBC100C2A51982030CAFBFF02504B03041400060800
311
00AF45E242000000000000000000000000350000006662782F31364545333841332D304530312D343341452D383536362D3637463942463142424645432F76657274696365732E62696E504B0304140006080800AF45E242F270F1330600000004000000360000006662782F31364545333841332D304530312D343341452D
311
383536362D3637463942463142424645432F747269616E676C65732E62696E636660600000504B0304140006080000AF45E242000000000000000000000000370000006662782F31364545333841332D304530312D343341452D383536362D3637463942463142424645432F617474726962757465732E62696E504B030414
311
0006080800AF45E242D5987DFC8F00000041010000360000006662782F31364545333841332D304530312D343341452D383536362D3637463942463142424645432F6469726563746F72792E786D6C858F410EC2201045AF4266AF15DDB800BA74E7C21B903225242D6328188F2FA5C4183471359997F9FF81E89FF3C41E18
311
16475E02DF1F80A11FC8386F25A438EECEC07A250251FC3803E6F58C12560C4AD840E95E91C151A72936F496F35732D860FE635F62C8F2DA16B505C545B74125BAA2FA9E05D7CC053D063734D5C7665FD55B6B8D15D5E9BFEAFD8490FFA45E504B0304140006080800AF45E2426ED2BC2BFD000000A00100003B0000006662
311
782F31364545333841332D304530312D343341452D383536362D3637463942463142424645432F7265736F75726365732F636F72652E786D6C8D50596AC33010BD8A99DF225BF2523B4156A07172825E40C8135724968296D2E3574A5C68FFFA3333BC85793C7EF85A6FC5273AAFAD198195140A34CACEDA2C23C470210314
311
07C19DB5E1970C0A23571C21C320F8E26CBC6F90B226A009093576C60D94DE638042DDD23182571FB8CA52C69014FE5ADEA5BACA054B56263AE904F7C1A500C5F3499E201C7A1B9D42CFAB272B788C7ADE347A4E3FF545A303D14DF5B93D9ECE64984EAFA46DFB9ABCB11325EDC458D774FDF138ED7895CD8207BDFE64540E
311
65C019444D5943684F68FD4E877DDBED1BF642D3A4BCCAF23FA6789FFF698ADA84A6DEE23E6D1E044B411E84E055EE2BAD479969E76EC537504B010214000A0000080000AF45E2423DEE336E79000000790000001B00000000000000000000000000000000006175746F6465736B2D64657369676E2D7061636B6167652E78
311
6D6C504B01021400140006080800AF45E242D486FD9CA0000000F40000001300000000000000000000000000B20000005B436F6E74656E745F54797065735D2E786D6C504B01021400140006080800AF45E2421FE41C4BEB0000007C010000080000000000000000000000000083010000636F72652E786D6C504B01021400
311
140006080800AF45E24255019EA25F0000007C000000070000000000000000000000000094020000636E782E786D6C504B01021400140006080800AF45E24230CA79A267010000020300000C00000000000000000000000000180300006662782F636F72652E786D6C504B01021400140006080800AF45E2420462A8B67D00
311
00009D0000000B00000000000000000000000000A90400006662782F636E782E786D6C504B01021400140006080800AF45E24217CE79C92B0100001502000031000000000000000000000000004F0500006662782F31364545333841332D304530312D343341452D383536362D3637463942463142424645432F636F72652E
311
786D6C504B01021400140006080800AF45E2428075059D4D010000330300003000000000000000000000000000C90600006662782F31364545333841332D304530312D343341452D383536362D3637463942463142424645432F636E782E786D6C504B01021400140006080800AF45E24278340538A4050000801000003400
311
000000000000000000000000640800006662782F31364545333841332D304530312D343341452D383536362D3637463942463142424645432F6F626A656374732E786D6C504B01021400140006080000AF45E24200000000000000000000000035000000000000000000000000005A0E00006662782F31364545333841332D
311
304530312D343341452D383536362D3637463942463142424645432F76657274696365732E62696E504B01021400140006080800AF45E242F270F13306000000040000003600000000000000000000000000AD0E00006662782F31364545333841332D304530312D343341452D383536362D3637463942463142424645432F
311
747269616E676C65732E62696E504B01021400140006080000AF45E2420000000000000000000000003700000000000000000000000000070F00006662782F31364545333841332D304530312D343341452D383536362D3637463942463142424645432F617474726962757465732E62696E504B01021400140006080800AF
311
45E242D5987DFC8F0000004101000036000000000000000000000000005C0F00006662782F31364545333841332D304530312D343341452D383536362D3637463942463142424645432F6469726563746F72792E786D6C504B01021400140006080800AF45E2426ED2BC2BFD000000A00100003B0000000000000000000000
311
00003F1000006662782F31364545333841332D304530312D343341452D383536362D3637463942463142424645432F7265736F75726365732F636F72652E786D6C504B0506000000000E000E0080040000951100000000
310
504B03040A0000080000AF45E2423DEE336E79000000790000001B0000006175746F6465736B2D64657369676E2D7061636B6167652E786D6C3C3F786D6C2076657273696F6E3D22312E302220656E636F64696E673D227574662D3822203F3E3C666F726D6174733E3C666F726D61743E687474703A2F2F736368656D612E
310
6175746F6465736B2E636F6D2F64657369676E2D7061636B6167652F323030393C2F666F726D61743E3C2F666F726D6174733E504B0304140006080800AF45E242D486FD9CA0000000F4000000130000005B436F6E74656E745F54797065735D2E786D6C7D8EC10E82300C865F65E91D8A1E8C310C0EEA1BF002731658846E
310
D98AC1B77784ABF1D8FE5FBFBF75BBCE937A534CCEB38643598122B6FEE978D0B0485F9C41B54DDD7D022595594E1A469170414C76A4D9A4D207E29CF43ECE46F218070CC6BECC4078ACAA135ACF422C856C0E68EA1BF5669944DDD7BCDE7B1F8E415D77AECB980613C2E4AC91FC167A2B244592486606FC29C8FD7F045B9A
310
EF7053A7E60B504B0304140006080800AF45E242840E48EAEA0000007C01000008000000636F72652E786D6C8D904D6EC3201085AF82D856D8E09F388A30515C2727E805104C5C94182C03558F5F481CA9DD75C38C1EEF9B193D7EFC9EEFE80B566F9CED312B28466095D3C64E3D8EE14AF6181D055F9D0BBF6C185939438F
310
B38C059F5617974D52CE06B021A9D669D844E93D048CD43D353DF6EA136659C81892C3DF8A45AA9B9CA060AF2EC1311A8D9E4B8C4EF3CCD5C08A4545C7F6B4ABCFA4BB9C1AD234BB860C74ECC8FE9DB5976E68AB613CF332C3820733BFF6AB1564009D795613DA115A7DD0FDA1690F357BA3E9A5BCCCF63F505CF43FA1686C
310
A8ABEDDC27E6B160E990C787E065CE22954750A9E6DCC40F504B0304140006080800AF45E24255019EA25F0000007C00000007000000636E782E786D6C4DCB3B0E80201045D1AD90E915ED2CF8AC45050C11660C8261F98AB1B07AC9C97D42D718D865D3E909258CFD00CCE24AC6E326A164D74DC0B4128928FF326038472B
310
A13128B1252AC747C6BAB984FC68F0B87FE8960A5C09FE86CFB69FBA01504B0304140006080800AF45E242BC8D6EFC66010000020300000C0000006662782F636F72652E786D6C8D52ED8E8230107C95A67F2FA5E54B8D29357AEA13DC0B54A81C115A525AE2E3DFF261382FC65C484A33B3B33B3BC077F7A646BDB25D6574
310
86C38061A4746E8A4A9719F6EE4A3618ED04B7C6B85F651869D9A80C0F3016BCB4C6B733941BED9476806A53A819945DA71C46790D970C77F9B76A6420BD838AEE16B432BFC95205610034D409DE390B06D0346438B1B85EEE9C4EB8E0DE57C5CC56054CABAE95B25844EC98EE57F189ACCFFB8424C92A2107765C93CD6798
310
9ED787343A1C4F9C0E62C15DD53CDCE55649A78A411FC684AD098BBED8669BA4DB38FC6070324E87F227916F8B7F8A7CA55D1CCD7627598745084646E2CFB61091439DECC10F159C0E21C26B4CF8396808044276F2523FF6B801D4ABDC199B005318BF50BDACBD82A90C8D0FA7130B9DC706B0D9CB3ED19B3EEF7BC00794BA
310
046BD2C1F5E2DD309D4F53E7285A6549EFEE481BDBC87A3137595CCE65D04B796E6A63FFA3A6F3AA740E930E7FAFF801504B0304140006080800AF45E24242F108DE7D0000009D0000000B0000006662782F636E782E786D6C4DCCD10A83201886E15B91FFDC952B97811A8EE67DC4B2904C87E9D8E5AF46073BFAE0E1E3E5
310
DD6775E86DE2668317402E2520E39F61B47E1690D38419A04EF21842FABB01F2C36A041C0C92CF31E4D749A39986ECD2AECEFAE544A2B452946AACF59DE29ADC4ADCD2AAC6CDA321BD627DCBAE0C0AC98B5F69DF232CBF504B0304140006080800AF45E24268FF8AEB2D01000015020000310000006662782F314146414135
310
35462D464642352D343136302D393533342D3745373144413844393832382F636F72652E786D6C8D515B6EC23010BC8AE52FAACA899D17013946A9684ED00B84C48005B1233F2A8EDF7513A4F68F1FAF353B333BDAE587C77447DFD23A657483594231927A30A3D29706077F26354607C1AD31FE0F0D23DD4FB2C111C6825F
310
AC09F30A0D467BA93DA0DA8C72057BE7A4C768B8C3A7C16EB8CAA94FFAE081E16EC9DC0FB7FE221396401B78823B6F21005A86C4170BD6766D5B961DE9BA8F9214ACA26457E605D97E6ED9B1AD8FBB3AAB79BA08050F418DAB5C8D10479D95B4AF9A44B1E05E4DCFF88395BD972316196539A15B42B32F5AEF8B729FB3770A
310
2FE569A4FF1385797C511494F679B6C65D640EB2F27469083E9A70BA3FC3C8C76CAC4771DEC6C9E10D0B9A50BAAB6A56668CA70B173600A655B19A3A6F2C6C78733B013D075674AE0AC1D3782428BF17841A0F2A7E00504B0304140006080800AF45E242E6D2CA8A5501000033030000300000006662782F31414641413535
310
462D464642352D343136302D393533342D3745373144413844393832382F636E782E786D6CBD93CB4EC33010457FC5F216E5D58412558E2BB1E00B58B075EC29354DECC80F44FF9E71EB966EBA40426C46D19D3B7347470EDB7ECD13F904E7B535036DCA9A1230D22A6DDE071AC3AEE829D972E6AC0D37364A8C9861A049A6
310
9CBD3B1B972C29D889380554276D0E5974E06D74123CCA69924C568A09178029228A308FA014287235E2D70E1C9E82E27824610FE4E5F98DD8F10364F0AC4A5B38AB520667A9E6A41B13257212DE0FD4CB3DCCA214315805FE502A1144D99497AC3B37FD6C2269E012199D26297CA0A9529E2F2A9123ABB0C9990F0EE96553
310
382E40B95896494B11107275329E3D9C456DC2BACB5E8DE01DBADBD5BAEF71D9A9C759D033648774200228CA5775D316F55351AF5EEB7ED33D6EDAE6A1C65AB32AD9391BAD9DF210AE01671722AD096002E50DAB52FB1EBEEC234A3B646DDDF1172011404E3DD3B9EEF84B3ECDBAEDBA7FE4539DDE37E272F817F06F504B03
310
04140006080800AF45E2421471B39162070000991B0000340000006662782F31414641413535462D464642352D343136302D393533342D3745373144413844393832382F6F626A656374732E786D6CED595B73A33614FE2B0C7D691F8C8DED64930EA1933897F1EC647767DDDDE98367181964A246084612B9F4D7F7E80206
310
6212DC4DDFF6C106847474CE77AE3A047F3C65D479C05C909C9DB9BE37711DCCE23C212C3D734BB91D9DB8CE1F61C0F35C36A6B90E43193E73D5B01B0629CFCBC20E25788B4A2A3BA3D7177F3922C60CBB4E4C911067AE88EF70863C54CA3CC1E2DE4B90445EBA7DF27CCF4C6C934D392AEE3A440BC43193C0298C33A0E218
310
A6FCF6E3C41D87C158BD0F03F56F67CD06CD9AF7CF1A6BA9DB5C12262462F10B963A646683589AF9F3CBABE9D1E9E8683E9F8DE6C7537F74717D7139F23FCC268BE3C5E2F4FCEA14D8DBE439B53225B8C02C01FD3DBBA11F8CD59B5A748BC03EAEE39C311C6B20012A2D569720C102B66AC037693FFA4AA2C66B2D61E379AE
310
DE5B161AC3B33695BE59C38068D10541EC7695C4D5B5295FBEF91B0417438C920B2C815B213968D7C2C3C12BDC70128CCD68186C76BA20C2C990C49C20EA50B2E188835260AA9A1206668125A39C8303294749A035675EB76D0B3CF36DD7D9C7E5B6A45479861B6AC78AC0FDB0149A33F20FE63BEE9BC8004F206D49983CB1
310
5CCAE702BBE16930D68361A02EB3A97D698074B614A5422362DE76045D28D75F5EBAE1C7EBCDD34A8583FD9B173C2F3097CAE8941E355F60C8F6AA50B2DBFA8334A71680300654BB7207CA5740FE13448F1D2BA0374E9EE64F733B5772C4C436E719E8C69938A309FC4D1C5FFFABFBC65D30AE17B7B5D78727B8A982EAE4C7
310
F16CCBA0B1B2FC37E00C830730F89CCFECAB558C28D8F32D610090321287E63004A17DBB7972C325044E08F4B00AD1D0079181DD07B80DC696CC4E2B957B59AF6380A8DD63364449009BB64860A3474F37903D3889776A6A8AD807EFD1BB98EBF9E5EAE3AAE45B14E35BEBD397784B18919035F733D4C2BC25D13D7E7ECC79
310
0282BEC47BD5C43BB35B09405B61AE804F2B10D4C36EE7D60631AC4B73156E823776002154AE6ED0BF2522C6942286F3B2DAB78E6ECA506B8FB735831B4E0DC4B369C784397E20AAAA00A7D9CD68310A793FE6A45020BAE18D91AC0E9A5E8F74DF969FC022EBF93DB3960C422F43F44F1DB4F6E0D0B2EC0A690B442DF06617
310
CEE39CE63CDA3C4726D2B9504B001B6D6FF9DE220AB1DE284951010FD27E578594D4481B2564BB2D05C4D53D2C7E5F2E9AE630F166FE91D3FCEF38E31CA22DF82EE2D6EF3A7B442443298EB628E9DBAEB95B4D5B68923DA439DE52908B3C10F91C21194D129C1E02CD41C44FDF957A4A732108C302F2D55EF09B684C3C0824
310
469B15CB4AAB1DA08988322C113D040145A6075C9D76748D1B43E9F0368FB5F5BEA6B126D1FFC92238825A32671181521472C89B8CFBDE11C49036BA06E50EBE606D156D2D062DA184889FA3474CD23B7908EA867C0FEE311C494A19E5058AC1AC07907DE12B4AA91DDE3728BE57F9238A4BFA5E062230DD4684D2328BE047
310
189C3C86B8761D985E45A141DCC43E893328CA902CF9904D8E8F262FF631354337043636DA120A613BCA50D1837A2B20EA7AC4A9C1B7D47B94BA29B32242595EB24186E2CDBADE64C977D5AAC80EE457958A503656842DC130204CD659B58AD960EA3AB0821BE940F51C099415D49CC2DE483C7EED4D9A72EF06DCFAE9FB6E
310
9041E1D7A3BD66449D5730581E5B8581784432BE73C395BE8E2EA0FE4E70B24BF555ADD9AC00013115C94B4EAC8ABE2DA1BCB1359A1BDE2229D63726EB56D76F4B0FBA1FC118D640ED522F5C2AA033CC245295C9ADBAA15F1184E0160D33BE5439F5102AE749A2AB4644AF499F3A5B65446BD38C78C51D6679063FB6262CA6
310
6582D72811F7D1ADA4D18A28D6AD945E462A8C5F15F0F3CDAA030F8C0C10E98B2AF0F06367AD1D5DA872692F117957661B860804C19668A9D18D57B0D46AA4D2727D55670AA8BBC0C0AC8AE73F4F16CD76C4CF93456A0DE3C74E1634DF20BA8B368D6C1E2BB33EE81450A72745E53D4E01BAEB5053AD9388C9E5567CEB4B11
310
C4C42AC80F2EC6AA986108F671FC9F93765F1234DB75F83F2C69FB2F0A8E83924A6BB26A52ED295C97CD14767E72323D599C4E468BF9F47C349F5F1D8F4EAEA6A7A3D3C987E9743A9F5CCDAE2F6B34B59F86411DCB74EA826713D3AA61F5643180A6ACC82949E0309F382986902FE1483FA07BCE332C2077367BDD89EDC90F
310
58FD60DA9C126D28AE38B943D01FA602B23A6054C6B23DEEFC029D4909E7EC33177A46DE3DFC59AB741D483C672E740A2489B1F036D06552FD3C4D1C32AE4EFD9618E08358AA32A259543FD7AB1436ADE85F4F199205AC5CAD1606D46D0534BF5A0D0ACD9BE5293E48F08A1D0749B8DD94128A3523CB6EA016466FB353BF91
310
8D12766FB77E02D77D5D2CDFD3735A880CFA62F0AA1118AA238978AADBDD8A31CBD2F9E59731B4D99CE567A7A0650ABA1C4E69C4311873A9EA29B022B00A4BB340124C75F1FBFA0BCFE10B4FE6E8A2C8F9F5E9E4F8B7F522CFB29C99A1F5391CCA12F84EE4ACEEE0AB4FB286DA01ABDEBA584F27FE74AD7BDAB6CD1E6D90C0
310
9E2A8A60A0AA2594201D9303BB7CD19FB2DDCBB1524567FAF2D2B141147A01C68E5EB478CD372E077C487D4D511EA3FDBC92F6D5B6F6584F059BE0D0900EFF05504B0304140006080000AF45E242000000000000000000000000350000006662782F31414641413535462D464642352D343136302D393533342D3745373144
310
413844393832382F76657274696365732E62696E504B0304140006080800AF45E242F270F1330600000004000000360000006662782F31414641413535462D464642352D343136302D393533342D3745373144413844393832382F747269616E676C65732E62696E636660600000504B0304140006080000AF45E242000000
310
000000000000000000370000006662782F31414641413535462D464642352D343136302D393533342D3745373144413844393832382F617474726962757465732E62696E504B0304140006080800AF45E242D5987DFC8F00000041010000360000006662782F31414641413535462D464642352D343136302D393533342D37
310
45373144413844393832382F6469726563746F72792E786D6C858F410EC2201045AF4266AF15DDB800BA74E7C21B903225242D6328188F2FA5C4183471359997F9FF81E89FF3C41E1816475E02DF1F80A11FC8386F25A438EECEC07A250251FC3803E6F58C12560C4AD840E95E91C151A72936F496F35732D860FE635F62C8
310
F2DA16B505C545B74125BAA2FA9E05D7CC053D063734D5C7665FD55B6B8D15D5E9BFEAFD8490FFA45E504B0304140006080800AF45E24297A56672FC000000A00100003B0000006662782F31414641413535462D464642352D343136302D393533342D3745373144413844393832382F7265736F75726365732F636F72652E
310
786D6C8D50596EC32010BD0AE2B7C2062F711461A2B86E4ED00B203C715162B058AA1EBF10BB52FBD79F99D15B344F8F9FBF9607FA04E7B5353D6605C5088CB29336738F63B891234667C19DB5E1970C232317E87186B1E0B3B371DD21654D0013126AEC043B28BD8780917AA4A3C75E7DC0220B194352F87BB14A75973314
310
AC4874D209EE834B01D0F6244F2C1C781B9D02CFCB8D153C463DED1A3DA59FFAA6C16151D1B1BD1CEA9174D74B439AE6D090818E1D39BEB2F6DA0D6D358C6FBCCC66C1835E7E322A0732C094FDAC26B423B47AA7C753D39E6AF642D3A4BCCCF23FA6B84EFF34456D425DED71379BC782A5204F42F032F795D6B3CCB473B7E2
310
1B504B010214000A0000080000AF45E2423DEE336E79000000790000001B00000000000000000000000000000000006175746F6465736B2D64657369676E2D7061636B6167652E786D6C504B01021400140006080800AF45E242D486FD9CA0000000F40000001300000000000000000000000000B20000005B436F6E74656E
310
745F54797065735D2E786D6C504B01021400140006080800AF45E242840E48EAEA0000007C010000080000000000000000000000000083010000636F72652E786D6C504B01021400140006080800AF45E24255019EA25F0000007C000000070000000000000000000000000093020000636E782E786D6C504B010214001400
310
06080800AF45E242BC8D6EFC66010000020300000C00000000000000000000000000170300006662782F636F72652E786D6C504B01021400140006080800AF45E24242F108DE7D0000009D0000000B00000000000000000000000000A70400006662782F636E782E786D6C504B01021400140006080800AF45E24268FF8AEB
310
2D0100001502000031000000000000000000000000004D0500006662782F31414641413535462D464642352D343136302D393533342D3745373144413844393832382F636F72652E786D6C504B01021400140006080800AF45E242E6D2CA8A55010000330300003000000000000000000000000000C90600006662782F3141
310
4641413535462D464642352D343136302D393533342D3745373144413844393832382F636E782E786D6C504B01021400140006080800AF45E2421471B39162070000991B000034000000000000000000000000006C0800006662782F31414641413535462D464642352D343136302D393533342D3745373144413844393832
310
382F6F626A656374732E786D6C504B01021400140006080000AF45E2420000000000000000000000003500000000000000000000000000201000006662782F31414641413535462D464642352D343136302D393533342D3745373144413844393832382F76657274696365732E62696E504B01021400140006080800AF45E2
310
42F270F13306000000040000003600000000000000000000000000731000006662782F31414641413535462D464642352D343136302D393533342D3745373144413844393832382F747269616E676C65732E62696E504B01021400140006080000AF45E2420000000000000000000000003700000000000000000000000000
310
CD1000006662782F31414641413535462D464642352D343136302D393533342D3745373144413844393832382F617474726962757465732E62696E504B01021400140006080800AF45E242D5987DFC8F000000410100003600000000000000000000000000221100006662782F31414641413535462D464642352D34313630
310
2D393533342D3745373144413844393832382F6469726563746F72792E786D6C504B01021400140006080800AF45E24297A56672FC000000A00100003B00000000000000000000000000051200006662782F31414641413535462D464642352D343136302D393533342D3745373144413844393832382F7265736F75726365
310
732F636F72652E786D6C504B0506000000000E000E00800400005A1300000000
  0
XRECORD
  5
27
102
{ACAD_REACTORS
330
22
102
}
330
22
100
AcDbXrecord
280
     1
270
     1
271
     1
  0
XRECORD
  5
26
102
{ACAD_REACTORS
330
22
102
}
330
22
100
AcDbXrecord
280
     1
270
     1
271
     1
  0
XRECORD
  5
28
102
{ACAD_REACTORS
330
22
102
}
330
22
100
AcDbXrecord
280
     1
270
     1
271
     1
  0
XRECORD
  5
25
102
{ACAD_REACTORS
330
22
102
}
330
22
100
AcDbXrecord
280
     1
270
     1
271
     1
  0
XRECORD
  5
E69
102
{ACAD_REACTORS
330
E68
102
}
330
E68
100
AcDbXrecord
280
     1
102
ACAD_ROUNDTRIP_2012_MLEADER_STYLE
298
     1
  0
CELLSTYLEMAP
  5
E67
102
{ACAD_REACTORS
330
E66
102
}
330
E66
100
AcDbCellStyleMap
 90
        3
300
CELLSTYLE
  1
TABLEFORMAT_BEGIN
 90
        5
170
     1
 91
        0
 92
    32768
 62
   257
 93
        1
300
CONTENTFORMAT
  1
CONTENTFORMAT_BEGIN
 90
        0
 91
        0
 92
      512
 93
        0
300

 40
0.0
140
1.0
 94
        5
 62
     0
340
55
144
0.25
309
CONTENTFORMAT_END
171
     0
 94
        0
309
TABLEFORMAT_END
  1
CELLSTYLE_BEGIN
 90
        1
 91
        1
300
_TITLE
309
CELLSTYLE_END
300
CELLSTYLE
  1
TABLEFORMAT_BEGIN
 90
        5
170
     1
 91
        0
 92
        0
 62
   257
 93
        1
300
CONTENTFORMAT
  1
CONTENTFORMAT_BEGIN
 90
        0
 91
        0
 92
      512
 93
        0
300

 40
0.0
140
1.0
 94
        5
 62
     0
340
55
144
0.18
309
CONTENTFORMAT_END
171
     0
 94
        0
309
TABLEFORMAT_END
  1
CELLSTYLE_BEGIN
 90
        2
 91
        1
300
_HEADER
309
CELLSTYLE_END
300
CELLSTYLE
  1
TABLEFORMAT_BEGIN
 90
        5
170
     1
 91
        0
 92
        0
 62
   257
 93
        1
300
CONTENTFORMAT
  1
CONTENTFORMAT_BEGIN
 90
        0
 91
        0
 92
      512
 93
        0
300

 40
0.0
140
1.0
 94
        2
 62
     0
340
55
144
0.18
309
CONTENTFORMAT_END
171
     0
 94
        0
309
TABLEFORMAT_END
  1
CELLSTYLE_BEGIN
 90
        3
 91
        2
300
_DATA
309
CELLSTYLE_END
  0
XRECORD
  5
EA0
102
{ACAD_REACTORS
330
E66
102
}
330
E66
100
AcDbXrecord
280
     1
102
ACAD_ROUNDTRIP_PRE2007_TABLESTYLE
 90
      512
 91
        0
  1

 92
      512
 93
        0
  2

 94
      512
 95
        0
  3

  0
XRECORD
  5
E7B
102
{ACAD_REACTORS
330
E7A
102
}
330
E7A
100
AcDbXrecord
280
     1
102
RTVSPropertyOp0
 70
     1
102
RTVSPropertyOp1
 70
     1
102
RTVSPropertyOp2
 70
     1
102
RTVSPropertyOp3
 70
     1
102
RTVSPropertyOp4
 70
     1
102
RTVSPropertyOp5
 70
     1
102
RTVSPropertyOp6
 70
     1
102
RTVSPropertyOp7
 70
     1
102
RTVSPropertyOp8
 70
     1
102
RTVSPropertyOp9
 70
     1
102
RTVSPropertyOp10
 70
     1
102
RTVSPropertyOp11
 70
     1
102
RTVSPropertyOp12
 70
     1
102
RTVSPropertyOp13
 70
     1
102
RTVSPropertyOp14
 70
     1
102
RTVSPropertyOp15
 70
     1
102
RTVSPropertyOp16
 70
     1
102
RTVSPropertyOp17
 70
     1
102
RTVSPropertyOp18
 70
     1
102
RTVSPropertyOp19
 70
     1
102
RTVSPropertyOp20
 70
     1
102
RTVSPropertyOp21
 70
     1
102
RTVSPropertyOp22
 70
     1
102
RTVSPropertyOp23
 70
     1
102
RTVSPropertyOp24
 70
     1
102
RTVSPropertyOp25
 70
     1
102
RTVSPropertyOp26
 70
     1
102
RTVSPropertyOp27
 70
     1
102
RTVSPropertyOp28
 70
     1
102
RTVSPropertyOp29
 70
     1
102
RTVSPropertyOp30
 70
     1
102
RTVSPropertyOp31
 70
     1
102
RTVSPropertyOp32
 70
     1
  0
XRECORD
  5
E79
102
{ACAD_REACTORS
330
E78
102
}
330
E78
100
AcDbXrecord
280
     1
102
RTVSPropertyOp0
 70
     1
102
RTVSPropertyOp1
 70
     1
102
RTVSPropertyOp2
 70
     1
102
RTVSPropertyOp3
 70
     1
102
RTVSPropertyOp4
 70
     1
102
RTVSPropertyOp5
 70
     1
102
RTVSPropertyOp6
 70
     1
102
RTVSPropertyOp7
 70
     1
102
RTVSPropertyOp8
 70
     1
102
RTVSPropertyOp9
 70
     1
102
RTVSPropertyOp10
 70
     1
102
RTVSPropertyOp11
 70
     1
102
RTVSPropertyOp12
 70
     1
102
RTVSPropertyOp13
 70
     1
102
RTVSPropertyOp14
 70
     1
102
RTVSPropertyOp15
 70
     1
102
RTVSPropertyOp16
 70
     1
102
RTVSPropertyOp17
 70
     1
102
RTVSPropertyOp18
 70
     1
102
RTVSPropertyOp19
 70
     1
102
RTVSPropertyOp20
 70
     1
102
RTVSPropertyOp21
 70
     1
102
RTVSPropertyOp22
 70
     1
102
RTVSPropertyOp23
 70
     1
102
RTVSPropertyOp24
 70
     1
102
RTVSPropertyOp25
 70
     1
102
RTVSPropertyOp26
 70
     1
102
RTVSPropertyOp27
 70
     1
102
RTVSPropertyOp28
 70
     1
102
RTVSPropertyOp29
 70
     1
102
RTVSPropertyOp30
 70
     1
102
RTVSPropertyOp31
 70
     1
102
RTVSPropertyOp32
 70
     1
  0
XRECORD
  5
E87
102
{ACAD_REACTORS
330
E86
102
}
330
E86
100
AcDbXrecord
280
     1
102
RTVSPropertyOp0
 70
     1
102
RTVSPropertyOp1
 70
     1
102
RTVSPropertyOp2
 70
     1
102
RTVSPropertyOp3
 70
     1
102
RTVSPropertyOp4
 70
     1
102
RTVSPropertyOp5
 70
     1
102
RTVSPropertyOp6
 70
     1
102
RTVSPropertyOp7
 70
     1
102
RTVSPropertyOp8
 70
     1
102
RTVSPropertyOp9
 70
     1
102
RTVSPropertyOp10
 70
     1
102
RTVSPropertyOp11
 70
     1
102
RTVSPropertyOp12
 70
     1
102
RTVSPropertyOp13
 70
     1
102
RTVSPropertyOp14
 70
     1
102
RTVSPropertyOp15
 70
     1
102
RTVSPropertyOp16
 70
     1
102
RTVSPropertyOp17
 70
     1
102
RTVSPropertyOp18
 70
     1
102
RTVSPropertyOp19
 70
     1
102
RTVSPropertyOp20
 70
     1
102
RTVSPropertyOp21
 70
     1
102
RTVSPropertyOp22
 70
     1
102
RTVSPropertyOp23
 70
     1
102
RTVSPropertyOp24
 70
     1
102
RTVSPropertyOp25
 70
     1
102
RTVSPropertyOp26
 70
     1
102
RTVSPropertyOp27
 70
     1
102
RTVSPropertyOp28
 70
     1
102
RTVSPropertyOp29
 70
     1
102
RTVSPropertyOp30
 70
     1
102
RTVSPropertyOp31
 70
     1
102
RTVSPropertyOp32
 70
     1
  0
XRECORD
  5
E8F
102
{ACAD_REACTORS
330
E8E
102
}
330
E8E
100
AcDbXrecord
280
     1
102
RTVSPropertyOp0
 70
     1
102
RTVSPropertyOp1
 70
     1
102
RTVSPropertyOp2
 70
     1
102
RTVSPropertyOp3
 70
     1
102
RTVSPropertyOp4
 70
     1
102
RTVSPropertyOp5
 70
     1
102
RTVSPropertyOp6
 70
     1
102
RTVSPropertyOp7
 70
     1
102
RTVSPropertyOp8
 70
     1
102
RTVSPropertyOp9
 70
     1
102
RTVSPropertyOp10
 70
     1
102
RTVSPropertyOp11
 70
     1
102
RTVSPropertyOp12
 70
     1
102
RTVSPropertyOp13
 70
     1
102
RTVSPropertyOp14
 70
     1
102
RTVSPropertyOp15
 70
     1
102
RTVSPropertyOp16
 70
     1
102
RTVSPropertyOp17
 70
     1
102
RTVSPropertyOp18
 70
     1
102
RTVSPropertyOp19
 70
     1
102
RTVSPropertyOp20
 70
     1
102
RTVSPropertyOp21
 70
     1
102
RTVSPropertyOp22
 70
     1
102
RTVSPropertyOp23
 70
     1
102
RTVSPropertyOp24
 70
     1
102
RTVSPropertyOp25
 70
     1
102
RTVSPropertyOp26
 70
     1
102
RTVSPropertyOp27
 70
     1
102
RTVSPropertyOp28
 70
     1
102
RTVSPropertyOp29
 70
     1
102
RTVSPropertyOp30
 70
     1
102
RTVSPropertyOp31
 70
     1
102
RTVSPropertyOp32
 70
     1
  0
XRECORD
  5
E81
102
{ACAD_REACTORS
330
E80
102
}
330
E80
100
AcDbXrecord
280
     1
102
RTVSPropertyOp0
 70
     1
102
RTVSPropertyOp1
 70
     1
102
RTVSPropertyOp2
 70
     1
102
RTVSPropertyOp3
 70
     1
102
RTVSPropertyOp4
 70
     1
102
RTVSPropertyOp5
 70
     1
102
RTVSPropertyOp6
 70
     1
102
RTVSPropertyOp7
 70
     1
102
RTVSPropertyOp8
 70
     1
102
RTVSPropertyOp9
 70
     1
102
RTVSPropertyOp10
 70
     1
102
RTVSPropertyOp11
 70
     1
102
RTVSPropertyOp12
 70
     1
102
RTVSPropertyOp13
 70
     1
102
RTVSPropertyOp14
 70
     1
102
RTVSPropertyOp15
 70
     1
102
RTVSPropertyOp16
 70
     1
102
RTVSPropertyOp17
 70
     1
102
RTVSPropertyOp18
 70
     1
102
RTVSPropertyOp19
 70
     1
102
RTVSPropertyOp20
 70
     1
102
RTVSPropertyOp21
 70
     1
102
RTVSPropertyOp22
 70
     1
102
RTVSPropertyOp23
 70
     1
102
RTVSPropertyOp24
 70
     1
102
RTVSPropertyOp25
 70
     1
102
RTVSPropertyOp26
 70
     1
102
RTVSPropertyOp27
 70
     1
102
RTVSPropertyOp28
 70
     1
102
RTVSPropertyOp29
 70
     1
102
RTVSPropertyOp30
 70
     1
102
RTVSPropertyOp31
 70
     1
102
RTVSPropertyOp32
 70
     1
  0
XRECORD
  5
E85
102
{ACAD_REACTORS
330
E84
102
}
330
E84
100
AcDbXrecord
280
     1
102
RTVSPropertyOp0
 70
     1
102
RTVSPropertyOp1
 70
     1
102
RTVSPropertyOp2
 70
     1
102
RTVSPropertyOp3
 70
     1
102
RTVSPropertyOp4
 70
     1
102
RTVSPropertyOp5
 70
     1
102
RTVSPropertyOp6
 70
     1
102
RTVSPropertyOp7
 70
     1
102
RTVSPropertyOp8
 70
     1
102
RTVSPropertyOp9
 70
     1
102
RTVSPropertyOp10
 70
     1
102
RTVSPropertyOp11
 70
     1
102
RTVSPropertyOp12
 70
     1
102
RTVSPropertyOp13
 70
     1
102
RTVSPropertyOp14
 70
     1
102
RTVSPropertyOp15
 70
     1
102
RTVSPropertyOp16
 70
     1
102
RTVSPropertyOp17
 70
     1
102
RTVSPropertyOp18
 70
     1
102
RTVSPropertyOp19
 70
     1
102
RTVSPropertyOp20
 70
     1
102
RTVSPropertyOp21
 70
     1
102
RTVSPropertyOp22
 70
     1
102
RTVSPropertyOp23
 70
     1
102
RTVSPropertyOp24
 70
     1
102
RTVSPropertyOp25
 70
     1
102
RTVSPropertyOp26
 70
     1
102
RTVSPropertyOp27
 70
     1
102
RTVSPropertyOp28
 70
     1
102
RTVSPropertyOp29
 70
     1
102
RTVSPropertyOp30
 70
     1
102
RTVSPropertyOp31
 70
     1
102
RTVSPropertyOp32
 70
     1
  0
XRECORD
  5
E9F
102
{ACAD_REACTORS
330
E9E
102
}
330
E9E
100
AcDbXrecord
280
     1
102
RTVSPropertyOp0
 70
     0
102
RTVSPropertyOp1
 70
     0
102
RTVSPropertyOp2
 70
     0
102
RTVSPropertyOp3
 70
     0
102
RTVSPropertyOp4
 70
     0
102
RTVSPropertyOp5
 70
     0
102
RTVSPropertyOp6
 70
     0
102
RTVSPropertyOp7
 70
     0
102
RTVSPropertyOp8
 70
     0
102
RTVSPropertyOp9
 70
     0
102
RTVSPropertyOp10
 70
     0
102
RTVSPropertyOp11
 70
     0
102
RTVSPropertyOp12
 70
     0
102
RTVSPropertyOp13
 70
     0
102
RTVSPropertyOp14
 70
     2
102
RTVSPropertyOp15
 70
     0
102
RTVSPropertyOp16
 70
     0
102
RTVSPropertyOp17
 70
     0
102
RTVSPropertyOp18
 70
     0
102
RTVSPropertyOp19
 70
     0
102
RTVSPropertyOp20
 70
     0
102
RTVSPropertyOp21
 70
     0
102
RTVSPropertyOp22
 70
     0
102
RTVSPropertyOp23
 70
     0
102
RTVSPropertyOp24
 70
     0
102
RTVSPropertyOp25
 70
     0
102
RTVSPropertyOp26
 70
     0
102
RTVSPropertyOp27
 70
     0
102
RTVSPropertyOp28
 70
     1
102
RTVSPropertyOp29
 70
     1
102
RTVSPropertyOp30
 70
     1
102
RTVSPropertyOp31
 70
     1
102
RTVSPropertyOp32
 70
     1
  0
XRECORD
  5
E8D
102
{ACAD_REACTORS
330
E8C
102
}
330
E8C
100
AcDbXrecord
280
     1
102
RTVSPropertyOp0
 70
     1
102
RTVSPropertyOp1
 70
     1
102
RTVSPropertyOp2
 70
     1
102
RTVSPropertyOp3
 70
     1
102
RTVSPropertyOp4
 70
     1
102
RTVSPropertyOp5
 70
     1
102
RTVSPropertyOp6
 70
     1
102
RTVSPropertyOp7
 70
     1
102
RTVSPropertyOp8
 70
     1
102
RTVSPropertyOp9
 70
     1
102
RTVSPropertyOp10
 70
     1
102
RTVSPropertyOp11
 70
     1
102
RTVSPropertyOp12
 70
     1
102
RTVSPropertyOp13
 70
     1
102
RTVSPropertyOp14
 70
     1
102
RTVSPropertyOp15
 70
     1
102
RTVSPropertyOp16
 70
     1
102
RTVSPropertyOp17
 70
     1
102
RTVSPropertyOp18
 70
     1
102
RTVSPropertyOp19
 70
     1
102
RTVSPropertyOp20
 70
     1
102
RTVSPropertyOp21
 70
     1
102
RTVSPropertyOp22
 70
     1
102
RTVSPropertyOp23
 70
     1
102
RTVSPropertyOp24
 70
     1
102
RTVSPropertyOp25
 70
     1
102
RTVSPropertyOp26
 70
     1
102
RTVSPropertyOp27
 70
     1
102
RTVSPropertyOp28
 70
     1
102
RTVSPropertyOp29
 70
     1
102
RTVSPropertyOp30
 70
     1
102
RTVSPropertyOp31
 70
     1
102
RTVSPropertyOp32
 70
     1
  0
XRECORD
  5
E71
102
{ACAD_REACTORS
330
E70
102
}
330
E70
100
AcDbXrecord
280
     1
102
RTVSPropertyOp0
 70
     1
102
RTVSPropertyOp1
 70
     1
102
RTVSPropertyOp2
 70
     1
102
RTVSPropertyOp3
 70
     1
102
RTVSPropertyOp4
 70
     1
102
RTVSPropertyOp5
 70
     1
102
RTVSPropertyOp6
 70
     1
102
RTVSPropertyOp7
 70
     1
102
RTVSPropertyOp8
 70
     1
102
RTVSPropertyOp9
 70
     1
102
RTVSPropertyOp10
 70
     1
102
RTVSPropertyOp11
 70
     1
102
RTVSPropertyOp12
 70
     1
102
RTVSPropertyOp13
 70
     1
102
RTVSPropertyOp14
 70
     1
102
RTVSPropertyOp15
 70
     1
102
RTVSPropertyOp16
 70
     1
102
RTVSPropertyOp17
 70
     1
102
RTVSPropertyOp18
 70
     1
102
RTVSPropertyOp19
 70
     1
102
RTVSPropertyOp20
 70
     1
102
RTVSPropertyOp21
 70
     1
102
RTVSPropertyOp22
 70
     1
102
RTVSPropertyOp23
 70
     1
102
RTVSPropertyOp24
 70
     1
102
RTVSPropertyOp25
 70
     1
102
RTVSPropertyOp26
 70
     1
102
RTVSPropertyOp27
 70
     1
102
RTVSPropertyOp28
 70
     1
102
RTVSPropertyOp29
 70
     1
102
RTVSPropertyOp30
 70
     1
102
RTVSPropertyOp31
 70
     1
102
RTVSPropertyOp32
 70
     1
  0
XRECORD
  5
E73
102
{ACAD_REACTORS
330
E72
102
}
330
E72
100
AcDbXrecord
280
     1
102
RTVSPropertyOp0
 70
     1
102
RTVSPropertyOp1
 70
     1
102
RTVSPropertyOp2
 70
     1
102
RTVSPropertyOp3
 70
     1
102
RTVSPropertyOp4
 70
     1
102
RTVSPropertyOp5
 70
     1
102
RTVSPropertyOp6
 70
     1
102
RTVSPropertyOp7
 70
     1
102
RTVSPropertyOp8
 70
     1
102
RTVSPropertyOp9
 70
     1
102
RTVSPropertyOp10
 70
     1
102
RTVSPropertyOp11
 70
     1
102
RTVSPropertyOp12
 70
     1
102
RTVSPropertyOp13
 70
     1
102
RTVSPropertyOp14
 70
     1
102
RTVSPropertyOp15
 70
     1
102
RTVSPropertyOp16
 70
     1
102
RTVSPropertyOp17
 70
     1
102
RTVSPropertyOp18
 70
     1
102
RTVSPropertyOp19
 70
     1
102
RTVSPropertyOp20
 70
     1
102
RTVSPropertyOp21
 70
     1
102
RTVSPropertyOp22
 70
     1
102
RTVSPropertyOp23
 70
     1
102
RTVSPropertyOp24
 70
     1
102
RTVSPropertyOp25
 70
     1
102
RTVSPropertyOp26
 70
     1
102
RTVSPropertyOp27
 70
     1
102
RTVSPropertyOp28
 70
     1
102
RTVSPropertyOp29
 70
     1
102
RTVSPropertyOp30
 70
     1
102
RTVSPropertyOp31
 70
     1
102
RTVSPropertyOp32
 70
     1
  0
XRECORD
  5
E75
102
{ACAD_REACTORS
330
E74
102
}
330
E74
100
AcDbXrecord
280
     1
102
RTVSPropertyOp0
 70
     1
102
RTVSPropertyOp1
 70
     1
102
RTVSPropertyOp2
 70
     1
102
RTVSPropertyOp3
 70
     1
102
RTVSPropertyOp4
 70
     1
102
RTVSPropertyOp5
 70
     1
102
RTVSPropertyOp6
 70
     1
102
RTVSPropertyOp7
 70
     1
102
RTVSPropertyOp8
 70
     1
102
RTVSPropertyOp9
 70
     1
102
RTVSPropertyOp10
 70
     1
102
RTVSPropertyOp11
 70
     1
102
RTVSPropertyOp12
 70
     1
102
RTVSPropertyOp13
 70
     1
102
RTVSPropertyOp14
 70
     1
102
RTVSPropertyOp15
 70
     1
102
RTVSPropertyOp16
 70
     1
102
RTVSPropertyOp17
 70
     1
102
RTVSPropertyOp18
 70
     1
102
RTVSPropertyOp19
 70
     1
102
RTVSPropertyOp20
 70
     1
102
RTVSPropertyOp21
 70
     1
102
RTVSPropertyOp22
 70
     1
102
RTVSPropertyOp23
 70
     1
102
RTVSPropertyOp24
 70
     1
102
RTVSPropertyOp25
 70
     1
102
RTVSPropertyOp26
 70
     1
102
RTVSPropertyOp27
 70
     1
102
RTVSPropertyOp28
 70
     1
102
RTVSPropertyOp29
 70
     1
102
RTVSPropertyOp30
 70
     1
102
RTVSPropertyOp31
 70
     1
102
RTVSPropertyOp32
 70
     1
  0
XRECORD
  5
E77
102
{ACAD_REACTORS
330
E76
102
}
330
E76
100
AcDbXrecord
280
     1
102
RTVSPropertyOp0
 70
     1
102
RTVSPropertyOp1
 70
     1
102
RTVSPropertyOp2
 70
     1
102
RTVSPropertyOp3
 70
     1
102
RTVSPropertyOp4
 70
     1
102
RTVSPropertyOp5
 70
     1
102
RTVSPropertyOp6
 70
     1
102
RTVSPropertyOp7
 70
     1
102
RTVSPropertyOp8
 70
     1
102
RTVSPropertyOp9
 70
     1
102
RTVSPropertyOp10
 70
     1
102
RTVSPropertyOp11
 70
     1
102
RTVSPropertyOp12
 70
     1
102
RTVSPropertyOp13
 70
     1
102
RTVSPropertyOp14
 70
     1
102
RTVSPropertyOp15
 70
     1
102
RTVSPropertyOp16
 70
     1
102
RTVSPropertyOp17
 70
     1
102
RTVSPropertyOp18
 70
     1
102
RTVSPropertyOp19
 70
     1
102
RTVSPropertyOp20
 70
     1
102
RTVSPropertyOp21
 70
     1
102
RTVSPropertyOp22
 70
     1
102
RTVSPropertyOp23
 70
     1
102
RTVSPropertyOp24
 70
     1
102
RTVSPropertyOp25
 70
     1
102
RTVSPropertyOp26
 70
     1
102
RTVSPropertyOp27
 70
     1
102
RTVSPropertyOp28
 70
     1
102
RTVSPropertyOp29
 70
     1
102
RTVSPropertyOp30
 70
     1
102
RTVSPropertyOp31
 70
     1
102
RTVSPropertyOp32
 70
     1
  0
XRECORD
  5
E7F
102
{ACAD_REACTORS
330
E7E
102
}
330
E7E
100
AcDbXrecord
280
     1
102
RTVSPropertyOp0
 70
     1
102
RTVSPropertyOp1
 70
     1
102
RTVSPropertyOp2
 70
     1
102
RTVSPropertyOp3
 70
     1
102
RTVSPropertyOp4
 70
     1
102
RTVSPropertyOp5
 70
     1
102
RTVSPropertyOp6
 70
     1
102
RTVSPropertyOp7
 70
     1
102
RTVSPropertyOp8
 70
     1
102
RTVSPropertyOp9
 70
     1
102
RTVSPropertyOp10
 70
     1
102
RTVSPropertyOp11
 70
     1
102
RTVSPropertyOp12
 70
     1
102
RTVSPropertyOp13
 70
     1
102
RTVSPropertyOp14
 70
     1
102
RTVSPropertyOp15
 70
     1
102
RTVSPropertyOp16
 70
     1
102
RTVSPropertyOp17
 70
     1
102
RTVSPropertyOp18
 70
     1
102
RTVSPropertyOp19
 70
     1
102
RTVSPropertyOp20
 70
     1
102
RTVSPropertyOp21
 70
     1
102
RTVSPropertyOp22
 70
     1
102
RTVSPropertyOp23
 70
     1
102
RTVSPropertyOp24
 70
     1
102
RTVSPropertyOp25
 70
     1
102
RTVSPropertyOp26
 70
     1
102
RTVSPropertyOp27
 70
     1
102
RTVSPropertyOp28
 70
     1
102
RTVSPropertyOp29
 70
     1
102
RTVSPropertyOp30
 70
     1
102
RTVSPropertyOp31
 70
     1
102
RTVSPropertyOp32
 70
     1
  0
XRECORD
  5
E9B
102
{ACAD_REACTORS
330
E9A
102
}
330
E9A
100
AcDbXrecord
280
     1
102
RTVSPropertyOp0
 70
     0
102
RTVSPropertyOp1
 70
     0
102
RTVSPropertyOp2
 70
     0
102
RTVSPropertyOp3
 70
     0
102
RTVSPropertyOp4
 70
     0
102
RTVSPropertyOp5
 70
     0
102
RTVSPropertyOp6
 70
     0
102
RTVSPropertyOp7
 70
     0
102
RTVSPropertyOp8
 70
     0
102
RTVSPropertyOp9
 70
     0
102
RTVSPropertyOp10
 70
     0
102
RTVSPropertyOp11
 70
     0
102
RTVSPropertyOp12
 70
     0
102
RTVSPropertyOp13
 70
     0
102
RTVSPropertyOp14
 70
     2
102
RTVSPropertyOp15
 70
     0
102
RTVSPropertyOp16
 70
     0
102
RTVSPropertyOp17
 70
     0
102
RTVSPropertyOp18
 70
     0
102
RTVSPropertyOp19
 70
     0
102
RTVSPropertyOp20
 70
     0
102
RTVSPropertyOp21
 70
     0
102
RTVSPropertyOp22
 70
     0
102
RTVSPropertyOp23
 70
     0
102
RTVSPropertyOp24
 70
     0
102
RTVSPropertyOp25
 70
     0
102
RTVSPropertyOp26
 70
     0
102
RTVSPropertyOp27
 70
     0
102
RTVSPropertyOp28
 70
     1
102
RTVSPropertyOp29
 70
     1
102
RTVSPropertyOp30
 70
     1
102
RTVSPropertyOp31
 70
     1
102
RTVSPropertyOp32
 70
     1
  0
XRECORD
  5
E8B
102
{ACAD_REACTORS
330
E8A
102
}
330
E8A
100
AcDbXrecord
280
     1
102
RTVSPropertyOp0
 70
     1
102
RTVSPropertyOp1
 70
     1
102
RTVSPropertyOp2
 70
     1
102
RTVSPropertyOp3
 70
     1
102
RTVSPropertyOp4
 70
     1
102
RTVSPropertyOp5
 70
     1
102
RTVSPropertyOp6
 70
     1
102
RTVSPropertyOp7
 70
     1
102
RTVSPropertyOp8
 70
     1
102
RTVSPropertyOp9
 70
     1
102
RTVSPropertyOp10
 70
     1
102
RTVSPropertyOp11
 70
     1
102
RTVSPropertyOp12
 70
     1
102
RTVSPropertyOp13
 70
     1
102
RTVSPropertyOp14
 70
     1
102
RTVSPropertyOp15
 70
     1
102
RTVSPropertyOp16
 70
     1
102
RTVSPropertyOp17
 70
     1
102
RTVSPropertyOp18
 70
     1
102
RTVSPropertyOp19
 70
     1
102
RTVSPropertyOp20
 70
     1
102
RTVSPropertyOp21
 70
     1
102
RTVSPropertyOp22
 70
     1
102
RTVSPropertyOp23
 70
     1
102
RTVSPropertyOp24
 70
     1
102
RTVSPropertyOp25
 70
     1
102
RTVSPropertyOp26
 70
     1
102
RTVSPropertyOp27
 70
     1
102
RTVSPropertyOp28
 70
     1
102
RTVSPropertyOp29
 70
     1
102
RTVSPropertyOp30
 70
     1
102
RTVSPropertyOp31
 70
     1
102
RTVSPropertyOp32
 70
     1
  0
XRECORD
  5
E9D
102
{ACAD_REACTORS
330
E9C
102
}
330
E9C
100
AcDbXrecord
280
     1
102
RTVSPropertyOp0
 70
     0
102
RTVSPropertyOp1
 70
     0
102
RTVSPropertyOp2
 70
     0
102
RTVSPropertyOp3
 70
     0
102
RTVSPropertyOp4
 70
     0
102
RTVSPropertyOp5
 70
     0
102
RTVSPropertyOp6
 70
     0
102
RTVSPropertyOp7
 70
     0
102
RTVSPropertyOp8
 70
     0
102
RTVSPropertyOp9
 70
     0
102
RTVSPropertyOp10
 70
     0
102
RTVSPropertyOp11
 70
     0
102
RTVSPropertyOp12
 70
     0
102
RTVSPropertyOp13
 70
     0
102
RTVSPropertyOp14
 70
     2
102
RTVSPropertyOp15
 70
     0
102
RTVSPropertyOp16
 70
     0
102
RTVSPropertyOp17
 70
     0
102
RTVSPropertyOp18
 70
     0
102
RTVSPropertyOp19
 70
     0
102
RTVSPropertyOp20
 70
     0
102
RTVSPropertyOp21
 70
     0
102
RTVSPropertyOp22
 70
     0
102
RTVSPropertyOp23
 70
     0
102
RTVSPropertyOp24
 70
     0
102
RTVSPropertyOp25
 70
     0
102
RTVSPropertyOp26
 70
     0
102
RTVSPropertyOp27
 70
     0
102
RTVSPropertyOp28
 70
     1
102
RTVSPropertyOp29
 70
     1
102
RTVSPropertyOp30
 70
     1
102
RTVSPropertyOp31
 70
     1
102
RTVSPropertyOp32
 70
     1
  0
XRECORD
  5
E83
102
{ACAD_REACTORS
330
E82
102
}
330
E82
100
AcDbXrecord
280
     1
102
RTVSPropertyOp0
 70
     1
102
RTVSPropertyOp1
 70
     1
102
RTVSPropertyOp2
 70
     1
102
RTVSPropertyOp3
 70
     1
102
RTVSPropertyOp4
 70
     1
102
RTVSPropertyOp5
 70
     1
102
RTVSPropertyOp6
 70
     1
102
RTVSPropertyOp7
 70
     1
102
RTVSPropertyOp8
 70
     1
102
RTVSPropertyOp9
 70
     1
102
RTVSPropertyOp10
 70
     1
102
RTVSPropertyOp11
 70
     1
102
RTVSPropertyOp12
 70
     1
102
RTVSPropertyOp13
 70
     1
102
RTVSPropertyOp14
 70
     1
102
RTVSPropertyOp15
 70
     1
102
RTVSPropertyOp16
 70
     1
102
RTVSPropertyOp17
 70
     1
102
RTVSPropertyOp18
 70
     1
102
RTVSPropertyOp19
 70
     1
102
RTVSPropertyOp20
 70
     1
102
RTVSPropertyOp21
 70
     1
102
RTVSPropertyOp22
 70
     1
102
RTVSPropertyOp23
 70
     1
102
RTVSPropertyOp24
 70
     1
102
RTVSPropertyOp25
 70
     1
102
RTVSPropertyOp26
 70
     1
102
RTVSPropertyOp27
 70
     1
102
RTVSPropertyOp28
 70
     1
102
RTVSPropertyOp29
 70
     1
102
RTVSPropertyOp30
 70
     1
102
RTVSPropertyOp31
 70
     1
102
RTVSPropertyOp32
 70
     1
  0
XRECORD
  5
E99
102
{ACAD_REACTORS
330
E98
102
}
330
E98
100
AcDbXrecord
280
     1
102
RTVSPropertyOp0
 70
     1
102
RTVSPropertyOp1
 70
     1
102
RTVSPropertyOp2
 70
     1
102
RTVSPropertyOp3
 70
     1
102
RTVSPropertyOp4
 70
     1
102
RTVSPropertyOp5
 70
     1
102
RTVSPropertyOp6
 70
     1
102
RTVSPropertyOp7
 70
     1
102
RTVSPropertyOp8
 70
     1
102
RTVSPropertyOp9
 70
     1
102
RTVSPropertyOp10
 70
     1
102
RTVSPropertyOp11
 70
     1
102
RTVSPropertyOp12
 70
     1
102
RTVSPropertyOp13
 70
     1
102
RTVSPropertyOp14
 70
     1
102
RTVSPropertyOp15
 70
     1
102
RTVSPropertyOp16
 70
     1
102
RTVSPropertyOp17
 70
     1
102
RTVSPropertyOp18
 70
     1
102
RTVSPropertyOp19
 70
     1
102
RTVSPropertyOp20
 70
     1
102
RTVSPropertyOp21
 70
     1
102
RTVSPropertyOp22
 70
     1
102
RTVSPropertyOp23
 70
     1
102
RTVSPropertyOp24
 70
     1
102
RTVSPropertyOp25
 70
     1
102
RTVSPropertyOp26
 70
     1
102
RTVSPropertyOp27
 70
     1
102
RTVSPropertyOp28
 70
     1
102
RTVSPropertyOp29
 70
     1
102
RTVSPropertyOp30
 70
     1
102
RTVSPropertyOp31
 70
     1
102
RTVSPropertyOp32
 70
     1
  0
XRECORD
  5
E97
102
{ACAD_REACTORS
330
E96
102
}
330
E96
100
AcDbXrecord
280
     1
102
RTVSPropertyOp0
 70
     1
102
RTVSPropertyOp1
 70
     1
102
RTVSPropertyOp2
 70
     1
102
RTVSPropertyOp3
 70
     1
102
RTVSPropertyOp4
 70
     1
102
RTVSPropertyOp5
 70
     1
102
RTVSPropertyOp6
 70
     1
102
RTVSPropertyOp7
 70
     1
102
RTVSPropertyOp8
 70
     1
102
RTVSPropertyOp9
 70
     1
102
RTVSPropertyOp10
 70
     1
102
RTVSPropertyOp11
 70
     1
102
RTVSPropertyOp12
 70
     1
102
RTVSPropertyOp13
 70
     1
102
RTVSPropertyOp14
 70
     1
102
RTVSPropertyOp15
 70
     1
102
RTVSPropertyOp16
 70
     1
102
RTVSPropertyOp17
 70
     1
102
RTVSPropertyOp18
 70
     1
102
RTVSPropertyOp19
 70
     1
102
RTVSPropertyOp20
 70
     1
102
RTVSPropertyOp21
 70
     1
102
RTVSPropertyOp22
 70
     1
102
RTVSPropertyOp23
 70
     1
102
RTVSPropertyOp24
 70
     1
102
RTVSPropertyOp25
 70
     1
102
RTVSPropertyOp26
 70
     1
102
RTVSPropertyOp27
 70
     1
102
RTVSPropertyOp28
 70
     1
102
RTVSPropertyOp29
 70
     1
102
RTVSPropertyOp30
 70
     1
102
RTVSPropertyOp31
 70
     1
102
RTVSPropertyOp32
 70
     1
  0
XRECORD
  5
E91
102
{ACAD_REACTORS
330
E90
102
}
330
E90
100
AcDbXrecord
280
     1
102
RTVSPropertyOp0
 70
     1
102
RTVSPropertyOp1
 70
     1
102
RTVSPropertyOp2
 70
     1
102
RTVSPropertyOp3
 70
     1
102
RTVSPropertyOp4
 70
     1
102
RTVSPropertyOp5
 70
     1
102
RTVSPropertyOp6
 70
     1
102
RTVSPropertyOp7
 70
     1
102
RTVSPropertyOp8
 70
     1
102
RTVSPropertyOp9
 70
     1
102
RTVSPropertyOp10
 70
     1
102
RTVSPropertyOp11
 70
     1
102
RTVSPropertyOp12
 70
     1
102
RTVSPropertyOp13
 70
     1
102
RTVSPropertyOp14
 70
     1
102
RTVSPropertyOp15
 70
     1
102
RTVSPropertyOp16
 70
     1
102
RTVSPropertyOp17
 70
     1
102
RTVSPropertyOp18
 70
     1
102
RTVSPropertyOp19
 70
     1
102
RTVSPropertyOp20
 70
     1
102
RTVSPropertyOp21
 70
     1
102
RTVSPropertyOp22
 70
     1
102
RTVSPropertyOp23
 70
     1
102
RTVSPropertyOp24
 70
     1
102
RTVSPropertyOp25
 70
     1
102
RTVSPropertyOp26
 70
     1
102
RTVSPropertyOp27
 70
     1
102
RTVSPropertyOp28
 70
     1
102
RTVSPropertyOp29
 70
     1
102
RTVSPropertyOp30
 70
     1
102
RTVSPropertyOp31
 70
     1
102
RTVSPropertyOp32
 70
     1
  0
XRECORD
  5
E93
102
{ACAD_REACTORS
330
E92
102
}
330
E92
100
AcDbXrecord
280
     1
102
RTVSPropertyOp0
 70
     1
102
RTVSPropertyOp1
 70
     1
102
RTVSPropertyOp2
 70
     1
102
RTVSPropertyOp3
 70
     1
102
RTVSPropertyOp4
 70
     1
102
RTVSPropertyOp5
 70
     1
102
RTVSPropertyOp6
 70
     1
102
RTVSPropertyOp7
 70
     1
102
RTVSPropertyOp8
 70
     1
102
RTVSPropertyOp9
 70
     1
102
RTVSPropertyOp10
 70
     1
102
RTVSPropertyOp11
 70
     1
102
RTVSPropertyOp12
 70
     1
102
RTVSPropertyOp13
 70
     1
102
RTVSPropertyOp14
 70
     1
102
RTVSPropertyOp15
 70
     1
102
RTVSPropertyOp16
 70
     1
102
RTVSPropertyOp17
 70
     1
102
RTVSPropertyOp18
 70
     1
102
RTVSPropertyOp19
 70
     1
102
RTVSPropertyOp20
 70
     1
102
RTVSPropertyOp21
 70
     1
102
RTVSPropertyOp22
 70
     1
102
RTVSPropertyOp23
 70
     1
102
RTVSPropertyOp24
 70
     1
102
RTVSPropertyOp25
 70
     1
102
RTVSPropertyOp26
 70
     1
102
RTVSPropertyOp27
 70
     1
102
RTVSPropertyOp28
 70
     1
102
RTVSPropertyOp29
 70
     1
102
RTVSPropertyOp30
 70
     1
102
RTVSPropertyOp31
 70
     1
102
RTVSPropertyOp32
 70
     1
  0
XRECORD
  5
E89
102
{ACAD_REACTORS
330
E88
102
}
330
E88
100
AcDbXrecord
280
     1
102
RTVSPropertyOp0
 70
     1
102
RTVSPropertyOp1
 70
     1
102
RTVSPropertyOp2
 70
     1
102
RTVSPropertyOp3
 70
     1
102
RTVSPropertyOp4
 70
     1
102
RTVSPropertyOp5
 70
     1
102
RTVSPropertyOp6
 70
     1
102
RTVSPropertyOp7
 70
     1
102
RTVSPropertyOp8
 70
     1
102
RTVSPropertyOp9
 70
     1
102
RTVSPropertyOp10
 70
     1
102
RTVSPropertyOp11
 70
     1
102
RTVSPropertyOp12
 70
     1
102
RTVSPropertyOp13
 70
     1
102
RTVSPropertyOp14
 70
     1
102
RTVSPropertyOp15
 70
     1
102
RTVSPropertyOp16
 70
     1
102
RTVSPropertyOp17
 70
     1
102
RTVSPropertyOp18
 70
     1
102
RTVSPropertyOp19
 70
     1
102
RTVSPropertyOp20
 70
     1
102
RTVSPropertyOp21
 70
     1
102
RTVSPropertyOp22
 70
     1
102
RTVSPropertyOp23
 70
     1
102
RTVSPropertyOp24
 70
     1
102
RTVSPropertyOp25
 70
     1
102
RTVSPropertyOp26
 70
     1
102
RTVSPropertyOp27
 70
     1
102
RTVSPropertyOp28
 70
     1
102
RTVSPropertyOp29
 70
     1
102
RTVSPropertyOp30
 70
     1
102
RTVSPropertyOp31
 70
     1
102
RTVSPropertyOp32
 70
     1
  0
XRECORD
  5
E7D
102
{ACAD_REACTORS
330
E7C
102
}
330
E7C
100
AcDbXrecord
280
     1
102
RTVSPropertyOp0
 70
     1
102
RTVSPropertyOp1
 70
     1
102
RTVSPropertyOp2
 70
     1
102
RTVSPropertyOp3
 70
     1
102
RTVSPropertyOp4
 70
     1
102
RTVSPropertyOp5
 70
     1
102
RTVSPropertyOp6
 70
     1
102
RTVSPropertyOp7
 70
     1
102
RTVSPropertyOp8
 70
     1
102
RTVSPropertyOp9
 70
     1
102
RTVSPropertyOp10
 70
     1
102
RTVSPropertyOp11
 70
     1
102
RTVSPropertyOp12
 70
     1
102
RTVSPropertyOp13
 70
     1
102
RTVSPropertyOp14
 70
     1
102
RTVSPropertyOp15
 70
     1
102
RTVSPropertyOp16
 70
     1
102
RTVSPropertyOp17
 70
     1
102
RTVSPropertyOp18
 70
     1
102
RTVSPropertyOp19
 70
     1
102
RTVSPropertyOp20
 70
     1
102
RTVSPropertyOp21
 70
     1
102
RTVSPropertyOp22
 70
     1
102
RTVSPropertyOp23
 70
     1
102
RTVSPropertyOp24
 70
     1
102
RTVSPropertyOp25
 70
     1
102
RTVSPropertyOp26
 70
     1
102
RTVSPropertyOp27
 70
     1
102
RTVSPropertyOp28
 70
     1
102
RTVSPropertyOp29
 70
     1
102
RTVSPropertyOp30
 70
     1
102
RTVSPropertyOp31
 70
     1
102
RTVSPropertyOp32
 70
     1
  0
XRECORD
  5
E95
102
{ACAD_REACTORS
330
E94
102
}
330
E94
100
AcDbXrecord
280
     1
102
RTVSPropertyOp0
 70
     1
102
RTVSPropertyOp1
 70
     1
102
RTVSPropertyOp2
 70
     1
102
RTVSPropertyOp3
 70
     1
102
RTVSPropertyOp4
 70
     1
102
RTVSPropertyOp5
 70
     1
102
RTVSPropertyOp6
 70
     1
102
RTVSPropertyOp7
 70
     1
102
RTVSPropertyOp8
 70
     1
102
RTVSPropertyOp9
 70
     1
102
RTVSPropertyOp10
 70
     1
102
RTVSPropertyOp11
 70
     1
102
RTVSPropertyOp12
 70
     1
102
RTVSPropertyOp13
 70
     1
102
RTVSPropertyOp14
 70
     1
102
RTVSPropertyOp15
 70
     1
102
RTVSPropertyOp16
 70
     1
102
RTVSPropertyOp17
 70
     1
102
RTVSPropertyOp18
 70
     1
102
RTVSPropertyOp19
 70
     1
102
RTVSPropertyOp20
 70
     1
102
RTVSPropertyOp21
 70
     1
102
RTVSPropertyOp22
 70
     1
102
RTVSPropertyOp23
 70
     1
102
RTVSPropertyOp24
 70
     1
102
RTVSPropertyOp25
 70
     1
102
RTVSPropertyOp26
 70
     1
102
RTVSPropertyOp27
 70
     1
102
RTVSPropertyOp28
 70
     1
102
RTVSPropertyOp29
 70
     1
102
RTVSPropertyOp30
 70
     1
102
RTVSPropertyOp31
 70
     1
102
RTVSPropertyOp32
 70
     1
  0
ENDSEC
  0
EOF