0
SECTION
  2
HEADER
  9
$ACADVER
  1
AC1014
  9
$ACADMAINTVER
 70
     9
  9
$DWGCODEPAGE
  3
ANSI_1252
  9
$INSBASE
 10
0.0
 20
0.0
 30
0.0
  9
$EXTMIN
 10
0.0
 20
0.0
 30
0.0
  9
$EXTMAX
 10
32.80000199999999
 20
20.5
 30
0.0
  9
$LIMMIN
 10
0.0
 20
0.0
  9
$LIMMAX
 10
16.40000099999999
 20
10.25
  9
$ORTHOMODE
 70
     0
  9
$REGENMODE
 70
     1
  9
$FILLMODE
 70
     1
  9
$QTEXTMODE
 70
     0
  9
$MIRRTEXT
 70
     1
  9
$DRAGMODE
 70
     2
  9
$LTSCALE
 40
1.0
  9
$OSMODE
 70
    37
  9
$ATTMODE
 70
     1
  9
$TEXTSIZE
 40
0.2
  9
$TRACEWID
 40
0.05
  9
$TEXTSTYLE
  7
ROMANS
  9
$CLAYER
  8
0
  9
$CELTYPE
  6
BYLAYER
  9
$CECOLOR
 62
   256
  9
$CELTSCALE
 40
1.0
  9
$DELOBJ
 70
     1
  9
$DISPSILH
 70
     0
  9
$DIMSCALE
 40
0.0
  9
$DIMASZ
 40
0.125
  9
$DIMEXO
 40
0.0625
  9
$DIMDLI
 40
0.38
  9
$DIMRND
 40
0.01
  9
$DIMDLE
 40
0.0
  9
$DIMEXE
 40
0.0625
  9
$DIMTP
 40
0.0
  9
$DIMTM
 40
0.0
  9
$DIMTXT
 40
0.08
  9
$DIMCEN
 40
0.09
  9
$DIMTSZ
 40
0.0
  9
$DIMTOL
 70
     0
  9
$DIMLIM
 70
     0
  9
$DIMTIH
 70
     1
  9
$DIMTOH
 70
     1
  9
$DIMSE1
 70
     0
  9
$DIMSE2
 70
     0
  9
$DIMTAD
 70
     0
  9
$DIMZIN
 70
     4
  9
$DIMBLK
  1

  9
$DIMASO
 70
     1
  9
$DIMSHO
 70
     1
  9
$DIMPOST
  1

  9
$DIMAPOST
  1

  9
$DIMALT
 70
     0
  9
$DIMALTD
 70
     1
  9
$DIMALTF
 40
25.4
  9
$DIMLFAC
 40
1.0
  9
$DIMTOFL
 70
     0
  9
$DIMTVP
 40
0.0
  9
$DIMTIX
 70
     0
  9
$DIMSOXD
 70
     0
  9
$DIMSAH
 70
     0
  9
$DIMBLK1
  1

  9
$DIMBLK2
  1

  9
$DIMSTYLE
  2
SCHNEIDERELECTRIC
  9
$DIMCLRD
 70
   256
  9
$DIMCLRE
 70
   256
  9
$DIMCLRT
 70
   256
  9
$DIMTFAC
 40
1.0
  9
$DIMGAP
 40
0.04
  9
$DIMJUST
 70
     0
  9
$DIMSD1
 70
     0
  9
$DIMSD2
 70
     0
  9
$DIMTOLJ
 70
     1
  9
$DIMTZIN
 70
     0
  9
$DIMALTZ
 70
     0
  9
$DIMALTTZ
 70
     0
  9
$DIMFIT
 70
     3
  9
$DIMUPT
 70
     0
  9
$DIMUNIT
 70
     2
  9
$DIMDEC
 70
     2
  9
$DIMTDEC
 70
     2
  9
$DIMALTU
 70
     2
  9
$DIMALTTD
 70
     1
  9
$DIMTXSTY
  7
ROMANS
  9
$DIMAUNIT
 70
     0
  9
$LUNITS
 70
     2
  9
$LUPREC
 70
     4
  9
$SKETCHINC
 40
0.1
  9
$FILLETRAD
 40
0.5
  9
$AUNITS
 70
     0
  9
$AUPREC
 70
     0
  9
$MENU
  1
.
  9
$ELEVATION
 40
0.0
  9
$PELEVATION
 40
0.0
  9
$THICKNESS
 40
0.0
  9
$LIMCHECK
 70
     0
  9
$BLIPMODE
 70
     0
  9
$CHAMFERA
 40
0.5
  9
$CHAMFERB
 40
0.5
  9
$CHAMFERC
 40
1.0
  9
$CHAMFERD
 40
0.0
  9
$SKPOLY
 70
     0
  9
$TDCREATE
 40
2451764.493375243
  9
$TDUPDATE
 40
2451899.405298101
  9
$TDINDWG
 40
0.3861294213
  9
$TDUSRTIMER
 40
0.3861291898
  9
$USRTIMER
 70
     1
  9
$ANGBASE
 50
0.0
  9
$ANGDIR
 70
     0
  9
$PDMODE
 70
     0
  9
$PDSIZE
 40
0.0
  9
$PLINEWID
 40
0.0
  9
$COORDS
 70
     1
  9
$SPLFRAME
 70
     0
  9
$SPLINETYPE
 70
     6
  9
$SPLINESEGS
 70
     8
  9
$ATTDIA
 70
     0
  9
$ATTREQ
 70
     1
  9
$HANDLING
 70
-16383
  9
$HANDSEED
  5
B118
  9
$SURFTAB1
 70
     6
  9
$SURFTAB2
 70
     6
  9
$SURFTYPE
 70
     6
  9
$SURFU
 70
     6
  9
$SURFV
 70
     6
  9
$UCSNAME
  2

  9
$UCSORG
 10
0.0
 20
0.0
 30
0.0
  9
$UCSXDIR
 10
1.0
 20
0.0
 30
0.0
  9
$UCSYDIR
 10
0.0
 20
1.0
 30
0.0
  9
$PUCSNAME
  2

  9
$PUCSORG
 10
0.0
 20
0.0
 30
0.0
  9
$PUCSXDIR
 10
1.0
 20
0.0
 30
0.0
  9
$PUCSYDIR
 10
0.0
 20
1.0
 30
0.0
  9
$USERI1
 70
     0
  9
$USERI2
 70
     0
  9
$USERI3
 70
     0
  9
$USERI4
 70
     0
  9
$USERI5
 70
     0
  9
$USERR1
 40
0.0
  9
$USERR2
 40
0.0
  9
$USERR3
 40
0.0
  9
$USERR4
 40
0.0
  9
$USERR5
 40
0.0
  9
$WORLDVIEW
 70
     1
  9
$SHADEDGE
 70
     3
  9
$SHADEDIF
 70
    70
  9
$TILEMODE
 70
     1
  9
$MAXACTVP
 70
    48
  9
$PINSBASE
 10
0.0
 20
0.0
 30
0.0
  9
$PLIMCHECK
 70
     0
  9
$PEXTMIN
 10
0.0
 20
-0.1507193079929352
 30
0.0
  9
$PEXTMAX
 10
16.40000099999999
 20
10.25
 30
0.0
  9
$PLIMMIN
 10
-0.3022988315385811
 20
-0.4421500682141223
  9
$PLIMMAX
 10
16.69770068786963
 20
10.55784969148998
  9
$UNITMODE
 70
     0
  9
$VISRETAIN
 70
     1
  9
$PLINEGEN
 70
     0
  9
$PSLTSCALE
 70
     1
  9
$TREEDEPTH
 70
  3020
  9
$PICKSTYLE
 70
     1
  9
$CMLSTYLE
  2
STANDARD
  9
$CMLJUST
 70
     0
  9
$CMLSCALE
 40
1.0
  9
$PROXYGRAPHICS
 70
     1
  9
$MEASUREMENT
 70
     0
  0
ENDSEC
  0
SECTION
  2
CLASSES
  0
CLASS
  1
ACDBDICTIONARYWDFLT
  2
AcDbDictionaryWithDefault
  3
AutoCAD 2000
 90
        0
280
     0
281
     0
  0
CLASS
  1
ACDBPLACEHOLDER
  2
AcDbPlaceHolder
  3
AutoCAD 2000
 90
        0
280
     0
281
     0
  0
CLASS
  1
LAYOUT
  2
AcDbLayout
  3
AutoCAD 2000
 90
        0
280
     0
281
     0
  0
CLASS
  1
LONG_TRANSACTION
  2
AcDbLongTransaction
  3
AutoCAD 2000
 90
        0
280
     0
281
     0
  0
CLASS
  1
LWPOLYLINE
  2
AcDbPolyline
  3
AutoCAD 2000
 90
        0
280
     0
281
     1
  0
CLASS
  1
HATCH
  2
AcDbHatch
  3
AutoCAD 2000
 90
        0
280
     0
281
     1
  0
CLASS
  1
XRECORD
  2
AcDbXrecord
  3
AutoCAD 2000
 90
        0
280
     0
281
     0
  0
CLASS
  1
LONG_TRANSACTION
  2
AcDbLongTransaction
  3
AutoCAD 2000
 90
        0
280
     0
281
     0
  0
CLASS
  1
LWPOLYLINE
  2
AcDbPolyline
  3
AutoCAD 2000
 90
        0
280
     0
281
     1
  0
CLASS
  1
HATCH
  2
AcDbHatch
  3
AutoCAD 2000
 90
        0
280
     0
281
     1
  0
CLASS
  1
XRECORD
  2
AcDbXrecord
  3
AutoCAD 2000
 90
        0
280
     0
281
     0
  0
CLASS
  1
LONG_TRANSACTION
  2
AcDbLongTransaction
  3
AutoCAD 2000
 90
        0
280
     0
281
     0
  0
CLASS
  1
LWPOLYLINE
  2
AcDbPolyline
  3
AutoCAD 2000
 90
        0
280
     0
281
     1
  0
CLASS
  1
HATCH
  2
AcDbHatch
  3
AutoCAD 2000
 90
        0
280
     0
281
     1
  0
CLASS
  1
XRECORD
  2
AcDbXrecord
  3
AutoCAD 2000
 90
        0
280
     0
281
     0
  0
CLASS
  1
PLOTSETTINGS
  2
AcDbPlotSettings
  3
AutoCAD 2000
 90
        0
280
     0
281
     0
  0
CLASS
  1
ACME_DOCUMENT
  2
AcMeDbDoc
  3
AcMeServices
 90
        0
280
     0
281
     0
  0
CLASS
  1
AMGSETTINGSOBJ
  2
AmgSettingsObj
  3
"AcadM|Product Description: AutoCAD Mechanical 2000|Company: Autodesk"
 90
        0
280
     0
281
     0
  0
CLASS
  1
ACMESCOPE
  2
AcMeScope
  3
AcMeServices
 90
        0
280
     0
281
     0
  0
CLASS
  1
ACMECOMMANDHISTORY
  2
AcMeCommandHistory
  3
AcMeServices
 90
        0
280
     0
281
     0
  0
CLASS
  1
DICTIONARYVAR
  2
AcDbDictionaryVar
  3
AutoCAD 2000
 90
        0
280
     0
281
     0
  0
CLASS
  1
ACIMSYSVARMAN
  2
AcImSysVarManager
  3
AcMeServices
 90
        0
280
     0
281
     0
  0
CLASS
  1
ACIMREALSYSVAR
  2
AcImRealSysVar
  3
AcMeServices
 90
        0
280
     0
281
     0
  0
CLASS
  1
ACIMINTSYSVAR
  2
AcImIntSysVar
  3
AcMeServices
 90
        0
280
     0
281
     0
  0
CLASS
  1
ACMEDRAWINGMAN
  2
AcMeDrawingMan
  3
AcMeServices
 90
        0
280
     0
281
     0
  0
CLASS
  1
ACMEVIEW
  2
AcMeView
  3
AcMeServices
 90
        0
280
     0
281
     0
  0
CLASS
  1
ACDBENTITYCACHE
  2
AcMeEntityCache
  3
AcMeServices
 90
        0
280
     0
281
     0
  0
CLASS
  1
GSMANAGER
  2
AcMeGSManager
  3
AcMeServices
 90
        0
280
     0
281
     0
  0
CLASS
  1
AmdtInternalReactor
  2
AmdtInternalReactor
  3
AcMeServices
 90
        0
280
     0
281
     0
  0
CLASS
  1
ACMESTATEMGR
  2
AcMeStateMgr
  3
AcMeServices
 90
        0
280
     0
281
     0
  0
CLASS
  1
ACME_DATABASE
  2
AcMeDbDatabase
  3
AcMeServices
 90
        0
280
     0
281
     0
  0
CLASS
  1
ACRFINSADJUSTERMGR
  2
AcRfInsAdjusterMgr
  3
AcMeServices
 90
        0
280
     0
281
     0
  0
CLASS
  1
ACMDATADICTIONARY
  2
AcmDataDictionary
  3
"AcmSymBB|Product Description: AutoCAD Mechanical 2000|Company: Autodesk"
 90
        0
280
     0
281
     0
  0
CLASS
  1
ACMDATAENTRYBLOCK
  2
AcmDataEntryBlock
  3
"AcmSymBB|Product Description: AutoCAD Mechanical 2000|Company: Autodesk"
 90
        0
280
     0
281
     0
  0
CLASS
  1
AMGOBJPROPCFG
  2
AmgObjPropCfg
  3
"AmgLay|Product Description: AutoCAD Mechanical 2000|Company: Autodesk"
 90
        1
280
     0
281
     0
  0
CLASS
  1
ACAMGFILTERDAT
  2
AcAmgFilterDat
  3
"AcadM|Product Description: AutoCAD Mechanical 2000|Company: Autodesk"
 90
        0
280
     0
281
     0
  0
CLASS
  1
LAYER_INDEX
  2
AcDbLayerIndex
  3
AutoCAD 2000
 90
        0
280
     0
281
     0
  0
CLASS
  1
IDBUFFER
  2
AcDbIdBuffer
  3
AutoCAD 2000
 90
        0
280
     0
281
     0
  0
CLASS
  1
LONG_TRANSACTION
  2
AcDbLongTransaction
  3
AutoCAD 2000
 90
        0
280
     0
281
     0
  0
CLASS
  1
LWPOLYLINE
  2
AcDbPolyline
  3
AutoCAD 2000
 90
        0
280
     0
281
     1
  0
CLASS
  1
HATCH
  2
AcDbHatch
  3
AutoCAD 2000
 90
        0
280
     0
281
     1
  0
CLASS
  1
XRECORD
  2
AcDbXrecord
  3
AutoCAD 2000
 90
        0
280
     0
281
     0
  0
CLASS
  1
LONG_TRANSACTION
  2
AcDbLongTransaction
  3
AutoCAD 2000
 90
        0
280
     0
281
     0
  0
CLASS
  1
LWPOLYLINE
  2
AcDbPolyline
  3
AutoCAD 2000
 90
        0
280
     0
281
     1
  0
CLASS
  1
HATCH
  2
AcDbHatch
  3
AutoCAD 2000
 90
        0
280
     0
281
     1
  0
CLASS
  1
XRECORD
  2
AcDbXrecord
  3
AutoCAD 2000
 90
        0
280
     0
281
     0
  0
CLASS
  1
LONG_TRANSACTION
  2
AcDbLongTransaction
  3
AutoCAD 2000
 90
        0
280
     0
281
     0
  0
CLASS
  1
LWPOLYLINE
  2
AcDbPolyline
  3
AutoCAD 2000
 90
        0
280
     0
281
     1
  0
CLASS
  1
HATCH
  2
AcDbHatch
  3
AutoCAD 2000
 90
        0
280
     0
281
     1
  0
CLASS
  1
XRECORD
  2
AcDbXrecord
  3
AutoCAD 2000
 90
        0
280
     0
281
     0
  0
CLASS
  1
LONG_TRANSACTION
  2
AcDbLongTransaction
  3
AutoCAD 2000
 90
        0
280
     0
281
     0
  0
CLASS
  1
LWPOLYLINE
  2
AcDbPolyline
  3
AutoCAD 2000
 90
        0
280
     0
281
     1
  0
CLASS
  1
HATCH
  2
AcDbHatch
  3
AutoCAD 2000
 90
        0
280
     0
281
     1
  0
CLASS
  1
XRECORD
  2
AcDbXrecord
  3
AutoCAD 2000
 90
        0
280
     0
281
     0
  0
CLASS
  1
LONG_TRANSACTION
  2
AcDbLongTransaction
  3
AutoCAD 2000
 90
        0
280
     0
281
     0
  0
CLASS
  1
LWPOLYLINE
  2
AcDbPolyline
  3
AutoCAD 2000
 90
        0
280
     0
281
     1
  0
CLASS
  1
HATCH
  2
AcDbHatch
  3
AutoCAD 2000
 90
        0
280
     0
281
     1
  0
CLASS
  1
XRECORD
  2
AcDbXrecord
  3
AutoCAD 2000
 90
        0
280
     0
281
     0
  0
CLASS
  1
LONG_TRANSACTION
  2
AcDbLongTransaction
  3
AutoCAD 2000
 90
        0
280
     0
281
     0
  0
CLASS
  1
LWPOLYLINE
  2
AcDbPolyline
  3
AutoCAD 2000
 90
        0
280
     0
281
     1
  0
CLASS
  1
HATCH
  2
AcDbHatch
  3
AutoCAD 2000
 90
        0
280
     0
281
     1
  0
CLASS
  1
XRECORD
  2
AcDbXrecord
  3
AutoCAD 2000
 90
        0
280
     0
281
     0
  0
CLASS
  1
LONG_TRANSACTION
  2
AcDbLongTransaction
  3
AutoCAD 2000
 90
        0
280
     0
281
     0
  0
CLASS
  1
LWPOLYLINE
  2
AcDbPolyline
  3
AutoCAD 2000
 90
        0
280
     0
281
     1
  0
CLASS
  1
HATCH
  2
AcDbHatch
  3
AutoCAD 2000
 90
        0
280
     0
281
     1
  0
CLASS
  1
XRECORD
  2
AcDbXrecord
  3
AutoCAD 2000
 90
        0
280
     0
281
     0
  0
CLASS
  1
LONG_TRANSACTION
  2
AcDbLongTransaction
  3
AutoCAD 2000
 90
        0
280
     0
281
     0
  0
CLASS
  1
LWPOLYLINE
  2
AcDbPolyline
  3
AutoCAD 2000
 90
        0
280
     0
281
     1
  0
CLASS
  1
HATCH
  2
AcDbHatch
  3
AutoCAD 2000
 90
        0
280
     0
281
     1
  0
CLASS
  1
XRECORD
  2
AcDbXrecord
  3
AutoCAD 2000
 90
        0
280
     0
281
     0
  0
CLASS
  1
LONG_TRANSACTION
  2
AcDbLongTransaction
  3
AutoCAD 2000
 90
        0
280
     0
281
     0
  0
CLASS
  1
LWPOLYLINE
  2
AcDbPolyline
  3
AutoCAD 2000
 90
        0
280
     0
281
     1
  0
CLASS
  1
HATCH
  2
AcDbHatch
  3
AutoCAD 2000
 90
        0
280
     0
281
     1
  0
CLASS
  1
XRECORD
  2
AcDbXrecord
  3
AutoCAD 2000
 90
        0
280
     0
281
     0
  0
CLASS
  1
LONG_TRANSACTION
  2
AcDbLongTransaction
  3
AutoCAD 2000
 90
        0
280
     0
281
     0
  0
CLASS
  1
LWPOLYLINE
  2
AcDbPolyline
  3
AutoCAD 2000
 90
        0
280
     0
281
     1
  0
CLASS
  1
HATCH
  2
AcDbHatch
  3
AutoCAD 2000
 90
        0
280
     0
281
     1
  0
CLASS
  1
XRECORD
  2
AcDbXrecord
  3
AutoCAD 2000
 90
        0
280
     0
281
     0
  0
CLASS
  1
LONG_TRANSACTION
  2
AcDbLongTransaction
  3
AutoCAD 2000
 90
        0
280
     0
281
     0
  0
CLASS
  1
LWPOLYLINE
  2
AcDbPolyline
  3
AutoCAD 2000
 90
        0
280
     0
281
     1
  0
CLASS
  1
HATCH
  2
AcDbHatch
  3
AutoCAD 2000
 90
        0
280
     0
281
     1
  0
CLASS
  1
XRECORD
  2
AcDbXrecord
  3
AutoCAD 2000
 90
        0
280
     0
281
     0
  0
CLASS
  1
LONG_TRANSACTION
  2
AcDbLongTransaction
  3
AutoCAD 2000
 90
        0
280
     0
281
     0
  0
CLASS
  1
LWPOLYLINE
  2
AcDbPolyline
  3
AutoCAD 2000
 90
        0
280
     0
281
     1
  0
CLASS
  1
HATCH
  2
AcDbHatch
  3
AutoCAD 2000
 90
        0
280
     0
281
     1
  0
CLASS
  1
XRECORD
  2
AcDbXrecord
  3
AutoCAD 2000
 90
        0
280
     0
281
     0
  0
CLASS
  1
LONG_TRANSACTION
  2
AcDbLongTransaction
  3
AutoCAD 2000
 90
        0
280
     0
281
     0
  0
CLASS
  1
LWPOLYLINE
  2
AcDbPolyline
  3
AutoCAD 2000
 90
        0
280
     0
281
     1
  0
CLASS
  1
HATCH
  2
AcDbHatch
  3
AutoCAD 2000
 90
        0
280
     0
281
     1
  0
CLASS
  1
XRECORD
  2
AcDbXrecord
  3
AutoCAD 2000
 90
        0
280
     0
281
     0
  0
CLASS
  1
LONG_TRANSACTION
  2
AcDbLongTransaction
  3
AutoCAD 2000
 90
        0
280
     0
281
     0
  0
CLASS
  1
LWPOLYLINE
  2
AcDbPolyline
  3
AutoCAD 2000
 90
        0
280
     0
281
     1
  0
CLASS
  1
HATCH
  2
AcDbHatch
  3
AutoCAD 2000
 90
        0
280
     0
281
     1
  0
CLASS
  1
XRECORD
  2
AcDbXrecord
  3
AutoCAD 2000
 90
        0
280
     0
281
     0
  0
CLASS
  1
LONG_TRANSACTION
  2
AcDbLongTransaction
  3
AutoCAD 2000
 90
        0
280
     0
281
     0
  0
CLASS
  1
LWPOLYLINE
  2
AcDbPolyline
  3
AutoCAD 2000
 90
        0
280
     0
281
     1
  0
CLASS
  1
HATCH
  2
AcDbHatch
  3
AutoCAD 2000
 90
        0
280
     0
281
     1
  0
CLASS
  1
XRECORD
  2
AcDbXrecord
  3
AutoCAD 2000
 90
        0
280
     0
281
     0
  0
CLASS
  1
LONG_TRANSACTION
  2
AcDbLongTransaction
  3
AutoCAD 2000
 90
        0
280
     0
281
     0
  0
CLASS
  1
LWPOLYLINE
  2
AcDbPolyline
  3
AutoCAD 2000
 90
        0
280
     0
281
     1
  0
CLASS
  1
HATCH
  2
AcDbHatch
  3
AutoCAD 2000
 90
        0
280
     0
281
     1
  0
CLASS
  1
XRECORD
  2
AcDbXrecord
  3
AutoCAD 2000
 90
        0
280
     0
281
     0
  0
CLASS
  1
LONG_TRANSACTION
  2
AcDbLongTransaction
  3
AutoCAD 2000
 90
        0
280
     0
281
     0
  0
CLASS
  1
LWPOLYLINE
  2
AcDbPolyline
  3
AutoCAD 2000
 90
        0
280
     0
281
     1
  0
CLASS
  1
HATCH
  2
AcDbHatch
  3
AutoCAD 2000
 90
        0
280
     0
281
     1
  0
CLASS
  1
XRECORD
  2
AcDbXrecord
  3
AutoCAD 2000
 90
        0
280
     0
281
     0
  0
ENDSEC
  0
SECTION
  2
TABLES
  0
TABLE
  2
VPORT
  5
8
330
0
100
AcDbSymbolTable
 70
     2
  0
VPORT
  5
B0B7
330
8
100
AcDbSymbolTableRecord
100
AcDbViewportTableRecord
  2
*ACTIVE
 70
     0
 10
0.0
 20
0.0
 11
1.0
 21
1.0
 12
16.40000115274157
 22
10.95946020294905
 13
0.0
 23
0.0
 14
0.5
 24
0.5
 15
0.5
 25
0.5
 16
0.0
 26
0.0
 36
1.0
 17
0.0
 27
0.0
 37
0.0
 40
22.08788418756158
 41
1.550724637681159
 42
50.0
 43
0.0
 44
0.0
 50
0.0
 51
0.0
 71
     0
 72
   100
 73
     1
 74
     2
 75
     0
 76
     0
 77
     0
 78
     0
  0
ENDTAB
  0
TABLE
  2
LTYPE
  5
5
330
0
100
AcDbSymbolTable
 70
     6
  0
LTYPE
  5
14
330
5
100
AcDbSymbolTableRecord
100
AcDbLinetypeTableRecord
  2
BYBLOCK
 70
     0
  3

 72
    65
 73
     0
 40
0.0
  0
LTYPE
  5
15
330
5
100
AcDbSymbolTableRecord
100
AcDbLinetypeTableRecord
  2
BYLAYER
 70
     0
  3

 72
    65
 73
     0
 40
0.0
  0
LTYPE
  5
16
330
5
100
AcDbSymbolTableRecord
100
AcDbLinetypeTableRecord
  2
CONTINUOUS
 70
     0
  3
Solid line
 72
    65
 73
     0
 40
0.0
  0
LTYPE
  5
3D
330
5
100
AcDbSymbolTableRecord
100
AcDbLinetypeTableRecord
  2
CENTER2
 70
     0
  3
Center (.5x) ___ _ ___ _ ___ _ ___ _ ___ _ ___
 72
    65
 73
     4
 40
1.125
 49
0.75
 74
     0
 49
-0.125
 74
     0
 49
0.125
 74
     0
 49
-0.125
 74
     0
  0
LTYPE
  5
3E
330
5
100
AcDbSymbolTableRecord
100
AcDbLinetypeTableRecord
  2
DASHDOT2
 70
     0
  3
Dash dot (.5x) _._._._._._._._._._._._._._._.
 72
    65
 73
     4
 40
0.5
 49
0.25
 74
     0
 49
-0.125
 74
     0
 49
0.0
 74
     0
 49
-0.125
 74
     0
  0
LTYPE
  5
3F
330
5
100
AcDbSymbolTableRecord
100
AcDbLinetypeTableRecord
  2
DASHED2
 70
     0
  3
Dashed (.5x) _ _ _ _ _ _ _ _ _ _ _ _ _ _ _ _ _
 72
    65
 73
     2
 40
0.375
 49
0.25
 74
     0
 49
-0.125
 74
     0
  0
LTYPE
  5
40
330
5
100
AcDbSymbolTableRecord
100
AcDbLinetypeTableRecord
  2
HIDDEN2
 70
     0
  3
Hidden (.5x) _ _ _ _ _ _ _ _ _ _ _ _ _ _ _ _ _
 72
    65
 73
     2
 40
0.1875
 49
0.125
 74
     0
 49
-0.0625
 74
     0
  0
LTYPE
  5
41
330
5
100
AcDbSymbolTableRecord
100
AcDbLinetypeTableRecord
  2
PHANTOM2
 70
     0
  3
Phantom (.5x) ___ _ _ ___ _ _ ___ _ _ ___ _ _
 72
    65
 73
     6
 40
1.25
 49
0.625
 74
     0
 49
-0.125
 74
     0
 49
0.125
 74
     0
 49
-0.125
 74
     0
 49
0.125
 74
     0
 49
-0.125
 74
     0
  0
ENDTAB
  0
TABLE
  2
LAYER
  5
2
330
0
100
AcDbSymbolTable
 70
    26
  0
LAYER
  5
10
330
2
100
AcDbSymbolTableRecord
100
AcDbLayerTableRecord
  2
0
 70
     0
 62
     7
  6
CONTINUOUS
  0
LAYER
  5
42
330
2
100
AcDbSymbolTableRecord
100
AcDbLayerTableRecord
  2
BLOCKS
 70
     0
 62
     7
  6
CONTINUOUS
  0
LAYER
  5
43
330
2
100
AcDbSymbolTableRecord
100
AcDbLayerTableRecord
  2
CENTER1
 70
     0
 62
     2
  6
CENTER2
  0
LAYER
  5
44
330
2
100
AcDbSymbolTableRecord
100
AcDbLayerTableRecord
  2
CENTER2
 70
     0
 62
    50
  6
CENTER2
  0
LAYER
  5
45
330
2
100
AcDbSymbolTableRecord
100
AcDbLayerTableRecord
  2
CENTER3
 70
     0
 62
    51
  6
CENTER2
  0
LAYER
  5
46
330
2
100
AcDbSymbolTableRecord
100
AcDbLayerTableRecord
  2
CONSTRUCTION
 70
     0
 62
   241
  6
DASHED2
  0
LAYER
  5
47
330
2
100
AcDbSymbolTableRecord
100
AcDbLayerTableRecord
  2
CONTINUOUS1
 70
     0
 62
     7
  6
CONTINUOUS
  0
LAYER
  5
48
330
2
100
AcDbSymbolTableRecord
100
AcDbLayerTableRecord
  2
CONTINUOUS2
 70
     0
 62
   254
  6
CONTINUOUS
  0
LAYER
  5
49
330
2
100
AcDbSymbolTableRecord
100
AcDbLayerTableRecord
  2
CONTINUOUS3
 70
     0
 62
   253
  6
CONTINUOUS
  0
LAYER
  5
4A
330
2
100
AcDbSymbolTableRecord
100
AcDbLayerTableRecord
  2
DASHDOT1
 70
     0
 62
     1
  6
DASHDOT2
  0
LAYER
  5
4B
330
2
100
AcDbSymbolTableRecord
100
AcDbLayerTableRecord
  2
DASHDOT2
 70
     0
 62
    10
  6
DASHDOT2
  0
LAYER
  5
4C
330
2
100
AcDbSymbolTableRecord
100
AcDbLayerTableRecord
  2
DASHDOT3
 70
     0
 62
    12
  6
DASHDOT2
  0
LAYER
  5
4D
330
2
100
AcDbSymbolTableRecord
100
AcDbLayerTableRecord
  2
DIM
 70
     0
 62
     2
  6
CONTINUOUS
  0
LAYER
  5
4E
330
2
100
AcDbSymbolTableRecord
100
AcDbLayerTableRecord
  2
HIDDEN1
 70
     0
 62
     5
  6
HIDDEN2
  0
LAYER
  5
4F
330
2
100
AcDbSymbolTableRecord
100
AcDbLayerTableRecord
  2
HIDDEN2
 70
     0
 62
   160
  6
HIDDEN2
  0
LAYER
  5
50
330
2
100
AcDbSymbolTableRecord
100
AcDbLayerTableRecord
  2
HIDDEN3
 70
     0
 62
   162
  6
HIDDEN2
  0
LAYER
  5
52
330
2
100
AcDbSymbolTableRecord
100
AcDbLayerTableRecord
  2
PHANTOM1
 70
     0
 62
     6
  6
PHANTOM2
  0
LAYER
  5
53
330
2
100
AcDbSymbolTableRecord
100
AcDbLayerTableRecord
  2
PHANTOM2
 70
     0
 62
   210
  6
PHANTOM2
  0
LAYER
  5
54
330
2
100
AcDbSymbolTableRecord
100
AcDbLayerTableRecord
  2
PHANTOM3
 70
     0
 62
   212
  6
PHANTOM2
  0
LAYER
  5
55
330
2
100
AcDbSymbolTableRecord
100
AcDbLayerTableRecord
  2
TEXT1
 70
     0
 62
     3
  6
CONTINUOUS
  0
LAYER
  5
56
330
2
100
AcDbSymbolTableRecord
100
AcDbLayerTableRecord
  2
TEXT2
 70
     0
 62
    80
  6
CONTINUOUS
  0
LAYER
  5
57
330
2
100
AcDbSymbolTableRecord
100
AcDbLayerTableRecord
  2
TEXT3
 70
     0
 62
    82
  6
CONTINUOUS
  0
LAYER
  5
58
330
2
100
AcDbSymbolTableRecord
100
AcDbLayerTableRecord
  2
TITLEBLOCK
 70
     0
 62
     9
  6
CONTINUOUS
  0
LAYER
  5
59
330
2
100
AcDbSymbolTableRecord
100
AcDbLayerTableRecord
  2
VIEWPORT
 70
     0
 62
     9
  6
CONTINUOUS
  0
LAYER
  5
FCC
330
2
100
AcDbSymbolTableRecord
100
AcDbLayerTableRecord
  2
DEFPOINTS
 70
     0
 62
     4
  6
CONTINUOUS
  0
LAYER
  5
FD2
330
2
100
AcDbSymbolTableRecord
100
AcDbLayerTableRecord
  2
REFERENCE
 70
     0
 62
     2
  6
CONTINUOUS
  0
ENDTAB
  0
TABLE
  2
STYLE
  5
3
330
0
100
AcDbSymbolTable
 70
     5
  0
STYLE
  5
11
330
3
100
AcDbSymbolTableRecord
100
AcDbTextStyleTableRecord
  2
STANDARD
 70
     0
 40
0.0
 41
1.0
 50
0.0
 71
     0
 42
0.2
  3
txt
  4

  0
STYLE
  5
36
330
3
100
AcDbSymbolTableRecord
100
AcDbTextStyleTableRecord
  2
ROMANS
 70
     0
 40
0.0
 41
1.0
 50
0.0
 71
     0
 42
0.2
  3
romans.shx
  4

  0
STYLE
  5
3C
330
3
100
AcDbSymbolTableRecord
100
AcDbTextStyleTableRecord
  2

 70
     1
 40
0.0
 41
1.0
 50
0.0
 71
     0
 42
0.2
  3
ltypeshp.shx
  4

  0
STYLE
  5
6CC
330
3
100
AcDbSymbolTableRecord
100
AcDbTextStyleTableRecord
  2
M_STANDARD
 70
     0
 40
0.0
 41
0.8
 50
0.0
 71
     0
 42
0.0
  3
MEDUSA.SHX
  4

  0
STYLE
  5
D6F
330
3
100
AcDbSymbolTableRecord
100
AcDbTextStyleTableRecord
  2
SIMPLEX
 70
     0
 40
0.0
 41
1.0
 50
0.0
 71
     0
 42
0.25
  3
SIMPLEX.shx
  4

  0
ENDTAB
  0
TABLE
  2
VIEW
  5
6
330
0
100
AcDbSymbolTable
 70
     0
  0
ENDTAB
  0
TABLE
  2
UCS
  5
7
330
0
100
AcDbSymbolTable
 70
     0
  0
ENDTAB
  0
TABLE
  2
APPID
  5
9
330
0
100
AcDbSymbolTable
 70
    11
  0
APPID
  5
12
330
9
100
AcDbSymbolTableRecord
100
AcDbRegAppTableRecord
  2
ACAD
 70
     0
  0
APPID
  5
6B
330
9
100
AcDbSymbolTableRecord
100
AcDbRegAppTableRecord
  2
DCO15
 70
     0
  0
APPID
  5
370
330
9
100
AcDbSymbolTableRecord
100
AcDbRegAppTableRecord
  2
MCAD_NO_VIS
 70
     0
  0
APPID
  5
371
330
9
100
AcDbSymbolTableRecord
100
AcDbRegAppTableRecord
  2
ACAD_TEMP_GRAPHIC
 70
     0
  0
APPID
  5
387
330
9
100
AcDbSymbolTableRecord
100
AcDbRegAppTableRecord
  2
GENIUS_GENSCREG_15
 70
     0
  0
APPID
  5
389
330
9
100
AcDbSymbolTableRecord
100
AcDbRegAppTableRecord
  2
GENIUS_GENODEF_13
 70
     0
  0
APPID
  5
38A
330
9
100
AcDbSymbolTableRecord
100
AcDbRegAppTableRecord
  2
GENIUS_GENOBJ-N-SDF_13
 70
     0
  0
APPID
  5
38B
330
9
100
AcDbSymbolTableRecord
100
AcDbRegAppTableRecord
  2
GENIUS_GENOENT_13
 70
     0
  0
APPID
  5
38C
330
9
100
AcDbSymbolTableRecord
100
AcDbRegAppTableRecord
  2
GENIUS_GENOREF_13
 70
     0
  0
APPID
  5
38D
330
9
100
AcDbSymbolTableRecord
100
AcDbRegAppTableRecord
  2
GENIUS_GENOLIS_13
 70
     0
  0
APPID
  5
6CE
330
9
100
AcDbSymbolTableRecord
100
AcDbRegAppTableRecord
  2
MED_PRIMTYPE
 70
     0
  0
ENDTAB
  0
TABLE
  2
DIMSTYLE
  5
A
330
0
100
AcDbSymbolTable
 70
     1
  0
DIMSTYLE
105
35
102
{ACAD_REACTORS
330
9B0B
330
9B65
330
9B66
330
9B67
330
9B86
330
9B87
330
9B88
330
9ED3
330
9ED4
330
9ED5
330
9ED6
330
9ED9
330
9EDA
330
9EDB
330
9EDC
330
9EDD
330
9EDE
330
9EDF
330
9EE0
330
9EE1
330
A292
102
}
330
A
100
AcDbSymbolTableRecord
100
AcDbDimStyleTableRecord
  2
SCHNEIDERELECTRIC
 70
     0
  3

  4

  5

  6

  7

 40
0.0
 41
0.125
 42
0.0625
 43
0.38
 44
0.0625
 45
0.01
 46
0.0
 47
0.0
 48
0.0
140
0.08
141
0.09
142
0.0
143
25.4
144
1.0
145
0.0
146
1.0
147
0.04
 71
     0
 72
     0
 73
     1
 74
     1
 75
     0
 76
     0
 77
     0
 78
     4
170
     0
171
     1
172
     0
173
     0
174
     0
175
     0
176
   256
177
   256
178
   256
270
     2
271
     2
272
     2
273
     2
274
     1
340
36
275
     0
280
     0
281
     0
282
     0
283
     1
284
     0
285
     0
286
     0
287
     3
288
     0
  0
ENDTAB
  0
TABLE
  2
BLOCK_RECORD
  5
1
330
0
100
AcDbSymbolTable
 70
    25
  0
BLOCK_RECORD
  5
1F
102
{ACAD_XDICTIONARY
360
73
102
}
330
1
100
AcDbSymbolTableRecord
100
AcDbBlockTableRecord
  2
*MODEL_SPACE
  0
BLOCK_RECORD
  5
1B
102
{ACAD_XDICTIONARY
360
75
102
}
330
1
100
AcDbSymbolTableRecord
100
AcDbBlockTableRecord
  2
*PAPER_SPACE
  0
BLOCK_RECORD
  5
783
330
1
100
AcDbSymbolTableRecord
100
AcDbBlockTableRecord
  2
NEWLAYERS
1001
ACAD
1000
DesignCenter Data
1002
{
1070
     1
1070
     1
1002
}
  0
BLOCK_RECORD
  5
841
330
1
100
AcDbSymbolTableRecord
100
AcDbBlockTableRecord
  2
LOGO-PAD
1001
ACAD
1000
DesignCenter Data
1002
{
1070
     1
1070
     1
1002
}
  0
BLOCK_RECORD
  5
AE5
330
1
100
AcDbSymbolTableRecord
100
AcDbBlockTableRecord
  2
TITLE-PAD
1001
ACAD
1000
DesignCenter Data
1002
{
1070
     1
1070
     1
1002
}
  0
BLOCK_RECORD
  5
E3C
330
1
100
AcDbSymbolTableRecord
100
AcDbBlockTableRecord
  2
REF2
  0
BLOCK_RECORD
  5
A293
330
1
100
AcDbSymbolTableRecord
100
AcDbBlockTableRecord
  2
*D4
  0
BLOCK_RECORD
  5
A2A0
330
1
100
AcDbSymbolTableRecord
100
AcDbBlockTableRecord
  2
*D5
  0
BLOCK_RECORD
  5
A2AE
330
1
100
AcDbSymbolTableRecord
100
AcDbBlockTableRecord
  2
*D6
  0
BLOCK_RECORD
  5
A2BB
330
1
100
AcDbSymbolTableRecord
100
AcDbBlockTableRecord
  2
*D7
  0
BLOCK_RECORD
  5
A2C8
330
1
100
AcDbSymbolTableRecord
100
AcDbBlockTableRecord
  2
*D8
  0
BLOCK_RECORD
  5
A2D5
330
1
100
AcDbSymbolTableRecord
100
AcDbBlockTableRecord
  2
*D9
  0
BLOCK_RECORD
  5
A2E2
330
1
100
AcDbSymbolTableRecord
100
AcDbBlockTableRecord
  2
*D10
  0
BLOCK_RECORD
  5
A2EF
330
1
100
AcDbSymbolTableRecord
100
AcDbBlockTableRecord
  2
*D11
  0
BLOCK_RECORD
  5
A2FC
330
1
100
AcDbSymbolTableRecord
100
AcDbBlockTableRecord
  2
*D12
  0
BLOCK_RECORD
  5
A30A
330
1
100
AcDbSymbolTableRecord
100
AcDbBlockTableRecord
  2
*D13
  0
BLOCK_RECORD
  5
A317
330
1
100
AcDbSymbolTableRecord
100
AcDbBlockTableRecord
  2
*D14
  0
BLOCK_RECORD
  5
A324
330
1
100
AcDbSymbolTableRecord
100
AcDbBlockTableRecord
  2
*D15
  0
BLOCK_RECORD
  5
A331
330
1
100
AcDbSymbolTableRecord
100
AcDbBlockTableRecord
  2
*D16
  0
BLOCK_RECORD
  5
A33E
330
1
100
AcDbSymbolTableRecord
100
AcDbBlockTableRecord
  2
*D17
  0
BLOCK_RECORD
  5
A34B
330
1
100
AcDbSymbolTableRecord
100
AcDbBlockTableRecord
  2
*D18
  0
BLOCK_RECORD
  5
A358
330
1
100
AcDbSymbolTableRecord
100
AcDbBlockTableRecord
  2
*D19
  0
BLOCK_RECORD
  5
A365
330
1
100
AcDbSymbolTableRecord
100
AcDbBlockTableRecord
  2
*D20
  0
BLOCK_RECORD
  5
A372
330
1
100
AcDbSymbolTableRecord
100
AcDbBlockTableRecord
  2
*D21
  0
BLOCK_RECORD
  5
A37F
330
1
100
AcDbSymbolTableRecord
100
AcDbBlockTableRecord
  2
*D22
  0
BLOCK_RECORD
  5
A38C
330
1
100
AcDbSymbolTableRecord
100
AcDbBlockTableRecord
  2
*D23
  0
BLOCK_RECORD
  5
A399
330
1
100
AcDbSymbolTableRecord
100
AcDbBlockTableRecord
  2
*D24
  0
ENDTAB
  0
ENDSEC
  0
SECTION
  2
BLOCKS
  0
BLOCK
  5
20
330
1F
100
AcDbEntity
  8
0
100
AcDbBlockBegin
  2
*MODEL_SPACE
 70
     0
 10
0.0
 20
0.0
 30
0.0
  3
*MODEL_SPACE
  1

  0
ENDBLK
  5
21
330
1F
100
AcDbEntity
  8
0
100
AcDbBlockEnd
  0
BLOCK
  5
1C
330
1B
100
AcDbEntity
 67
     1
  8
0
100
AcDbBlockBegin
  2
*PAPER_SPACE
 70
     0
 10
0.0
 20
0.0
 30
0.0
  3
*PAPER_SPACE
  1

  0
ENDBLK
  5
1D
330
1B
100
AcDbEntity
 67
     1
  8
0
100
AcDbBlockEnd
  0
BLOCK
  5
79C
330
783
100
AcDbEntity
  8
0
100
AcDbBlockBegin
  2
NEWLAYERS
 70
     0
 10
0.0
 20
0.0
 30
0.0
  3
NEWLAYERS
  1

  0
LINE
  5
784
330
783
100
AcDbEntity
  8
PHANTOM1
100
AcDbLine
 10
0.264152010466205
 20
0.3394492053544127
 30
0.0
 11
0.264152010466205
 21
0.1923545555598593
 31
0.0
  0
LINE
  5
785
330
783
100
AcDbEntity
  8
PHANTOM2
100
AcDbLine
 10
0.3018880119612959
 20
0.3394492053544127
 30
0.0
 11
0.3018880119612959
 21
0.1923545555598593
 31
0.0
  0
LINE
  5
786
330
783
100
AcDbEntity
  8
PHANTOM3
100
AcDbLine
 10
0.3396240134565005
 20
0.3394492053544127
 30
0.0
 11
0.3396240134565005
 21
0.1923545555598593
 31
0.0
  0
LINE
  5
787
330
783
100
AcDbEntity
  8
DASHDOT2
100
AcDbLine
 10
0.0
 20
0.3394492053544127
 30
0.0
 11
0.0
 21
0.1923545555598593
 31
0.0
  0
LINE
  5
788
330
783
100
AcDbEntity
  8
DASHDOT3
100
AcDbLine
 10
0.0377360014952046
 20
0.3394492053544127
 30
0.0
 11
0.0377360014952046
 21
0.1923545555598593
 31
0.0
  0
LINE
  5
789
330
783
100
AcDbEntity
  8
DIM
100
AcDbLine
 10
0.0754720029902956
 20
0.3394492053544127
 30
0.0
 11
0.0754720029902956
 21
0.1923545555598593
 31
0.0
  0
LINE
  5
78A
330
783
100
AcDbEntity
  8
HIDDEN1
100
AcDbLine
 10
0.1132080044855002
 20
0.3394492053544127
 30
0.0
 11
0.1132080044855002
 21
0.1923545555598593
 31
0.0
  0
LINE
  5
78B
330
783
100
AcDbEntity
  8
HIDDEN2
100
AcDbLine
 10
0.1509440059807048
 20
0.3394492053544127
 30
0.0
 11
0.1509440059807048
 21
0.1923545555598593
 31
0.0
  0
LINE
  5
78C
330
783
100
AcDbEntity
  8
HIDDEN3
100
AcDbLine
 10
0.1886800074757957
 20
0.3394492053544127
 30
0.0
 11
0.1886800074757957
 21
0.1923545555598593
 31
0.0
  0
LINE
  5
78D
330
783
100
AcDbEntity
  8
TEXT1
100
AcDbLine
 10
0.0
 20
0.1470946497945533
 30
0.0
 11
0.0
 21
0.0
 31
0.0
  0
LINE
  5
78E
330
783
100
AcDbEntity
  8
TEXT2
100
AcDbLine
 10
0.0377360014952046
 20
0.1470946497945533
 30
0.0
 11
0.0377360014952046
 21
0.0
 31
0.0
  0
LINE
  5
78F
330
783
100
AcDbEntity
  8
TEXT3
100
AcDbLine
 10
0.0754720029902956
 20
0.1470946497945533
 30
0.0
 11
0.0754720029902956
 21
0.0
 31
0.0
  0
LINE
  5
790
330
783
100
AcDbEntity
  8
TITLEBLOCK
100
AcDbLine
 10
0.1132080044855002
 20
0.1470946497945533
 30
0.0
 11
0.1132080044855002
 21
0.0
 31
0.0
  0
LINE
  5
791
330
783
100
AcDbEntity
  8
VIEWPORT
100
AcDbLine
 10
0.1509440059807048
 20
0.1470946497945533
 30
0.0
 11
0.1509440059807048
 21
0.0
 31
0.0
  0
LINE
  5
792
330
783
100
AcDbEntity
  8
BLOCKS
100
AcDbLine
 10
0.0377360014952046
 20
0.5318037609142721
 30
0.0
 11
0.0377360014952046
 21
0.3847091111197187
 31
0.0
  0
LINE
  5
793
330
783
100
AcDbEntity
  8
0
100
AcDbLine
 10
0.0
 20
0.5318037609142721
 30
0.0
 11
0.0
 21
0.3847091111197187
 31
0.0
  0
LINE
  5
794
330
783
100
AcDbEntity
  8
CENTER1
100
AcDbLine
 10
0.0754720029902956
 20
0.5318037609142721
 30
0.0
 11
0.0754720029902956
 21
0.3847091111197187
 31
0.0
  0
LINE
  5
795
330
783
100
AcDbEntity
  8
CENTER2
100
AcDbLine
 10
0.1132080044855002
 20
0.5318037609142721
 30
0.0
 11
0.1132080044855002
 21
0.3847091111197187
 31
0.0
  0
LINE
  5
796
330
783
100
AcDbEntity
  8
CENTER3
100
AcDbLine
 10
0.1509440059807048
 20
0.5318037609142721
 30
0.0
 11
0.1509440059807048
 21
0.3847091111197187
 31
0.0
  0
LINE
  5
797
330
783
100
AcDbEntity
  8
CONSTRUCTION
100
AcDbLine
 10
0.1886800074757957
 20
0.5318037609142721
 30
0.0
 11
0.1886800074757957
 21
0.3847091111197187
 31
0.0
  0
LINE
  5
798
330
783
100
AcDbEntity
  8
CONTINUOUS1
100
AcDbLine
 10
0.2264160089710003
 20
0.5318037609142721
 30
0.0
 11
0.2264160089710003
 21
0.3847091111197187
 31
0.0
  0
LINE
  5
799
330
783
100
AcDbEntity
  8
CONTINUOUS2
100
AcDbLine
 10
0.264152010466205
 20
0.5318037609142721
 30
0.0
 11
0.264152010466205
 21
0.3847091111197187
 31
0.0
  0
LINE
  5
79A
330
783
100
AcDbEntity
  8
CONTINUOUS3
100
AcDbLine
 10
0.3018880119612959
 20
0.5318037609142721
 30
0.0
 11
0.3018880119612959
 21
0.3847091111197187
 31
0.0
  0
LINE
  5
79B
330
783
100
AcDbEntity
  8
DASHDOT1
100
AcDbLine
 10
0.3396240134565005
 20
0.5318037609142721
 30
0.0
 11
0.3396240134565005
 21
0.3847091111197187
 31
0.0
  0
ENDBLK
  5
79D
330
783
100
AcDbEntity
  8
0
100
AcDbBlockEnd
  0
BLOCK
  5
852
330
841
100
AcDbEntity
  8
0
100
AcDbBlockBegin
  2
LOGO-PAD
 70
     0
 10
0.0
 20
0.0
 30
0.0
  3
LOGO-PAD
  1

  0
HATCH
  5
842
330
841
100
AcDbEntity
  8
TITLEBLOCK
 62
     0
100
AcDbHatch
 10
0.0
 20
0.0
 30
0.0
210
0.0
220
0.0
230
1.0
  2
SOLID
 70
     1
 71
     0
 91
        2
 92
        1
 93
       11
 72
     2
 10
1.203771209334867
 20
0.3650136751459491
 40
0.021562648149145
 50
90.00000747299615
 51
179.9997683268519
 73
     1
 72
     1
 10
1.182208561185898
 20
0.3650137623336376
 11
1.182208392435807
 21
0.2795138227272444
 72
     2
 10
1.203771079023129
 20
0.2795136821032751
 40
0.0215626865877801
 50
179.9996263378447
 51
269.9998903896797
 73
     1
 72
     1
 10
1.203771037772394
 20
0.2579509955155343
 11
1.330521045577125
 21
0.2579511736405264
 72
     2
 10
1.330521265257171
 20
0.2795136382789064
 40
0.021562464639499
 50
269.9994162661957
 51
311.7040125634689
 73
     1
 72
     1
 10
1.344866398698837
 20
0.2634152834601535
 11
1.352083334663557
 21
0.2579511736405264
 72
     1
 10
1.352083334663557
 20
0.2579511736405264
 11
1.365099386916806
 21
0.2751416404960081
 72
     1
 10
1.365099386916806
 20
0.2751416404960081
 11
1.352083522163621
 21
0.284997066934386
 72
     1
 10
1.352083522163621
 20
0.284997066934386
 11
1.352083690913712
 21
0.3650136723335662
 72
     2
 10
1.330521042764654
 20
0.3650136751460369
 40
0.0215626481490576
 50
359.9999925267666
 51
449.9999925267678
 73
     1
 72
     1
 10
1.330521045577125
 20
0.3865763232950938
 11
1.203771206522485
 21
0.3865763232950938
 97
        0
 92
       16
 93
       10
 72
     2
 10
1.21455271481628
 20
0.3542325202904111
 40
0.0107811520434708
 50
90.00043844291294
 51
179.9999701074038
 73
     1
 72
     1
 10
1.203771562772811
 20
0.3542325259151993
 11
1.203771562772811
 21
0.2902950591455122
 72
     2
 10
1.214552849813946
 20
0.2902948416431456
 40
0.0107812870433294
 50
179.9988441113203
 51
269.9988441346395
 73
     1
 72
     1
 10
1.214552632315967
 20
0.2795135546020104
 11
1.323606134809704
 21
0.2795135546020104
 72
     1
 10
1.323606134809704
 20
0.2795135546020104
 11
1.280867956889135
 21
0.311873265117333
 72
     1
 10
1.280867956889135
 20
0.311873265117333
 11
1.293884009142384
 21
0.3290635557226322
 72
     1
 10
1.293884009142384
 20
0.3290635557226322
 11
1.330521045577125
 21
0.3013240413506308
 72
     1
 10
1.330521045577125
 20
0.3013240413506308
 11
1.330521045577125
 21
0.3542324377902786
 72
     2
 10
1.319739809158772
 20
0.3542324359152127
 40
0.0107812364183532
 50
0.0000099648460607
 51
90.00000996484372
 73
     1
 72
     1
 10
1.319739807283706
 20
0.3650136723335662
 11
1.214552632315967
 21
0.3650136723335662
 97
        0
 75
     0
 76
     1
 98
        1
 10
-7.279586802153931
 20
-0.4081141432880261
  0
HATCH
  5
843
330
841
100
AcDbEntity
  8
TITLEBLOCK
 62
     0
100
AcDbHatch
 10
0.0
 20
0.0
 30
0.0
210
0.0
220
0.0
230
1.0
  2
SOLID
 70
     1
 71
     0
 91
        1
 92
        1
 93
        4
 72
     1
 10
3.703333445713536
 20
0.1990762889281312
 11
1.018147379006204
 21
0.1990762889281312
 72
     1
 10
1.018147379006204
 20
0.1990762889281312
 11
1.018147379006204
 21
0.220706173683743
 72
     1
 10
1.018147379006204
 20
0.220706173683743
 11
3.703333445713536
 21
0.220706173683743
 72
     1
 10
3.703333445713536
 20
0.220706173683743
 11
3.703333445713536
 21
0.1990762889281312
 97
        0
 75
     0
 76
     1
 98
        1
 10
-7.279586802153931
 20
-0.4081141432880261
  0
HATCH
  5
844
330
841
100
AcDbEntity
  8
TITLEBLOCK
 62
     0
100
AcDbHatch
 10
0.0
 20
0.0
 30
0.0
210
0.0
220
0.0
230
1.0
  2
SOLID
 70
     1
 71
     0
 91
        4
 92
        1
 93
        4
 72
     1
 10
0.8306472632318495
 20
0.4814782717956759
 11
0.4556470182475714
 21
0.4814782717956759
 72
     1
 10
0.4556470182475714
 20
0.4814782717956759
 11
0.4556470182475714
 21
0.1064783844396073
 72
     1
 10
0.4556470182475714
 20
0.1064783844396073
 11
0.8306472632318495
 21
0.1064783844396073
 72
     1
 10
0.8306472632318495
 20
0.1064783844396073
 11
0.8306472632318495
 21
0.4814782717956759
 97
        0
 92
        0
 93
       10
 72
     1
 10
0.7368972019857374
 20
0.4177282462416896
 11
0.5193971779121789
 21
0.4177282462416896
 72
     1
 10
0.5193971779121789
 20
0.4177282462416896
 11
0.5193971779121789
 21
0.37460312508514
 72
     1
 10
0.5193971779121789
 20
0.37460312508514
 11
0.5531473465883146
 21
0.37460312508514
 72
     1
 10
0.5531473465883146
 20
0.37460312508514
 11
0.5531473465883146
 21
0.2133535311501431
 72
     1
 10
0.5531473465883146
 20
0.2133535311501431
 11
0.5193971779121789
 21
0.2133535311501431
 72
     1
 10
0.5193971779121789
 20
0.2133535311501431
 11
0.5193971779121789
 21
0.1702282758831428
 72
     1
 10
0.5193971779121789
 20
0.1702282758831428
 11
0.7368972019857374
 21
0.1702282758831428
 72
     1
 10
0.7368972019857374
 20
0.1702282758831428
 11
0.7668970141602749
 21
0.2002283115750982
 72
     1
 10
0.7668970141602749
 20
0.2002283115750982
 11
0.7668970141602749
 21
0.3877281658462506
 72
     1
 10
0.7668970141602749
 20
0.3877281658462506
 11
0.7368972019857374
 21
0.4177282462416896
 97
        0
 92
       16
 93
        4
 72
     1
 10
0.7987720492890098
 20
0.4496031025563197
 11
0.4875220533764768
 21
0.4496031025563197
 72
     1
 10
0.4875220533764768
 20
0.4496031025563197
 11
0.4875220533764768
 21
0.1383533301613751
 72
     1
 10
0.4875220533764768
 20
0.1383533301613751
 11
0.7987720492890098
 21
0.1383533301613751
 72
     1
 10
0.7987720492890098
 20
0.1383533301613751
 11
0.7987720492890098
 21
0.4496031025563197
 97
        0
 92
        0
 93
        4
 72
     1
 10
0.5962724677448641
 20
0.37460312508514
 11
0.5962724677448641
 21
0.2133535311501431
 72
     1
 10
0.5962724677448641
 20
0.2133535311501431
 11
0.7237719824106926
 21
0.2133535311501431
 72
     1
 10
0.7237719824106926
 20
0.2133535311501431
 11
0.7237719824106926
 21
0.37460312508514
 72
     1
 10
0.7237719824106926
 20
0.37460312508514
 11
0.5962724677448641
 21
0.37460312508514
 97
        0
 75
     0
 76
     1
 98
        1
 10
-7.279586802153931
 20
-0.313212194787444
  0
HATCH
  5
845
330
841
100
AcDbEntity
  8
TITLEBLOCK
 62
     0
100
AcDbHatch
 10
0.0
 20
0.0
 30
0.0
210
0.0
220
0.0
230
1.0
  2
SOLID
 70
     1
 71
     0
 91
        1
 92
        1
 93
       26
 72
     1
 10
1.050490193885575
 20
0.3650136723335662
 11
1.138990457951802
 21
0.3650136723335662
 72
     2
 10
1.138990281703138
 20
0.3542326140418093
 40
0.0107810582931976
 50
270.0009366709926
 51
360.0009366862294
 73
     0
 72
     1
 10
1.149771339994895
 20
0.3542324377902786
 11
1.171333797831589
 21
0.3542324377902786
 72
     1
 10
1.171333797831589
 20
0.3542324377902786
 11
1.171333797831589
 21
0.3650136723335662
 72
     2
 10
1.149771243432702
 20
0.365013768896207
 40
0.0215625543991033
 50
359.9997434148255
 51
449.9997434160159
 73
     1
 72
     1
 10
1.149771339994895
 20
0.3865763232950938
 11
1.039708786842066
 21
0.3865763232950938
 72
     2
 10
1.039709408398413
 20
0.3650142939052909
 40
0.0215620293987615
 50
90.00165163282177
 51
180.0014125206716
 73
     1
 72
     1
 10
1.018147379006204
 20
0.3650137623336376
 11
1.018147379006204
 21
0.3334199129435318
 72
     2
 10
1.039709363397143
 20
0.3334193363730153
 40
0.0215619843986475
 50
179.9984679027414
 51
269.9984679437668
 73
     1
 72
     1
 10
1.039708786842066
 20
0.3118573519820755
 11
1.138990457951802
 21
0.311857620107139
 72
     2
 10
1.138990280765661
 20
0.3010765608779043
 40
0.0107810592306907
 50
270.0009416531222
 51
360.0009416684906
 73
     0
 72
     1
 10
1.149771339994895
 20
0.3010763836888712
 11
1.149771508744986
 21
0.2902949691454408
 72
     2
 10
1.138990231076649
 20
0.2902948322713164
 40
0.0107812776692067
 50
359.9992725992319
 51
449.9997907459082
 73
     0
 72
     1
 10
1.138990270451738
 20
0.279513554602181
 11
1.050490193885575
 21
0.2795135546020104
 72
     2
 10
1.05049014888543
 20
0.2902951041454384
 40
0.0107815495435218
 50
89.99976085826782
 51
179.9997608594354
 73
     0
 72
     1
 10
1.039708599342002
 20
0.2902950591455122
 11
1.018147379006204
 21
0.2902950591455122
 72
     1
 10
1.018147379006204
 20
0.2902950591455122
 11
1.018147379006204
 21
0.2795138227272444
 72
     2
 10
1.039709273392517
 20
0.2795130680345569
 40
0.0215618943995203
 50
179.9979945776083
 51
269.9987071039827
 73
     1
 72
     1
 10
1.039708786842066
 20
0.2579511736405264
 11
1.149771339994895
 21
0.2579511736405264
 72
     2
 10
1.149771378432784
 20
0.2795135930396681
 40
0.0215624193991759
 50
269.9998978626289
 51
359.9996636967671
 73
     1
 72
     1
 10
1.171333797831589
 20
0.2795134664769192
 11
1.171333797831589
 21
0.3114825579869829
 72
     2
 10
1.149771333432362
 20
0.3114825645494808
 40
0.0215624643992288
 50
359.9999825621309
 51
449.9999825620359
 73
     1
 72
     1
 10
1.149771339994895
 20
0.3330450289487088
 11
1.050490193885575
 21
0.3330447608234748
 72
     2
 10
1.050490103885701
 20
0.3438262653667981
 40
0.0107815045436989
 50
89.99952171675776
 51
179.9999900368059
 73
     0
 72
     1
 10
1.039708599342002
 20
0.3438262634919964
 11
1.039708786842066
 21
0.3542325259151993
 72
     2
 10
1.050490107634269
 20
0.3542323515402983
 40
0.0107813207936133
 50
180.0009266903443
 51
270.0004583701697
 73
     0
 97
        0
 75
     0
 76
     1
 98
        1
 10
-7.279586802153931
 20
-0.4081141432880261
  0
HATCH
  5
846
330
841
100
AcDbEntity
  8
TITLEBLOCK
 62
     0
100
AcDbHatch
 10
0.0
 20
0.0
 30
0.0
210
0.0
220
0.0
230
1.0
  2
SOLID
 70
     1
 71
     0
 91
        1
 92
        1
 93
       18
 72
     2
 10
2.471082802883087
 20
0.3650137595211706
 40
0.021562563774099
 50
180.0000074732525
 51
269.9997683261728
 73
     0
 72
     1
 10
2.471082715695484
 20
0.3865763232950938
 11
2.586957622645552
 21
0.3865763232950938
 72
     2
 10
2.586957713583391
 20
0.3650135813961111
 40
0.0215627418991744
 50
269.9997583630888
 51
359.999758364108
 73
     0
 72
     1
 10
2.608520455482373
 20
0.3650136723335662
 11
2.608520455482373
 21
0.3542324377902786
 72
     1
 10
2.608520455482373
 20
0.3542324377902786
 11
2.586957622645552
 21
0.3542324377902786
 72
     2
 10
2.576176208103625
 20
0.3542322577916381
 40
0.0107814145434302
 50
0.0009565685814303
 51
90.00095658455173
 73
     1
 72
     1
 10
2.576176028101979
 20
0.3650136723335662
 11
2.481864141488966
 21
0.3650136723335662
 72
     2
 10
2.481864045863444
 20
0.3542323421656055
 40
0.0107813301683848
 50
89.99949181235312
 51
179.9994918168631
 73
     1
 72
     1
 10
2.471082715695484
 20
0.3542324377902786
 11
2.471082715695484
 21
0.2902950591455122
 72
     2
 10
2.481864090863785
 20
0.2902951097704553
 40
0.0107813751684203
 50
180.0002690376259
 51
270.0002690388874
 73
     1
 72
     1
 10
2.481864141488966
 20
0.2795137346021532
 11
2.576176028101979
 21
0.2795135546020104
 72
     2
 10
2.576176073102679
 20
0.2902951041456356
 40
0.010781549543719
 50
269.9997608553225
 51
359.9992825760937
 73
     1
 72
     1
 10
2.586957622645552
 20
0.2902949691454408
 11
2.608520455482373
 21
0.2902950591455122
 72
     1
 10
2.608520455482373
 20
0.2902950591455122
 11
2.608520099232048
 21
0.2795134664769192
 72
     2
 10
2.586957670458414
 20
0.2795136024145366
 40
0.0215624287740632
 50
0.0003612140281018
 51
90.00012704854281
 73
     0
 72
     1
 10
2.586957622645552
 20
0.2579511736405264
 11
2.471082715695484
 21
0.2579511736405264
 72
     2
 10
2.471082667882924
 20
0.2795136024144634
 40
0.02156242877399
 50
89.99987295225965
 51
179.9998729525419
 73
     0
 72
     1
 10
2.449520239108988
 20
0.2795135546020104
 11
2.449520239108988
 21
0.3650137623336376
 97
        0
 75
     0
 76
     1
 98
        1
 10
-7.279586802153931
 20
-0.4081141432880261
  0
HATCH
  5
847
330
841
100
AcDbEntity
  8
TITLEBLOCK
 62
     0
100
AcDbHatch
 10
0.0
 20
0.0
 30
0.0
210
0.0
220
0.0
230
1.0
  2
SOLID
 70
     1
 71
     0
 91
        1
 92
        1
 93
       12
 72
     1
 10
2.026708344139745
 20
0.3865765014202565
 11
1.890208311215626
 21
0.3865765014202565
 72
     1
 10
1.890208311215626
 20
0.3865765014202565
 11
1.890208311215626
 21
0.2579511736405264
 72
     1
 10
1.890208311215626
 20
0.2579511736405264
 11
2.026708344139745
 21
0.2579511736405264
 72
     1
 10
2.026708344139745
 20
0.2579511736405264
 11
2.026708344139745
 21
0.2795135546020104
 72
     1
 10
2.026708344139745
 20
0.2795135546020104
 11
1.911770600302059
 21
0.2795135546020104
 72
     1
 10
1.911770600302059
 20
0.2795135546020104
 11
1.911770600302059
 21
0.3114825579869829
 72
     1
 10
1.911770600302059
 20
0.3114825579869829
 11
2.026708344139745
 21
0.3114825579869829
 72
     1
 10
2.026708344139745
 20
0.3114825579869829
 11
2.026708344139745
 21
0.333044848948566
 72
     1
 10
2.026708344139745
 20
0.333044848948566
 11
1.911770600302059
 21
0.333044848948566
 72
     1
 10
1.911770600302059
 20
0.333044848948566
 11
1.911770600302059
 21
0.3650136723335662
 72
     1
 10
1.911770600302059
 20
0.3650136723335662
 11
2.026708344139745
 21
0.3650136723335662
 72
     1
 10
2.026708344139745
 20
0.3650136723335662
 11
2.026708344139745
 21
0.3865765014202565
 97
        0
 75
     0
 76
     1
 98
        1
 10
-7.279586802153931
 20
-0.4081141432880261
  0
HATCH
  5
848
330
841
100
AcDbEntity
  8
TITLEBLOCK
 62
     0
100
AcDbHatch
 10
0.0
 20
0.0
 30
0.0
210
0.0
220
0.0
230
1.0
  2
SOLID
 70
     1
 71
     0
 91
        2
 92
        1
 93
        8
 72
     1
 10
1.614830743814064
 20
0.3865765014202565
 11
1.531145595393223
 21
0.2579509955155343
 72
     1
 10
1.531145595393223
 20
0.2579509955155343
 11
1.556870855949323
 21
0.2579511736405264
 72
     1
 10
1.556870855949323
 20
0.2579511736405264
 11
1.570898996363819
 21
0.2795135546020104
 72
     1
 10
1.570898996363819
 20
0.2795135546020104
 11
1.673830432358027
 21
0.2795135546020104
 72
     1
 10
1.673830432358027
 20
0.2795135546020104
 11
1.687858760272586
 21
0.2579514417655899
 72
     1
 10
1.687858760272586
 20
0.2579514417655899
 11
1.713583120827973
 21
0.2579514417655899
 72
     1
 10
1.713583120827973
 20
0.2579514417655899
 11
1.629898141157394
 21
0.3865765014202565
 72
     1
 10
1.629898141157394
 20
0.3865765014202565
 11
1.614830743814064
 21
0.3865765014202565
 97
        0
 92
       16
 93
        3
 72
     1
 10
1.622364536235675
 20
0.3586169575295115
 11
1.659801223192726
 21
0.3010763836888712
 72
     1
 10
1.659801223192726
 20
0.3010763836888712
 11
1.584928205528949
 21
0.3010762055637086
 72
     1
 10
1.584928205528949
 20
0.3010762055637086
 11
1.622364348735612
 21
0.3586165994043766
 97
        0
 75
     0
 76
     1
 98
        1
 10
-7.279586802153931
 20
-0.4081141432880261
  0
HATCH
  5
849
330
841
100
AcDbEntity
  8
TITLEBLOCK
 62
     0
100
AcDbHatch
 10
0.0
 20
0.0
 30
0.0
210
0.0
220
0.0
230
1.0
  2
SOLID
 70
     1
 71
     0
 91
        1
 92
        1
 93
       12
 72
     1
 10
1.392021104504447
 20
0.3865765014202565
 11
1.370458815418015
 21
0.3865765014202565
 72
     1
 10
1.370458815418015
 20
0.3865765014202565
 11
1.370458627917951
 21
0.2795138227272444
 72
     2
 10
1.39202114575308
 20
0.2795135133528436
 40
0.0215625178373483
 50
179.999177932392
 51
269.9998903944058
 73
     1
 72
     1
 10
1.392021104504447
 20
0.2579509955155343
 11
1.509583287556818
 21
0.2579511736405264
 72
     2
 10
1.509583335369764
 20
0.2795136024146219
 40
0.0215624287741484
 50
269.9998729512306
 51
359.9996387857453
 73
     1
 72
     1
 10
1.531145764143484
 20
0.2795134664769192
 11
1.531146120393639
 21
0.3865765014202565
 72
     1
 10
1.531146120393639
 20
0.3865765014202565
 11
1.509583287556818
 21
0.3865765014202565
 72
     1
 10
1.509583287556818
 20
0.3865765014202565
 11
1.509583287556818
 21
0.2902950591455122
 72
     2
 10
1.498801916139266
 20
0.290294926019563
 40
0.0107813714183743
 50
359.9992925246018
 51
449.9992925333428
 73
     0
 72
     1
 10
1.49880204926357
 20
0.2795135546020104
 11
1.402802342797695
 21
0.2795135546020104
 72
     2
 10
1.402802382172719
 20
0.2902950197703451
 40
0.0107814651684066
 50
90.00020925010334
 51
180.0002092508632
 73
     0
 72
     1
 10
1.392020917004384
 20
0.2902950591455122
 11
1.392021104504447
 21
0.3865765014202565
 97
        0
 75
     0
 76
     1
 98
        1
 10
-7.279586802153931
 20
-0.4081141432880261
  0
HATCH
  5
84A
330
841
100
AcDbEntity
  8
TITLEBLOCK
 62
     0
100
AcDbHatch
 10
0.0
 20
0.0
 30
0.0
210
0.0
220
0.0
230
1.0
  2
SOLID
 70
     1
 71
     0
 91
        2
 92
        1
 93
       13
 72
     2
 10
1.851958289039648
 20
0.2899198104641797
 40
0.0215625675244637
 50
0.0002565813902296
 51
90.00070498518821
 73
     1
 72
     2
 10
1.851958289040149
 20
0.3330449455099156
 40
0.0215625675245372
 50
269.9992950134807
 51
359.9995092535441
 73
     1
 72
     1
 10
1.873520856563896
 20
0.3330447608234748
 11
1.873520856563896
 21
0.3650136657708798
 72
     2
 10
1.851957894958188
 20
0.3650135398162329
 40
0.0215629616060761
 50
0.0003346789653151
 51
89.99920945081219
 73
     1
 72
     1
 10
1.851958192477166
 20
0.3865765014202565
 11
1.720333350237904
 21
0.3865765014202565
 72
     1
 10
1.720333350237904
 20
0.3865765014202565
 11
1.720333350237904
 21
0.2579511736405264
 72
     1
 10
1.720333350237904
 20
0.2579511736405264
 11
1.741896183074725
 21
0.2579511736405264
 72
     1
 10
1.741896183074725
 20
0.2579511736405264
 11
1.741896183074725
 21
0.3007013215688856
 72
     1
 10
1.741896183074725
 20
0.3007013215688856
 11
1.841176785433827
 21
0.3007013215688856
 72
     2
 10
1.841176693559081
 20
0.2899201789011263
 40
0.0107811426681508
 50
270.0004882631974
 51
360.0004882673548
 73
     0
 72
     1
 10
1.851957836226841
 20
0.289920087025598
 11
1.851958192477166
 21
0.2579511736405264
 72
     1
 10
1.851958192477166
 20
0.2579511736405264
 11
1.873520856563896
 21
0.2579511736405264
 72
     1
 10
1.873520856563896
 20
0.2579511736405264
 11
1.873520856563896
 21
0.2899199070254552
 97
        0
 92
       16
 93
        6
 72
     2
 10
1.841176693559081
 20
0.3542325296658069
 40
0.0107811426681508
 50
270.0004882631974
 51
360.0004882673548
 73
     0
 72
     1
 10
1.851957836226841
 20
0.3542324377902786
 11
1.851958192477166
 21
0.333044848948566
 72
     2
 10
1.841176871684197
 20
0.333044935198247
 40
0.0107813207933138
 50
0.0004583615308307
 51
90.00045836519477
 73
     0
 72
     1
 10
1.841176785433827
 20
0.3222636144052784
 11
1.741896183074725
 21
0.3222638825303419
 72
     1
 10
1.741896183074725
 20
0.3222638825303419
 11
1.741896183074725
 21
0.3650136723335662
 72
     1
 10
1.741896183074725
 20
0.3650136723335662
 11
1.841176785433827
 21
0.3650136723335662
 97
        0
 75
     0
 76
     1
 98
        1
 10
-7.279586802153931
 20
-0.4081141432880261
  0
HATCH
  5
84B
330
841
100
AcDbEntity
  8
TITLEBLOCK
 62
     0
100
AcDbHatch
 10
0.0
 20
0.0
 30
0.0
210
0.0
220
0.0
230
1.0
  2
SOLID
 70
     1
 71
     0
 91
        2
 92
        1
 93
       10
 72
     1
 10
2.168832611988261
 20
0.3650136723335662
 11
2.168832611988261
 21
0.2795135546021492
 72
     1
 10
2.168832611988261
 20
0.2795135546021492
 11
2.148020079641632
 21
0.2795135546021492
 72
     1
 10
2.148020079641632
 20
0.2795135546021492
 11
2.148020079641632
 21
0.2579511736406499
 72
     1
 10
2.148020079641632
 20
0.2579511736406499
 11
2.314895263659607
 21
0.2579511736406499
 72
     2
 10
2.314895311472477
 20
0.2795136024147182
 40
0.0215624287741214
 50
269.9998729514336
 51
359.9996387859474
 73
     1
 72
     1
 10
2.336457740246171
 20
0.2795134664770916
 11
2.336457740246171
 21
0.3650136723335662
 72
     2
 10
2.314895087410214
 20
0.3650138485844006
 40
0.0215626528366775
 50
359.9995316703829
 51
449.999531674211
 73
     1
 72
     1
 10
2.314895263659607
 20
0.386576501420358
 11
2.148020079641632
 21
0.386576501420358
 72
     1
 10
2.148020079641632
 20
0.386576501420358
 11
2.148020079641632
 21
0.3650136723335662
 72
     1
 10
2.148020079641632
 20
0.3650136723335662
 11
2.168832611988261
 21
0.3650136723335662
 97
        0
 92
       16
 93
        6
 72
     1
 10
2.190395257324933
 20
0.3650136723335662
 11
2.304113856616218
 21
0.3650136723335662
 72
     2
 10
2.304113942866619
 20
0.3542323515405775
 40
0.0107813207933337
 50
269.9995416346447
 51
359.9995416383139
 73
     0
 72
     1
 10
2.314895263659607
 20
0.3542324377902877
 11
2.314895263659607
 21
0.2902949691455452
 72
     2
 10
2.304113807866077
 20
0.2902950103956483
 40
0.0107814557936096
 50
0.0002192149982456
 51
89.99974092762393
 73
     0
 72
     1
 10
2.304113856616218
 20
0.2795135546021492
 11
2.190395257324933
 21
0.2795135546021492
 72
     1
 10
2.190395257324933
 20
0.2795135546021492
 11
2.190395257324933
 21
0.3650136723335662
 97
        0
 75
     0
 76
     1
 98
        1
 10
-7.279586802153931
 20
-0.4081141432880261
  0
HATCH
  5
84C
330
841
100
AcDbEntity
  8
TITLEBLOCK
 62
     0
100
AcDbHatch
 10
0.0
 20
0.0
 30
0.0
210
0.0
220
0.0
230
1.0
  2
SOLID
 70
     1
 71
     0
 91
        2
 92
        1
 93
        8
 72
     1
 10
3.241392303571654
 20
0.3865765014202565
 11
3.157707226761072
 21
0.2579509955155343
 72
     1
 10
3.157707226761072
 20
0.2579509955155343
 11
3.183432299816939
 21
0.2579511736405264
 72
     1
 10
3.183432299816939
 20
0.2579511736405264
 11
3.197460983981823
 21
0.2795133764768478
 72
     1
 10
3.197460983981823
 20
0.2795133764768478
 11
3.30039082622498
 21
0.2795135546020104
 72
     1
 10
3.30039082622498
 20
0.2795135546020104
 11
3.314419679139785
 21
0.2579514417655899
 72
     1
 10
3.314419679139785
 20
0.2579514417655899
 11
3.340144583445731
 21
0.2579511736405264
 72
     1
 10
3.340144583445731
 20
0.2579511736405264
 11
3.256459603774981
 21
0.3865765014202565
 72
     1
 10
3.256459603774981
 20
0.3865765014202565
 11
3.241392303571654
 21
0.3865765014202565
 97
        0
 92
       16
 93
        3
 72
     1
 10
3.248925740352245
 20
0.358616778466603
 11
3.211489480646473
 21
0.3010762055637086
 72
     1
 10
3.211489480646473
 20
0.3010762055637086
 11
3.28636178580994
 21
0.3010763836888712
 72
     1
 10
3.28636178580994
 20
0.3010763836888712
 11
3.248925740352245
 21
0.358616778466603
 97
        0
 75
     0
 76
     1
 98
        1
 10
-7.279586802153931
 20
-0.4081141432880261
  0
HATCH
  5
84D
330
841
100
AcDbEntity
  8
TITLEBLOCK
 62
     0
100
AcDbHatch
 10
0.0
 20
0.0
 30
0.0
210
0.0
220
0.0
230
1.0
  2
SOLID
 70
     1
 71
     0
 91
        1
 92
        1
 93
       13
 72
     1
 10
2.838488736968525
 20
0.3865765014202565
 11
2.806145209588674
 21
0.3865765014202565
 72
     1
 10
2.806145209588674
 20
0.3865765014202565
 11
2.806145209588674
 21
0.2579511736405264
 72
     1
 10
2.806145209588674
 20
0.2579511736405264
 11
2.827707667425368
 21
0.2579511736405264
 72
     1
 10
2.827707667425368
 20
0.2579511736405264
 11
2.827707667425368
 21
0.3640633654626753
 72
     1
 10
2.827707667425368
 20
0.3640633654626753
 11
2.899718420719221
 21
0.2579514417655899
 72
     1
 10
2.899718420719221
 20
0.2579514417655899
 11
2.922570860648686
 21
0.2579511736405264
 72
     1
 10
2.922570860648686
 20
0.2579511736405264
 11
2.994582138942956
 21
0.3640642598382782
 72
     1
 10
2.994582138942956
 20
0.3640642598382782
 11
2.994582138942956
 21
0.2579511736405264
 72
     1
 10
2.994582138942956
 20
0.2579511736405264
 11
3.016144596779479
 21
0.2579511736405264
 72
     1
 10
3.016144596779479
 20
0.2579511736405264
 11
3.016144596779479
 21
0.3865765014202565
 72
     1
 10
3.016144596779479
 20
0.3865765014202565
 11
2.983801425649954
 21
0.3865765014202565
 72
     1
 10
2.983801425649954
 20
0.3865765014202565
 11
2.911144640683954
 21
0.2795135546020104
 72
     1
 10
2.911144640683954
 20
0.2795135546020104
 11
2.838488380718199
 21
0.3865765014202565
 97
        0
 75
     0
 76
     1
 98
        1
 10
-7.279586802153931
 20
-0.4081141432880261
  0
HATCH
  5
84E
330
841
100
AcDbEntity
  8
TITLEBLOCK
 62
     0
100
AcDbHatch
 10
0.0
 20
0.0
 30
0.0
210
0.0
220
0.0
230
1.0
  2
SOLID
 70
     1
 71
     0
 91
        2
 92
        1
 93
        8
 72
     1
 10
2.79358243888161
 20
0.2795134664769192
 11
2.793582795131936
 21
0.3650136723335662
 72
     2
 10
2.772020240733041
 20
0.3650137688961994
 40
0.0215625543991104
 50
359.9997434148459
 51
449.999743415997
 73
     1
 72
     1
 10
2.772020337295241
 20
0.3865763232950938
 11
2.640957676673206
 21
0.3865763232950938
 72
     2
 10
2.640957763860811
 20
0.3650137595211699
 40
0.0215625637741002
 50
90.00023167383188
 51
179.9999925267453
 73
     1
 72
     1
 10
2.61939520008671
 20
0.3650137623336376
 11
2.61939520008671
 21
0.2795135546020104
 72
     2
 10
2.640957628860649
 20
0.2795136024144641
 40
0.0215624287739915
 50
180.0001270474597
 51
270.0001270477355
 73
     1
 72
     1
 10
2.640957676673206
 20
0.2579511736405264
 11
2.772020337295241
 21
0.2579511736405264
 72
     2
 10
2.772020197607671
 20
0.2795134149140743
 40
0.0215622412740004
 50
270.000371181646
 51
360.000137014207
 73
     1
 97
        0
 92
       16
 93
        8
 72
     2
 10
2.651738913091431
 20
0.3542324359149649
 40
0.0107812364186015
 50
89.9999900344766
 51
179.999521702949
 73
     1
 72
     1
 10
2.640957676673206
 20
0.3542325259151993
 11
2.640957676673206
 21
0.2902950591455122
 72
     2
 10
2.651738958091508
 20
0.2902950160204556
 40
0.010781281418388
 50
179.9997708172488
 51
269.9997708181704
 73
     1
 72
     1
 10
2.651738914966625
 20
0.2795137346021532
 11
2.761238742751839
 21
0.2795135546020104
 72
     2
 10
2.761238956501978
 20
0.2902951041442614
 40
0.0107815495443698
 50
269.9988640797126
 51
359.9992825833961
 73
     1
 72
     1
 10
2.772020506045503
 20
0.2902949691454408
 11
2.772020337295241
 21
0.3542324377902786
 72
     2
 10
2.761239007127366
 20
0.3542323421656908
 40
0.0107813301682991
 50
0.0005081826837109
 51
90.00050818719378
 73
     1
 72
     1
 10
2.76123891150193
 20
0.3650136723335662
 11
2.651738914966625
 21
0.3650136723335662
 97
        0
 75
     0
 76
     1
 98
        1
 10
-7.279586802153931
 20
-0.4081141432880261
  0
HATCH
  5
84F
330
841
100
AcDbEntity
  8
TITLEBLOCK
 62
     0
100
AcDbHatch
 10
0.0
 20
0.0
 30
0.0
210
0.0
220
0.0
230
1.0
  2
SOLID
 70
     1
 71
     0
 91
        2
 92
        1
 93
        8
 72
     2
 10
3.162769048174736
 20
0.3650134554401196
 40
0.0215630459811904
 50
270.0005663490367
 51
359.9994236862867
 73
     0
 72
     1
 10
3.184332094154836
 20
0.3650136723335662
 11
3.184332094154836
 21
0.3222638825303419
 72
     2
 10
3.162769397256125
 20
0.3222640184675962
 40
0.0215626968991391
 50
0.0003612085718475
 51
90.00036121084693
 73
     0
 72
     1
 10
3.162769261318015
 20
0.3007013215688856
 11
3.052707420665665
 21
0.3007013215688856
 72
     1
 10
3.052707420665665
 20
0.3007013215688856
 11
3.052707420665665
 21
0.2579511736405264
 72
     1
 10
3.052707420665665
 20
0.2579511736405264
 11
3.031144250328662
 21
0.2579511736405264
 72
     1
 10
3.031144250328662
 20
0.2579511736405264
 11
3.031144250328662
 21
0.3865765014202565
 72
     1
 10
3.031144250328662
 20
0.3865765014202565
 11
3.162769261318015
 21
0.3865765014202565
 97
        0
 92
       16
 93
        6
 72
     2
 10
3.151988118650169
 20
0.3542325296657216
 40
0.0107811426682361
 50
270.0004882627443
 51
360.0004882669015
 73
     0
 72
     1
 10
3.162769261318015
 20
0.3542324377902786
 11
3.162769261318015
 21
0.333044848948566
 72
     2
 10
3.151988118650169
 20
0.333044757073123
 40
0.0107811426682367
 50
359.9995117330984
 51
449.9995117372556
 73
     0
 72
     1
 10
3.15198821052483
 20
0.3222636144052784
 11
3.052707420665665
 21
0.3222638825303419
 72
     1
 10
3.052707420665665
 20
0.3222638825303419
 11
3.052707420665665
 21
0.3650136723335662
 72
     1
 10
3.052707420665665
 20
0.3650136723335662
 11
3.15198821052483
 21
0.3650136723335662
 97
        0
 75
     0
 76
     1
 98
        1
 10
-7.279586802153931
 20
-0.4081141432880261
  0
HATCH
  5
850
330
841
100
AcDbEntity
  8
TITLEBLOCK
 62
     0
100
AcDbHatch
 10
0.0
 20
0.0
 30
0.0
210
0.0
220
0.0
230
1.0
  2
SOLID
 70
     1
 71
     0
 91
        1
 92
        1
 93
        9
 72
     1
 10
3.556847887515953
 20
0.3865763232950938
 11
3.525206566844968
 21
0.3865765014202565
 72
     1
 10
3.525206566844968
 20
0.3865765014202565
 11
3.60348814923547
 21
0.3136817019238036
 72
     1
 10
3.60348814923547
 20
0.3136817019238036
 11
3.603486349234383
 21
0.2579511736405264
 72
     1
 10
3.603486349234383
 20
0.2579511736405264
 11
3.625050607072164
 21
0.2579511736405264
 72
     1
 10
3.625050607072164
 20
0.2579511736405264
 11
3.625050607072164
 21
0.3136813437984982
 72
     1
 10
3.625050607072164
 20
0.3136813437984982
 11
3.703331833212512
 21
0.3865766795454191
 72
     1
 10
3.703331833212512
 20
0.3865766795454191
 11
3.671691225042007
 21
0.3865765014202565
 72
     1
 10
3.671691225042007
 20
0.3865765014202565
 11
3.61426955627898
 21
0.3331056458632473
 72
     1
 10
3.61426955627898
 20
0.3331056458632473
 11
3.556847887515953
 21
0.3865763232950938
 97
        0
 75
     0
 76
     1
 98
        1
 10
-7.279586802153931
 20
-0.4081141432880261
  0
HATCH
  5
851
330
841
100
AcDbEntity
  8
TITLEBLOCK
 62
     0
100
AcDbHatch
 10
0.0
 20
0.0
 30
0.0
210
0.0
220
0.0
230
1.0
  2
SOLID
 70
     1
 71
     0
 91
        1
 92
        1
 93
       10
 72
     1
 10
3.376247484495632
 20
0.3865765014202565
 11
3.345207161752892
 21
0.3865765014202565
 72
     1
 10
3.345207161752892
 20
0.3865765014202565
 11
3.345207161752892
 21
0.2579511736405264
 72
     1
 10
3.345207161752892
 20
0.2579511736405264
 11
3.366769638339558
 21
0.2579511736405264
 72
     1
 10
3.366769638339558
 20
0.2579511736405264
 11
3.366769638339558
 21
0.3659393041881229
 72
     1
 10
3.366769638339558
 20
0.3659393041881229
 11
3.48273627034943
 21
0.2579509955155343
 72
     1
 10
3.48273627034943
 20
0.2579509955155343
 11
3.515082122730785
 21
0.2579511736405264
 72
     1
 10
3.515082122730785
 20
0.2579511736405264
 11
3.515082122730785
 21
0.3865765014202565
 72
     1
 10
3.515082122730785
 20
0.3865765014202565
 11
3.49351767739277
 21
0.3865765014202565
 72
     1
 10
3.49351767739277
 20
0.3865765014202565
 11
3.49351767739277
 21
0.277374671329744
 72
     1
 10
3.49351767739277
 20
0.277374671329744
 11
3.376247484495632
 21
0.3865765014202565
 97
        0
 75
     0
 76
     1
 98
        1
 10
-7.279586802153931
 20
-0.4081141432880261
  0
ENDBLK
  5
853
330
841
100
AcDbEntity
  8
0
100
AcDbBlockEnd
  0
BLOCK
  5
AF5
330
AE5
100
AcDbEntity
  8
0
100
AcDbBlockBegin
  2
TITLE-PAD
 70
     2
 10
0.0
 20
0.0
 30
0.0
  3
TITLE-PAD
  1

  0
LWPOLYLINE
  5
B1D
330
AE5
100
AcDbEntity
  8
CONTINUOUS2
 62
     0
100
AcDbPolyline
 90
        7
 70
     1
 43
0.0
 10
16.40000099999999
 20
0.0
 10
16.40000099999999
 20
0.0
 10
16.40000099999999
 20
0.0
 10
8.002461
 20
0.0
 10
8.002461
 20
0.9120019999999993
 10
16.40000099999999
 20
0.9120019999999993
 10
16.40000099999999
 20
0.0
  0
INSERT
  5
B1E
330
AE5
100
AcDbEntity
  8
TITLEBLOCK
 62
     0
100
AcDbBlockReference
  2
LOGO-PAD
 10
12.245701
 20
0.3040000000000003
 30
0.0
  0
LINE
  5
B1F
330
AE5
100
AcDbEntity
  8
CONTINUOUS2
 62
     0
100
AcDbLine
 10
16.40000099999999
 20
0.3040000000000003
 30
0.0
 11
12.245701
 21
0.3040000000000003
 31
0.0
  0
LINE
  5
B20
330
AE5
100
AcDbEntity
  8
CONTINUOUS2
 62
     0
100
AcDbLine
 10
12.245701
 20
0.9120019999999993
 30
0.0
 11
12.245701
 21
0.0
 31
0.0
  0
TEXT
  5
B21
330
AE5
100
AcDbEntity
  8
TEXT1
  6
CONTINUOUS
 62
     0
100
AcDbText
 10
12.36897712113656
 20
0.0611566731182909
 30
0.0
 40
0.0699999951940822
  1
NO.
  7
ROMANS
 11
12.36897712113656
 21
0.096156670715332
 31
0.0
100
AcDbText
 73
     2
  0
TEXT
  5
B22
330
AE5
100
AcDbEntity
  8
TEXT1
  6
CONTINUOUS
 62
     0
100
AcDbText
 10
12.36897712113656
 20
0.1661566731182908
 30
0.0
 40
0.0699999951940822
  1
DWG#
  7
ROMANS
 11
12.36897712113656
 21
0.2011566707153319
 31
0.0
100
AcDbText
 73
     2
  0
ATTDEF
  5
B23
330
AE5
100
AcDbEntity
  8
TEXT1
 62
     0
100
AcDbText
 10
10.10183834893798
 20
0.7474460884590166
 30
0.0
 40
0.1
  1

  7
ROMANS
 72
     4
 11
10.10183834893798
 21
0.7474460884590166
 31
0.0
100
AcDbAttributeDefinition
  3
DESCRIPTION 1
  2
DESCRIPTION 1
 70
     0
  0
ATTDEF
  5
B24
330
AE5
100
AcDbEntity
  8
TEXT1
 62
     0
100
AcDbText
 10
10.10183834893798
 20
0.6017231711406717
 30
0.0
 40
0.1
  1

  7
ROMANS
 72
     4
 11
10.10183834893798
 21
0.6017231711406717
 31
0.0
100
AcDbAttributeDefinition
  3
DESCRIPTION 2
  2
DESCRIPTION 2
 70
     0
  0
ATTDEF
  5
B25
330
AE5
100
AcDbEntity
  8
TEXT1
 62
     0
100
AcDbText
 10
10.10183834893798
 20
0.4560002538223267
 30
0.0
 40
0.08
  1

  7
ROMANS
 72
     4
 11
10.10183834893798
 21
0.4560002538223267
 31
0.0
100
AcDbAttributeDefinition
  3
DESCRIPTION 3
  2
DESCRIPTION 3
 70
     0
  0
ATTDEF
  5
B26
330
AE5
100
AcDbEntity
  8
TEXT1
 62
     0
100
AcDbText
 10
10.10183834893798
 20
0.3202773365039833
 30
0.0
 40
0.08
  1

  7
ROMANS
 72
     4
 11
10.10183834893798
 21
0.3202773365039833
 31
0.0
100
AcDbAttributeDefinition
  3
DESCRIPTION 4
  2
DESCRIPTION 4
 70
     0
  0
ATTDEF
  5
B27
330
AE5
100
AcDbEntity
  8
TEXT1
 62
     0
100
AcDbText
 10
10.10183834893798
 20
0.1845544191856399
 30
0.0
 40
0.08
  1

  7
ROMANS
 72
     4
 11
10.10183834893798
 21
0.1845544191856399
 31
0.0
100
AcDbAttributeDefinition
  3
DESCRIPTION 5
  2
DESCRIPTION 5
 70
     0
  0
ATTDEF
  5
B28
330
AE5
100
AcDbEntity
  8
TEXT1
 62
     0
100
AcDbText
 10
12.74772367103195
 20
0.096540546036505
 30
0.0
 40
0.12
  1

 41
0.9512024731840066
  7
M_STANDARD
 11
12.74772367103195
 21
0.156540546036505
 31
0.0
100
AcDbAttributeDefinition
  3
DRAWING NUMBER
  2
DWGNO
 70
     0
 74
     2
  0
ATTDEF
  5
B29
330
AE5
100
AcDbEntity
  8
TEXT1
 62
     0
100
AcDbText
 10
16.35506454949325
 20
-0.1507193079929352
 30
0.0
 40
0.08
  1

  7
ROMANS
 72
     2
 11
16.35506454949325
 21
-0.1107193079929352
 31
0.0
100
AcDbAttributeDefinition
  3
REF DWG #
  2
REF
 70
     0
 74
     2
  0
ATTDEF
  5
B2A
330
AE5
100
AcDbEntity
  8
TEXT1
 62
     0
100
AcDbText
 10
0.0266402374038712
 20
-0.1507193079929352
 30
0.0
 40
0.08
  1

  7
ROMANS
 11
0.0266402374038712
 21
-0.1107193079929352
 31
0.0
100
AcDbAttributeDefinition
  3
DATE MODIFIED
  2
DATE
 70
     0
 74
     2
  0
LWPOLYLINE
  5
B2B
330
AE5
100
AcDbEntity
  8
CONTINUOUS3
 62
     0
100
AcDbPolyline
 90
        4
 70
   129
 43
0.0
 10
0.0
 20
0.0
 10
16.40000099999999
 20
0.0
 10
16.40000099999999
 20
10.25
 10
0.0
 20
10.25
  0
ENDBLK
  5
AF6
330
AE5
100
AcDbEntity
  8
0
100
AcDbBlockEnd
  0
BLOCK
  5
E4F
330
E3C
100
AcDbEntity
  8
0
100
AcDbBlockBegin
  2
REF2
 70
     2
 10
0.0
 20
0.0
 30
0.0
  3
REF2
  1

  0
ATTDEF
  5
E3D
330
E3C
100
AcDbEntity
  8
REFERENCE
100
AcDbText
 10
2.181075792116067
 20
0.2204373050885355
 30
0.0
 40
0.125
  1

  7
SIMPLEX
100
AcDbAttributeDefinition
  3
Mounting Hardware?
  2
MOUNTING_HWD
 70
     0
  0
ATTDEF
  5
E3E
330
E3C
100
AcDbEntity
  8
REFERENCE
100
AcDbText
 10
2.200348442097449
 20
0.4484790897328282
 30
0.0
 40
0.125
  1

  7
SIMPLEX
100
AcDbAttributeDefinition
  3
Terminal Torque
  2
TERM_TORQUE
 70
     0
  0
ATTDEF
  5
E3F
330
E3C
100
AcDbEntity
  8
REFERENCE
100
AcDbText
 10
2.193924207883932
 20
0.6579373050885355
 30
0.0
 40
0.125
  1

  7
SIMPLEX
100
AcDbAttributeDefinition
  3
Wire Size?
  2
WIRE_SIZE
 70
     0
  0
ATTDEF
  5
E40
330
E3C
100
AcDbEntity
  8
REFERENCE
100
AcDbText
 10
2.193924207883932
 20
0.8564164127663893
 30
0.0
 40
0.125
  1

  7
SIMPLEX
100
AcDbAttributeDefinition
  3
Weight?
  2
WEIGHT
 70
     0
  0
ATTDEF
  5
E41
330
E3C
100
AcDbEntity
  8
REFERENCE
100
AcDbText
 10
2.1875
 20
1.0625
 30
0.0
 40
0.125
  1

  7
SIMPLEX
100
AcDbAttributeDefinition
  3
Meets Standards
  2
STANDARDS
 70
     0
  0
ATTDEF
  5
E42
330
E3C
100
AcDbEntity
  8
REFERENCE
100
AcDbText
 10
2.206772649981382
 20
1.293916394821363
 30
0.0
 40
0.125
  1

  7
SIMPLEX
100
AcDbAttributeDefinition
  3
CSA File/Guide
  2
CSA
 70
     0
  0
ATTDEF
  5
E43
330
E3C
100
AcDbEntity
  8
REFERENCE
100
AcDbText
 10
2.185634859238193
 20
1.5
 30
0.0
 40
0.125
  1

  7
SIMPLEX
100
AcDbAttributeDefinition
  3
UL File/Guide?
  2
UL
 70
     0
  0
ATTDEF
  5
E44
330
E3C
100
AcDbEntity
  8
REFERENCE
100
AcDbText
 10
2.181075792116067
 20
1.720437305088535
 30
0.0
 40
0.125
  1

  7
SIMPLEX
100
AcDbAttributeDefinition
  3
Ratings?
  2
RATING
 70
     0
  0
ATTDEF
  5
E45
330
E3C
100
AcDbEntity
  8
REFERENCE
100
AcDbText
 10
2.1875
 20
1.9375
 30
0.0
 40
0.125
  1

  7
SIMPLEX
100
AcDbAttributeDefinition
  3
Catalog Number?
  2
CATALOG
 70
     0
  0
TEXT
  5
E46
330
E3C
100
AcDbEntity
  8
TEXT1
100
AcDbText
 10
0.1875
 20
0.223214285714286
 30
0.0
 40
0.125
  1
Mounting Hwd.:
  7
SIMPLEX
100
AcDbText
  0
TEXT
  5
E47
330
E3C
100
AcDbEntity
  8
TEXT1
100
AcDbText
 10
0.1875
 20
0.4375
 30
0.0
 40
0.125
  1
Terminal torque:
  7
SIMPLEX
100
AcDbText
  0
TEXT
  5
E48
330
E3C
100
AcDbEntity
  8
TEXT1
100
AcDbText
 10
0.1875
 20
0.6517857142857145
 30
0.0
 40
0.125
  1
Wire Size:
  7
SIMPLEX
100
AcDbText
  0
TEXT
  5
E49
330
E3C
100
AcDbEntity
  8
TEXT1
100
AcDbText
 10
0.1875
 20
0.8660714285714288
 30
0.0
 40
0.125
  1
Weight:
  7
SIMPLEX
100
AcDbText
  0
TEXT
  5
E4A
330
E3C
100
AcDbEntity
  8
TEXT1
100
AcDbText
 10
0.1875
 20
1.080357142857143
 30
0.0
 40
0.125
  1
Meets Standards:
  7
SIMPLEX
100
AcDbText
  0
TEXT
  5
E4B
330
E3C
100
AcDbEntity
  8
TEXT1
100
AcDbText
 10
0.1875
 20
1.294642857142857
 30
0.0
 40
0.125
  1
CSA File/Guide:
  7
SIMPLEX
100
AcDbText
  0
TEXT
  5
E4C
330
E3C
100
AcDbEntity
  8
TEXT1
100
AcDbText
 10
0.1875
 20
1.508928571428572
 30
0.0
 40
0.125
  1
UL File/Guide:
  7
SIMPLEX
100
AcDbText
  0
TEXT
  5
E4D
330
E3C
100
AcDbEntity
  8
TEXT1
100
AcDbText
 10
0.1875
 20
1.723214285714285
 30
0.0
 40
0.125
  1
Ratings:
  7
SIMPLEX
100
AcDbText
  0
TEXT
  5
E4E
330
E3C
100
AcDbEntity
  8
TEXT1
100
AcDbText
 10
0.1875
 20
1.937499999999999
 30
0.0
 40
0.125
  1
Catalog Number:
  7
SIMPLEX
100
AcDbText
  0
ENDBLK
  5
E50
330
E3C
100
AcDbEntity
  8
0
100
AcDbBlockEnd
  0
BLOCK
  5
A29E
330
A293
100
AcDbEntity
  8
0
100
AcDbBlockBegin
  2
*D4
 70
     1
 10
0.0
 20
0.0
 30
0.0
  3
*D4
  1

  0
LINE
  5
B0DB
330
A293
100
AcDbEntity
  8
DIM
100
AcDbLine
 10
24.54759404179078
 20
15.94110173112419
 30
0.0
 11
24.54759404179078
 21
16.84735173112419
 31
0.0
  0
LINE
  5
B0DC
330
A293
100
AcDbEntity
  8
DIM
100
AcDbLine
 10
26.04759404179079
 20
15.94110173112419
 30
0.0
 11
26.04759404179079
 21
16.84735173112419
 31
0.0
  0
LINE
  5
B0DD
330
A293
100
AcDbEntity
  8
DIM
100
AcDbLine
 10
24.29759404179078
 20
16.72235173112419
 30
0.0
 11
24.04759404179078
 21
16.72235173112419
 31
0.0
  0
LINE
  5
B0DE
330
A293
100
AcDbEntity
  8
DIM
100
AcDbLine
 10
26.29759404179079
 20
16.72235173112419
 30
0.0
 11
26.54759404179078
 21
16.72235173112419
 31
0.0
  0
SOLID
  5
B0DF
330
A293
100
AcDbEntity
  8
DIM
100
AcDbTrace
 10
24.29759404179078
 20
16.76401839779086
 30
0.0
 11
24.29759404179078
 21
16.68068506445752
 31
0.0
 12
24.54759404179078
 22
16.72235173112419
 32
0.0
 13
24.54759404179078
 23
16.72235173112419
 33
0.0
  0
SOLID
  5
B0E0
330
A293
100
AcDbEntity
  8
DIM
100
AcDbTrace
 10
26.29759404179079
 20
16.76401839779086
 30
0.0
 11
26.29759404179079
 21
16.68068506445752
 31
0.0
 12
26.04759404179079
 22
16.72235173112419
 32
0.0
 13
26.04759404179079
 23
16.72235173112419
 33
0.0
  0
MTEXT
  5
B0E1
330
A293
100
AcDbEntity
  8
DIM
100
AcDbMText
 10
26.85997499417174
 20
16.72235173112419
 30
0.0
 40
0.16
 41
0.0
 71
     5
 72
     1
  1
\A1;1.50
  7
ROMANS
  0
POINT
  5
B0E2
330
A293
100
AcDbEntity
  8
DEFPOINTS
 62
     0
100
AcDbPoint
 10
24.54759404179078
 20
15.81610173112419
 30
0.0
  0
POINT
  5
B0E3
330
A293
100
AcDbEntity
  8
DEFPOINTS
 62
     0
100
AcDbPoint
 10
26.04759404179079
 20
15.81610173112419
 30
0.0
  0
POINT
  5
B0E4
330
A293
100
AcDbEntity
  8
DEFPOINTS
 62
     0
100
AcDbPoint
 10
26.04759404179079
 20
16.72235173112419
 30
0.0
  0
ENDBLK
  5
A29F
330
A293
100
AcDbEntity
  8
0
100
AcDbBlockEnd
  0
BLOCK
  5
A2AC
330
A2A0
100
AcDbEntity
  8
0
100
AcDbBlockBegin
  2
*D5
 70
     1
 10
0.0
 20
0.0
 30
0.0
  3
*D5
  1

  0
LINE
  5
AFE3
330
A2A0
100
AcDbEntity
  8
DIM
100
AcDbLine
 10
24.42259404179079
 20
15.81610173112419
 30
0.0
 11
23.71946904179079
 21
15.81610173112419
 31
0.0
  0
LINE
  5
AFE4
330
A2A0
100
AcDbEntity
  8
DIM
100
AcDbLine
 10
24.50459404179079
 20
15.37860173112419
 30
0.0
 11
23.71946904179079
 21
15.37860173112419
 31
0.0
  0
LINE
  5
AFE5
330
A2A0
100
AcDbEntity
  8
DIM
100
AcDbLine
 10
23.84446904179078
 20
16.06610173112419
 30
0.0
 11
23.84446904179078
 21
16.31610173112419
 31
0.0
  0
LINE
  5
AFE6
330
A2A0
100
AcDbEntity
  8
DIM
100
AcDbLine
 10
23.84446904179078
 20
15.12860173112419
 30
0.0
 11
23.84446904179078
 21
14.87860173112419
 31
0.0
  0
SOLID
  5
AFE7
330
A2A0
100
AcDbEntity
  8
DIM
100
AcDbTrace
 10
23.80280237512411
 20
16.06610173112419
 30
0.0
 11
23.88613570845745
 21
16.06610173112419
 31
0.0
 12
23.84446904179078
 22
15.81610173112419
 32
0.0
 13
23.84446904179078
 23
15.81610173112419
 33
0.0
  0
SOLID
  5
AFE8
330
A2A0
100
AcDbEntity
  8
DIM
100
AcDbTrace
 10
23.80280237512411
 20
15.12860173112419
 30
0.0
 11
23.88613570845745
 21
15.12860173112419
 31
0.0
 12
23.84446904179078
 22
15.37860173112419
 32
0.0
 13
23.84446904179078
 23
15.37860173112419
 33
0.0
  0
MTEXT
  5
AFE9
330
A2A0
100
AcDbEntity
  8
DIM
100
AcDbMText
 10
23.84446904179078
 20
15.5973517311242
 30
0.0
 40
0.16
 41
0.0
 71
     5
 72
     1
  1
\A1;.44
  7
ROMANS
1001
ACAD
1000
MTEXTBEGIN
1070
    73
1070
     1
1070
    44
1040
1.0
1070
    74
1070
     0
1000
MTEXTEND
  0
POINT
  5
AFEA
330
A2A0
100
AcDbEntity
  8
DEFPOINTS
 62
     0
100
AcDbPoint
 10
24.54759404179078
 20
15.81610173112419
 30
0.0
  0
POINT
  5
AFEB
330
A2A0
100
AcDbEntity
  8
DEFPOINTS
 62
     0
100
AcDbPoint
 10
24.62959404179079
 20
15.37860173112419
 30
0.0
  0
POINT
  5
AFEC
330
A2A0
100
AcDbEntity
  8
DEFPOINTS
 62
     0
100
AcDbPoint
 10
23.84446904179078
 20
15.37860173112419
 30
0.0
  0
ENDBLK
  5
A2AD
330
A2A0
100
AcDbEntity
  8
0
100
AcDbBlockEnd
  0
BLOCK
  5
A2B9
330
A2AE
100
AcDbEntity
  8
0
100
AcDbBlockBegin
  2
*D6
 70
     1
 10
0.0
 20
0.0
 30
0.0
  3
*D6
  1

  0
LINE
  5
AFED
330
A2AE
100
AcDbEntity
  8
DIM
100
AcDbLine
 10
26.17259404179078
 20
15.81610173112419
 30
0.0
 11
27.53103980776521
 21
15.81610173112419
 31
0.0
  0
LINE
  5
AFEE
330
A2AE
100
AcDbEntity
  8
DIM
100
AcDbLine
 10
26.17259404179078
 20
9.816101731124195
 30
0.0
 11
27.53103980776521
 21
9.816101731124195
 31
0.0
  0
LINE
  5
AFEF
330
A2AE
100
AcDbEntity
  8
DIM
100
AcDbLine
 10
27.40603980776521
 20
15.56610173112419
 30
0.0
 11
27.40603980776521
 21
12.68573165314008
 31
0.0
  0
LINE
  5
AFF0
330
A2AE
100
AcDbEntity
  8
DIM
100
AcDbLine
 10
27.40603980776521
 20
10.06610173112419
 30
0.0
 11
27.40603980776521
 21
12.36573165314008
 31
0.0
  0
SOLID
  5
AFF1
330
A2AE
100
AcDbEntity
  8
DIM
100
AcDbTrace
 10
27.36437314109855
 20
15.56610173112419
 30
0.0
 11
27.44770647443188
 21
15.56610173112419
 31
0.0
 12
27.40603980776521
 22
15.81610173112419
 32
0.0
 13
27.40603980776521
 23
15.81610173112419
 33
0.0
  0
SOLID
  5
AFF2
330
A2AE
100
AcDbEntity
  8
DIM
100
AcDbTrace
 10
27.36437314109855
 20
10.06610173112419
 30
0.0
 11
27.44770647443188
 21
10.06610173112419
 31
0.0
 12
27.40603980776521
 22
9.816101731124195
 32
0.0
 13
27.40603980776521
 23
9.816101731124195
 33
0.0
  0
MTEXT
  5
AFF3
330
A2AE
100
AcDbEntity
  8
DIM
100
AcDbMText
 10
27.40603980776521
 20
12.52573165314009
 30
0.0
 40
0.16
 41
0.0
 71
     5
 72
     1
  1
\A1;6.00
  7
ROMANS
1001
ACAD
1000
MTEXTBEGIN
1070
    73
1070
     1
1070
    44
1040
1.0
1070
    74
1070
     0
1000
MTEXTEND
  0
POINT
  5
AFF4
330
A2AE
100
AcDbEntity
  8
DEFPOINTS
 62
     0
100
AcDbPoint
 10
26.04759404179079
 20
15.81610173112419
 30
0.0
  0
POINT
  5
AFF5
330
A2AE
100
AcDbEntity
  8
DEFPOINTS
 62
     0
100
AcDbPoint
 10
26.04759404179079
 20
9.816101731124195
 30
0.0
  0
POINT
  5
AFF6
330
A2AE
100
AcDbEntity
  8
DEFPOINTS
 62
     0
100
AcDbPoint
 10
27.40603980776521
 20
9.816101731124195
 30
0.0
  0
ENDBLK
  5
A2BA
330
A2AE
100
AcDbEntity
  8
0
100
AcDbBlockEnd
  0
BLOCK
  5
A2C6
330
A2BB
100
AcDbEntity
  8
0
100
AcDbBlockBegin
  2
*D7
 70
     1
 10
0.0
 20
0.0
 30
0.0
  3
*D7
  1

  0
LINE
  5
AFF7
330
A2BB
100
AcDbEntity
  8
DIM
100
AcDbLine
 10
26.17259404179078
 20
15.37860173112419
 30
0.0
 11
26.82966397462593
 21
15.37860173112419
 31
0.0
  0
LINE
  5
AFF8
330
A2BB
100
AcDbEntity
  8
DIM
100
AcDbLine
 10
26.17259404179078
 20
10.24972673112453
 30
0.0
 11
26.82966397462593
 21
10.24972673112453
 31
0.0
  0
LINE
  5
AFF9
330
A2BB
100
AcDbEntity
  8
DIM
100
AcDbLine
 10
26.70466397462593
 20
15.12860173112419
 30
0.0
 11
26.70466397462593
 21
12.97416423112436
 31
0.0
  0
LINE
  5
AFFA
330
A2BB
100
AcDbEntity
  8
DIM
100
AcDbLine
 10
26.70466397462593
 20
10.49972673112453
 30
0.0
 11
26.70466397462593
 21
12.65416423112436
 31
0.0
  0
SOLID
  5
AFFB
330
A2BB
100
AcDbEntity
  8
DIM
100
AcDbTrace
 10
26.66299730795926
 20
15.12860173112419
 30
0.0
 11
26.7463306412926
 21
15.12860173112419
 31
0.0
 12
26.70466397462593
 22
15.37860173112419
 32
0.0
 13
26.70466397462593
 23
15.37860173112419
 33
0.0
  0
SOLID
  5
AFFC
330
A2BB
100
AcDbEntity
  8
DIM
100
AcDbTrace
 10
26.66299730795926
 20
10.49972673112453
 30
0.0
 11
26.7463306412926
 21
10.49972673112453
 31
0.0
 12
26.70466397462593
 22
10.24972673112453
 32
0.0
 13
26.70466397462593
 23
10.24972673112453
 33
0.0
  0
MTEXT
  5
AFFD
330
A2BB
100
AcDbEntity
  8
DIM
100
AcDbMText
 10
26.70466397462593
 20
12.81416423112436
 30
0.0
 40
0.16
 41
0.0
 71
     5
 72
     1
  1
\A1;5.13
  7
ROMANS
1001
ACAD
1000
MTEXTBEGIN
1070
    73
1070
     1
1070
    44
1040
1.0
1070
    74
1070
     0
1000
MTEXTEND
  0
POINT
  5
AFFE
330
A2BB
100
AcDbEntity
  8
DEFPOINTS
 62
     0
100
AcDbPoint
 10
26.04759404179079
 20
15.37860173112419
 30
0.0
  0
POINT
  5
AFFF
330
A2BB
100
AcDbEntity
  8
DEFPOINTS
 62
     0
100
AcDbPoint
 10
26.04759404179079
 20
10.24972673112453
 30
0.0
  0
POINT
  5
B000
330
A2BB
100
AcDbEntity
  8
DEFPOINTS
 62
     0
100
AcDbPoint
 10
26.70466397462593
 20
10.24972673112453
 30
0.0
  0
ENDBLK
  5
A2C7
330
A2BB
100
AcDbEntity
  8
0
100
AcDbBlockEnd
  0
BLOCK
  5
A2D3
330
A2C8
100
AcDbEntity
  8
0
100
AcDbBlockBegin
  2
*D8
 70
     1
 10
0.0
 20
0.0
 30
0.0
  3
*D8
  1

  0
LINE
  5
B001
330
A2C8
100
AcDbEntity
  8
DIM
100
AcDbLine
 10
25.75773139422661
 20
4.24627074802139
 30
0.0
 11
26.77296064643251
 21
4.246270748021389
 31
0.0
  0
LINE
  5
B002
330
A2C8
100
AcDbEntity
  8
DIM
100
AcDbLine
 10
25.75773139422661
 20
3.082330319021354
 30
0.0
 11
26.77296064643251
 21
3.082330319021354
 31
0.0
  0
LINE
  5
B003
330
A2C8
100
AcDbEntity
  8
DIM
100
AcDbLine
 10
26.64796064643251
 20
3.99627074802139
 30
0.0
 11
26.64796064643251
 21
3.824300533521372
 31
0.0
  0
LINE
  5
B004
330
A2C8
100
AcDbEntity
  8
DIM
100
AcDbLine
 10
26.64796064643251
 20
3.332330319021354
 30
0.0
 11
26.64796064643251
 21
3.504300533521372
 31
0.0
  0
SOLID
  5
B005
330
A2C8
100
AcDbEntity
  8
DIM
100
AcDbTrace
 10
26.60629397976585
 20
3.99627074802139
 30
0.0
 11
26.68962731309918
 21
3.99627074802139
 31
0.0
 12
26.64796064643251
 22
4.246270748021389
 32
0.0
 13
26.64796064643251
 23
4.246270748021389
 33
0.0
  0
SOLID
  5
B006
330
A2C8
100
AcDbEntity
  8
DIM
100
AcDbTrace
 10
26.60629397976585
 20
3.332330319021354
 30
0.0
 11
26.68962731309918
 21
3.332330319021354
 31
0.0
 12
26.64796064643251
 22
3.082330319021354
 32
0.0
 13
26.64796064643251
 23
3.082330319021354
 33
0.0
  0
MTEXT
  5
B007
330
A2C8
100
AcDbEntity
  8
DIM
100
AcDbMText
 10
26.64796064643251
 20
3.664300533521376
 30
0.0
 40
0.16
 41
0.0
 71
     5
 72
     1
  1
\A1;1.16
  7
ROMANS
1001
ACAD
1000
MTEXTBEGIN
1070
    73
1070
     1
1070
    44
1040
1.0
1070
    74
1070
     0
1000
MTEXTEND
  0
POINT
  5
B008
330
A2C8
100
AcDbEntity
  8
DEFPOINTS
 62
     0
100
AcDbPoint
 10
25.63273139422661
 20
4.24627074802139
 30
0.0
  0
POINT
  5
B009
330
A2C8
100
AcDbEntity
  8
DEFPOINTS
 62
     0
100
AcDbPoint
 10
25.63273139422661
 20
3.082330319021354
 30
0.0
  0
POINT
  5
B00A
330
A2C8
100
AcDbEntity
  8
DEFPOINTS
 62
     0
100
AcDbPoint
 10
26.64796064643251
 20
3.082330319021354
 30
0.0
  0
ENDBLK
  5
A2D4
330
A2C8
100
AcDbEntity
  8
0
100
AcDbBlockEnd
  0
BLOCK
  5
A2E0
330
A2D5
100
AcDbEntity
  8
0
100
AcDbBlockBegin
  2
*D9
 70
     1
 10
0.0
 20
0.0
 30
0.0
  3
*D9
  1

  0
LINE
  5
B00B
330
A2D5
100
AcDbEntity
  8
DIM
100
AcDbLine
 10
25.66773139422661
 20
5.785272213021345
 30
0.0
 11
26.77296064643251
 21
5.785272213021344
 31
0.0
  0
LINE
  5
B00C
330
A2D5
100
AcDbEntity
  8
DIM
100
AcDbLine
 10
25.66773139422661
 20
4.24627074802139
 30
0.0
 11
26.77296064643251
 21
4.246270748021389
 31
0.0
  0
LINE
  5
B00D
330
A2D5
100
AcDbEntity
  8
DIM
100
AcDbLine
 10
26.64796064643251
 20
5.535272213021344
 30
0.0
 11
26.64796064643251
 21
5.175771480521366
 31
0.0
  0
LINE
  5
B00E
330
A2D5
100
AcDbEntity
  8
DIM
100
AcDbLine
 10
26.64796064643251
 20
4.496270748021389
 30
0.0
 11
26.64796064643251
 21
4.855771480521366
 31
0.0
  0
SOLID
  5
B00F
330
A2D5
100
AcDbEntity
  8
DIM
100
AcDbTrace
 10
26.60629397976585
 20
5.535272213021344
 30
0.0
 11
26.68962731309918
 21
5.535272213021344
 31
0.0
 12
26.64796064643251
 22
5.785272213021344
 32
0.0
 13
26.64796064643251
 23
5.785272213021344
 33
0.0
  0
SOLID
  5
B010
330
A2D5
100
AcDbEntity
  8
DIM
100
AcDbTrace
 10
26.60629397976585
 20
4.496270748021389
 30
0.0
 11
26.68962731309918
 21
4.496270748021389
 31
0.0
 12
26.64796064643251
 22
4.246270748021389
 32
0.0
 13
26.64796064643251
 23
4.246270748021389
 33
0.0
  0
MTEXT
  5
B011
330
A2D5
100
AcDbEntity
  8
DIM
100
AcDbMText
 10
26.64796064643251
 20
5.015771480521371
 30
0.0
 40
0.16
 41
0.0
 71
     5
 72
     1
  1
\A1;1.54
  7
ROMANS
1001
ACAD
1000
MTEXTBEGIN
1070
    73
1070
     1
1070
    44
1040
1.0
1070
    74
1070
     0
1000
MTEXTEND
  0
POINT
  5
B012
330
A2D5
100
AcDbEntity
  8
DEFPOINTS
 62
     0
100
AcDbPoint
 10
25.54273139422661
 20
5.785272213021345
 30
0.0
  0
POINT
  5
B013
330
A2D5
100
AcDbEntity
  8
DEFPOINTS
 62
     0
100
AcDbPoint
 10
25.54273139422661
 20
4.24627074802139
 30
0.0
  0
POINT
  5
B014
330
A2D5
100
AcDbEntity
  8
DEFPOINTS
 62
     0
100
AcDbPoint
 10
26.64796064643251
 20
4.246270748021389
 30
0.0
  0
ENDBLK
  5
A2E1
330
A2D5
100
AcDbEntity
  8
0
100
AcDbBlockEnd
  0
BLOCK
  5
A2ED
330
A2E2
100
AcDbEntity
  8
0
100
AcDbBlockBegin
  2
*D10
 70
     1
 10
0.0
 20
0.0
 30
0.0
  3
*D10
  1

  0
LINE
  5
B0E5
330
A2E2
100
AcDbEntity
  8
DIM
100
AcDbLine
 10
26.04468451922661
 20
6.36327514302137
 30
0.0
 11
26.04468451922661
 21
7.640974228851531
 31
0.0
  0
LINE
  5
B0E6
330
A2E2
100
AcDbEntity
  8
DIM
100
AcDbLine
 10
25.29714545622662
 20
6.36327514302137
 30
0.0
 11
25.29714545622662
 21
7.640974228851531
 31
0.0
  0
LINE
  5
B0E7
330
A2E2
100
AcDbEntity
  8
DIM
100
AcDbLine
 10
26.29468451922661
 20
7.515974228851531
 30
0.0
 11
26.54468451922661
 21
7.515974228851531
 31
0.0
  0
LINE
  5
B0E8
330
A2E2
100
AcDbEntity
  8
DIM
100
AcDbLine
 10
25.04714545622662
 20
7.515974228851531
 30
0.0
 11
24.79714545622662
 21
7.515974228851531
 31
0.0
  0
SOLID
  5
B0E9
330
A2E2
100
AcDbEntity
  8
DIM
100
AcDbTrace
 10
26.29468451922661
 20
7.557640895518198
 30
0.0
 11
26.29468451922661
 21
7.474307562184864
 31
0.0
 12
26.04468451922661
 22
7.515974228851531
 32
0.0
 13
26.04468451922661
 23
7.515974228851531
 33
0.0
  0
SOLID
  5
B0EA
330
A2E2
100
AcDbEntity
  8
DIM
100
AcDbTrace
 10
25.04714545622662
 20
7.557640895518198
 30
0.0
 11
25.04714545622662
 21
7.474307562184864
 31
0.0
 12
25.29714545622662
 22
7.515974228851531
 32
0.0
 13
25.29714545622662
 23
7.515974228851531
 33
0.0
  0
MTEXT
  5
B0EB
330
A2E2
100
AcDbEntity
  8
DIM
100
AcDbMText
 10
25.62067811925035
 20
7.515974228851531
 30
0.0
 40
0.16
 41
0.0
 71
     5
 72
     1
  1
\A1;.75
  7
ROMANS
  0
POINT
  5
B0EC
330
A2E2
100
AcDbEntity
  8
DEFPOINTS
 62
     0
100
AcDbPoint
 10
26.04468451922661
 20
6.23827514302137
 30
0.0
  0
POINT
  5
B0ED
330
A2E2
100
AcDbEntity
  8
DEFPOINTS
 62
     0
100
AcDbPoint
 10
25.29714545622662
 20
6.23827514302137
 30
0.0
  0
POINT
  5
B0EE
330
A2E2
100
AcDbEntity
  8
DEFPOINTS
 62
     0
100
AcDbPoint
 10
25.29714545622662
 20
7.515974228851531
 30
0.0
  0
ENDBLK
  5
A2EE
330
A2E2
100
AcDbEntity
  8
0
100
AcDbBlockEnd
  0
BLOCK
  5
A2FA
330
A2EF
100
AcDbEntity
  8
0
100
AcDbBlockBegin
  2
*D11
 70
     1
 10
0.0
 20
0.0
 30
0.0
  3
*D11
  1

  0
ARC
  5
B0EF
330
A2EF
100
AcDbEntity
  8
DIM
100
AcDbCircle
 10
15.99661440003643
 20
11.97007151888151
 30
0.0
 40
3.711819711647283
100
AcDbArc
 50
172.28052286664
 51
176.1402614333199
  0
ARC
  5
B0F0
330
A2EF
100
AcDbEntity
  8
DIM
100
AcDbCircle
 10
15.99661440003643
 20
11.97007151888151
 30
0.0
 40
3.711819711647283
100
AcDbArc
 50
193.8613250698768
 51
197.7210636365569
  0
SOLID
  5
B0F1
330
A2EF
100
AcDbEntity
  8
DIM
100
AcDbTrace
 10
12.33485677269269
 20
12.21852654263088
 30
0.0
 11
12.25157070637919
 21
12.22133289301314
 31
0.0
 12
12.28479468838915
 22
11.97007151888152
 32
0.0
 13
12.28479468838915
 23
11.97007151888152
 33
0.0
  0
SOLID
  5
B0F2
330
A2EF
100
AcDbEntity
  8
DIM
100
AcDbTrace
 10
12.35212227511075
 20
11.07220644166383
 30
0.0
 11
12.43365524428506
 21
11.08943488854875
 31
0.0
 12
12.34120341904313
 22
11.3254195726292
 32
0.0
 13
12.34120341904313
 23
11.3254195726292
 33
0.0
  0
MTEXT
  5
B0F3
330
A2EF
100
AcDbEntity
  8
DIM
100
AcDbMText
 10
12.29790758528529
 20
11.65834492347012
 30
0.0
 40
0.16
 41
0.0
 71
     5
 72
     1
  1
\A1;10°
  7
ROMANS
  0
POINT
  5
B0F4
330
A2EF
100
AcDbEntity
  8
DEFPOINTS
 62
     0
100
AcDbPoint
 10
12.30990064065769
 20
11.53908749576606
 30
0.0
  0
POINT
  5
B0F5
330
A2EF
100
AcDbEntity
  8
DEFPOINTS
 62
     0
100
AcDbPoint
 10
12.91960607707739
 20
11.97007151888151
 30
0.0
  0
POINT
  5
B0F6
330
A2EF
100
AcDbEntity
  8
DEFPOINTS
 62
     0
100
AcDbPoint
 10
12.96623693707743
 20
11.43564769088151
 30
0.0
  0
POINT
  5
B0F7
330
A2EF
100
AcDbEntity
  8
DEFPOINTS
 62
     0
100
AcDbPoint
 10
11.62444006207744
 20
11.19901438988153
 30
0.0
  0
POINT
  5
B0F8
330
A2EF
100
AcDbEntity
  8
DEFPOINTS
 62
     0
100
AcDbPoint
 10
9.573902952077387
 20
11.97007151888152
 30
0.0
  0
ENDBLK
  5
A2FB
330
A2EF
100
AcDbEntity
  8
0
100
AcDbBlockEnd
  0
BLOCK
  5
A308
330
A2FC
100
AcDbEntity
  8
0
100
AcDbBlockBegin
  2
*D12
 70
     1
 10
0.0
 20
0.0
 30
0.0
  3
*D12
  1

  0
LINE
  5
B0F9
330
A2FC
100
AcDbEntity
  8
DIM
100
AcDbLine
 10
11.43632690201544
 20
12.16919512300889
 30
0.0
 11
11.18780974767256
 21
12.18005883481648
 31
0.0
  0
ARC
  5
B0FA
330
A2FC
100
AcDbEntity
  8
DIM
100
AcDbCircle
 10
15.99145799686638
 20
11.97007151888152
 30
0.0
 40
4.683235765313135
100
AcDbArc
 50
171.3791171478935
 51
174.4380377077986
  0
ARC
  5
B0FB
330
A2FC
100
AcDbEntity
  8
DIM
100
AcDbCircle
 10
15.99145799686638
 20
11.97007151888152
 30
0.0
 40
4.683235765313135
100
AcDbArc
 50
183.058920559905
 51
186.1178411198101
  0
SOLID
  5
B0FC
330
A2FC
100
AcDbEntity
  8
DIM
100
AcDbTrace
 10
11.3718345859807
 20
12.42105076366564
 30
0.0
 11
11.28870755938041
 21
12.42691095931425
 31
0.0
 12
11.31269048573473
 22
12.17459978168909
 32
0.0
 13
11.31269048573473
 23
12.17459978168909
 33
0.0
  0
SOLID
  5
B0FD
330
A2FC
100
AcDbEntity
  8
DIM
100
AcDbTrace
 10
11.27324314621478
 20
11.71904846276915
 30
0.0
 11
11.35654679064789
 21
11.72127270839518
 31
0.0
 12
11.30822223155324
 22
11.97007151888152
 32
0.0
 13
11.30822223155324
 23
11.97007151888152
 33
0.0
  0
MTEXT
  5
B0FE
330
A2FC
100
AcDbEntity
  8
DIM
100
AcDbMText
 10
11.46037875913933
 20
13.15414000294271
 30
0.0
 40
0.16
 41
0.0
 71
     5
 72
     1
  1
\A1;3°
  7
ROMANS
  0
POINT
  5
B0FF
330
A2FC
100
AcDbEntity
  8
DEFPOINTS
 62
     0
100
AcDbPoint
 10
11.3087187744326
 20
12.03826688667456
 30
0.0
  0
POINT
  5
B100
330
A2FC
100
AcDbEntity
  8
DEFPOINTS
 62
     0
100
AcDbPoint
 10
12.91960607707739
 20
11.97007151888152
 30
0.0
  0
POINT
  5
B101
330
A2FC
100
AcDbEntity
  8
DEFPOINTS
 62
     0
100
AcDbPoint
 10
12.92253576507761
 20
12.10422679188149
 30
0.0
  0
POINT
  5
B102
330
A2FC
100
AcDbEntity
  8
DEFPOINTS
 62
     0
100
AcDbPoint
 10
11.56120764007761
 20
12.1637360698815
 30
0.0
  0
POINT
  5
B103
330
A2FC
100
AcDbEntity
  8
DEFPOINTS
 62
     0
100
AcDbPoint
 10
9.573902952077391
 20
11.97007151888151
 30
0.0
  0
ENDBLK
  5
A309
330
A2FC
100
AcDbEntity
  8
0
100
AcDbBlockEnd
  0
BLOCK
  5
A315
330
A30A
100
AcDbEntity
  8
0
100
AcDbBlockBegin
  2
*D13
 70
     1
 10
0.0
 20
0.0
 30
0.0
  3
*D13
  1

  0
ARC
  5
B104
330
A30A
100
AcDbEntity
  8
DIM
100
AcDbCircle
 10
15.99673473340953
 20
11.97007151888152
 30
0.0
 40
6.256235761295037
100
AcDbArc
 50
182.2896992094088
 51
186.2926804835566
  0
ARC
  5
B105
330
A30A
100
AcDbEntity
  8
DIM
100
AcDbCircle
 10
15.99673473340953
 20
11.97007151888152
 30
0.0
 40
6.256235761295037
100
AcDbArc
 50
189.250797267127
 51
193.9609718450173
  0
SOLID
  5
B106
330
A30A
100
AcDbEntity
  8
DIM
100
AcDbTrace
 10
9.703835639370748
 20
11.71928892151234
 30
0.0
 11
9.787152337584737
 21
11.72095392696675
 31
0.0
 12
9.740498972114496
 22
11.97007151888152
 32
0.0
 13
9.740498972114496
 23
11.97007151888152
 33
0.0
  0
SOLID
  5
B107
330
A30A
100
AcDbEntity
  8
DIM
100
AcDbTrace
 10
9.965533278871323
 20
10.4715448691636
 30
0.0
 11
9.885079432393393
 21
10.4498279856084
 31
0.0
 12
9.990457006297958
 22
10.21932488795221
 32
0.0
 13
9.990457006297958
 23
10.21932488795221
 33
0.0
  0
MTEXT
  5
B108
330
A30A
100
AcDbEntity
  8
DIM
100
AcDbMText
 10
9.797926151542268
 20
11.12434220859619
 30
0.0
 40
0.16
 41
0.0
 71
     5
 72
     1
  1
\A1;16°
  7
ROMANS
  0
POINT
  5
B109
330
A30A
100
AcDbEntity
  8
DEFPOINTS
 62
     0
100
AcDbPoint
 10
9.852006346489941
 20
10.79414679684722
 30
0.0
  0
POINT
  5
B10A
330
A30A
100
AcDbEntity
  8
DEFPOINTS
 62
     0
100
AcDbPoint
 10
12.91960607707739
 20
11.97007151888152
 30
0.0
  0
POINT
  5
B10B
330
A30A
100
AcDbEntity
  8
DEFPOINTS
 62
     0
100
AcDbPoint
 10
13.04240881207744
 20
11.10892649888148
 30
0.0
  0
POINT
  5
B10C
330
A30A
100
AcDbEntity
  8
DEFPOINTS
 62
     0
100
AcDbPoint
 10
9.830738890077613
 20
10.1727692728815
 30
0.0
  0
POINT
  5
B10D
330
A30A
100
AcDbEntity
  8
DEFPOINTS
 62
     0
100
AcDbPoint
 10
9.573902952077393
 20
11.97007151888152
 30
0.0
  0
ENDBLK
  5
A316
330
A30A
100
AcDbEntity
  8
0
100
AcDbBlockEnd
  0
BLOCK
  5
A322
330
A317
100
AcDbEntity
  8
0
100
AcDbBlockBegin
  2
*D14
 70
     1
 10
0.0
 20
0.0
 30
0.0
  3
*D14
  1

  0
ARC
  5
B10E
330
A317
100
AcDbEntity
  8
DIM
100
AcDbCircle
 10
15.99679620890301
 20
11.97007151888151
 30
0.0
 40
6.25541324444199
100
AcDbArc
 50
171.290449922038
 51
172.655232485918
  0
ARC
  5
B10F
330
A317
100
AcDbEntity
  8
DIM
100
AcDbCircle
 10
15.99679620890301
 20
11.97007151888151
 30
0.0
 40
6.25541324444199
100
AcDbArc
 50
175.6020195608122
 51
177.7099996806811
  0
SOLID
  5
B110
330
A317
100
AcDbEntity
  8
DIM
100
AcDbTrace
 10
9.772464364322253
 20
12.9244322517862
 30
0.0
 11
9.854568147540481
 21
12.91016995093051
 31
0.0
 12
9.856303158498439
 22
13.16361245101305
 32
0.0
 13
9.856303158498439
 23
13.16361245101305
 33
0.0
  0
SOLID
  5
B111
330
A317
100
AcDbEntity
  8
DIM
100
AcDbTrace
 10
9.788036984532336
 20
12.21918898820532
 30
0.0
 11
9.704720290693733
 21
12.22085421258932
 31
0.0
 12
9.741382964461022
 22
11.97007151888151
 32
0.0
 13
9.741382964461022
 23
11.97007151888151
 33
0.0
  0
MTEXT
  5
B112
330
A317
100
AcDbEntity
  8
DIM
100
AcDbMText
 10
9.774176796516162
 20
12.60976090235335
 30
0.0
 40
0.16
 41
0.0
 71
     5
 72
     1
  1
\A1;11°
  7
ROMANS
  0
POINT
  5
B113
330
A317
100
AcDbEntity
  8
DEFPOINTS
 62
     0
100
AcDbPoint
 10
9.75418679425587
 20
12.37009971151194
 30
0.0
  0
POINT
  5
B114
330
A317
100
AcDbEntity
  8
DEFPOINTS
 62
     0
100
AcDbPoint
 10
12.91960607707739
 20
11.97007151888151
 30
0.0
  0
POINT
  5
B115
330
A317
100
AcDbEntity
  8
DEFPOINTS
 62
     0
100
AcDbPoint
 10
12.97600256207743
 20
12.55722972188146
 30
0.0
  0
POINT
  5
B116
330
A317
100
AcDbEntity
  8
DEFPOINTS
 62
     0
100
AcDbPoint
 10
9.692067015077611
 20
13.19553538588149
 30
0.0
  0
POINT
  5
B117
330
A317
100
AcDbEntity
  8
DEFPOINTS
 62
     0
100
AcDbPoint
 10
9.573902952077389
 20
11.97007151888151
 30
0.0
  0
ENDBLK
  5
A323
330
A317
100
AcDbEntity
  8
0
100
AcDbBlockEnd
  0
BLOCK
  5
A32F
330
A324
100
AcDbEntity
  8
0
100
AcDbBlockBegin
  2
*D15
 70
     1
 10
0.0
 20
0.0
 30
0.0
  3
*D15
  1

  0
LINE
  5
B048
330
A324
100
AcDbEntity
  8
DIM
100
AcDbLine
 10
15.97600256207743
 20
11.82554026888152
 30
0.0
 11
15.97600256207743
 21
9.352599567290706
 31
0.0
  0
LINE
  5
B049
330
A324
100
AcDbEntity
  8
DIM
100
AcDbLine
 10
17.1158951400776
 20
11.82554026888152
 30
0.0
 11
17.1158951400776
 21
9.352599567290706
 31
0.0
  0
LINE
  5
B04A
330
A324
100
AcDbEntity
  8
DIM
100
AcDbLine
 10
15.72600256207743
 20
9.477599567290706
 30
0.0
 11
15.47600256207743
 21
9.477599567290706
 31
0.0
  0
LINE
  5
B04B
330
A324
100
AcDbEntity
  8
DIM
100
AcDbLine
 10
17.3658951400776
 20
9.477599567290706
 30
0.0
 11
17.6158951400776
 21
9.477599567290706
 31
0.0
  0
SOLID
  5
B04C
330
A324
100
AcDbEntity
  8
DIM
100
AcDbTrace
 10
15.72600256207743
 20
9.519266233957372
 30
0.0
 11
15.72600256207743
 21
9.43593290062404
 31
0.0
 12
15.97600256207743
 22
9.477599567290706
 32
0.0
 13
15.97600256207743
 23
9.477599567290706
 33
0.0
  0
SOLID
  5
B04D
330
A324
100
AcDbEntity
  8
DIM
100
AcDbTrace
 10
17.3658951400776
 20
9.519266233957372
 30
0.0
 11
17.3658951400776
 21
9.43593290062404
 31
0.0
 12
17.1158951400776
 22
9.477599567290706
 32
0.0
 13
17.1158951400776
 23
9.477599567290706
 33
0.0
  0
MTEXT
  5
B04E
330
A324
100
AcDbEntity
  8
DIM
100
AcDbMText
 10
16.50983133368376
 20
9.477599567290706
 30
0.0
 40
0.16
 41
0.0
 71
     5
 72
     1
  1
\A1;1.14
  7
ROMANS
1001
ACAD
1000
MTEXTBEGIN
1070
    73
1070
     1
1070
    44
1040
1.0
1070
    74
1070
     0
1000
MTEXTEND
  0
POINT
  5
B04F
330
A324
100
AcDbEntity
  8
DEFPOINTS
 62
     0
100
AcDbPoint
 10
15.97600256207743
 20
11.95054026888151
 30
0.0
  0
POINT
  5
B050
330
A324
100
AcDbEntity
  8
DEFPOINTS
 62
     0
100
AcDbPoint
 10
17.1158951400776
 20
11.95054026888151
 30
0.0
  0
POINT
  5
B051
330
A324
100
AcDbEntity
  8
DEFPOINTS
 62
     0
100
AcDbPoint
 10
17.1158951400776
 20
9.477599567290706
 30
0.0
  0
ENDBLK
  5
A330
330
A324
100
AcDbEntity
  8
0
100
AcDbBlockEnd
  0
BLOCK
  5
A33C
330
A331
100
AcDbEntity
  8
0
100
AcDbBlockBegin
  2
*D16
 70
     1
 10
0.0
 20
0.0
 30
0.0
  3
*D16
  1

  0
LINE
  5
B052
330
A331
100
AcDbEntity
  8
DIM
100
AcDbLine
 10
14.40058642941006
 20
9.950540268881519
 30
0.0
 11
14.40058642941006
 21
8.820004805282835
 31
0.0
  0
LINE
  5
B053
330
A331
100
AcDbEntity
  8
DIM
100
AcDbLine
 10
17.1158951400776
 20
9.950540268881519
 30
0.0
 11
17.1158951400776
 21
8.820004805282835
 31
0.0
  0
LINE
  5
B054
330
A331
100
AcDbEntity
  8
DIM
100
AcDbLine
 10
14.65058642941006
 20
8.945004805282835
 30
0.0
 11
15.4344312609343
 21
8.945004805282835
 31
0.0
  0
LINE
  5
B055
330
A331
100
AcDbEntity
  8
DIM
100
AcDbLine
 10
16.8658951400776
 20
8.945004805282835
 30
0.0
 11
16.08205030855335
 21
8.945004805282835
 31
0.0
  0
SOLID
  5
B056
330
A331
100
AcDbEntity
  8
DIM
100
AcDbTrace
 10
14.65058642941006
 20
8.986671471949501
 30
0.0
 11
14.65058642941006
 21
8.903338138616168
 31
0.0
 12
14.40058642941006
 22
8.945004805282835
 32
0.0
 13
14.40058642941006
 23
8.945004805282835
 33
0.0
  0
SOLID
  5
B057
330
A331
100
AcDbEntity
  8
DIM
100
AcDbTrace
 10
16.8658951400776
 20
8.986671471949501
 30
0.0
 11
16.8658951400776
 21
8.903338138616168
 31
0.0
 12
17.1158951400776
 22
8.945004805282835
 32
0.0
 13
17.1158951400776
 23
8.945004805282835
 33
0.0
  0
MTEXT
  5
B058
330
A331
100
AcDbEntity
  8
DIM
100
AcDbMText
 10
15.75824078474383
 20
8.945004805282835
 30
0.0
 40
0.16
 41
0.0
 71
     5
 72
     1
  1
\A1;2.72
  7
ROMANS
1001
ACAD
1000
MTEXTBEGIN
1070
    73
1070
     1
1070
    44
1040
1.0
1070
    74
1070
     0
1000
MTEXTEND
  0
POINT
  5
B059
330
A331
100
AcDbEntity
  8
DEFPOINTS
 62
     0
100
AcDbPoint
 10
14.40058642941006
 20
10.07554026888151
 30
0.0
  0
POINT
  5
B05A
330
A331
100
AcDbEntity
  8
DEFPOINTS
 62
     0
100
AcDbPoint
 10
17.1158951400776
 20
10.07554026888151
 30
0.0
  0
POINT
  5
B05B
330
A331
100
AcDbEntity
  8
DEFPOINTS
 62
     0
100
AcDbPoint
 10
17.1158951400776
 20
8.945004805282835
 30
0.0
  0
ENDBLK
  5
A33D
330
A331
100
AcDbEntity
  8
0
100
AcDbBlockEnd
  0
BLOCK
  5
A349
330
A33E
100
AcDbEntity
  8
0
100
AcDbBlockBegin
  2
*D17
 70
     1
 10
0.0
 20
0.0
 30
0.0
  3
*D17
  1

  0
LINE
  5
B05C
330
A33E
100
AcDbEntity
  8
DIM
100
AcDbLine
 10
14.11589514007761
 20
9.708474838881494
 30
0.0
 11
14.11589514007761
 21
8.304590522361571
 31
0.0
  0
LINE
  5
B05D
330
A33E
100
AcDbEntity
  8
DIM
100
AcDbLine
 10
17.1158951400776
 20
9.708474838881494
 30
0.0
 11
17.1158951400776
 21
8.304590522361571
 31
0.0
  0
LINE
  5
B05E
330
A33E
100
AcDbEntity
  8
DIM
100
AcDbLine
 10
14.36589514007762
 20
8.429590522361571
 30
0.0
 11
15.29208561626808
 21
8.429590522361571
 31
0.0
  0
LINE
  5
B05F
330
A33E
100
AcDbEntity
  8
DIM
100
AcDbLine
 10
16.8658951400776
 20
8.429590522361571
 30
0.0
 11
15.93970466388713
 21
8.429590522361571
 31
0.0
  0
SOLID
  5
B060
330
A33E
100
AcDbEntity
  8
DIM
100
AcDbTrace
 10
14.36589514007762
 20
8.471257189028237
 30
0.0
 11
14.36589514007762
 21
8.387923855694905
 31
0.0
 12
14.11589514007761
 22
8.429590522361571
 32
0.0
 13
14.11589514007761
 23
8.429590522361571
 33
0.0
  0
SOLID
  5
B061
330
A33E
100
AcDbEntity
  8
DIM
100
AcDbTrace
 10
16.8658951400776
 20
8.471257189028237
 30
0.0
 11
16.8658951400776
 21
8.387923855694905
 31
0.0
 12
17.1158951400776
 22
8.429590522361571
 32
0.0
 13
17.1158951400776
 23
8.429590522361571
 33
0.0
  0
MTEXT
  5
B062
330
A33E
100
AcDbEntity
  8
DIM
100
AcDbMText
 10
15.61589514007761
 20
8.429590522361571
 30
0.0
 40
0.16
 41
0.0
 71
     5
 72
     1
  1
\A1;3.00
  7
ROMANS
1001
ACAD
1000
MTEXTBEGIN
1070
    73
1070
     1
1070
    44
1040
1.0
1070
    74
1070
     0
1000
MTEXTEND
  0
POINT
  5
B063
330
A33E
100
AcDbEntity
  8
DEFPOINTS
 62
     0
100
AcDbPoint
 10
14.11589514007761
 20
9.833474838881494
 30
0.0
  0
POINT
  5
B064
330
A33E
100
AcDbEntity
  8
DEFPOINTS
 62
     0
100
AcDbPoint
 10
17.1158951400776
 20
9.833474838881494
 30
0.0
  0
POINT
  5
B065
330
A33E
100
AcDbEntity
  8
DEFPOINTS
 62
     0
100
AcDbPoint
 10
17.1158951400776
 20
8.429590522361571
 30
0.0
  0
ENDBLK
  5
A34A
330
A33E
100
AcDbEntity
  8
0
100
AcDbBlockEnd
  0
BLOCK
  5
A356
330
A34B
100
AcDbEntity
  8
0
100
AcDbBlockBegin
  2
*D18
 70
     1
 10
0.0
 20
0.0
 30
0.0
  3
*D18
  1

  0
LINE
  5
B066
330
A34B
100
AcDbEntity
  8
DIM
100
AcDbLine
 10
13.83488928007756
 20
10.57450267088148
 30
0.0
 11
13.83488928007756
 21
7.7719957603537
 31
0.0
  0
LINE
  5
B067
330
A34B
100
AcDbEntity
  8
DIM
100
AcDbLine
 10
17.1158951400776
 20
10.57450267088148
 30
0.0
 11
17.1158951400776
 21
7.7719957603537
 31
0.0
  0
LINE
  5
B068
330
A34B
100
AcDbEntity
  8
DIM
100
AcDbLine
 10
14.08488928007757
 20
7.8969957603537
 30
0.0
 11
15.15158268626806
 21
7.8969957603537
 31
0.0
  0
LINE
  5
B069
330
A34B
100
AcDbEntity
  8
DIM
100
AcDbLine
 10
16.8658951400776
 20
7.8969957603537
 30
0.0
 11
15.79920173388711
 21
7.8969957603537
 31
0.0
  0
SOLID
  5
B06A
330
A34B
100
AcDbEntity
  8
DIM
100
AcDbTrace
 10
14.08488928007757
 20
7.938662427020367
 30
0.0
 11
14.08488928007757
 21
7.855329093687033
 31
0.0
 12
13.83488928007756
 22
7.8969957603537
 32
0.0
 13
13.83488928007756
 23
7.8969957603537
 33
0.0
  0
SOLID
  5
B06B
330
A34B
100
AcDbEntity
  8
DIM
100
AcDbTrace
 10
16.8658951400776
 20
7.938662427020367
 30
0.0
 11
16.8658951400776
 21
7.855329093687033
 31
0.0
 12
17.1158951400776
 22
7.8969957603537
 32
0.0
 13
17.1158951400776
 23
7.8969957603537
 33
0.0
  0
MTEXT
  5
B06C
330
A34B
100
AcDbEntity
  8
DIM
100
AcDbMText
 10
15.47539221007758
 20
7.8969957603537
 30
0.0
 40
0.16
 41
0.0
 71
     5
 72
     1
  1
\A1;3.28
  7
ROMANS
1001
ACAD
1000
MTEXTBEGIN
1070
    73
1070
     1
1070
    44
1040
1.0
1070
    74
1070
     0
1000
MTEXTEND
  0
POINT
  5
B06D
330
A34B
100
AcDbEntity
  8
DEFPOINTS
 62
     0
100
AcDbPoint
 10
13.83488928007756
 20
10.69950267088148
 30
0.0
  0
POINT
  5
B06E
330
A34B
100
AcDbEntity
  8
DEFPOINTS
 62
     0
100
AcDbPoint
 10
17.1158951400776
 20
10.69950267088148
 30
0.0
  0
POINT
  5
B06F
330
A34B
100
AcDbEntity
  8
DEFPOINTS
 62
     0
100
AcDbPoint
 10
17.1158951400776
 20
7.8969957603537
 30
0.0
  0
ENDBLK
  5
A357
330
A34B
100
AcDbEntity
  8
0
100
AcDbBlockEnd
  0
BLOCK
  5
A363
330
A358
100
AcDbEntity
  8
0
100
AcDbBlockBegin
  2
*D19
 70
     1
 10
0.0
 20
0.0
 30
0.0
  3
*D19
  1

  0
LINE
  5
B070
330
A358
100
AcDbEntity
  8
DIM
100
AcDbLine
 10
13.69560705407747
 20
11.6563202978815
 30
0.0
 11
13.69560705407747
 21
7.187859561085986
 31
0.0
  0
LINE
  5
B071
330
A358
100
AcDbEntity
  8
DIM
100
AcDbLine
 10
17.1158951400776
 20
11.6563202978815
 30
0.0
 11
17.1158951400776
 21
7.187859561085986
 31
0.0
  0
LINE
  5
B072
330
A358
100
AcDbEntity
  8
DIM
100
AcDbLine
 10
13.94560705407747
 20
7.312859561085986
 30
0.0
 11
15.08194157326801
 21
7.312859561085986
 31
0.0
  0
LINE
  5
B073
330
A358
100
AcDbEntity
  8
DIM
100
AcDbLine
 10
16.8658951400776
 20
7.312859561085986
 30
0.0
 11
15.72956062088706
 21
7.312859561085986
 31
0.0
  0
SOLID
  5
B074
330
A358
100
AcDbEntity
  8
DIM
100
AcDbTrace
 10
13.94560705407747
 20
7.354526227752653
 30
0.0
 11
13.94560705407747
 21
7.271192894419319
 31
0.0
 12
13.69560705407747
 22
7.312859561085986
 32
0.0
 13
13.69560705407747
 23
7.312859561085986
 33
0.0
  0
SOLID
  5
B075
330
A358
100
AcDbEntity
  8
DIM
100
AcDbTrace
 10
16.8658951400776
 20
7.354526227752653
 30
0.0
 11
16.8658951400776
 21
7.271192894419319
 31
0.0
 12
17.1158951400776
 22
7.312859561085986
 32
0.0
 13
17.1158951400776
 23
7.312859561085986
 33
0.0
  0
MTEXT
  5
B076
330
A358
100
AcDbEntity
  8
DIM
100
AcDbMText
 10
15.40575109707753
 20
7.312859561085986
 30
0.0
 40
0.16
 41
0.0
 71
     5
 72
     1
  1
\A1;3.42
  7
ROMANS
1001
ACAD
1000
MTEXTBEGIN
1070
    73
1070
     1
1070
    44
1040
1.0
1070
    74
1070
     0
1000
MTEXTEND
  0
POINT
  5
B077
330
A358
100
AcDbEntity
  8
DEFPOINTS
 62
     0
100
AcDbPoint
 10
13.69560705407747
 20
11.7813202978815
 30
0.0
  0
POINT
  5
B078
330
A358
100
AcDbEntity
  8
DEFPOINTS
 62
     0
100
AcDbPoint
 10
17.1158951400776
 20
11.7813202978815
 30
0.0
  0
POINT
  5
B079
330
A358
100
AcDbEntity
  8
DEFPOINTS
 62
     0
100
AcDbPoint
 10
17.1158951400776
 20
7.312859561085986
 30
0.0
  0
ENDBLK
  5
A364
330
A358
100
AcDbEntity
  8
0
100
AcDbBlockEnd
  0
BLOCK
  5
A370
330
A365
100
AcDbEntity
  8
0
100
AcDbBlockBegin
  2
*D20
 70
     1
 10
0.0
 20
0.0
 30
0.0
  3
*D20
  1

  0
LINE
  5
B07A
330
A365
100
AcDbEntity
  8
DIM
100
AcDbLine
 10
12.95744787407767
 20
11.80808421388149
 30
0.0
 11
12.95744787407767
 21
6.58929825739036
 31
0.0
  0
LINE
  5
B07B
330
A365
100
AcDbEntity
  8
DIM
100
AcDbLine
 10
17.1158951400776
 20
11.80808421388149
 30
0.0
 11
17.1158951400776
 21
6.58929825739036
 31
0.0
  0
LINE
  5
B07C
330
A365
100
AcDbEntity
  8
DIM
100
AcDbLine
 10
13.20744787407767
 20
6.71429825739036
 30
0.0
 11
14.71286198326811
 21
6.71429825739036
 31
0.0
  0
LINE
  5
B07D
330
A365
100
AcDbEntity
  8
DIM
100
AcDbLine
 10
16.8658951400776
 20
6.71429825739036
 30
0.0
 11
15.36048103088716
 21
6.71429825739036
 31
0.0
  0
SOLID
  5
B07E
330
A365
100
AcDbEntity
  8
DIM
100
AcDbTrace
 10
13.20744787407767
 20
6.755964924057027
 30
0.0
 11
13.20744787407767
 21
6.672631590723693
 31
0.0
 12
12.95744787407767
 22
6.71429825739036
 32
0.0
 13
12.95744787407767
 23
6.71429825739036
 33
0.0
  0
SOLID
  5
B07F
330
A365
100
AcDbEntity
  8
DIM
100
AcDbTrace
 10
16.8658951400776
 20
6.755964924057027
 30
0.0
 11
16.8658951400776
 21
6.672631590723693
 31
0.0
 12
17.1158951400776
 22
6.71429825739036
 32
0.0
 13
17.1158951400776
 23
6.71429825739036
 33
0.0
  0
MTEXT
  5
B080
330
A365
100
AcDbEntity
  8
DIM
100
AcDbMText
 10
15.03667150707763
 20
6.71429825739036
 30
0.0
 40
0.16
 41
0.0
 71
     5
 72
     1
  1
\A1;4.16
  7
ROMANS
1001
ACAD
1000
MTEXTBEGIN
1070
    73
1070
     1
1070
    44
1040
1.0
1070
    74
1070
     0
1000
MTEXTEND
  0
POINT
  5
B081
330
A365
100
AcDbEntity
  8
DEFPOINTS
 62
     0
100
AcDbPoint
 10
12.95744787407767
 20
11.93308421388149
 30
0.0
  0
POINT
  5
B082
330
A365
100
AcDbEntity
  8
DEFPOINTS
 62
     0
100
AcDbPoint
 10
17.1158951400776
 20
11.93308421388149
 30
0.0
  0
POINT
  5
B083
330
A365
100
AcDbEntity
  8
DEFPOINTS
 62
     0
100
AcDbPoint
 10
17.1158951400776
 20
6.71429825739036
 30
0.0
  0
ENDBLK
  5
A371
330
A365
100
AcDbEntity
  8
0
100
AcDbBlockEnd
  0
BLOCK
  5
A37D
330
A372
100
AcDbEntity
  8
0
100
AcDbBlockBegin
  2
*D21
 70
     1
 10
0.0
 20
0.0
 30
0.0
  3
*D21
  1

  0
LINE
  5
B084
330
A372
100
AcDbEntity
  8
DIM
100
AcDbLine
 10
16.10100256207743
 20
11.95054026888151
 30
0.0
 11
17.91020150336755
 21
11.95054026888151
 31
0.0
  0
LINE
  5
B085
330
A372
100
AcDbEntity
  8
DIM
100
AcDbLine
 10
16.10100256207743
 20
10.27054026888152
 30
0.0
 11
17.91020150336755
 21
10.27054026888152
 31
0.0
  0
LINE
  5
B086
330
A372
100
AcDbEntity
  8
DIM
100
AcDbLine
 10
17.78520150336754
 20
11.70054026888152
 30
0.0
 11
17.78520150336754
 21
11.30476090235336
 31
0.0
  0
LINE
  5
B087
330
A372
100
AcDbEntity
  8
DIM
100
AcDbLine
 10
17.78520150336754
 20
10.52054026888151
 30
0.0
 11
17.78520150336754
 21
10.98476090235336
 31
0.0
  0
SOLID
  5
B088
330
A372
100
AcDbEntity
  8
DIM
100
AcDbTrace
 10
17.74353483670088
 20
11.70054026888152
 30
0.0
 11
17.82686817003421
 21
11.70054026888152
 31
0.0
 12
17.78520150336754
 22
11.95054026888151
 32
0.0
 13
17.78520150336754
 23
11.95054026888151
 33
0.0
  0
SOLID
  5
B089
330
A372
100
AcDbEntity
  8
DIM
100
AcDbTrace
 10
17.74353483670088
 20
10.52054026888151
 30
0.0
 11
17.82686817003421
 21
10.52054026888151
 31
0.0
 12
17.78520150336754
 22
10.27054026888152
 32
0.0
 13
17.78520150336754
 23
10.27054026888152
 33
0.0
  0
MTEXT
  5
B08A
330
A372
100
AcDbEntity
  8
DIM
100
AcDbMText
 10
17.78520150336754
 20
11.14476090235336
 30
0.0
 40
0.16
 41
0.0
 71
     5
 72
     1
  1
\A1;1.68
  7
ROMANS
1001
ACAD
1000
MTEXTBEGIN
1070
    73
1070
     1
1070
    44
1040
1.0
1070
    74
1070
     0
1000
MTEXTEND
  0
POINT
  5
B08B
330
A372
100
AcDbEntity
  8
DEFPOINTS
 62
     0
100
AcDbPoint
 10
15.97600256207743
 20
11.95054026888151
 30
0.0
  0
POINT
  5
B08C
330
A372
100
AcDbEntity
  8
DEFPOINTS
 62
     0
100
AcDbPoint
 10
15.97600256207743
 20
10.27054026888152
 30
0.0
  0
POINT
  5
B08D
330
A372
100
AcDbEntity
  8
DEFPOINTS
 62
     0
100
AcDbPoint
 10
17.78520150336754
 20
10.27054026888152
 30
0.0
  0
ENDBLK
  5
A37E
330
A372
100
AcDbEntity
  8
0
100
AcDbBlockEnd
  0
BLOCK
  5
A38A
330
A37F
100
AcDbEntity
  8
0
100
AcDbBlockBegin
  2
*D22
 70
     1
 10
0.0
 20
0.0
 30
0.0
  3
*D22
  1

  0
LINE
  5
B08E
330
A37F
100
AcDbEntity
  8
DIM
100
AcDbLine
 10
14.40058642941006
 20
15.71663733149656
 30
0.0
 11
14.40058642941006
 21
16.38317426590746
 31
0.0
  0
LINE
  5
B08F
330
A37F
100
AcDbEntity
  8
DIM
100
AcDbLine
 10
17.1158951400776
 20
15.71663733149656
 30
0.0
 11
17.1158951400776
 21
16.38317426590746
 31
0.0
  0
LINE
  5
B090
330
A37F
100
AcDbEntity
  8
DIM
100
AcDbLine
 10
14.65058642941006
 20
16.25817426590746
 30
0.0
 11
15.4344312609343
 21
16.25817426590746
 31
0.0
  0
LINE
  5
B091
330
A37F
100
AcDbEntity
  8
DIM
100
AcDbLine
 10
16.8658951400776
 20
16.25817426590746
 30
0.0
 11
16.08205030855335
 21
16.25817426590746
 31
0.0
  0
SOLID
  5
B092
330
A37F
100
AcDbEntity
  8
DIM
100
AcDbTrace
 10
14.65058642941006
 20
16.29984093257412
 30
0.0
 11
14.65058642941006
 21
16.21650759924079
 31
0.0
 12
14.40058642941006
 22
16.25817426590746
 32
0.0
 13
14.40058642941006
 23
16.25817426590746
 33
0.0
  0
SOLID
  5
B093
330
A37F
100
AcDbEntity
  8
DIM
100
AcDbTrace
 10
16.8658951400776
 20
16.29984093257412
 30
0.0
 11
16.8658951400776
 21
16.21650759924079
 31
0.0
 12
17.1158951400776
 22
16.25817426590746
 32
0.0
 13
17.1158951400776
 23
16.25817426590746
 33
0.0
  0
MTEXT
  5
B094
330
A37F
100
AcDbEntity
  8
DIM
100
AcDbMText
 10
15.75824078474383
 20
16.25817426590746
 30
0.0
 40
0.16
 41
0.0
 71
     5
 72
     1
  1
\A1;2.72
  7
ROMANS
1001
ACAD
1000
MTEXTBEGIN
1070
    73
1070
     1
1070
    44
1040
1.0
1070
    74
1070
     0
1000
MTEXTEND
  0
POINT
  5
B095
330
A37F
100
AcDbEntity
  8
DEFPOINTS
 62
     0
100
AcDbPoint
 10
14.40058642941006
 20
15.59163733149656
 30
0.0
  0
POINT
  5
B096
330
A37F
100
AcDbEntity
  8
DEFPOINTS
 62
     0
100
AcDbPoint
 10
17.1158951400776
 20
15.59163733149656
 30
0.0
  0
POINT
  5
B097
330
A37F
100
AcDbEntity
  8
DEFPOINTS
 62
     0
100
AcDbPoint
 10
17.1158951400776
 20
16.25817426590746
 30
0.0
  0
ENDBLK
  5
A38B
330
A37F
100
AcDbEntity
  8
0
100
AcDbBlockEnd
  0
BLOCK
  5
A397
330
A38C
100
AcDbEntity
  8
0
100
AcDbBlockBegin
  2
*D23
 70
     1
 10
0.0
 20
0.0
 30
0.0
  3
*D23
  1

  0
LINE
  5
B098
330
A38C
100
AcDbEntity
  8
DIM
100
AcDbLine
 10
13.95988928007756
 20
14.70749827688149
 30
0.0
 11
13.95988928007756
 21
16.95166974241115
 31
0.0
  0
LINE
  5
B099
330
A38C
100
AcDbEntity
  8
DIM
100
AcDbLine
 10
17.1158951400776
 20
14.60154124588148
 30
0.0
 11
17.1158951400776
 21
16.95166974241115
 31
0.0
  0
LINE
  5
B09A
330
A38C
100
AcDbEntity
  8
DIM
100
AcDbLine
 10
14.20988928007757
 20
16.82666974241115
 30
0.0
 11
15.21408268626806
 21
16.82666974241115
 31
0.0
  0
LINE
  5
B09B
330
A38C
100
AcDbEntity
  8
DIM
100
AcDbLine
 10
16.8658951400776
 20
16.82666974241115
 30
0.0
 11
15.86170173388711
 21
16.82666974241115
 31
0.0
  0
SOLID
  5
B09C
330
A38C
100
AcDbEntity
  8
DIM
100
AcDbTrace
 10
14.20988928007757
 20
16.86833640907781
 30
0.0
 11
14.20988928007757
 21
16.78500307574448
 31
0.0
 12
13.95988928007756
 22
16.82666974241115
 32
0.0
 13
13.95988928007756
 23
16.82666974241115
 33
0.0
  0
SOLID
  5
B09D
330
A38C
100
AcDbEntity
  8
DIM
100
AcDbTrace
 10
16.8658951400776
 20
16.86833640907781
 30
0.0
 11
16.8658951400776
 21
16.78500307574448
 31
0.0
 12
17.1158951400776
 22
16.82666974241115
 32
0.0
 13
17.1158951400776
 23
16.82666974241115
 33
0.0
  0
MTEXT
  5
B09E
330
A38C
100
AcDbEntity
  8
DIM
100
AcDbMText
 10
15.53789221007758
 20
16.82666974241115
 30
0.0
 40
0.16
 41
0.0
 71
     5
 72
     1
  1
\A1;3.16
  7
ROMANS
1001
ACAD
1000
MTEXTBEGIN
1070
    73
1070
     1
1070
    44
1040
1.0
1070
    74
1070
     0
1000
MTEXTEND
  0
POINT
  5
B09F
330
A38C
100
AcDbEntity
  8
DEFPOINTS
 62
     0
100
AcDbPoint
 10
13.95988928007756
 20
14.58249827688149
 30
0.0
  0
POINT
  5
B0A0
330
A38C
100
AcDbEntity
  8
DEFPOINTS
 62
     0
100
AcDbPoint
 10
17.1158951400776
 20
14.47654124588148
 30
0.0
  0
POINT
  5
B0A1
330
A38C
100
AcDbEntity
  8
DEFPOINTS
 62
     0
100
AcDbPoint
 10
17.1158951400776
 20
16.82666974241115
 30
0.0
  0
ENDBLK
  5
A398
330
A38C
100
AcDbEntity
  8
0
100
AcDbBlockEnd
  0
BLOCK
  5
A3A5
330
A399
100
AcDbEntity
  8
0
100
AcDbBlockBegin
  2
*D24
 70
     1
 10
0.0
 20
0.0
 30
0.0
  3
*D24
  1

  0
LINE
  5
B0A2
330
A399
100
AcDbEntity
  8
DIM
100
AcDbLine
 10
24.89478217522673
 20
4.24627074802139
 30
0.0
 11
23.83104477141561
 21
4.24627074802139
 31
0.0
  0
LINE
  5
B0A3
330
A399
100
AcDbEntity
  8
DIM
100
AcDbLine
 10
24.89478217522673
 20
4.182305905021382
 30
0.0
 11
23.83104477141561
 21
4.182305905021382
 31
0.0
  0
LINE
  5
B0A4
330
A399
100
AcDbEntity
  8
DIM
100
AcDbLine
 10
23.95604477141561
 20
4.49627074802139
 30
0.0
 11
23.95604477141561
 21
4.74627074802139
 31
0.0
  0
LINE
  5
B0A5
330
A399
100
AcDbEntity
  8
DIM
100
AcDbLine
 10
23.95604477141561
 20
3.932305905021382
 30
0.0
 11
23.95604477141561
 21
3.682305905021382
 31
0.0
  0
LINE
  5
B0A6
330
A399
100
AcDbEntity
  8
DIM
100
AcDbLine
 10
23.95604477141561
 20
3.682305905021382
 30
0.0
 11
23.70604477141561
 21
3.682305905021382
 31
0.0
  0
SOLID
  5
B0A7
330
A399
100
AcDbEntity
  8
DIM
100
AcDbTrace
 10
23.91437810474894
 20
4.49627074802139
 30
0.0
 11
23.99771143808228
 21
4.49627074802139
 31
0.0
 12
23.95604477141561
 22
4.24627074802139
 32
0.0
 13
23.95604477141561
 23
4.24627074802139
 33
0.0
  0
SOLID
  5
B0A8
330
A399
100
AcDbEntity
  8
DIM
100
AcDbTrace
 10
23.91437810474894
 20
3.932305905021382
 30
0.0
 11
23.99771143808228
 21
3.932305905021382
 31
0.0
 12
23.95604477141561
 22
4.182305905021382
 32
0.0
 13
23.95604477141561
 23
4.182305905021382
 33
0.0
  0
MTEXT
  5
B0A9
330
A399
100
AcDbEntity
  8
DIM
100
AcDbMText
 10
23.46223524760608
 20
3.682305905021386
 30
0.0
 40
0.16
 41
0.0
 71
     5
 72
     1
  1
\A1;.06
  7
ROMANS
1001
ACAD
1000
MTEXTBEGIN
1070
    73
1070
     1
1070
    44
1040
1.0
1070
    74
1070
     0
1000
MTEXTEND
  0
POINT
  5
B0AA
330
A399
100
AcDbEntity
  8
DEFPOINTS
 62
     0
100
AcDbPoint
 10
25.01978217522673
 20
4.24627074802139
 30
0.0
  0
POINT
  5
B0AB
330
A399
100
AcDbEntity
  8
DEFPOINTS
 62
     0
100
AcDbPoint
 10
25.01978217522673
 20
4.182305905021382
 30
0.0
  0
POINT
  5
B0AC
330
A399
100
AcDbEntity
  8
DEFPOINTS
 62
     0
100
AcDbPoint
 10
23.95604477141561
 20
4.182305905021382
 30
0.0
  0
ENDBLK
  5
A3A6
330
A399
100
AcDbEntity
  8
0
100
AcDbBlockEnd
  0
ENDSEC
  0
SECTION
  2
ENTITIES
  0
INSERT
  5
79E
330
1F
100
AcDbEntity
  8
0
100
AcDbBlockReference
  2
NEWLAYERS
 10
0.0
 20
0.0
 30
0.0
 41
0.01
 42
0.01
 43
0.01
  0
LWPOLYLINE
  5
BF7
330
1F
100
AcDbEntity
  8
VIEWPORT
100
AcDbPolyline
 90
        6
 70
     1
 43
0.0
 10
32.80000199999999
 20
20.5
 10
32.80000199999999
 20
1.824003999999998
 10
16.004922
 20
1.824003999999998
 10
16.004922
 20
0.0
 10
0.0
 20
0.0
 10
0.0
 20
20.5
1001
GENIUS_GENOREF_13
1005
0
1005
0
1005
0
1005
0
1005
0
1005
0
1005
0
1005
0
1005
0
1005
0
1005
0
1005
0
1005
0
1005
0
1005
0
1005
0
  0
VIEWPORT
  5
BF8
330
1F
100
AcDbEntity
  8
VIEWPORT
100
AcDbViewport
 10
16.40000099999999
 20
10.25
 30
0.0
 40
32.80000199999999
 41
20.5
 69
     0
1001
ACAD
1000
MVIEW
1002
{
1070
    16
1010
0.0
1020
0.0
1030
0.0
1010
0.0
1020
0.0
1030
1.0
1040
0.0
1040
20.5
1040
16.39338663516311
1040
10.27133046991457
1040
50.0
1040
0.0
1040
0.0
1070
     0
1070
   100
1070
     1
1070
     2
1070
     0
1070
     0
1070
     0
1070
     0
1040
0.0
1040
0.0
1040
0.0
1040
0.5
1040
0.5
1040
0.5
1040
0.5
1070
     0
1002
{
1002
}
1002
}
1001
GENIUS_GENOREF_13
1005
0
1005
0
1005
0
1005
0
1005
0
1005
0
1005
0
1005
0
1005
0
1005
0
1005
0
1005
0
1005
0
1005
0
1005
0
1005
0
1001
GENIUS_GENSCREG_15
1000
PF
1040
0.0
1000
DF
1040
0.0
1000
MIN
1011
0.0
1021
0.0
1031
0.0
1000
MAX
1011
32.80000199999999
1021
20.5
1031
0.0
1000
FLAGS
1070
     2
  0
LWPOLYLINE
  5
D70
330
1F
100
AcDbEntity
  8
TITLEBLOCK
100
AcDbPolyline
 90
        2
 70
     0
 43
0.0128
 10
8.625
 20
1.599999999999996
 10
0.0
 20
1.6
  0
TEXT
  5
D74
330
1F
100
AcDbEntity
  8
TITLEBLOCK
100
AcDbText
 10
0.3131249999999959
 20
0.7406249999999998
 30
0.0
 40
0.13125
  1
BE USED ONLY IN CONFORMANCE WITH INSTRUCTIONS ISSUED BY SQUARE D COMPANY.
 41
0.9
  7
SIMPLEX
 72
     4
 11
4.3125
 21
0.7999999999999999
 31
0.0
100
AcDbText
  0
TEXT
  5
D75
330
1F
100
AcDbEntity
  8
TITLEBLOCK
100
AcDbText
 10
0.2540625000000007
 20
1.045625000000001
 30
0.0
 40
0.13125
  1
HEREON. THIS INFORMATION REMAINS THE PROPERTY OF SQUARE D COMPANY AND MAY
 41
0.9
  7
SIMPLEX
 72
     4
 11
4.3125
 21
1.105000000000001
 31
0.0
100
AcDbText
  0
TEXT
  5
D76
330
1F
100
AcDbEntity
  8
TITLEBLOCK
100
AcDbText
 10
0.3046875
 20
1.338124999999997
 30
0.0
 40
0.13125
  1
"THE SQUARE D COMPANY HAS PROPRIETARY RIGHTS TO THE INFORMATION CONTAINED
 41
0.9
  7
SIMPLEX
 72
     4
 11
4.3125
 21
1.409999999999997
 31
0.0
100
AcDbText
  0
TEXT
  5
D77
330
1F
100
AcDbEntity
  8
TITLEBLOCK
100
AcDbText
 10
0.6309374999999977
 20
0.4387499999999984
 30
0.0
 40
0.13125
  1
USER SHOULD VERIFY DRAWINGS ARE TO THE LATEST/CURRENT REVISION PRIOR
 41
0.9
  7
SIMPLEX
 72
     4
 11
4.3125
 21
0.4949999999999984
 31
0.0
100
AcDbText
  0
TEXT
  5
D78
330
1F
100
AcDbEntity
  8
TITLEBLOCK
100
AcDbText
 10
2.5490625
 20
0.1368749999999972
 30
0.0
 40
0.13125
  1
TO INCORPORATING IN A DESIGN FILE."
 41
0.9
  7
SIMPLEX
 72
     4
 11
4.3125
 21
0.2149999999999972
 31
0.0
100
AcDbText
  0
TEXT
  5
D79
330
1F
100
AcDbEntity
  8
TITLEBLOCK
100
AcDbText
 10
9.046378855339687
 20
0.2629426489623099
 30
0.0
 40
0.112
  1
UNLESS OTHERWISE SPECIFIED DIMENSIONS ARE IN INCHES
 41
0.8
  7
SIMPLEX
 72
     4
 11
11.06451218867302
 21
0.3189426489623099
 31
0.0
100
AcDbText
  0
LWPOLYLINE
  5
D7A
330
1F
100
AcDbEntity
  8
TITLEBLOCK
100
AcDbPolyline
 90
        2
 70
     0
 43
0.0128
 10
8.625
 20
0.9599999999999964
 10
16.00492200000007
 20
0.9599999999999964
  0
TEXT
  5
D7E
330
1F
100
AcDbEntity
  8
TITLEBLOCK
100
AcDbText
 10
8.7837120071254
 20
0.5472199999999967
 30
0.0
 40
0.2433162500000002
  1
%%uDO NOT SCALE DRAWING
  7
SIMPLEX
 72
     1
 11
11.06451218867302
 21
0.5472199999999967
 31
0.0
100
AcDbText
  0
LWPOLYLINE
  5
D7F
330
1F
100
AcDbEntity
  8
TITLEBLOCK
100
AcDbPolyline
 90
        2
 70
     0
 43
0.0128
 10
8.625
 20
0.9599999999999964
 10
8.625
 20
0.0000000000000009
  0
LWPOLYLINE
  5
D83
330
1F
100
AcDbEntity
  8
TITLEBLOCK
100
AcDbPolyline
 90
        2
 70
     0
 43
0.0128
 10
8.625
 20
0.0000000000000009
 10
8.625
 20
1.6
  0
LWPOLYLINE
  5
D87
330
1F
100
AcDbEntity
  8
TITLEBLOCK
100
AcDbPolyline
 90
        2
 70
     0
 43
0.0128
 10
13.49242200000007
 20
1.599999999999995
 10
13.49242200000007
 20
0.0000000000000009
  0
TEXT
  5
D8B
330
1F
100
AcDbEntity
  8
TITLEBLOCK
100
AcDbText
 10
13.77242200000007
 20
0.2099999999999964
 30
0.0
 40
0.1
  1
2 PLACE DECIMALS
  7
SIMPLEX
100
AcDbText
  0
TEXT
  5
D8C
330
1F
100
AcDbEntity
  8
TITLEBLOCK
100
AcDbText
 10
13.62242200000007
 20
0.4474999999999972
 30
0.0
 40
0.1
  1
UNLESS OTHERWISE SPECIFIED
  7
SIMPLEX
100
AcDbText
  0
TEXT
  5
D8D
330
1F
100
AcDbEntity
  8
TITLEBLOCK
100
AcDbText
 10
15.57242200000007
 20
0.2099999999999964
 30
0.0
 40
0.1
  1
.01
  7
SIMPLEX
100
AcDbText
  0
LINE
  5
D8E
330
1F
100
AcDbEntity
  8
TITLEBLOCK
100
AcDbLine
 10
15.35492200000008
 20
0.2187499999999973
 30
0.0
 11
15.45492200000008
 21
0.2187499999999973
 31
0.0
  0
TEXT
  5
D8F
330
1F
100
AcDbEntity
  8
TITLEBLOCK
100
AcDbText
 10
15.35992200000007
 20
0.2474999999999961
 30
0.0
 40
0.1
  1
+
  7
SIMPLEX
100
AcDbText
  0
LWPOLYLINE
  5
D90
330
1F
100
AcDbEntity
  8
TITLEBLOCK
100
AcDbPolyline
 90
        2
 70
     0
 43
0.0128
 10
16.00492200000007
 20
1.599999999999995
 10
13.49242200000007
 20
1.599999999999995
  0
TEXT
  5
D94
330
1F
100
AcDbEntity
  8
TITLEBLOCK
100
AcDbText
 10
13.62242200000007
 20
1.147499999999996
 30
0.0
 40
0.1
  1
PROJECTION
  7
SIMPLEX
100
AcDbText
  0
TEXT
  5
D95
330
1F
100
AcDbEntity
  8
TITLEBLOCK
100
AcDbText
 10
13.55992200000007
 20
1.347499999999997
 30
0.0
 40
0.1
  1
THIRD ANGLE
  7
SIMPLEX
100
AcDbText
  0
LINE
  5
D96
330
1F
100
AcDbEntity
  8
TITLEBLOCK
100
AcDbLine
 10
14.69692486880008
 20
1.300351715199997
 30
0.0
 11
15.91292523520008
 21
1.300351715199997
 31
0.0
  0
TEXT
  5
D97
330
1F
100
AcDbEntity
  8
TITLEBLOCK
100
AcDbText
 10
14.04742200000008
 20
0.6974999999999972
 30
0.0
 40
0.15
  1
%%uTOLERANCES
  7
SIMPLEX
100
AcDbText
  0
LINE
  5
D98
330
1F
100
AcDbEntity
  8
TITLEBLOCK
100
AcDbLine
 10
14.95292615040008
 20
1.396354294399999
 30
0.0
 11
14.95292615040008
 21
1.524354553599997
 31
0.0
  0
CIRCLE
  5
D99
330
1F
100
AcDbEntity
  8
TITLEBLOCK
100
AcDbCircle
 10
14.95292615040008
 20
1.300352668799996
 30
0.0
 40
0.1279999615999998
  0
CIRCLE
  5
D9A
330
1F
100
AcDbEntity
  8
TITLEBLOCK
100
AcDbCircle
 10
14.95292615040008
 20
1.300352668799996
 30
0.0
 40
0.064000004799999
  0
LINE
  5
D9B
330
1F
100
AcDbEntity
  8
TITLEBLOCK
100
AcDbLine
 10
14.95292615040008
 20
1.332351302399996
 30
0.0
 11
14.95292615040008
 21
1.268351172799996
 31
0.0
  0
LINE
  5
D9C
330
1F
100
AcDbEntity
  8
TITLEBLOCK
100
AcDbLine
 10
14.95292615040008
 20
1.204351996799997
 30
0.0
 11
14.95292615040008
 21
1.076351737599998
 31
0.0
  0
LINE
  5
D9D
330
1F
100
AcDbEntity
  8
TITLEBLOCK
100
AcDbLine
 10
15.78492230560007
 20
1.172351455999998
 30
0.0
 11
15.33692425760007
 21
1.236351585599996
 31
0.0
  0
LINE
  5
D9E
330
1F
100
AcDbEntity
  8
TITLEBLOCK
100
AcDbLine
 10
15.33692425760007
 20
1.364351844799998
 30
0.0
 11
15.78492230560007
 21
1.428351020799996
 31
0.0
  0
LINE
  5
D9F
330
1F
100
AcDbEntity
  8
TITLEBLOCK
100
AcDbLine
 10
15.33692425760007
 20
1.236351585599996
 30
0.0
 11
15.33692425760007
 21
1.364351844799998
 31
0.0
  0
LINE
  5
DA0
330
1F
100
AcDbEntity
  8
TITLEBLOCK
100
AcDbLine
 10
15.78492230560007
 20
1.428351020799996
 30
0.0
 11
15.78492230560007
 21
1.172351455999998
 31
0.0
  0
SOLID
  5
9ABB
330
1F
100
AcDbEntity
  8
DIM
100
AcDbTrace
 10
25.25919404179078
 20
16.04650173112419
 30
0.0
 11
25.33599404179079
 21
16.04650173112419
 31
0.0
 12
25.29759404179078
 22
15.81610173112419
 32
0.0
 13
25.29759404179078
 23
15.81610173112419
 33
0.0
  0
LINE
  5
9ABC
330
1F
100
AcDbEntity
  8
DIM
100
AcDbLine
 10
25.29759404179078
 20
16.04650173112419
 30
0.0
 11
25.29759404179078
 21
17.90090173112419
 31
0.0
  0
TEXT
  5
9ABD
330
1F
100
AcDbEntity
  8
DIM
100
AcDbText
 10
25.05378451798126
 20
18.01610173112419
 30
0.0
 40
0.16
  1
5.00
  7
SIMPLEX
 72
     4
 11
25.29759404179078
 21
18.09610173112419
 31
0.0
100
AcDbText
  0
TEXT
  5
9ABE
330
1F
100
AcDbEntity
  8
TEXT1
100
AcDbText
 10
22.83041308940983
 20
19.78753030255276
 30
0.0
 40
0.16
  1
Electrical Clearance/Wire Bending Space
  7
SIMPLEX
 72
     4
 11
25.30279404179079
 21
19.85610173112419
 31
0.0
100
AcDbText
  0
LINE
  5
9ABF
330
1F
100
AcDbEntity
  8
DIM
100
AcDbLine
 10
25.29759404179078
 20
19.50570173112419
 30
0.0
 11
25.29759404179078
 21
18.56071247469012
 31
0.0
  0
LINE
  5
9AC0
330
1F
100
AcDbEntity
  8
DIM
100
AcDbLine
 10
25.29759404179078
 20
18.44071247469012
 30
0.0
 11
25.29759404179078
 21
18.29130173112419
 31
0.0
  0
LINE
  5
9AC1
330
1F
100
AcDbEntity
  8
DIM
100
AcDbLine
 10
25.03847082620938
 20
18.50528255304516
 30
0.0
 11
25.21759404179078
 21
18.39570173112419
 31
0.0
  0
LINE
  5
9AC2
330
1F
100
AcDbEntity
  8
DIM
100
AcDbLine
 10
25.21759404179078
 20
18.39570173112419
 30
0.0
 11
25.38607007199195
 21
18.49049212352907
 31
0.0
  0
LINE
  5
9AC3
330
1F
100
AcDbEntity
  8
DIM
100
AcDbLine
 10
25.38607007199195
 20
18.49049212352907
 30
0.0
 11
25.55671725737219
 21
18.40200410518957
 31
0.0
  0
LINE
  5
9AC4
330
1F
100
AcDbEntity
  8
DIM
100
AcDbLine
 10
25.21759404179078
 20
18.51570173112419
 30
0.0
 11
25.38607007199195
 21
18.61049212352907
 31
0.0
  0
LINE
  5
9AC5
330
1F
100
AcDbEntity
  8
DIM
100
AcDbLine
 10
25.03847082620938
 20
18.62528255304516
 30
0.0
 11
25.21759404179078
 21
18.51570173112419
 31
0.0
  0
LINE
  5
9AC6
330
1F
100
AcDbEntity
  8
DIM
100
AcDbLine
 10
25.38607007199195
 20
18.61049212352907
 30
0.0
 11
25.55671725737219
 21
18.52200410518957
 31
0.0
  0
SOLID
  5
9AC7
330
1F
100
AcDbEntity
  8
DIM
100
AcDbTrace
 10
25.25919404179078
 20
19.50570173112419
 30
0.0
 11
25.33599404179079
 21
19.50570173112419
 31
0.0
 12
25.29759404179078
 22
19.73610173112419
 32
0.0
 13
25.29759404179078
 23
19.73610173112419
 33
0.0
  0
TEXT
  5
9AC8
330
1F
100
AcDbEntity
  8
TEXT1
100
AcDbText
 10
17.52568927988603
 20
18.67571899981811
 30
0.0
 40
0.16
  1
wire size of the terminal, and NEC article 430-10.
  7
SIMPLEX
 72
     2
 11
23.88759404179079
 21
18.67571899981811
 31
0.0
100
AcDbText
  0
TEXT
  5
9AC9
330
1F
100
AcDbEntity
  8
TEXT1
100
AcDbText
 10
19.22473689893364
 20
18.19571899981811
 30
0.0
 40
0.16
  1
same as the top wire bending space.
  7
SIMPLEX
 72
     2
 11
23.88759404179079
 21
18.19571899981811
 31
0.0
100
AcDbText
  0
TEXT
  5
9ACA
330
1F
100
AcDbEntity
  8
TEXT1
100
AcDbText
 10
18.64568927988603
 20
18.43571899981811
 30
0.0
 40
0.16
  1
Wire bending space for the bottom is the
  7
SIMPLEX
 72
     2
 11
23.88759404179079
 21
18.43571899981811
 31
0.0
100
AcDbText
  0
TEXT
  5
9ACB
330
1F
100
AcDbEntity
  8
TEXT1
100
AcDbText
 10
17.81521308940983
 20
18.91571899981811
 30
0.0
 40
0.16
  1
Wire bending space is based upon the maximum
  7
SIMPLEX
 72
     2
 11
23.88759404179079
 21
18.91571899981811
 31
0.0
100
AcDbText
  0
SOLID
  5
9ACC
330
1F
100
AcDbEntity
  8
DIM
100
AcDbTrace
 10
25.25919404179078
 20
16.04650173112419
 30
0.0
 11
25.33599404179079
 21
16.04650173112419
 31
0.0
 12
25.29759404179078
 22
15.81610173112419
 32
0.0
 13
25.29759404179078
 23
15.81610173112419
 33
0.0
  0
POINT
  5
9ACD
330
1F
100
AcDbEntity
  8
CONTINUOUS1
100
AcDbPoint
 10
13.51634404179078
 20
12.22860173112419
 30
0.0
  0
LINE
  5
9ACE
330
1F
100
AcDbEntity
  8
CONTINUOUS2
100
AcDbLine
 10
26.04729404179078
 20
10.33172673112419
 30
0.0
 11
26.04759380782852
 21
15.29660173112453
 31
0.0
  0
LINE
  5
9AD0
330
1F
100
AcDbEntity
  8
CONTINUOUS1
100
AcDbLine
 10
25.54759404179078
 20
11.25360173112419
 30
0.0
 11
25.61009404179078
 21
11.40985173112419
 31
0.0
  0
LINE
  5
9AD1
330
1F
100
AcDbEntity
  8
CONTINUOUS1
100
AcDbLine
 10
25.54759404179078
 20
11.50360173112419
 30
0.0
 11
25.61009404179078
 21
11.65985173112419
 31
0.0
  0
LINE
  5
9AD2
330
1F
100
AcDbEntity
  8
CONTINUOUS1
100
AcDbLine
 10
24.98509404179078
 20
11.65985173112419
 30
0.0
 11
25.61009404179078
 21
11.65985173112419
 31
0.0
  0
LINE
  5
9AD3
330
1F
100
AcDbEntity
  8
CONTINUOUS1
100
AcDbLine
 10
25.32018354105907
 20
12.00360173112419
 30
0.0
 11
25.61009404179078
 21
12.00360173112419
 31
0.0
  0
LINE
  5
9AD4
330
1F
100
AcDbEntity
  8
CONTINUOUS1
100
AcDbLine
 10
24.98509404179078
 20
11.15985173112419
 30
0.0
 11
25.61009404179078
 21
11.15985173112419
 31
0.0
  0
LINE
  5
9AD5
330
1F
100
AcDbEntity
  8
CONTINUOUS1
100
AcDbLine
 10
24.67245111726248
 20
12.59735173112419
 30
0.0
 11
25.92245111726248
 21
12.59735173112419
 31
0.0
  0
LINE
  5
9AD6
330
1F
100
AcDbEntity
  8
CONTINUOUS1
100
AcDbLine
 10
25.92245111726248
 20
11.03485173112419
 30
0.0
 11
24.67245111726248
 21
11.03485173112419
 31
0.0
  0
LINE
  5
9AD7
330
1F
100
AcDbEntity
  8
CONTINUOUS1
100
AcDbLine
 10
25.85995111726248
 20
10.65985173112419
 30
0.0
 11
24.73495111726248
 21
10.65985173112419
 31
0.0
  0
LINE
  5
9AD8
330
1F
100
AcDbEntity
  8
CONTINUOUS1
100
AcDbLine
 10
24.73495111726248
 20
12.97235173112419
 30
0.0
 11
25.85995111726248
 21
12.97235173112419
 31
0.0
  0
LINE
  5
9AD9
330
1F
100
AcDbEntity
  8
CONTINUOUS1
100
AcDbLine
 10
26.04730819273418
 20
10.56610173112419
 30
0.0
 11
24.54759404179078
 21
10.56610173112419
 31
0.0
  0
LINE
  5
9ADA
330
1F
100
AcDbEntity
  8
CONTINUOUS2
100
AcDbLine
 10
24.86009404179078
 20
9.816101731124195
 30
0.0
 11
25.73509404179079
 21
9.816101731124195
 31
0.0
  0
LINE
  5
9ADB
330
1F
100
AcDbEntity
  8
CONTINUOUS2
100
AcDbLine
 10
24.54759404179078
 20
9.816101731124195
 30
0.0
 11
24.73509404179079
 21
9.816101731124195
 31
0.0
  0
LINE
  5
9ADC
330
1F
100
AcDbEntity
  8
CONTINUOUS2
100
AcDbLine
 10
24.54759404179078
 20
9.816101731124195
 30
0.0
 11
24.54759404179078
 21
10.16772673112452
 31
0.0
  0
LINE
  5
9ADD
330
1F
100
AcDbEntity
  8
CENTER2
100
AcDbLine
 10
24.64134404179079
 20
10.24972673112453
 30
0.0
 11
24.45384404179078
 21
10.24972673112453
 31
0.0
  0
CIRCLE
  5
9ADE
330
1F
100
AcDbEntity
  8
CONTINUOUS2
100
AcDbCircle
 10
24.54759404179078
 20
10.24972673112453
 30
0.0
 40
0.082
  0
LINE
  5
9ADF
330
1F
100
AcDbEntity
  8
CENTER2
100
AcDbLine
 10
24.54759404179078
 20
10.15597673112453
 30
0.0
 11
24.54759404179078
 21
10.35910173112453
 31
0.0
  0
ARC
  5
9AE0
330
1F
100
AcDbEntity
  8
CONTINUOUS2
100
AcDbCircle
 10
24.54759404179078
 20
10.24972673112452
 30
0.0
 40
0.082
100
AcDbArc
 50
270.0
 51
90.0
  0
LINE
  5
9AE1
330
1F
100
AcDbEntity
  8
CONTINUOUS1
100
AcDbLine
 10
25.14212725474288
 20
10.14422673112419
 30
0.0
 11
25.45306082883869
 21
10.14422673112419
 31
0.0
  0
LINE
  5
9AE2
330
1F
100
AcDbEntity
  8
CONTINUOUS1
100
AcDbLine
 10
25.14212725474288
 20
10.17547673112419
 30
0.0
 11
25.45306082883869
 21
10.17547673112419
 31
0.0
  0
CIRCLE
  5
9AE3
330
1F
100
AcDbEntity
  8
CONTINUOUS1
100
AcDbCircle
 10
25.29759404179078
 20
10.15985173112419
 30
0.0
 40
0.15625
  0
CIRCLE
  5
9AE4
330
1F
100
AcDbEntity
  8
CONTINUOUS1
100
AcDbCircle
 10
25.29759404179078
 20
10.15985173112419
 30
0.0
 40
0.21875
  0
LINE
  5
9AE5
330
1F
100
AcDbEntity
  8
CONTINUOUS2
100
AcDbLine
 10
24.86009404179078
 20
9.941101731124195
 30
0.0
 11
24.86009404179078
 21
9.816101731124195
 31
0.0
  0
LINE
  5
9AE6
330
1F
100
AcDbEntity
  8
CONTINUOUS2
100
AcDbLine
 10
24.73509404179079
 20
9.941101731124195
 30
0.0
 11
24.86009404179078
 21
9.941101731124195
 31
0.0
  0
LINE
  5
9AE7
330
1F
100
AcDbEntity
  8
CONTINUOUS2
100
AcDbLine
 10
24.73509404179079
 20
9.816101731124195
 30
0.0
 11
24.73509404179079
 21
9.941101731124195
 31
0.0
  0
LINE
  5
9AE8
330
1F
100
AcDbEntity
  8
CONTINUOUS1
100
AcDbLine
 10
24.98480819273418
 20
11.03485173112419
 30
0.0
 11
24.98480819273418
 21
12.59735173112419
 31
0.0
  0
LINE
  5
9AE9
330
1F
100
AcDbEntity
  8
CONTINUOUS1
100
AcDbLine
 10
24.67245111726248
 20
10.72235173112419
 30
0.0
 11
24.67245111726248
 21
12.90985173112419
 31
0.0
  0
ARC
  5
9AEA
330
1F
100
AcDbEntity
  8
CONTINUOUS1
100
AcDbCircle
 10
24.73495111726248
 20
10.72235173112419
 30
0.0
 40
0.0625
100
AcDbArc
 50
180.0
 51
270.0
  0
TEXT
  5
9AEB
330
1F
100
AcDbEntity
  8
TEXT1
100
AcDbText
 10
25.13966793273867
 20
10.72233386555815
 30
0.0
 40
0.1250357311320758
  1
OFF
  7
SIMPLEX
 72
     4
 11
25.29745111726248
 21
10.78485173112419
 31
0.0
100
AcDbText
  0
CIRCLE
  5
9AEC
330
1F
100
AcDbEntity
  8
CONTINUOUS1
100
AcDbCircle
 10
24.92259404179078
 20
10.75360173112419
 30
0.0
 40
0.03125
  0
LWPOLYLINE
  5
9AED
330
1F
100
AcDbEntity
  8
CONTINUOUS1
100
AcDbPolyline
 90
        4
 70
     1
 43
0.0
 10
25.04745111726248
 20
11.25360173112419
 10
25.04745111726248
 20
11.50360173112419
 10
25.54745111726248
 20
11.50360173112419
 10
25.54745111726248
 20
11.25360173112419
  0
LINE
  5
9AF3
330
1F
100
AcDbEntity
  8
CONTINUOUS1
100
AcDbLine
 10
25.04759404179079
 20
11.25360173112419
 30
0.0
 11
24.98509404179078
 21
11.40985173112419
 31
0.0
  0
CIRCLE
  5
9AF4
330
1F
100
AcDbEntity
  8
CONTINUOUS1
100
AcDbCircle
 10
24.82884404179078
 20
11.53082305749848
 30
0.0
 40
0.0625
  0
LINE
  5
9AF5
330
1F
100
AcDbEntity
  8
CONTINUOUS1
100
AcDbLine
 10
25.04759404179079
 20
11.50360173112419
 30
0.0
 11
24.98509404179078
 21
11.65985173112419
 31
0.0
  0
ARC
  5
9AF6
330
1F
100
AcDbEntity
  8
CONTINUOUS1
100
AcDbCircle
 10
24.73495111726248
 20
12.90985173112419
 30
0.0
 40
0.0625
100
AcDbArc
 50
90.0
 51
180.0
  0
LINE
  5
9AF7
330
1F
100
AcDbEntity
  8
CONTINUOUS1
100
AcDbLine
 10
24.98509404179078
 20
12.00360173112419
 30
0.0
 11
25.2750045425225
 21
12.00360173112419
 31
0.0
  0
ARC
  5
9AF8
330
1F
100
AcDbEntity
  8
CONTINUOUS1
100
AcDbCircle
 10
25.29759404179078
 20
12.00360173112419
 30
0.0
 40
0.0225894992682898
100
AcDbArc
 50
0.0
 51
180.0
  0
LINE
  5
9AF9
330
1F
100
AcDbEntity
  8
CONTINUOUS1
100
AcDbLine
 10
24.82884404179078
 20
12.40985173112419
 30
0.0
 11
24.82884404179078
 21
12.53485173112419
 31
0.0
  0
CIRCLE
  5
9AFA
330
1F
100
AcDbEntity
  8
CONTINUOUS1
100
AcDbCircle
 10
24.92259404179078
 20
12.87860173112419
 30
0.0
 40
0.03125
  0
TEXT
  5
9AFB
330
1F
100
AcDbEntity
  8
TEXT1
100
AcDbText
 10
25.19027763343498
 20
12.78483386555815
 30
0.0
 40
0.1250357311320758
  1
ON
  7
SIMPLEX
 72
     4
 11
25.29745111726248
 21
12.84735173112419
 31
0.0
100
AcDbText
  0
CIRCLE
  5
9AFC
330
1F
100
AcDbEntity
  8
CONTINUOUS2
100
AcDbCircle
 10
26.04759404179079
 20
10.24972673112453
 30
0.0
 40
0.082
  0
LINE
  5
9AFD
330
1F
100
AcDbEntity
  8
CENTER2
100
AcDbLine
 10
25.95384404179078
 20
10.24972673112453
 30
0.0
 11
26.14134404179079
 21
10.24972673112453
 31
0.0
  0
ARC
  5
9AFE
330
1F
100
AcDbEntity
  8
CONTINUOUS2
100
AcDbCircle
 10
26.04759404179079
 20
10.24972673112452
 30
0.0
 40
0.082
100
AcDbArc
 50
90.0
 51
270.0
  0
LINE
  5
9AFF
330
1F
100
AcDbEntity
  8
CONTINUOUS2
100
AcDbLine
 10
26.04759404179079
 20
9.816101731124195
 30
0.0
 11
25.86009404179078
 21
9.816101731124195
 31
0.0
  0
LINE
  5
9B00
330
1F
100
AcDbEntity
  8
CONTINUOUS2
100
AcDbLine
 10
25.86009404179078
 20
9.941101731124195
 30
0.0
 11
25.73509404179079
 21
9.941101731124195
 31
0.0
  0
LINE
  5
9B01
330
1F
100
AcDbEntity
  8
CONTINUOUS2
100
AcDbLine
 10
25.73509404179079
 20
9.941101731124195
 30
0.0
 11
25.73509404179079
 21
9.816101731124195
 31
0.0
  0
LINE
  5
9B02
330
1F
100
AcDbEntity
  8
CONTINUOUS2
100
AcDbLine
 10
25.86009404179078
 20
9.816101731124195
 30
0.0
 11
25.86009404179078
 21
9.941101731124195
 31
0.0
  0
LINE
  5
9B03
330
1F
100
AcDbEntity
  8
CONTINUOUS2
100
AcDbLine
 10
26.04759404179079
 20
9.816101731124195
 30
0.0
 11
26.04759404179079
 21
10.16772673112452
 31
0.0
  0
LINE
  5
9B04
330
1F
100
AcDbEntity
  8
CENTER2
100
AcDbLine
 10
26.04759404179079
 20
10.15597673112453
 30
0.0
 11
26.04759404179079
 21
10.35910173112453
 31
0.0
  0
LINE
  5
9B05
330
1F
100
AcDbEntity
  8
CONTINUOUS1
100
AcDbLine
 10
25.61009404179078
 20
11.03485173112419
 30
0.0
 11
25.61009404179078
 21
12.59735173112419
 31
0.0
  0
LINE
  5
9B06
330
1F
100
AcDbEntity
  8
CONTINUOUS1
100
AcDbLine
 10
25.92245111726248
 20
12.90985173112419
 30
0.0
 11
25.92245111726248
 21
10.72235173112419
 31
0.0
  0
ARC
  5
9B07
330
1F
100
AcDbEntity
  8
CONTINUOUS1
100
AcDbCircle
 10
25.85995111726248
 20
10.72235173112419
 30
0.0
 40
0.0625
100
AcDbArc
 50
270.0
 51
0.0
  0
CIRCLE
  5
9B08
330
1F
100
AcDbEntity
  8
CONTINUOUS1
100
AcDbCircle
 10
25.67230819273418
 20
10.75360173112419
 30
0.0
 40
0.03125
  0
CIRCLE
  5
9B09
330
1F
100
AcDbEntity
  8
CONTINUOUS1
100
AcDbCircle
 10
25.67230819273418
 20
12.87860173112419
 30
0.0
 40
0.03125
  0
ARC
  5
9B0A
330
1F
100
AcDbEntity
  8
CONTINUOUS1
100
AcDbCircle
 10
25.85995111726248
 20
12.90985173112419
 30
0.0
 40
0.0625
100
AcDbArc
 50
0.0
 51
90.0
  0
DIMENSION
  5
9B0B
330
1F
100
AcDbEntity
  8
DIM
100
AcDbDimension
  2
*D4
 10
26.04759404179079
 20
16.72235173112419
 30
0.0
 11
26.85997499417174
 21
16.72235173112419
 31
0.0
 70
   160
  3
SCHNEIDERELECTRIC
100
AcDbAlignedDimension
 13
24.54759404179078
 23
15.81610173112419
 33
0.0
 14
26.04759404179079
 24
15.81610173112419
 34
0.0
100
AcDbRotatedDimension
1001
ACAD
1000
DSTYLE
1002
{
1070
   287
1070
     0
1070
   287
1070
     0
1070
   287
1070
     0
1070
   287
1070
     0
1070
   287
1070
     0
1070
   289
1070
     0
1070
   279
1070
     0
1070
    40
1040
2.0
1002
}
  0
LINE
  5
9B0C
330
1F
100
AcDbEntity
  8
CONTINUOUS1
100
AcDbLine
 10
26.04730819273418
 20
14.56610173112419
 30
0.0
 11
24.54759404179078
 21
14.56610173112419
 31
0.0
  0
LINE
  5
9B0D
330
1F
100
AcDbEntity
  8
CONTINUOUS2
100
AcDbLine
 10
24.86009404179078
 20
15.81610173112419
 30
0.0
 11
25.73509404179079
 21
15.81610173112419
 31
0.0
  0
LINE
  5
9B0E
330
1F
100
AcDbEntity
  8
CONTINUOUS2
100
AcDbLine
 10
24.86009404179078
 20
15.69110173112419
 30
0.0
 11
24.86009404179078
 21
15.81610173112419
 31
0.0
  0
LINE
  5
9B0F
330
1F
100
AcDbEntity
  8
CONTINUOUS2
100
AcDbLine
 10
24.73509404179079
 20
15.81610173112419
 30
0.0
 11
24.73509404179079
 21
15.69110173112419
 31
0.0
  0
LINE
  5
9B10
330
1F
100
AcDbEntity
  8
CONTINUOUS2
100
AcDbLine
 10
24.54759404179078
 20
15.81610173112419
 30
0.0
 11
24.54759404179078
 21
15.46060173112419
 31
0.0
  0
LINE
  5
9B11
330
1F
100
AcDbEntity
  8
CENTER2
100
AcDbLine
 10
24.54759404179078
 20
15.47235173112419
 30
0.0
 11
24.54759404179078
 21
15.26922673112419
 31
0.0
  0
CIRCLE
  5
9B12
330
1F
100
AcDbEntity
  8
CONTINUOUS2
100
AcDbCircle
 10
24.54759404179078
 20
15.37860173112419
 30
0.0
 40
0.082
  0
ARC
  5
9B13
330
1F
100
AcDbEntity
  8
CONTINUOUS2
100
AcDbCircle
 10
24.54759404179078
 20
15.37860173112419
 30
0.0
 40
0.082
100
AcDbArc
 50
270.0
 51
90.0
  0
LINE
  5
9B14
330
1F
100
AcDbEntity
  8
CENTER2
100
AcDbLine
 10
24.64134404179079
 20
15.37860173112419
 30
0.0
 11
24.45384404179078
 21
15.37860173112419
 31
0.0
  0
CIRCLE
  5
9B15
330
1F
100
AcDbEntity
  8
CONTINUOUS1
100
AcDbCircle
 10
25.29759404179078
 20
15.47235173112419
 30
0.0
 40
0.21875
  0
CIRCLE
  5
9B16
330
1F
100
AcDbEntity
  8
CONTINUOUS1
100
AcDbCircle
 10
25.29759404179078
 20
15.47235173112419
 30
0.0
 40
0.15625
  0
LINE
  5
9B17
330
1F
100
AcDbEntity
  8
CONTINUOUS1
100
AcDbLine
 10
25.14212725474288
 20
15.45672673112419
 30
0.0
 11
25.45306082883869
 21
15.45672673112419
 31
0.0
  0
LINE
  5
9B18
330
1F
100
AcDbEntity
  8
CONTINUOUS1
100
AcDbLine
 10
25.14212725474288
 20
15.48797673112419
 30
0.0
 11
25.45306082883869
 21
15.48797673112419
 31
0.0
  0
LINE
  5
9B19
330
1F
100
AcDbEntity
  8
CONTINUOUS2
100
AcDbLine
 10
24.73509404179079
 20
15.69110173112419
 30
0.0
 11
24.86009404179078
 21
15.69110173112419
 31
0.0
  0
LINE
  5
9B1A
330
1F
100
AcDbEntity
  8
CONTINUOUS2
100
AcDbLine
 10
24.54759404179078
 20
15.81610173112419
 30
0.0
 11
24.73509404179079
 21
15.81610173112419
 31
0.0
  0
LINE
  5
9B1B
330
1F
100
AcDbEntity
  8
CONTINUOUS2
100
AcDbLine
 10
26.04759404179079
 20
15.81610173112419
 30
0.0
 11
26.04759404179079
 21
15.46060173112419
 31
0.0
  0
LINE
  5
9B1C
330
1F
100
AcDbEntity
  8
CONTINUOUS2
100
AcDbLine
 10
25.86009404179078
 20
15.81610173112419
 30
0.0
 11
25.86009404179078
 21
15.69110173112419
 31
0.0
  0
LINE
  5
9B1D
330
1F
100
AcDbEntity
  8
CONTINUOUS2
100
AcDbLine
 10
25.73509404179079
 20
15.69110173112419
 30
0.0
 11
25.73509404179079
 21
15.81610173112419
 31
0.0
  0
LINE
  5
9B1E
330
1F
100
AcDbEntity
  8
CENTER2
100
AcDbLine
 10
25.95384404179078
 20
15.37860173112419
 30
0.0
 11
26.14134404179079
 21
15.37860173112419
 31
0.0
  0
ARC
  5
9B1F
330
1F
100
AcDbEntity
  8
CONTINUOUS2
100
AcDbCircle
 10
26.04759404179079
 20
15.37860173112419
 30
0.0
 40
0.082
100
AcDbArc
 50
90.0
 51
270.0
  0
CIRCLE
  5
9B20
330
1F
100
AcDbEntity
  8
CONTINUOUS2
100
AcDbCircle
 10
26.04759404179079
 20
15.37860173112419
 30
0.0
 40
0.082
  0
LINE
  5
9B21
330
1F
100
AcDbEntity
  8
CONTINUOUS2
100
AcDbLine
 10
25.86009404179078
 20
15.69110173112419
 30
0.0
 11
25.73509404179079
 21
15.69110173112419
 31
0.0
  0
LINE
  5
9B22
330
1F
100
AcDbEntity
  8
CENTER2
100
AcDbLine
 10
26.04759404179079
 20
15.47235173112419
 30
0.0
 11
26.04759404179079
 21
15.26922673112419
 31
0.0
  0
LINE
  5
9B23
330
1F
100
AcDbEntity
  8
CONTINUOUS2
100
AcDbLine
 10
26.04759404179079
 20
15.81610173112419
 30
0.0
 11
25.86009404179078
 21
15.81610173112419
 31
0.0
  0
LINE
  5
9B24
330
1F
100
AcDbEntity
  8
DIM
100
AcDbLine
 10
22.67759404179078
 20
19.72644360071086
 30
0.0
 11
27.75759404179078
 21
19.72644360071086
 31
0.0
  0
TEXT
  5
9B25
330
1F
100
AcDbEntity
  8
TEXT1
100
AcDbText
 10
4.697142857142857
 20
17.27938674314987
 30
0.0
 40
0.16
  1
INCREMENT BY 10
  7
SIMPLEX
100
AcDbText
  0
TEXT
  5
9B26
330
1F
100
AcDbEntity
  8
TEXT1
100
AcDbText
 10
4.697142857142857
 20
17.47938674314987
 30
0.0
 40
0.16
  1
050 - 100 AMP:
  7
SIMPLEX
100
AcDbText
  0
TEXT
  5
9B27
330
1F
100
AcDbEntity
  8
TEXT1
100
AcDbText
 10
4.697142857142857
 20
17.67938674314987
 30
0.0
 40
0.16
  1
INCREMENT BY 5
  7
SIMPLEX
100
AcDbText
  0
TEXT
  5
9B28
330
1F
100
AcDbEntity
  8
TEXT1
100
AcDbText
 10
4.697142857142857
 20
17.87938674314987
 30
0.0
 40
0.16
  1
015 - 050 AMP:
  7
SIMPLEX
100
AcDbText
  0
TEXT
  5
9B29
330
1F
100
AcDbEntity
  8
TEXT1
100
AcDbText
 10
4.697142857142857
 20
18.43938674314987
 30
0.0
 40
0.16
  1
12 = 120 VAC
  7
SIMPLEX
100
AcDbText
  0
TEXT
  5
9B2A
330
1F
100
AcDbEntity
  8
TEXT1
100
AcDbText
 10
4.697142857142857
 20
18.79938674314987
 30
0.0
 40
0.16
  1
SEE CHART BELOW
  7
SIMPLEX
100
AcDbText
  0
TEXT
  5
9B2B
330
1F
100
AcDbEntity
  8
TEXT1
100
AcDbText
 10
0.6571428571428591
 20
17.87938674314987
 30
0.0
 40
0.16
  1
015 - 100 AMP
  7
SIMPLEX
 72
     2
 11
2.600000000000001
 21
17.87938674314987
 31
0.0
100
AcDbText
  0
TEXT
  5
9B2C
330
1F
100
AcDbEntity
  8
TEXT1
100
AcDbText
 10
0.9161904761904777
 20
18.43938674314987
 30
0.0
 40
0.16
  1
12, 14, OR 16
  7
SIMPLEX
 72
     2
 11
2.600000000000001
 21
18.43938674314987
 31
0.0
100
AcDbText
  0
TEXT
  5
9B2D
330
1F
100
AcDbEntity
  8
TEXT1
100
AcDbText
 10
1.708571428571429
 20
18.79938674314987
 30
0.0
 40
0.16
  1
A OR H
  7
SIMPLEX
 72
     2
 11
2.600000000000001
 21
18.79938674314987
 31
0.0
100
AcDbText
  0
LINE
  5
9B2E
330
1F
100
AcDbEntity
  8
CONTINUOUS1
100
AcDbLine
 10
4.359999999999999
 20
17.94
 30
0.0
 11
4.359999999999999
 21
19.02
 31
0.0
  0
LINE
  5
9B2F
330
1F
100
AcDbEntity
  8
CONTINUOUS1
100
AcDbLine
 10
2.892800000000001
 20
17.94
 30
0.0
 11
4.359999999999999
 21
17.94
 31
0.0
  0
SOLID
  5
9B30
330
1F
100
AcDbEntity
  8
CONTINUOUS1
100
AcDbTrace
 10
2.892800000000001
 20
17.91119999999999
 30
0.0
 11
2.892800000000001
 21
17.9688
 31
0.0
 12
2.719999999999998
 22
17.94
 32
0.0
 13
2.719999999999998
 23
17.94
 33
0.0
  0
LINE
  5
9B31
330
1F
100
AcDbEntity
  8
CONTINUOUS1
100
AcDbLine
 10
3.86048780048776
 20
18.5
 30
0.0
 11
3.86048780048776
 21
19.02
 31
0.0
  0
LINE
  5
9B32
330
1F
100
AcDbEntity
  8
CONTINUOUS1
100
AcDbLine
 10
2.892800000000001
 20
18.5
 30
0.0
 11
3.86048780048776
 21
18.5
 31
0.0
  0
SOLID
  5
9B33
330
1F
100
AcDbEntity
  8
CONTINUOUS1
100
AcDbTrace
 10
2.892800000000001
 20
18.4712
 30
0.0
 11
2.892800000000001
 21
18.5288
 31
0.0
 12
2.719999999999998
 22
18.5
 32
0.0
 13
2.719999999999998
 23
18.5
 33
0.0
  0
LINE
  5
9B34
330
1F
100
AcDbEntity
  8
CONTINUOUS1
100
AcDbLine
 10
3.240000000000001
 20
18.86
 30
0.0
 11
3.240000000000001
 21
19.02
 31
0.0
  0
LINE
  5
9B35
330
1F
100
AcDbEntity
  8
CONTINUOUS1
100
AcDbLine
 10
2.892800000000001
 20
18.86
 30
0.0
 11
3.240000000000001
 21
18.86
 31
0.0
  0
SOLID
  5
9B36
330
1F
100
AcDbEntity
  8
CONTINUOUS1
100
AcDbTrace
 10
2.892800000000001
 20
18.83119999999999
 30
0.0
 11
2.892800000000001
 21
18.8888
 31
0.0
 12
2.719999999999998
 22
18.86
 32
0.0
 13
2.719999999999998
 23
18.86
 33
0.0
  0
TEXT
  5
9B37
330
1F
100
AcDbEntity
  8
TEXT1
100
AcDbText
 10
2.65809523809524
 20
19.18
 30
0.0
 40
0.16
  1
F (*) L (**) (***)
  7
SIMPLEX
 72
     1
 11
3.740000000000001
 21
19.18
 31
0.0
100
AcDbText
  0
LINE
  5
9B38
330
1F
100
AcDbEntity
  8
TEXT1
100
AcDbLine
 10
2.679999999999999
 20
19.62
 30
0.0
 11
4.719999999999998
 21
19.62
 31
0.0
  0
TEXT
  5
9B39
330
1F
100
AcDbEntity
  8
TEXT1
100
AcDbText
 10
2.420000000000003
 20
19.69999999999999
 30
0.0
 40
0.16
  1
CATALOG NUMBERING
  7
SIMPLEX
 72
     1
 11
3.700000000000002
 21
19.69999999999999
 31
0.0
100
AcDbText
  0
LINE
  5
9B3A
330
1F
100
AcDbEntity
  8
TEXT1
100
AcDbLine
 10
0.5200000000000032
 20
15.38
 30
0.0
 11
3.64
 21
15.38
 31
0.0
  0
LINE
  5
9B3B
330
1F
100
AcDbEntity
  8
TEXT1
100
AcDbLine
 10
0.5200000000000032
 20
16.37999999999999
 30
0.0
 11
3.880000000000002
 21
16.37999999999999
 31
0.0
  0
TEXT
  5
9B3C
330
1F
100
AcDbEntity
  8
TEXT1
100
AcDbText
 10
1.840000000000003
 20
16.08
 30
0.0
 40
0.16
  1
120 VAC, 15-100 AMPERE
  7
SIMPLEX
100
AcDbText
  0
TEXT
  5
9B3D
330
1F
100
AcDbEntity
  8
TEXT1
100
AcDbText
 10
0.5399999999999999
 20
16.48285714285714
 30
0.0
 40
0.16
  1
FAL (Standard Interrupting)
  7
SIMPLEX
 72
     4
 11
2.219999999999998
 21
16.55142857142856
 31
0.0
100
AcDbText
  0
TEXT
  5
9B3E
330
1F
100
AcDbEntity
  8
TEXT1
100
AcDbText
 10
0.5200000000000032
 20
16.08
 30
0.0
 40
0.16
  1
Ratings:
  7
SIMPLEX
100
AcDbText
  0
LINE
  5
9B3F
330
1F
100
AcDbEntity
  8
TEXT1
100
AcDbLine
 10
0.5200000000000032
 20
11.73999999999999
 30
0.0
 11
3.759999999999998
 21
11.73999999999999
 31
0.0
  0
LINE
  5
9B40
330
1F
100
AcDbEntity
  8
TEXT1
100
AcDbLine
 10
0.5200000000000032
 20
13.3
 30
0.0
 11
3.64
 21
13.3
 31
0.0
  0
TEXT
  5
9B41
330
1F
100
AcDbEntity
  8
TEXT1
100
AcDbText
 10
0.5200000000000032
 20
12.96999999999999
 30
0.0
 40
0.16
  1
Wire Size:
  7
SIMPLEX
100
AcDbText
  0
TEXT
  5
9B42
330
1F
100
AcDbEntity
  8
TEXT1
100
AcDbText
 10
0.5200000000000032
 20
11.45
 30
0.0
 40
0.16
  1
Wire Size:
  7
SIMPLEX
100
AcDbText
  0
TEXT
  5
9B43
330
1F
100
AcDbEntity
  8
TEXT1
100
AcDbText
 10
0.5200000000000032
 20
12.64999999999999
 30
0.0
 40
0.16
  1
Terminal Torque:
  7
SIMPLEX
100
AcDbText
  0
TEXT
  5
9B44
330
1F
100
AcDbEntity
  8
TEXT1
100
AcDbText
 10
0.5057142857142834
 20
11.86142857142857
 30
0.0
 40
0.16
  1
FAL & FHL (35-100 AMP)
  7
SIMPLEX
 72
     4
 11
2.128571428571426
 21
11.93
 31
0.0
100
AcDbText
  0
TEXT
  5
9B45
330
1F
100
AcDbEntity
  8
TEXT1
100
AcDbText
 10
0.5200000000000032
 20
11.12999999999999
 30
0.0
 40
0.16
  1
Terminal Torque:
  7
SIMPLEX
100
AcDbText
  0
TEXT
  5
9B46
330
1F
100
AcDbEntity
  8
TEXT1
100
AcDbText
 10
0.5085714285714285
 20
13.42142857142857
 30
0.0
 40
0.16
  1
FAL & FHL (15-30 AMP)
  7
SIMPLEX
 72
     4
 11
2.055238095238095
 21
13.48999999999999
 31
0.0
100
AcDbText
  0
TEXT
  5
9B47
330
1F
100
AcDbEntity
  8
TEXT1
100
AcDbText
 10
1.990000000000001
 20
11.45
 30
0.0
 40
0.16
  1
(1) #14-1/0
  7
SIMPLEX
100
AcDbText
  0
TEXT
  5
9B48
330
1F
100
AcDbEntity
  8
TEXT1
100
AcDbText
 10
2.75
 20
11.12999999999999
 30
0.0
 40
0.16
  1
80 LB/IN
  7
SIMPLEX
100
AcDbText
  0
TEXT
  5
9B49
330
1F
100
AcDbEntity
  8
TEXT1
100
AcDbText
 10
2.75
 20
12.64999999999999
 30
0.0
 40
0.16
  1
35 LB/IN
  7
SIMPLEX
100
AcDbText
  0
TEXT
  5
9B4A
330
1F
100
AcDbEntity
  8
TEXT1
100
AcDbText
 10
1.990000000000001
 20
12.96999999999999
 30
0.0
 40
0.16
  1
(1) #14-#4
  7
SIMPLEX
100
AcDbText
  0
TEXT
  5
9B4B
330
1F
100
AcDbEntity
  8
TEXT1
100
AcDbText
 10
4.697142857142857
 20
18.23938674314987
 30
0.0
 40
0.16
  1
14 OR 16 = 277 VAC
  7
SIMPLEX
100
AcDbText
  0
INSERT
  5
9B4C
330
1F
100
AcDbEntity
  8
TEXT1
100
AcDbBlockReference
 66
     1
  2
REF2
 10
0.0
 20
1.6
 30
0.0
 41
1.28
 42
1.28
 43
1.28
  0
ATTRIB
  5
9B4D
330
9B4C
100
AcDbEntity
  8
REFERENCE
100
AcDbText
 10
2.560000000000002
 20
1.882159750513325
 30
0.0
 40
0.16
  1
8-32 SCREWS
100
AcDbAttribute
  2
MOUNTING_HWD
 70
     0
  0
ATTRIB
  5
9B4E
330
9B4C
100
AcDbEntity
  8
REFERENCE
100
AcDbText
 10
2.560000000000002
 20
2.17405323485802
 30
0.0
 40
0.16
  1
SEE CHART
100
AcDbAttribute
  2
TERM_TORQUE
 70
     0
  0
ATTRIB
  5
9B4F
330
9B4C
100
AcDbEntity
  8
REFERENCE
100
AcDbText
 10
2.560000000000002
 20
2.442159750513325
 30
0.0
 40
0.16
  1
SEE CHART
100
AcDbAttribute
  2
WIRE_SIZE
 70
     0
  0
ATTRIB
  5
9B50
330
9B4C
100
AcDbEntity
  8
REFERENCE
100
AcDbText
 10
2.560000000000002
 20
2.696213008340978
 30
0.0
 40
0.16
  1
2.95 lbs.
100
AcDbAttribute
  2
WEIGHT
 70
     0
  0
ATTRIB
  5
9B51
330
9B4C
100
AcDbEntity
  8
REFERENCE
100
AcDbText
 10
2.560000000000002
 20
2.96
 30
0.0
 40
0.16
  1
IEC 157-1
100
AcDbAttribute
  2
STANDARDS
 70
     0
  0
ATTRIB
  5
9B52
330
9B4C
100
AcDbEntity
  8
REFERENCE
100
AcDbText
 10
2.560000000000002
 20
3.256212985371345
 30
0.0
 40
0.16
  1
LR7551
100
AcDbAttribute
  2
CSA
 70
     0
  0
ATTRIB
  5
9B53
330
9B4C
100
AcDbEntity
  8
REFERENCE
100
AcDbText
 10
2.574058625709618
 20
3.52
 30
0.0
 40
0.16
  1
E10027
100
AcDbAttribute
  2
UL
 70
     0
  0
ATTRIB
  5
9B54
330
9B4C
100
AcDbEntity
  8
REFERENCE
100
AcDbText
 10
2.560000000000002
 20
3.802159750513325
 30
0.0
 40
0.16
  1
SEE CHART
100
AcDbAttribute
  2
RATING
 70
     0
  0
ATTRIB
  5
9B55
330
9B4C
100
AcDbEntity
  8
REFERENCE
100
AcDbText
 10
2.560000000000002
 20
4.08
 30
0.0
 40
0.16
  1
SEE CHART
100
AcDbAttribute
  2
CATALOG
 70
     0
  0
SEQEND
  5
9B56
330
9B4C
100
AcDbEntity
  8
0
  0
LWPOLYLINE
  5
9B57
330
1F
100
AcDbEntity
  8
CONTINUOUS1
100
AcDbPolyline
 90
        4
 70
     1
 43
0.0
 10
0.5200000000000032
 20
19.98
 10
0.5200000000000032
 20
17.1
 10
7.520000000000003
 20
17.1
 10
7.520000000000003
 20
19.98
  0
TEXT
  5
9B5D
330
1F
100
AcDbEntity
  8
TEXT1
100
AcDbText
 10
0.5200000000000032
 20
14.12
 30
0.0
 40
0.16
  1
Ratings:
  7
SIMPLEX
100
AcDbText
  0
TEXT
  5
9B5E
330
1F
100
AcDbEntity
  8
TEXT1
100
AcDbText
 10
0.5304761904761857
 20
14.50142857142857
 30
0.0
 40
0.16
  1
FHL (High Interrupting)
  7
SIMPLEX
 72
     4
 11
1.928571428571423
 21
14.57
 31
0.0
100
AcDbText
  0
TEXT
  5
9B5F
330
1F
100
AcDbEntity
  8
TEXT1
100
AcDbText
 10
1.840000000000003
 20
14.12
 30
0.0
 40
0.16
  1
277VAC/125VDC, 15-100 AMPERE
  7
SIMPLEX
100
AcDbText
  0
TEXT
  5
9B60
330
1F
100
AcDbEntity
  8
TEXT1
100
AcDbText
 10
3.518095238095241
 20
14.45571428571428
 30
0.0
 40
0.16
  1
*
  7
SIMPLEX
 72
     4
 11
3.556190476190479
 21
14.57
 31
0.0
100
AcDbText
  0
LINE
  5
9B61
330
1F
100
AcDbEntity
  8
TEXT1
100
AcDbLine
 10
0.5200000000000032
 20
14.37999999999999
 30
0.0
 11
3.64
 21
14.37999999999999
 31
0.0
  0
TEXT
  5
9B62
330
1F
100
AcDbEntity
  8
TEXT1
100
AcDbText
 10
1.840000000000003
 20
15.08
 30
0.0
 40
0.16
  1
277VAC/125VDC, 15-100 AMPERE
  7
SIMPLEX
100
AcDbText
  0
TEXT
  5
9B63
330
1F
100
AcDbEntity
  8
TEXT1
100
AcDbText
 10
0.5399999999999999
 20
15.48285714285714
 30
0.0
 40
0.16
  1
FAL (Standard Interrupting)
  7
SIMPLEX
 72
     4
 11
2.219999999999998
 21
15.55142857142857
 31
0.0
100
AcDbText
  0
TEXT
  5
9B64
330
1F
100
AcDbEntity
  8
TEXT1
100
AcDbText
 10
0.5200000000000032
 20
15.08
 30
0.0
 40
0.16
  1
Ratings:
  7
SIMPLEX
100
AcDbText
  0
DIMENSION
  5
9B65
330
1F
100
AcDbEntity
  8
DIM
100
AcDbDimension
  2
*D5
 10
23.84446904179078
 20
15.37860173112419
 30
0.0
 11
23.84446904179078
 21
15.5973517311242
 31
0.0
 70
    32
  3
SCHNEIDERELECTRIC
100
AcDbAlignedDimension
 13
24.54759404179078
 23
15.81610173112419
 33
0.0
 14
24.62959404179079
 24
15.37860173112419
 34
0.0
 50
90.0
100
AcDbRotatedDimension
1001
ACAD
1000
DSTYLE
1002
{
1070
    40
1040
2.0
1002
}
  0
DIMENSION
  5
9B66
330
1F
100
AcDbEntity
  8
DIM
100
AcDbDimension
  2
*D6
 10
27.40603980776521
 20
9.816101731124195
 30
0.0
 11
27.40603980776521
 21
12.52573165314009
 31
0.0
 70
   160
  3
SCHNEIDERELECTRIC
100
AcDbAlignedDimension
 13
26.04759404179079
 23
15.81610173112419
 33
0.0
 14
26.04759404179079
 24
9.816101731124195
 34
0.0
 50
90.0
100
AcDbRotatedDimension
1001
ACAD
1000
DSTYLE
1002
{
1070
    40
1040
2.0
1002
}
  0
DIMENSION
  5
9B67
330
1F
100
AcDbEntity
  8
DIM
100
AcDbDimension
  2
*D7
 10
26.70466397462593
 20
10.24972673112453
 30
0.0
 11
26.70466397462593
 21
12.81416423112436
 31
0.0
 70
   160
  3
SCHNEIDERELECTRIC
100
AcDbAlignedDimension
 13
26.04759404179079
 23
15.37860173112419
 33
0.0
 14
26.04759404179079
 24
10.24972673112453
 34
0.0
 50
90.0
100
AcDbRotatedDimension
1001
ACAD
1000
DSTYLE
1002
{
1070
    40
1040
2.0
1002
}
  0
LINE
  5
9B68
330
1F
100
AcDbEntity
  8
CENTER1
100
AcDbLine
 10
25.29714545622662
 20
6.358275143021371
 30
0.0
 11
25.29714545622662
 21
2.693034339723246
 31
0.0
  0
LINE
  5
9B69
330
1F
100
AcDbEntity
  8
CONTINUOUS1
100
AcDbLine
 10
24.54468451922661
 20
6.23827514302137
 30
0.0
 11
24.54468451922661
 21
3.082330319021354
 31
0.0
  0
LWPOLYLINE
  5
9B6A
330
1F
100
AcDbEntity
  8
CONTINUOUS1
100
AcDbPolyline
 90
        2
 70
     0
 43
0.0
 10
26.04468451922661
 20
3.082330319021354
 10
24.54468451922661
 20
3.082330319021354
  0
LWPOLYLINE
  5
9B6E
330
1F
100
AcDbEntity
  8
CONTINUOUS1
100
AcDbPolyline
 90
        2
 70
     0
 43
0.0
 10
24.54468451922661
 20
3.114312741021353
 10
26.03516303522678
 20
3.114312741021353
  0
LWPOLYLINE
  5
9B72
330
1F
100
AcDbEntity
  8
CONTINUOUS1
100
AcDbPolyline
 90
        2
 70
     0
 43
0.0
 10
24.54468451922661
 20
3.082330319021354
 10
24.80176459722656
 20
3.082330319021354
  0
LWPOLYLINE
  5
9B7E
330
1F
100
AcDbEntity
  8
CONTINUOUS1
100
AcDbPolyline
 90
        2
 70
     0
 43
0.0
 10
24.54468451922661
 20
6.23827514302137
 10
24.86987983122662
 20
6.23827514302137
  0
LWPOLYLINE
  5
9B82
330
1F
100
AcDbEntity
  8
CONTINUOUS1
100
AcDbPolyline
 90
        2
 70
     0
 43
0.0
 10
24.54468451922661
 20
6.082269284021366
 10
24.70313178522678
 20
6.082269284021366
  0
DIMENSION
  5
9B86
330
1F
100
AcDbEntity
  8
DIM
100
AcDbDimension
  2
*D8
 10
26.64796064643251
 20
3.082330319021354
 30
0.0
 11
26.64796064643251
 21
3.664300533521376
 31
0.0
 70
    32
  3
SCHNEIDERELECTRIC
100
AcDbAlignedDimension
 13
25.63273139422661
 23
4.24627074802139
 33
0.0
 14
25.63273139422661
 24
3.082330319021354
 34
0.0
 50
90.0
100
AcDbRotatedDimension
1001
ACAD
1000
DSTYLE
1002
{
1070
    40
1040
2.0
1002
}
  0
DIMENSION
  5
9B87
330
1F
100
AcDbEntity
  8
DIM
100
AcDbDimension
  2
*D9
 10
26.64796064643251
 20
4.246270748021389
 30
0.0
 11
26.64796064643251
 21
5.015771480521371
 31
0.0
 70
    32
  3
SCHNEIDERELECTRIC
100
AcDbAlignedDimension
 13
25.54273139422661
 23
5.785272213021345
 33
0.0
 14
25.54273139422661
 24
4.24627074802139
 34
0.0
 50
90.0
100
AcDbRotatedDimension
1001
ACAD
1000
DSTYLE
1002
{
1070
    40
1040
2.0
1002
}
  0
DIMENSION
  5
9B88
330
1F
100
AcDbEntity
  8
DIM
100
AcDbDimension
  2
*D10
 10
25.29714545622662
 20
7.515974228851531
 30
0.0
 11
25.62067811925035
 21
7.515974228851531
 31
0.0
 70
   160
  3
SCHNEIDERELECTRIC
100
AcDbAlignedDimension
 13
26.04468451922661
 23
6.23827514302137
 33
0.0
 14
25.29714545622662
 24
6.23827514302137
 34
0.0
100
AcDbRotatedDimension
1001
ACAD
1000
DSTYLE
1002
{
1070
   287
1070
     0
1070
   287
1070
     0
1070
   287
1070
     0
1070
   287
1070
     0
1070
   287
1070
     0
1070
   289
1070
     0
1070
    40
1040
2.0
1002
}
  0
LWPOLYLINE
  5
9B8D
330
1F
100
AcDbEntity
  8
CONTINUOUS1
100
AcDbPolyline
 90
        2
 70
     0
 43
0.0
 10
25.56470405022673
 20
7.210137936021384
 10
25.58887397222656
 20
6.468621823021395
  0
LWPOLYLINE
  5
9B91
330
1F
100
AcDbEntity
  8
CONTINUOUS1
100
AcDbPolyline
 90
        2
 70
     0
 43
0.0
 10
26.04468451922661
 20
4.832269284021366
 10
26.04468451922661
 20
3.631219479021342
  0
LWPOLYLINE
  5
9B95
330
1F
100
AcDbEntity
  8
CONTINUOUS1
100
AcDbPolyline
 90
        2
 70
     0
 43
0.0
 10
26.03467475322644
 20
4.832269284021366
 10
26.03467475322644
 20
3.33080444002137
  0
LWPOLYLINE
  5
9B99
330
1F
100
AcDbEntity
  8
CONTINUOUS1
100
AcDbPolyline
 90
        2
 70
     0
 43
0.0
 10
26.03467475322644
 20
3.114312741021353
 10
26.03467475322644
 20
3.33080444002137
  0
LWPOLYLINE
  5
9B9D
330
1F
100
AcDbEntity
  8
CONTINUOUS1
100
AcDbPolyline
 90
        2
 70
     0
 43
0.0
 10
26.03516303522678
 20
3.114312741021353
 10
26.03516303522678
 20
3.261285397021413
  0
LWPOLYLINE
  5
9BA1
330
1F
100
AcDbEntity
  8
CONTINUOUS1
100
AcDbPolyline
 90
        9
 70
     0
 43
0.0
 10
26.04468451922661
 20
4.452264401021341
 10
26.04468451922661
 20
4.42846069002137
 10
26.04468451922661
 20
4.406365963021346
 10
26.04468451922661
 20
4.38604125602136
 10
26.04468451922661
 20
4.367425534021367
 10
26.04468451922661
 20
4.35228881502137
 10
26.04468451922661
 20
4.3414245570214
 10
26.04468451922661
 20
4.334771725021357
 10
26.04468451922661
 20
4.332269284021367
  0
LWPOLYLINE
  5
9BAC
330
1F
100
AcDbEntity
  8
CONTINUOUS1
100
AcDbPolyline
 90
        2
 70
     0
 43
0.0
 10
26.04468451922661
 20
4.832269284021366
 10
26.04468451922661
 20
4.452264401021341
  0
LWPOLYLINE
  5
9BB0
330
1F
100
AcDbEntity
  8
CONTINUOUS1
100
AcDbPolyline
 90
       13
 70
     0
 43
0.0
 10
25.64673530022673
 20
5.457269284021366
 10
25.64404975322644
 20
5.457269284021366
 10
25.63648139422661
 20
5.457269284021366
 10
25.62403022222655
 20
5.457269284021366
 10
25.60645209722656
 20
5.457269284021366
 10
25.58447944122667
 20
5.457269284021366
 10
25.55884467522673
 20
5.457269284021366
 10
25.52954780022673
 20
5.457269284021366
 10
25.49683295622662
 20
5.457269284021366
 10
25.46118842522673
 20
5.457269284021366
 10
25.42432319122667
 20
5.457269284021366
 10
25.38623725322644
 20
5.457269284021366
 10
25.34668647222655
 20
5.457269284021366
  0
LWPOLYLINE
  5
9BBF
330
1F
100
AcDbEntity
  8
CONTINUOUS1
100
AcDbPolyline
 90
       13
 70
     0
 43
0.0
 10
25.28272162822644
 20
5.457269284021366
 10
25.24317084722655
 20
5.457269284021366
 10
25.20508491022678
 20
5.457269284021366
 10
25.16821967522673
 20
5.457269284021366
 10
25.13281928522678
 20
5.457269284021366
 10
25.09986030022673
 20
5.457269284021366
 10
25.07056342522673
 20
5.457269284021366
 10
25.04492866022678
 20
5.457269284021366
 10
25.02295600322645
 20
5.457269284021366
 10
25.00537787822644
 20
5.457269284021366
 10
24.99292670622661
 20
5.457269284021366
 10
24.98535834722655
 20
5.457269284021366
 10
24.98267280022673
 20
5.457269284021366
  0
LWPOLYLINE
  5
9BCE
330
1F
100
AcDbEntity
  8
CONTINUOUS1
100
AcDbPolyline
 90
        2
 70
     0
 43
0.0
 10
25.93970405022673
 20
6.23827514302137
 10
25.93970405022673
 20
6.36327514302137
  0
LWPOLYLINE
  5
9BD2
330
1F
100
AcDbEntity
  8
CONTINUOUS1
100
AcDbPolyline
 90
        2
 70
     0
 43
0.0
 10
25.87964545622662
 20
6.36327514302137
 10
25.53418647222656
 20
6.36327514302137
  0
LWPOLYLINE
  5
9BD6
330
1F
100
AcDbEntity
  8
CONTINUOUS1
100
AcDbPolyline
 90
        2
 70
     0
 43
0.0
 10
25.82813178522678
 20
6.082269284021366
 10
25.83472358122662
 20
6.082269284021366
  0
LWPOLYLINE
  5
9BDA
330
1F
100
AcDbEntity
  8
CONTINUOUS1
100
AcDbPolyline
 90
        2
 70
     0
 43
0.0
 10
25.82813178522678
 20
6.082269284021366
 10
25.73120795622662
 20
6.082269284021366
  0
LWPOLYLINE
  5
9BDE
330
1F
100
AcDbEntity
  8
CONTINUOUS1
100
AcDbPolyline
 90
        2
 70
     0
 43
0.0
 10
25.73120795622662
 20
6.082269284021366
 10
25.72461616022678
 20
6.082269284021366
  0
LWPOLYLINE
  5
9BE2
330
1F
100
AcDbEntity
  8
CONTINUOUS1
100
AcDbPolyline
 90
        2
 70
     0
 43
0.0
 10
25.79248725322644
 20
6.23827514302137
 10
26.04468451922661
 20
6.23827514302137
  0
LWPOLYLINE
  5
9BE6
330
1F
100
AcDbEntity
  8
CONTINUOUS1
100
AcDbPolyline
 90
        5
 70
     0
 43
0.0
 10
24.68970405022673
 20
6.36327514302137
 10
24.69434272222656
 20
6.36327514302137
 10
24.70728217522673
 20
6.36327514302137
 10
24.72681342522673
 20
6.36327514302137
 10
24.74976264422661
 20
6.36327514302137
  0
LWPOLYLINE
  5
9BED
330
1F
100
AcDbEntity
  8
CONTINUOUS1
100
AcDbPolyline
 90
        2
 70
     0
 43
0.0
 10
24.70313178522678
 20
6.082269284021366
 10
24.70972358122661
 20
6.082269284021366
  0
LWPOLYLINE
  5
9BF1
330
1F
100
AcDbEntity
  8
CONTINUOUS1
100
AcDbPolyline
 90
        2
 70
     0
 43
0.0
 10
24.79468451922661
 20
6.082269284021366
 10
24.70972358122661
 20
6.082269284021366
  0
LWPOLYLINE
  5
9BF5
330
1F
100
AcDbEntity
  8
CONTINUOUS1
100
AcDbPolyline
 90
        2
 70
     0
 43
0.0
 10
24.80127631622667
 20
6.082269284021366
 10
24.79468451922661
 20
6.082269284021366
  0
LWPOLYLINE
  5
9BF9
330
1F
100
AcDbEntity
  8
CONTINUOUS1
100
AcDbPolyline
 90
        2
 70
     0
 43
0.0
 10
24.89820014422661
 20
6.082269284021366
 10
24.90479194122666
 20
6.082269284021366
  0
LWPOLYLINE
  5
9BFD
330
1F
100
AcDbEntity
  8
CONTINUOUS1
100
AcDbPolyline
 90
        2
 70
     0
 43
0.0
 10
24.89820014422661
 20
6.082269284021366
 10
24.80127631622667
 20
6.082269284021366
  0
LWPOLYLINE
  5
9C01
330
1F
100
AcDbEntity
  8
CONTINUOUS1
100
AcDbPolyline
 90
        9
 70
     0
 43
0.0
 10
24.68970405022673
 20
6.503717038021351
 10
24.68970405022673
 20
6.501458737021367
 10
24.68970405022673
 20
6.494866940021369
 10
24.68970405022673
 20
6.48381957702138
 10
24.68970405022673
 20
6.468316647021412
 10
24.68970405022673
 20
6.448480221021371
 10
24.68970405022673
 20
6.42437133402136
 10
24.68970405022673
 20
6.39592895202138
 10
24.68970405022673
 20
6.36327514302137
  0
LWPOLYLINE
  5
9C0C
330
1F
100
AcDbEntity
  8
CONTINUOUS1
100
AcDbPolyline
 90
        2
 70
     0
 43
0.0
 10
25.00171576922661
 20
6.36327514302137
 10
24.68970405022673
 20
6.36327514302137
  0
LWPOLYLINE
  5
9C10
330
1F
100
AcDbEntity
  8
CONTINUOUS1
100
AcDbPolyline
 90
        9
 70
     0
 43
0.0
 10
25.00171576922661
 20
6.503717038021351
 10
25.00171576922661
 20
6.501458737021367
 10
25.00171576922661
 20
6.494866940021369
 10
25.00171576922661
 20
6.48381957702138
 10
25.00171576922661
 20
6.468316647021412
 10
25.00171576922661
 20
6.448480221021371
 10
25.00171576922661
 20
6.42437133402136
 10
25.00171576922661
 20
6.39592895202138
 10
25.00171576922661
 20
6.36327514302137
  0
LWPOLYLINE
  5
9C1B
330
1F
100
AcDbEntity
  8
CONTINUOUS1
100
AcDbPolyline
 90
        2
 70
     0
 43
0.0
 10
25.00171576922661
 20
6.36327514302137
 10
25.62769233122661
 20
6.36327514302137
  0
LWPOLYLINE
  5
9C1F
330
1F
100
AcDbEntity
  8
CONTINUOUS1
100
AcDbPolyline
 90
        2
 70
     0
 43
0.0
 10
25.62769233122661
 20
6.36327514302137
 10
25.93970405022673
 20
6.36327514302137
  0
LWPOLYLINE
  5
9C23
330
1F
100
AcDbEntity
  8
CONTINUOUS1
100
AcDbPolyline
 90
        9
 70
     0
 43
0.0
 10
25.62769233122661
 20
6.503717038021351
 10
25.62769233122661
 20
6.501458737021367
 10
25.62769233122661
 20
6.494866940021369
 10
25.62769233122661
 20
6.48381957702138
 10
25.62769233122661
 20
6.468316647021412
 10
25.62769233122661
 20
6.448480221021371
 10
25.62769233122661
 20
6.42437133402136
 10
25.62769233122661
 20
6.39592895202138
 10
25.62769233122661
 20
6.36327514302137
  0
LWPOLYLINE
  5
9C2E
330
1F
100
AcDbEntity
  8
CONTINUOUS1
100
AcDbPolyline
 90
        2
 70
     0
 43
0.0
 10
25.72461616022678
 20
4.832269284021366
 10
25.62476264422661
 20
4.832269284021366
  0
LWPOLYLINE
  5
9C42
330
1F
100
AcDbEntity
  8
CONTINUOUS1
100
AcDbPolyline
 90
        2
 70
     0
 43
0.0
 10
24.90479194122666
 20
4.832269284021366
 10
25.00464545622662
 20
4.832269284021366
  0
LWPOLYLINE
  5
9C4A
330
1F
100
AcDbEntity
  8
CONTINUOUS1
100
AcDbPolyline
 90
        2
 70
     0
 43
0.0
 10
25.00659858122662
 20
4.182305905021382
 10
25.01978217522673
 20
4.182305905021382
  0
LWPOLYLINE
  5
9C4E
330
1F
100
AcDbEntity
  8
CONTINUOUS1
100
AcDbPolyline
 90
        2
 70
     0
 43
0.0
 10
25.60962592522673
 20
4.182305905021382
 10
25.62280951922661
 20
4.182305905021382
  0
LWPOLYLINE
  5
9C56
330
1F
100
AcDbEntity
  8
CONTINUOUS1
100
AcDbPolyline
 90
        2
 70
     0
 43
0.0
 10
25.83472358122662
 20
6.082269284021366
 10
25.83472358122662
 20
4.832269284021366
  0
LWPOLYLINE
  5
9C5E
330
1F
100
AcDbEntity
  8
CONTINUOUS1
100
AcDbPolyline
 90
        2
 70
     0
 43
0.0
 10
25.82813178522678
 20
6.082269284021366
 10
25.82813178522678
 20
4.832269284021366
  0
LWPOLYLINE
  5
9C66
330
1F
100
AcDbEntity
  8
CONTINUOUS1
100
AcDbPolyline
 90
        2
 70
     0
 43
0.0
 10
25.73120795622662
 20
6.082269284021366
 10
25.73120795622662
 20
4.832269284021366
  0
LWPOLYLINE
  5
9C6E
330
1F
100
AcDbEntity
  8
CONTINUOUS1
100
AcDbPolyline
 90
        2
 70
     0
 43
0.0
 10
25.72461616022678
 20
6.082269284021366
 10
25.72461616022678
 20
4.832269284021366
  0
LWPOLYLINE
  5
9C72
330
1F
100
AcDbEntity
  8
CONTINUOUS1
100
AcDbPolyline
 90
        2
 70
     0
 43
0.0
 10
25.64673530022673
 20
4.832269284021366
 10
25.72461616022678
 20
4.832269284021366
  0
LWPOLYLINE
  5
9C76
330
1F
100
AcDbEntity
  8
CONTINUOUS1
100
AcDbPolyline
 90
        2
 70
     0
 43
0.0
 10
25.64673530022673
 20
5.681329342021387
 10
25.64673530022673
 20
4.832269284021366
  0
LWPOLYLINE
  5
9C7A
330
1F
100
AcDbEntity
  8
CONTINUOUS1
100
AcDbPolyline
 90
        7
 70
     0
 43
0.0
 10
25.54273139422661
 20
5.785272213021345
 10
25.5695868632265
 20
5.781732174021373
 10
25.59473334722655
 20
5.771356198021395
 10
25.61621772222656
 20
5.754815670021388
 10
25.63281928522678
 20
5.733209225021356
 10
25.64307319122667
 20
5.708245846021371
 10
25.64673530022673
 20
5.681329342021387
  0
LWPOLYLINE
  5
9C83
330
1F
100
AcDbEntity
  8
CONTINUOUS1
100
AcDbPolyline
 90
        2
 70
     0
 43
0.0
 10
25.83472358122662
 20
6.082269284021366
 10
26.04468451922661
 20
6.082269284021366
  0
LWPOLYLINE
  5
9C87
330
1F
100
AcDbEntity
  8
CONTINUOUS1
100
AcDbPolyline
 90
        2
 70
     0
 43
0.0
 10
24.90479194122666
 20
6.082269284021366
 10
25.72461616022678
 20
6.082269284021366
  0
LWPOLYLINE
  5
9C8B
330
1F
100
AcDbEntity
  8
CONTINUOUS1
100
AcDbPolyline
 90
        7
 70
     0
 43
0.0
 10
24.98267280022673
 20
5.681329342021387
 10
24.98633491022678
 20
5.708245846021371
 10
24.99658881622667
 20
5.733209225021356
 10
25.01319037822645
 20
5.754815670021388
 10
25.03467475322644
 20
5.771356198021395
 10
25.05982123822649
 20
5.781732174021373
 10
25.08667670622662
 20
5.785272213021345
  0
LWPOLYLINE
  5
9C94
330
1F
100
AcDbEntity
  8
CONTINUOUS1
100
AcDbPolyline
 90
        2
 70
     0
 43
0.0
 10
24.86987983122662
 20
6.23827514302137
 10
25.79248725322644
 20
6.23827514302137
  0
LWPOLYLINE
  5
9C98
330
1F
100
AcDbEntity
  8
CONTINUOUS1
100
AcDbPolyline
 90
        2
 70
     0
 43
0.0
 10
25.53418647222656
 20
6.36327514302137
 10
24.93970405022673
 20
6.36327514302137
  0
LWPOLYLINE
  5
9C9C
330
1F
100
AcDbEntity
  8
CONTINUOUS1
100
AcDbPolyline
 90
        2
 70
     0
 43
0.0
 10
24.68970405022673
 20
6.23827514302137
 10
24.68970405022673
 20
6.36327514302137
  0
LWPOLYLINE
  5
9CA0
330
1F
100
AcDbEntity
  8
CONTINUOUS1
100
AcDbPolyline
 90
        2
 70
     0
 43
0.0
 10
24.98267280022673
 20
5.681329342021387
 10
24.98267280022673
 20
4.832269284021366
  0
LWPOLYLINE
  5
9CA4
330
1F
100
AcDbEntity
  8
CONTINUOUS1
100
AcDbPolyline
 90
        2
 70
     0
 43
0.0
 10
24.90479194122666
 20
4.832269284021366
 10
24.98267280022673
 20
4.832269284021366
  0
LWPOLYLINE
  5
9CA8
330
1F
100
AcDbEntity
  8
CONTINUOUS1
100
AcDbPolyline
 90
        2
 70
     0
 43
0.0
 10
24.90479194122666
 20
6.082269284021366
 10
24.90479194122666
 20
4.832269284021366
  0
LWPOLYLINE
  5
9CB0
330
1F
100
AcDbEntity
  8
CONTINUOUS1
100
AcDbPolyline
 90
        2
 70
     0
 43
0.0
 10
24.89820014422661
 20
6.082269284021366
 10
24.89820014422661
 20
4.832269284021366
  0
LWPOLYLINE
  5
9CB8
330
1F
100
AcDbEntity
  8
CONTINUOUS1
100
AcDbPolyline
 90
        2
 70
     0
 43
0.0
 10
24.80127631622667
 20
6.082269284021366
 10
24.80127631622667
 20
4.832269284021366
  0
LWPOLYLINE
  5
9CC4
330
1F
100
AcDbEntity
  8
CONTINUOUS1
100
AcDbPolyline
 90
        2
 70
     0
 43
0.0
 10
24.79468451922661
 20
6.082269284021366
 10
24.79468451922661
 20
4.832269284021366
  0
LWPOLYLINE
  5
9CC8
330
1F
100
AcDbEntity
  8
CONTINUOUS1
100
AcDbPolyline
 90
        2
 70
     0
 43
0.0
 10
24.70972358122661
 20
6.082269284021366
 10
24.70972358122661
 20
4.832269284021366
  0
LWPOLYLINE
  5
9CCC
330
1F
100
AcDbEntity
  8
CONTINUOUS1
100
AcDbPolyline
 90
        2
 70
     0
 43
0.0
 10
24.70313178522678
 20
6.082269284021366
 10
24.70313178522678
 20
4.832269284021366
  0
LWPOLYLINE
  5
9CD4
330
1F
100
AcDbEntity
  8
CONTINUOUS1
100
AcDbPolyline
 90
        2
 70
     0
 43
0.0
 10
24.68970405022673
 20
6.503717038021351
 10
25.00171576922661
 20
6.503717038021351
  0
LWPOLYLINE
  5
9CD8
330
1F
100
AcDbEntity
  8
CONTINUOUS1
100
AcDbPolyline
 90
        2
 70
     0
 43
0.0
 10
25.62769233122661
 20
6.503717038021351
 10
25.93970405022673
 20
6.503717038021351
  0
LWPOLYLINE
  5
9CDC
330
1F
100
AcDbEntity
  8
CONTINUOUS1
100
AcDbPolyline
 90
        2
 70
     0
 43
0.0
 10
26.03467475322644
 20
4.332330319021354
 10
26.04468451922661
 20
4.332330319021354
  0
LWPOLYLINE
  5
9CE0
330
1F
100
AcDbEntity
  8
CONTINUOUS1
100
AcDbPolyline
 90
        2
 70
     0
 43
0.0
 10
25.62476264422661
 20
4.832269284021366
 10
25.62476264422661
 20
4.150323483021383
  0
LWPOLYLINE
  5
9CE4
330
1F
100
AcDbEntity
  8
CONTINUOUS1
100
AcDbPolyline
 90
        2
 70
     0
 43
0.0
 10
25.73120795622662
 20
4.832269284021366
 10
25.73120795622662
 20
3.114312741021353
  0
LWPOLYLINE
  5
9CE8
330
1F
100
AcDbEntity
  8
CONTINUOUS1
100
AcDbPolyline
 90
        2
 70
     0
 43
0.0
 10
25.82813178522678
 20
4.832269284021366
 10
25.82813178522678
 20
3.114312741021353
  0
LWPOLYLINE
  5
9CEC
330
1F
100
AcDbEntity
  8
CONTINUOUS1
100
AcDbPolyline
 90
        2
 70
     0
 43
0.0
 10
25.83472358122662
 20
4.832269284021366
 10
25.83472358122662
 20
3.33080444002137
  0
LWPOLYLINE
  5
9CF0
330
1F
100
AcDbEntity
  8
CONTINUOUS1
100
AcDbPolyline
 90
        2
 70
     0
 43
0.0
 10
25.62476264422661
 20
3.862237545021389
 10
25.62476264422661
 20
3.862237545021389
  0
LWPOLYLINE
  5
9CF4
330
1F
100
AcDbEntity
  8
CONTINUOUS1
100
AcDbPolyline
 90
        2
 70
     0
 43
0.0
 10
25.62476264422661
 20
3.774224850021357
 10
25.52564155022673
 20
3.774224850021357
  0
LWPOLYLINE
  5
9CF8
330
1F
100
AcDbEntity
  8
CONTINUOUS1
100
AcDbPolyline
 90
        2
 70
     0
 43
0.0
 10
25.62476264422661
 20
3.862237545021389
 10
25.62476264422661
 20
3.821282955021376
  0
LWPOLYLINE
  5
9CFC
330
1F
100
AcDbEntity
  8
CONTINUOUS1
100
AcDbPolyline
 90
        2
 70
     0
 43
0.0
 10
25.00464545622662
 20
3.114312741021353
 10
25.62476264422661
 20
3.114312741021353
  0
LWPOLYLINE
  5
9D00
330
1F
100
AcDbEntity
  8
CONTINUOUS1
100
AcDbPolyline
 90
        2
 70
     0
 43
0.0
 10
25.73267280022673
 20
3.114312741021353
 10
25.82764350322644
 20
3.114312741021353
  0
LWPOLYLINE
  5
9D04
330
1F
100
AcDbEntity
  8
CONTINUOUS1
100
AcDbPolyline
 90
        2
 70
     0
 43
0.0
 10
25.73267280022673
 20
3.170281979021342
 10
25.82764350322644
 20
3.170281979021342
  0
LWPOLYLINE
  5
9D08
330
1F
100
AcDbEntity
  8
CONTINUOUS1
100
AcDbPolyline
 90
        2
 70
     0
 43
0.0
 10
25.82813178522678
 20
3.114312741021353
 10
26.03467475322644
 20
3.114312741021353
  0
LWPOLYLINE
  5
9D0C
330
1F
100
AcDbEntity
  8
CONTINUOUS1
100
AcDbPolyline
 90
        2
 70
     0
 43
0.0
 10
25.82764350322644
 20
3.204278561021385
 10
25.82764350322644
 20
3.082330319021354
  0
LWPOLYLINE
  5
9D10
330
1F
100
AcDbEntity
  8
CONTINUOUS1
100
AcDbPolyline
 90
        2
 70
     0
 43
0.0
 10
25.83472358122662
 20
3.33080444002137
 10
25.82813178522678
 20
3.114312741021353
  0
LWPOLYLINE
  5
9D14
330
1F
100
AcDbEntity
  8
CONTINUOUS1
100
AcDbPolyline
 90
        2
 70
     0
 43
0.0
 10
25.73267280022673
 20
3.204278561021385
 10
25.82764350322644
 20
3.204278561021385
  0
LWPOLYLINE
  5
9D18
330
1F
100
AcDbEntity
  8
CONTINUOUS1
100
AcDbPolyline
 90
        2
 70
     0
 43
0.0
 10
25.83472358122662
 20
3.33080444002137
 10
26.03467475322644
 20
3.33080444002137
  0
LWPOLYLINE
  5
9D1C
330
1F
100
AcDbEntity
  8
CONTINUOUS1
100
AcDbPolyline
 90
        2
 70
     0
 43
0.0
 10
25.73267280022673
 20
3.114312741021353
 10
25.73267280022673
 20
3.204278561021385
  0
LWPOLYLINE
  5
9D20
330
1F
100
AcDbEntity
  8
CONTINUOUS1
100
AcDbPolyline
 90
        2
 70
     0
 43
0.0
 10
24.70313178522678
 20
4.832269284021366
 10
24.70313178522678
 20
3.114312741021353
  0
LWPOLYLINE
  5
9D28
330
1F
100
AcDbEntity
  8
CONTINUOUS1
100
AcDbPolyline
 90
        2
 70
     0
 43
0.0
 10
24.70972358122661
 20
4.832269284021366
 10
24.70972358122661
 20
3.33080444002137
  0
LWPOLYLINE
  5
9D34
330
1F
100
AcDbEntity
  8
CONTINUOUS1
100
AcDbPolyline
 90
        2
 70
     0
 43
0.0
 10
24.79468451922661
 20
4.832269284021366
 10
24.79468451922661
 20
3.33080444002137
  0
LWPOLYLINE
  5
9D38
330
1F
100
AcDbEntity
  8
CONTINUOUS1
100
AcDbPolyline
 90
        2
 70
     0
 43
0.0
 10
24.80127631622667
 20
4.832269284021366
 10
24.80127631622667
 20
3.114312741021353
  0
LWPOLYLINE
  5
9D40
330
1F
100
AcDbEntity
  8
CONTINUOUS1
100
AcDbPolyline
 90
        2
 70
     0
 43
0.0
 10
24.90479194122666
 20
4.832269284021366
 10
24.90479194122666
 20
3.33080444002137
  0
LWPOLYLINE
  5
9D44
330
1F
100
AcDbEntity
  8
CONTINUOUS1
100
AcDbPolyline
 90
        2
 70
     0
 43
0.0
 10
25.00464545622662
 20
4.832269284021366
 10
25.00464545622662
 20
4.150323483021383
  0
LWPOLYLINE
  5
9D48
330
1F
100
AcDbEntity
  8
CONTINUOUS1
100
AcDbPolyline
 90
       17
 70
     0
 43
0.0
 10
25.04199897222656
 20
4.182305905021382
 10
25.06275092522673
 20
4.182305905021382
 10
25.08814155022673
 20
4.182305905021382
 10
25.11817084722656
 20
4.182305905021382
 10
25.15259467522673
 20
4.182305905021382
 10
25.19068061322649
 20
4.182305905021382
 10
25.23023139422661
 20
4.182305905021382
 10
25.27173530022673
 20
4.182305905021382
 10
25.31470405022673
 20
4.182305905021382
 10
25.35767280022673
 20
4.182305905021382
 10
25.39917670622662
 20
4.182305905021382
 10
25.4387274882265
 20
4.182305905021382
 10
25.47681342522673
 20
4.182305905021382
 10
25.51123725322645
 20
4.182305905021382
 10
25.54126655022673
 20
4.182305905021382
 10
25.56665717522673
 20
4.182305905021382
 10
25.58740912822644
 20
4.182305905021382
  0
LWPOLYLINE
  5
9D5B
330
1F
100
AcDbEntity
  8
CONTINUOUS1
100
AcDbPolyline
 90
        2
 70
     0
 43
0.0
 10
25.00464545622662
 20
3.774285885021401
 10
25.10376655022673
 20
3.774285885021401
  0
LWPOLYLINE
  5
9D5F
330
1F
100
AcDbEntity
  8
CONTINUOUS1
100
AcDbPolyline
 90
        2
 70
     0
 43
0.0
 10
25.58740912822644
 20
4.182305905021382
 10
25.60962592522673
 20
4.182305905021382
  0
LWPOLYLINE
  5
9D63
330
1F
100
AcDbEntity
  8
CONTINUOUS1
100
AcDbPolyline
 90
        2
 70
     0
 43
0.0
 10
25.58740912822644
 20
4.182305905021382
 10
25.58740912822644
 20
4.150323483021383
  0
LWPOLYLINE
  5
9D67
330
1F
100
AcDbEntity
  8
CONTINUOUS1
100
AcDbPolyline
 90
        2
 70
     0
 43
0.0
 10
25.62476264422661
 20
3.862237545021389
 10
25.00464545622662
 20
3.862237545021389
  0
LWPOLYLINE
  5
9D6B
330
1F
100
AcDbEntity
  8
CONTINUOUS1
100
AcDbPolyline
 90
        2
 70
     0
 43
0.0
 10
25.01978217522673
 20
4.182305905021382
 10
25.04199897222656
 20
4.182305905021382
  0
LWPOLYLINE
  5
9D6F
330
1F
100
AcDbEntity
  8
CONTINUOUS1
100
AcDbPolyline
 90
        2
 70
     0
 43
0.0
 10
25.00464545622662
 20
3.862237545021389
 10
25.00464545622662
 20
3.821282955021376
  0
LWPOLYLINE
  5
9D73
330
1F
100
AcDbEntity
  8
CONTINUOUS1
100
AcDbPolyline
 90
        2
 70
     0
 43
0.0
 10
25.72461616022678
 20
4.832269284021366
 10
25.72461616022678
 20
3.33080444002137
  0
LWPOLYLINE
  5
9D77
330
1F
100
AcDbEntity
  8
CONTINUOUS1
100
AcDbPolyline
 90
        2
 70
     0
 43
0.0
 10
25.72461616022678
 20
3.33080444002137
 10
25.73120795622662
 20
3.114312741021353
  0
LWPOLYLINE
  5
9D7B
330
1F
100
AcDbEntity
  8
CONTINUOUS1
100
AcDbPolyline
 90
        2
 70
     0
 43
0.0
 10
25.62476264422661
 20
3.114312741021353
 10
25.62476264422661
 20
3.33080444002137
  0
LWPOLYLINE
  5
9D7F
330
1F
100
AcDbEntity
  8
CONTINUOUS1
100
AcDbPolyline
 90
        2
 70
     0
 43
0.0
 10
25.62476264422661
 20
3.114312741021353
 10
25.73120795622662
 20
3.114312741021353
  0
LWPOLYLINE
  5
9D83
330
1F
100
AcDbEntity
  8
CONTINUOUS1
100
AcDbPolyline
 90
        2
 70
     0
 43
0.0
 10
25.62476264422661
 20
3.33080444002137
 10
25.72461616022678
 20
3.33080444002137
  0
LWPOLYLINE
  5
9D87
330
1F
100
AcDbEntity
  8
CONTINUOUS1
100
AcDbPolyline
 90
        2
 70
     0
 43
0.0
 10
25.62476264422661
 20
3.862237545021389
 10
25.62476264422661
 20
3.33080444002137
  0
LWPOLYLINE
  5
9D8B
330
1F
100
AcDbEntity
  8
CONTINUOUS1
100
AcDbPolyline
 90
        2
 70
     0
 43
0.0
 10
24.89820014422661
 20
4.832269284021366
 10
24.89820014422661
 20
3.114312741021353
  0
LWPOLYLINE
  5
9D8F
330
1F
100
AcDbEntity
  8
CONTINUOUS1
100
AcDbPolyline
 90
        2
 70
     0
 43
0.0
 10
25.00464545622662
 20
3.114312741021353
 10
25.00464545622662
 20
3.33080444002137
  0
LWPOLYLINE
  5
9D93
330
1F
100
AcDbEntity
  8
CONTINUOUS1
100
AcDbPolyline
 90
        2
 70
     0
 43
0.0
 10
24.89820014422661
 20
3.114312741021353
 10
25.00464545622662
 20
3.114312741021353
  0
LWPOLYLINE
  5
9D97
330
1F
100
AcDbEntity
  8
CONTINUOUS1
100
AcDbPolyline
 90
        2
 70
     0
 43
0.0
 10
25.00464545622662
 20
3.862237545021389
 10
25.00464545622662
 20
3.33080444002137
  0
LWPOLYLINE
  5
9D9B
330
1F
100
AcDbEntity
  8
CONTINUOUS1
100
AcDbPolyline
 90
        2
 70
     0
 43
0.0
 10
24.90479194122666
 20
3.33080444002137
 10
25.00464545622662
 20
3.33080444002137
  0
LWPOLYLINE
  5
9D9F
330
1F
100
AcDbEntity
  8
CONTINUOUS1
100
AcDbPolyline
 90
        2
 70
     0
 43
0.0
 10
24.90479194122666
 20
3.33080444002137
 10
24.89820014422661
 20
3.114312741021353
  0
LWPOLYLINE
  5
9DA3
330
1F
100
AcDbEntity
  8
CONTINUOUS1
100
AcDbPolyline
 90
        2
 70
     0
 43
0.0
 10
24.89673530022673
 20
3.114312741021353
 10
24.89673530022673
 20
3.204278561021385
  0
LWPOLYLINE
  5
9DA7
330
1F
100
AcDbEntity
  8
CONTINUOUS1
100
AcDbPolyline
 90
        2
 70
     0
 43
0.0
 10
24.89673530022673
 20
3.204278561021385
 10
24.80176459722656
 20
3.204278561021385
  0
LWPOLYLINE
  5
9DAB
330
1F
100
AcDbEntity
  8
CONTINUOUS1
100
AcDbPolyline
 90
        2
 70
     0
 43
0.0
 10
24.80176459722656
 20
3.114312741021353
 10
24.89673530022673
 20
3.114312741021353
  0
LWPOLYLINE
  5
9DAF
330
1F
100
AcDbEntity
  8
CONTINUOUS1
100
AcDbPolyline
 90
        2
 70
     0
 43
0.0
 10
24.80176459722656
 20
3.170281979021342
 10
24.89673530022673
 20
3.170281979021342
  0
LWPOLYLINE
  5
9DB3
330
1F
100
AcDbEntity
  8
CONTINUOUS1
100
AcDbPolyline
 90
        2
 70
     0
 43
0.0
 10
24.70313178522678
 20
3.114312741021353
 10
24.80127631622667
 20
3.114312741021353
  0
LWPOLYLINE
  5
9DB7
330
1F
100
AcDbEntity
  8
CONTINUOUS1
100
AcDbPolyline
 90
        2
 70
     0
 43
0.0
 10
24.79468451922661
 20
3.33080444002137
 10
24.80127631622667
 20
3.114312741021353
  0
LWPOLYLINE
  5
9DBB
330
1F
100
AcDbEntity
  8
CONTINUOUS1
100
AcDbPolyline
 90
        2
 70
     0
 43
0.0
 10
24.70972358122661
 20
3.33080444002137
 10
24.70313178522678
 20
3.114312741021353
  0
LWPOLYLINE
  5
9DBF
330
1F
100
AcDbEntity
  8
CONTINUOUS1
100
AcDbPolyline
 90
        2
 70
     0
 43
0.0
 10
24.70972358122661
 20
3.33080444002137
 10
24.79468451922661
 20
3.33080444002137
  0
LWPOLYLINE
  5
9DC7
330
1F
100
AcDbEntity
  8
CONTINUOUS1
100
AcDbPolyline
 90
        2
 70
     0
 43
0.0
 10
24.80176459722656
 20
3.082330319021354
 10
24.80176459722656
 20
3.204278561021385
  0
LWPOLYLINE
  5
9DCB
330
1F
100
AcDbEntity
  8
CONTINUOUS1
100
AcDbPolyline
 90
        2
 70
     0
 43
0.0
 10
26.04468451922661
 20
3.631219479021342
 10
26.04468451922661
 20
3.261285397021413
  0
LWPOLYLINE
  5
9DCF
330
1F
100
AcDbEntity
  8
CONTINUOUS1
100
AcDbPolyline
 90
       41
 70
     0
 43
0.0
 10
25.50928412822644
 20
3.661248776021341
 10
25.50684272222655
 20
3.661248776021341
 10
25.49976264422661
 20
3.661248776021341
 10
25.48804389422661
 20
3.661248776021341
 10
25.47217475322645
 20
3.661248776021341
 10
25.45191108122661
 20
3.661248776021341
 10
25.4289618632265
 20
3.661248776021341
 10
25.40332709722656
 20
3.661248776021341
 10
25.37476264422661
 20
3.661248776021341
 10
25.34473334722656
 20
3.661248776021341
 10
25.31470405022673
 20
3.661248776021341
 10
25.28467475322644
 20
3.661248776021341
 10
25.25464545622662
 20
3.661248776021341
 10
25.22608100322644
 20
3.661248776021341
 10
25.20044623822649
 20
3.661248776021341
 10
25.17749701922661
 20
3.661248776021341
 10
25.15747748822649
 20
3.661248776021341
 10
25.14136420622662
 20
3.661248776021341
 10
25.12964545622661
 20
3.661248776021341
 10
25.12280951922661
 20
3.661248776021341
 10
25.12012397222656
 20
3.661248776021341
 10
25.12280951922661
 20
3.661248776021341
 10
25.12964545622661
 20
3.661248776021341
 10
25.14136420622662
 20
3.661248776021341
 10
25.15747748822649
 20
3.661248776021341
 10
25.17749701922661
 20
3.661248776021341
 10
25.20044623822649
 20
3.661248776021341
 10
25.22608100322644
 20
3.661248776021341
 10
25.25464545622662
 20
3.661248776021341
 10
25.28467475322644
 20
3.661248776021341
 10
25.31470405022673
 20
3.661248776021341
 10
25.34473334722656
 20
3.661248776021341
 10
25.37476264422661
 20
3.661248776021341
 10
25.40332709722656
 20
3.661248776021341
 10
25.4289618632265
 20
3.661248776021341
 10
25.45191108122661
 20
3.661248776021341
 10
25.47217475322645
 20
3.661248776021341
 10
25.48804389422661
 20
3.661248776021341
 10
25.49976264422661
 20
3.661248776021341
 10
25.50684272222655
 20
3.661248776021341
 10
25.50928412822644
 20
3.661248776021341
  0
LWPOLYLINE
  5
9DFA
330
1F
100
AcDbEntity
  8
CONTINUOUS1
100
AcDbPolyline
 90
        2
 70
     0
 43
0.0
 10
25.01978217522673
 20
4.182305905021382
 10
25.01978217522673
 20
4.24627074802139
  0
LWPOLYLINE
  5
9DFE
330
1F
100
AcDbEntity
  8
CONTINUOUS1
100
AcDbPolyline
 90
        2
 70
     0
 43
0.0
 10
25.60962592522673
 20
4.182305905021382
 10
25.60962592522673
 20
4.24627074802139
  0
LWPOLYLINE
  5
9E02
330
1F
100
AcDbEntity
  8
CONTINUOUS1
100
AcDbPolyline
 90
        2
 70
     0
 43
0.0
 10
25.60962592522673
 20
4.182305905021382
 10
25.01978217522673
 20
4.182305905021382
  0
LWPOLYLINE
  5
9E06
330
1F
100
AcDbEntity
  8
CONTINUOUS1
100
AcDbPolyline
 90
        2
 70
     0
 43
0.0
 10
25.01465522222655
 20
4.24627074802139
 10
25.61475287822644
 20
4.24627074802139
  0
LWPOLYLINE
  5
9E0A
330
1F
100
AcDbEntity
  8
CONTINUOUS1
100
AcDbPolyline
 90
        2
 70
     0
 43
0.0
 10
25.01465522222655
 20
4.24627074802139
 10
25.01465522222655
 20
5.04631957702138
  0
LWPOLYLINE
  5
9E0E
330
1F
100
AcDbEntity
  8
CONTINUOUS1
100
AcDbPolyline
 90
        2
 70
     0
 43
0.0
 10
25.01465522222655
 20
5.04631957702138
 10
25.61475287822644
 20
5.04631957702138
  0
LWPOLYLINE
  5
9E12
330
1F
100
AcDbEntity
  8
CONTINUOUS1
100
AcDbPolyline
 90
        2
 70
     0
 43
0.0
 10
25.61475287822644
 20
4.24627074802139
 10
25.61475287822644
 20
5.04631957702138
  0
LWPOLYLINE
  5
9E16
330
1F
100
AcDbEntity
  8
CONTINUOUS1
100
AcDbPolyline
 90
       41
 70
     0
 43
0.0
 10
25.51782905022673
 20
4.62627563102136
 10
25.51514350322644
 20
4.658441159021367
 10
25.50781928522678
 20
4.689019772021413
 10
25.49585639422661
 20
4.718072506021359
 10
25.47901069122667
 20
4.745599362021367
 10
25.45801459722655
 20
4.77007445902136
 10
25.43408881622667
 20
4.790521237021367
 10
25.40723334722656
 20
4.806939694021354
 10
25.37744819122667
 20
4.819329830021375
 10
25.34619819122667
 20
4.826837155021381
 10
25.31470405022673
 20
4.829278561021384
 10
25.28345405022673
 20
4.826837155021381
 10
25.25195991022678
 20
4.819329830021375
 10
25.22217475322644
 20
4.806939694021354
 10
25.19531928522678
 20
4.790521237021367
 10
25.17139350322644
 20
4.77007445902136
 10
25.15039741022678
 20
4.745599362021367
 10
25.13379584722656
 20
4.718072506021359
 10
25.12158881622667
 20
4.689019772021413
 10
25.11426459722656
 20
4.658441159021367
 10
25.11182319122667
 20
4.62627563102136
 10
25.11426459722656
 20
4.594171139021329
 10
25.12158881622667
 20
4.563592526021341
 10
25.13379584722656
 20
4.534417721021372
 10
25.15039741022678
 20
4.506890866021353
 10
25.17139350322644
 20
4.482476803021358
 10
25.19531928522678
 20
4.462030026021341
 10
25.22217475322644
 20
4.445672604021342
 10
25.25195991022678
 20
4.4332214320214
 10
25.28345405022673
 20
4.425775143021371
 10
25.31470405022673
 20
4.423272702021381
 10
25.34619819122667
 20
4.425775143021371
 10
25.37744819122667
 20
4.4332214320214
 10
25.40723334722656
 20
4.445672604021342
 10
25.43408881622667
 20
4.462030026021341
 10
25.45801459722655
 20
4.482476803021358
 10
25.47901069122667
 20
4.506890866021353
 10
25.49585639422661
 20
4.534417721021372
 10
25.50781928522678
 20
4.563592526021341
 10
25.51514350322644
 20
4.594171139021329
 10
25.51782905022673
 20
4.62627563102136
  0
LWPOLYLINE
  5
9E41
330
1F
100
AcDbEntity
  8
CONTINUOUS1
100
AcDbPolyline
 90
        2
 70
     0
 43
0.0
 10
25.56470405022673
 20
7.210137936021384
 10
25.06470405022673
 20
7.210137936021384
  0
LWPOLYLINE
  5
9E45
330
1F
100
AcDbEntity
  8
CONTINUOUS1
100
AcDbPolyline
 90
        2
 70
     0
 43
0.0
 10
25.06470405022673
 20
7.210137936021384
 10
25.03858100322644
 20
6.409356686021384
  0
LWPOLYLINE
  5
9E49
330
1F
100
AcDbEntity
  8
CONTINUOUS1
100
AcDbPolyline
 90
        2
 70
     0
 43
0.0
 10
25.58887397222656
 20
6.468621823021395
 10
25.59082709722655
 20
6.409417721021371
  0
LWPOLYLINE
  5
9E4D
330
1F
100
AcDbEntity
  8
CONTINUOUS1
100
AcDbPolyline
 90
        2
 70
     0
 43
0.0
 10
25.04199897222656
 20
4.182305905021382
 10
25.04199897222656
 20
4.150323483021383
  0
LWPOLYLINE
  5
9E51
330
1F
100
AcDbEntity
  8
CONTINUOUS1
100
AcDbPolyline
 90
        2
 70
     0
 43
0.0
 10
25.12012397222656
 20
3.862237545021389
 10
25.12012397222656
 20
3.661248776021341
  0
LWPOLYLINE
  5
9E55
330
1F
100
AcDbEntity
  8
CONTINUOUS1
100
AcDbPolyline
 90
        2
 70
     0
 43
0.0
 10
25.50928412822644
 20
3.862237545021389
 10
25.50928412822644
 20
3.661248776021341
  0
LWPOLYLINE
  5
9E59
330
1F
100
AcDbEntity
  8
CONTINUOUS1
100
AcDbPolyline
 90
        2
 70
     0
 43
0.0
 10
26.04468451922661
 20
6.082269284021366
 10
26.04468451922661
 20
4.832269284021366
  0
LWPOLYLINE
  5
9E5D
330
1F
100
AcDbEntity
  8
CONTINUOUS1
100
AcDbPolyline
 90
        7
 70
     0
 43
0.0
 10
25.87964545622662
 20
6.36327514302137
 10
25.89527045622662
 20
6.36327514302137
 10
25.90967475322644
 20
6.36327514302137
 10
25.92212592522673
 20
6.36327514302137
 10
25.93164741022678
 20
6.36327514302137
 10
25.93775092522673
 20
6.36327514302137
 10
25.93970405022673
 20
6.36327514302137
  0
LWPOLYLINE
  5
9E66
330
1F
100
AcDbEntity
  8
CONTINUOUS1
100
AcDbPolyline
 90
        9
 70
     0
 43
0.0
 10
25.93970405022673
 20
6.503717038021351
 10
25.93970405022673
 20
6.501458737021367
 10
25.93970405022673
 20
6.494866940021369
 10
25.93970405022673
 20
6.48381957702138
 10
25.93970405022673
 20
6.468316647021412
 10
25.93970405022673
 20
6.448480221021371
 10
25.93970405022673
 20
6.42437133402136
 10
25.93970405022673
 20
6.39592895202138
 10
25.93970405022673
 20
6.36327514302137
  0
LWPOLYLINE
  5
9E71
330
1F
100
AcDbEntity
  8
CONTINUOUS1
100
AcDbPolyline
 90
        2
 70
     0
 43
0.0
 10
26.03467475322644
 20
3.114312741021353
 10
26.03467475322644
 20
3.082330319021354
  0
LWPOLYLINE
  5
9E75
330
1F
100
AcDbEntity
  8
CONTINUOUS1
100
AcDbPolyline
 90
        2
 70
     0
 43
0.0
 10
25.62476264422661
 20
4.150323483021383
 10
25.00464545622662
 20
4.150323483021383
  0
LWPOLYLINE
  5
9E79
330
1F
100
AcDbEntity
  8
CENTER1
100
AcDbPolyline
 90
        2
 70
     0
 43
0.0
 10
24.54468451922661
 20
4.832269284021366
 10
26.03467475322644
 20
4.832269284021366
  0
LWPOLYLINE
  5
9E7D
330
1F
100
AcDbEntity
  8
CONTINUOUS1
100
AcDbPolyline
 90
        2
 70
     0
 43
0.0
 10
24.93970405022673
 20
6.36327514302137
 10
24.74976264422661
 20
6.36327514302137
  0
LWPOLYLINE
  5
9E81
330
1F
100
AcDbEntity
  8
CONTINUOUS1
100
AcDbPolyline
 90
        2
 70
     0
 43
0.0
 10
26.04468451922661
 20
6.082269284021366
 10
26.04468451922661
 20
6.23827514302137
  0
LWPOLYLINE
  5
9E85
330
1F
100
AcDbEntity
  8
CONTINUOUS1
100
AcDbPolyline
 90
        2
 70
     0
 43
0.0
 10
26.04468451922661
 20
3.261285397021413
 10
26.04468451922661
 20
3.082330319021354
  0
LWPOLYLINE
  5
9E89
330
1F
100
AcDbEntity
  8
CONTINUOUS1
100
AcDbPolyline
 90
        2
 70
     0
 43
0.0
 10
25.82764350322644
 20
3.082330319021354
 10
26.03467475322644
 20
3.082330319021354
  0
LWPOLYLINE
  5
9E8D
330
1F
100
AcDbEntity
  8
CONTINUOUS1
100
AcDbPolyline
 90
        2
 70
     0
 43
0.0
 10
25.60962592522673
 20
4.24627074802139
 10
25.01978217522673
 20
4.24627074802139
  0
LWPOLYLINE
  5
9E91
330
1F
100
AcDbEntity
  8
CONTINUOUS1
100
AcDbPolyline
 90
        2
 70
     0
 43
0.0
 10
25.08667670622662
 20
5.785272213021345
 10
25.54273139422661
 20
5.785272213021345
  0
LWPOLYLINE
  5
9E95
330
1F
100
AcDbEntity
  8
CONTINUOUS1
100
AcDbPolyline
 90
        9
 70
     0
 43
0.0
 10
25.62476264422661
 20
3.821466061021385
 10
25.62476264422661
 20
3.815118405021382
 10
25.62476264422661
 20
3.807855221021372
 10
25.62476264422661
 20
3.799188229021342
 10
25.62476264422661
 20
3.790155026021341
 10
25.62476264422661
 20
3.782342526021341
 10
25.62476264422661
 20
3.776910397021413
 10
25.62476264422661
 20
3.77471313102136
 10
25.62476264422661
 20
3.774224850021357
  0
LWPOLYLINE
  5
9EA0
330
1F
100
AcDbEntity
  8
CONTINUOUS1
100
AcDbPolyline
 90
        7
 70
     0
 43
0.0
 10
25.00464545622662
 20
3.821466061021385
 10
25.00464545622662
 20
3.809625241021353
 10
25.00464545622662
 20
3.798638913021352
 10
25.00464545622662
 20
3.789422604021342
 10
25.00464545622662
 20
3.782403561021385
 10
25.00464545622662
 20
3.777642819021354
 10
25.00464545622662
 20
3.774285885021401
  0
LWPOLYLINE
  5
9EA9
330
1F
100
AcDbEntity
  8
CONTINUOUS1
100
AcDbPolyline
 90
        9
 70
     0
 43
0.0
 10
25.12012397222656
 20
3.776788327021381
 10
25.11621772222655
 20
3.775689694021354
 10
25.11279975322644
 20
3.774835202021381
 10
25.11011420622661
 20
3.774285885021401
 10
25.10816108122662
 20
3.773980709021361
 10
25.1066962382265
 20
3.773858639021329
 10
25.10547553522678
 20
3.773919674021374
 10
25.10449897222656
 20
3.774102780021382
 10
25.10376655022673
 20
3.774285885021401
  0
LWPOLYLINE
  5
9EB4
330
1F
100
AcDbEntity
  8
CONTINUOUS1
100
AcDbPolyline
 90
        3
 70
     0
 43
0.0
 10
25.50928412822644
 20
3.776605221021372
 10
25.51734076922661
 20
3.775140377021375
 10
25.52564155022673
 20
3.774285885021401
  0
LWPOLYLINE
  5
9EB9
330
1F
100
AcDbEntity
  8
CONTINUOUS1
100
AcDbPolyline
 90
        9
 70
     0
 43
0.0
 10
25.03711616022678
 20
6.36327514302137
 10
25.03736030022673
 20
6.368646237021367
 10
25.03736030022673
 20
6.37413940102134
 10
25.03760444122667
 20
6.379815670021388
 10
25.03784858122662
 20
6.385552975021356
 10
25.03809272222655
 20
6.391412350021356
 10
25.0383368632265
 20
6.3973327600214
 10
25.0383368632265
 20
6.403375241021352
 10
25.03858100322644
 20
6.409356686021384
  0
LWPOLYLINE
  5
9EC4
330
1F
100
AcDbEntity
  8
CONTINUOUS1
100
AcDbPolyline
 90
       11
 70
     0
 43
0.0
 10
25.59155951922661
 20
6.36327514302137
 10
25.59131537822644
 20
6.370355221021371
 10
25.59107123822649
 20
6.376885983021383
 10
25.59082709722655
 20
6.382928463021345
 10
25.59058295622662
 20
6.388177487021367
 10
25.59058295622662
 20
6.392816159021366
 10
25.59033881622667
 20
6.396905514021328
 10
25.59033881622667
 20
6.400445553021357
 10
25.59009467522673
 20
6.403619381021359
 10
25.59009467522673
 20
6.406549069021354
 10
25.59009467522673
 20
6.409356686021384
  0
TEXT
  5
9ED1
330
1F
100
AcDbEntity
  8
TEXT1
100
AcDbText
 10
25.43698834593885
 20
2.67874472241209
 30
0.0
 40
0.25
  1
C
  7
SIMPLEX
 72
     2
 11
25.61555977451028
 21
2.67874472241209
 31
0.0
100
AcDbText
  0
TEXT
  5
9ED2
330
1F
100
AcDbEntity
  8
TEXT1
100
AcDbText
 10
25.53520263165314
 20
2.55374472241209
 30
0.0
 40
0.25
  1
L
  7
SIMPLEX
 72
     2
 11
25.67805977451028
 21
2.55374472241209
 31
0.0
100
AcDbText
  0
DIMENSION
  5
9ED3
330
1F
100
AcDbEntity
  8
DIM
100
AcDbDimension
  2
*D11
 10
9.573902952077389
 20
11.97007151888151
 30
0.0
 11
12.29790758528529
 21
11.65834492347012
 31
0.0
 70
   162
  3
SCHNEIDERELECTRIC
100
AcDb2LineAngularDimension
 13
12.96623693707743
 23
11.43564769088151
 33
0.0
 14
11.62444006207744
 24
11.19901438988153
 34
0.0
 15
12.91960607707739
 25
11.97007151888151
 35
0.0
 16
12.30990064065769
 26
11.53908749576606
 36
0.0
1001
ACAD
1000
DSTYLE
1002
{
1070
   271
1070
     0
1070
   271
1070
     0
1070
   271
1070
     0
1070
   271
1070
     0
1070
   271
1070
     0
1070
   271
1070
     0
1070
    40
1040
2.0
1002
}
  0
DIMENSION
  5
9ED4
330
1F
100
AcDbEntity
  8
DIM
100
AcDbDimension
  2
*D12
 10
9.573902952077389
 20
11.97007151888151
 30
0.0
 11
11.46037875913933
 21
13.15414000294272
 31
0.0
 70
   162
  3
SCHNEIDERELECTRIC
100
AcDb2LineAngularDimension
 13
12.92253576507761
 23
12.10422679188149
 33
0.0
 14
11.56120764007761
 24
12.1637360698815
 34
0.0
 15
12.91960607707739
 25
11.97007151888151
 35
0.0
 16
11.3087187744326
 26
12.03826688667456
 36
0.0
1001
ACAD
1000
DSTYLE
1002
{
1070
   271
1070
     0
1070
   271
1070
     0
1070
   271
1070
     0
1070
   271
1070
     0
1070
   271
1070
     0
1070
   271
1070
     0
1070
    40
1040
2.0
1002
}
  0
DIMENSION
  5
9ED5
330
1F
100
AcDbEntity
  8
DIM
100
AcDbDimension
  2
*D13
 10
9.573902952077389
 20
11.97007151888151
 30
0.0
 11
9.797926151542272
 21
11.12434220859619
 31
0.0
 70
   162
  3
SCHNEIDERELECTRIC
100
AcDb2LineAngularDimension
 13
13.04240881207744
 23
11.10892649888148
 33
0.0
 14
9.830738890077611
 24
10.1727692728815
 34
0.0
 15
12.91960607707739
 25
11.97007151888151
 35
0.0
 16
9.852006346489941
 26
10.79414679684722
 36
0.0
1001
ACAD
1000
DSTYLE
1002
{
1070
   271
1070
     0
1070
   271
1070
     0
1070
   271
1070
     0
1070
   271
1070
     0
1070
   271
1070
     0
1070
   271
1070
     0
1070
    40
1040
2.0
1002
}
  0
DIMENSION
  5
9ED6
330
1F
100
AcDbEntity
  8
DIM
100
AcDbDimension
  2
*D14
 10
9.573902952077389
 20
11.97007151888151
 30
0.0
 11
9.774176796516162
 21
12.60976090235335
 31
0.0
 70
   162
  3
SCHNEIDERELECTRIC
100
AcDb2LineAngularDimension
 13
12.97600256207743
 23
12.55722972188146
 33
0.0
 14
9.692067015077611
 24
13.19553538588149
 34
0.0
 15
12.91960607707739
 25
11.97007151888151
 35
0.0
 16
9.75418679425587
 26
12.37009971151194
 36
0.0
1001
ACAD
1000
DSTYLE
1002
{
1070
   271
1070
     0
1070
   271
1070
     0
1070
   271
1070
     0
1070
   271
1070
     0
1070
   271
1070
     0
1070
   271
1070
     0
1070
    40
1040
2.0
1002
}
  0
LINE
  5
9ED7
330
1F
100
AcDbEntity
  8
CENTER1
100
AcDbLine
 10
15.97600256207743
 20
11.81554026888151
 30
0.0
 11
15.97600256207743
 21
12.08554026888151
 31
0.0
  0
LINE
  5
9ED8
330
1F
100
AcDbEntity
  8
CENTER1
100
AcDbLine
 10
15.84100256207743
 20
11.95054026888151
 30
0.0
 11
16.11100256207743
 21
11.95054026888151
 31
0.0
  0
DIMENSION
  5
9ED9
330
1F
100
AcDbEntity
  8
DIM
100
AcDbDimension
  2
*D15
 10
17.1158951400776
 20
9.477599567290706
 30
0.0
 11
16.50983133368376
 21
9.477599567290706
 31
0.0
 70
   160
  3
SCHNEIDERELECTRIC
100
AcDbAlignedDimension
 13
15.97600256207743
 23
11.95054026888151
 33
0.0
 14
17.1158951400776
 24
11.95054026888151
 34
0.0
100
AcDbRotatedDimension
1001
ACAD
1000
DSTYLE
1002
{
1070
    40
1040
2.0
1002
}
  0
DIMENSION
  5
9EDA
330
1F
100
AcDbEntity
  8
DIM
100
AcDbDimension
  2
*D16
 10
17.1158951400776
 20
8.945004805282835
 30
0.0
 11
15.75824078474383
 21
8.945004805282835
 31
0.0
 70
    32
  3
SCHNEIDERELECTRIC
100
AcDbAlignedDimension
 13
14.40058642941006
 23
10.07554026888151
 33
0.0
 14
17.1158951400776
 24
10.07554026888151
 34
0.0
100
AcDbRotatedDimension
1001
ACAD
1000
DSTYLE
1002
{
1070
    40
1040
2.0
1002
}
  0
DIMENSION
  5
9EDB
330
1F
100
AcDbEntity
  8
DIM
100
AcDbDimension
  2
*D17
 10
17.1158951400776
 20
8.429590522361571
 30
0.0
 11
15.61589514007761
 21
8.429590522361571
 31
0.0
 70
    32
  3
SCHNEIDERELECTRIC
100
AcDbAlignedDimension
 13
14.11589514007761
 23
9.833474838881494
 33
0.0
 14
17.1158951400776
 24
9.833474838881494
 34
0.0
100
AcDbRotatedDimension
1001
ACAD
1000
DSTYLE
1002
{
1070
    40
1040
2.0
1002
}
  0
DIMENSION
  5
9EDC
330
1F
100
AcDbEntity
  8
DIM
100
AcDbDimension
  2
*D18
 10
17.1158951400776
 20
7.8969957603537
 30
0.0
 11
15.47539221007758
 21
7.8969957603537
 31
0.0
 70
    32
  3
SCHNEIDERELECTRIC
100
AcDbAlignedDimension
 13
13.83488928007756
 23
10.69950267088148
 33
0.0
 14
17.1158951400776
 24
10.69950267088148
 34
0.0
100
AcDbRotatedDimension
1001
ACAD
1000
DSTYLE
1002
{
1070
    40
1040
2.0
1002
}
  0
DIMENSION
  5
9EDD
330
1F
100
AcDbEntity
  8
DIM
100
AcDbDimension
  2
*D19
 10
17.1158951400776
 20
7.312859561085986
 30
0.0
 11
15.40575109707753
 21
7.312859561085986
 31
0.0
 70
    32
  3
SCHNEIDERELECTRIC
100
AcDbAlignedDimension
 13
13.69560705407747
 23
11.7813202978815
 33
0.0
 14
17.1158951400776
 24
11.7813202978815
 34
0.0
100
AcDbRotatedDimension
1001
ACAD
1000
DSTYLE
1002
{
1070
    40
1040
2.0
1002
}
  0
DIMENSION
  5
9EDE
330
1F
100
AcDbEntity
  8
DIM
100
AcDbDimension
  2
*D20
 10
17.1158951400776
 20
6.71429825739036
 30
0.0
 11
15.03667150707763
 21
6.71429825739036
 31
0.0
 70
    32
  3
SCHNEIDERELECTRIC
100
AcDbAlignedDimension
 13
12.95744787407767
 23
11.93308421388149
 33
0.0
 14
17.1158951400776
 24
11.93308421388149
 34
0.0
100
AcDbRotatedDimension
1001
ACAD
1000
DSTYLE
1002
{
1070
    40
1040
2.0
1002
}
  0
DIMENSION
  5
9EDF
330
1F
100
AcDbEntity
  8
DIM
100
AcDbDimension
  2
*D21
 10
17.78520150336754
 20
10.27054026888152
 30
0.0
 11
17.78520150336754
 21
11.14476090235336
 31
0.0
 70
   160
  3
SCHNEIDERELECTRIC
100
AcDbAlignedDimension
 13
15.97600256207743
 23
11.95054026888151
 33
0.0
 14
15.97600256207743
 24
10.27054026888152
 34
0.0
 50
90.0
100
AcDbRotatedDimension
1001
ACAD
1000
DSTYLE
1002
{
1070
    40
1040
2.0
1002
}
  0
DIMENSION
  5
9EE0
330
1F
100
AcDbEntity
  8
DIM
100
AcDbDimension
  2
*D22
 10
17.1158951400776
 20
16.25817426590746
 30
0.0
 11
15.75824078474383
 21
16.25817426590746
 31
0.0
 70
    32
  3
SCHNEIDERELECTRIC
100
AcDbAlignedDimension
 13
14.40058642941006
 23
15.59163733149656
 33
0.0
 14
17.1158951400776
 24
15.59163733149656
 34
0.0
100
AcDbRotatedDimension
1001
ACAD
1000
DSTYLE
1002
{
1070
    40
1040
2.0
1002
}
  0
DIMENSION
  5
9EE1
330
1F
100
AcDbEntity
  8
DIM
100
AcDbDimension
  2
*D23
 10
17.1158951400776
 20
16.82666974241115
 30
0.0
 11
15.53789221007758
 21
16.82666974241115
 31
0.0
 70
    32
  3
SCHNEIDERELECTRIC
100
AcDbAlignedDimension
 13
13.95988928007756
 23
14.58249827688149
 33
0.0
 14
17.1158951400776
 24
14.47654124588148
 34
0.0
100
AcDbRotatedDimension
1001
ACAD
1000
DSTYLE
1002
{
1070
    40
1040
2.0
1002
}
  0
POINT
  5
9EE2
330
1F
100
AcDbEntity
  8
CONTINUOUS1
100
AcDbPoint
 10
12.96623693707743
 20
11.43564769088151
 30
0.0
  0
POINT
  5
9EE3
330
1F
100
AcDbEntity
  8
CONTINUOUS1
100
AcDbPoint
 10
12.91960607707739
 20
11.97007151888151
 30
0.0
  0
POINT
  5
9EE4
330
1F
100
AcDbEntity
  8
CONTINUOUS1
100
AcDbPoint
 10
12.91960607707739
 20
11.97007151888151
 30
0.0
  0
POINT
  5
9EE5
330
1F
100
AcDbEntity
  8
CONTINUOUS1
100
AcDbPoint
 10
12.92253576507761
 20
12.10422679188149
 30
0.0
  0
POINT
  5
9EE6
330
1F
100
AcDbEntity
  8
CONTINUOUS1
100
AcDbPoint
 10
13.04240881207744
 20
11.10892649888148
 30
0.0
  0
POINT
  5
9EE7
330
1F
100
AcDbEntity
  8
CONTINUOUS1
100
AcDbPoint
 10
12.91960607707739
 20
11.97007151888151
 30
0.0
  0
POINT
  5
9EE8
330
1F
100
AcDbEntity
  8
CONTINUOUS1
100
AcDbPoint
 10
12.91960607707739
 20
11.97007151888151
 30
0.0
  0
POINT
  5
9EE9
330
1F
100
AcDbEntity
  8
CONTINUOUS1
100
AcDbPoint
 10
12.96623693707743
 20
11.43564769088151
 30
0.0
  0
POINT
  5
9EEA
330
1F
100
AcDbEntity
  8
CONTINUOUS1
100
AcDbPoint
 10
12.91960607707739
 20
11.97007151888151
 30
0.0
  0
POINT
  5
9EEB
330
1F
100
AcDbEntity
  8
CONTINUOUS1
100
AcDbPoint
 10
12.92253576507761
 20
12.10422679188149
 30
0.0
  0
POINT
  5
9EEC
330
1F
100
AcDbEntity
  8
CONTINUOUS1
100
AcDbPoint
 10
12.97600256207743
 20
12.55722972188146
 30
0.0
  0
POINT
  5
9EED
330
1F
100
AcDbEntity
  8
CONTINUOUS1
100
AcDbPoint
 10
12.91960607707739
 20
11.97007151888151
 30
0.0
  0
LWPOLYLINE
  5
9EEE
330
1F
100
AcDbEntity
  8
CONTINUOUS1
100
AcDbPolyline
 90
       13
 70
     0
 43
0.0
 10
17.08391271807754
 20
10.14554759288153
 10
17.08391271807754
 20
10.14896556188147
 10
17.08391271807754
 20
10.16996165588153
 10
17.08391271807754
 20
10.19291087388148
 10
17.08391271807754
 20
10.21787425288152
 10
17.08391271807754
 20
10.24387522988154
 10
17.08391271807754
 20
10.2699372418815
 10
17.08391271807754
 20
10.29593821788153
 10
17.08391271807754
 20
10.32200022988154
 10
17.08391271807754
 20
10.34696360888147
 10
17.08391271807754
 20
10.3700348978815
 10
17.08391271807754
 20
10.39115306188147
 10
17.08391271807754
 20
10.41025706588151
  0
LWPOLYLINE
  5
9EFD
330
1F
100
AcDbEntity
  8
CONTINUOUS1
100
AcDbPolyline
 90
        2
 70
     0
 43
0.0
 10
16.80583654607749
 20
15.20290442149651
 10
17.08391271807756
 20
15.20290442149651
  0
LWPOLYLINE
  5
9F01
330
1F
100
AcDbEntity
  8
CONTINUOUS1
100
AcDbPolyline
 90
        2
 70
     0
 43
0.0
 10
15.36589514007761
 20
15.83353587388148
 10
15.36589514007761
 20
15.48574133549654
  0
LWPOLYLINE
  5
9F05
330
1F
100
AcDbEntity
  8
CONTINUOUS1
100
AcDbPolyline
 90
        2
 70
     0
 43
0.0
 10
16.80583654607749
 20
15.30757971449658
 10
16.80583654607749
 20
15.20290442149651
  0
LWPOLYLINE
  5
9F09
330
1F
100
AcDbEntity
  8
CONTINUOUS1
100
AcDbPolyline
 90
        9
 70
     0
 43
0.0
 10
16.80583654607749
 20
15.48574133549654
 10
16.80583654607749
 20
15.47225256649655
 10
16.80583654607749
 20
15.45150061249656
 10
16.80583654607749
 20
15.42549963649652
 10
16.80583654607749
 20
15.39663000749654
 10
16.80583654607749
 20
15.36782141349654
 10
16.80583654607749
 20
15.34182043749656
 10
16.80583654607749
 20
15.32100744849653
 10
16.80583654607749
 20
15.30757971449658
  0
LWPOLYLINE
  5
9F14
330
1F
100
AcDbEntity
  8
CONTINUOUS1
100
AcDbPolyline
 90
        2
 70
     0
 43
0.0
 10
16.80583654607749
 20
15.48574133549654
 10
16.80583654607749
 20
15.58986731249657
  0
LWPOLYLINE
  5
9F18
330
1F
100
AcDbEntity
  8
CONTINUOUS1
100
AcDbPolyline
 90
        2
 70
     0
 43
0.0
 10
16.80583654607749
 20
15.58986731249657
 10
17.08391271807754
 20
15.58986731249657
  0
LWPOLYLINE
  5
9F1C
330
1F
100
AcDbEntity
  8
CONTINUOUS1
100
AcDbPolyline
 90
        2
 70
     0
 43
0.0
 10
15.36589514007761
 20
15.30757971449658
 10
16.80583654607749
 20
15.30757971449658
  0
LWPOLYLINE
  5
9F20
330
1F
100
AcDbEntity
  8
CONTINUOUS1
100
AcDbPolyline
 90
        2
 70
     0
 43
0.0
 10
15.36589514007761
 20
14.95961828849654
 10
15.36589514007761
 20
15.30757971449658
  0
LWPOLYLINE
  5
9F24
330
1F
100
AcDbEntity
  8
CONTINUOUS1
100
AcDbPolyline
 90
        2
 70
     0
 43
0.0
 10
16.80583654607749
 20
15.48574133549654
 10
15.74602209307754
 20
15.48574133549654
  0
LWPOLYLINE
  5
9F28
330
1F
100
AcDbEntity
  8
CONTINUOUS1
100
AcDbPolyline
 90
        2
 70
     0
 43
0.0
 10
14.11589514007761
 20
15.20168371849657
 10
14.42595373407772
 20
15.20168371849657
  0
LWPOLYLINE
  5
9F2C
330
1F
100
AcDbEntity
  8
CONTINUOUS1
100
AcDbPolyline
 90
        2
 70
     0
 43
0.0
 10
14.42595373407772
 20
15.20168371849657
 10
14.42595373407772
 20
15.30477209749655
  0
LWPOLYLINE
  5
9F30
330
1F
100
AcDbEntity
  8
CONTINUOUS1
100
AcDbPolyline
 90
        2
 70
     0
 43
0.0
 10
15.36589514007761
 20
15.30477209749655
 10
15.36589514007761
 20
14.95961828849654
  0
LWPOLYLINE
  5
9F34
330
1F
100
AcDbEntity
  8
CONTINUOUS1
100
AcDbPolyline
 90
        2
 70
     0
 43
0.0
 10
14.42595373407772
 20
15.30477209749655
 10
15.36589514007761
 20
15.30477209749655
  0
LWPOLYLINE
  5
9F38
330
1F
100
AcDbEntity
  8
CONTINUOUS1
100
AcDbPolyline
 90
        9
 70
     0
 43
0.0
 10
15.36589514007761
 20
15.48848791749658
 10
15.36589514007761
 20
15.47664709749655
 10
15.36589514007761
 20
15.45565100349655
 10
15.36589514007761
 20
15.42794104249658
 10
15.36589514007761
 20
15.39663000749654
 10
15.36589514007761
 20
15.36538000749654
 10
15.36589514007761
 20
15.33767004649651
 10
15.36589514007761
 20
15.31667395249657
 10
15.36589514007761
 20
15.30477209749655
  0
LWPOLYLINE
  5
9F43
330
1F
100
AcDbEntity
  8
CONTINUOUS1
100
AcDbPolyline
 90
        2
 70
     0
 43
0.0
 10
14.42595373407772
 20
15.48520453680351
 10
15.36589514007761
 20
15.48520453680351
  0
LWPOLYLINE
  5
9F47
330
1F
100
AcDbEntity
  8
CONTINUOUS1
100
AcDbPolyline
 90
        2
 70
     0
 43
0.0
 10
14.11589514007761
 20
15.59163733149656
 10
14.42595373407772
 20
15.59163733149656
  0
LWPOLYLINE
  5
9F4B
330
1F
100
AcDbEntity
  8
CONTINUOUS1
100
AcDbPolyline
 90
        9
 70
     0
 43
0.0
 10
14.42595373407772
 20
15.48848791749658
 10
14.42595373407772
 20
15.47664709749655
 10
14.42595373407772
 20
15.45565100349655
 10
14.42595373407772
 20
15.42794104249658
 10
14.42595373407772
 20
15.39663000749654
 10
14.42595373407772
 20
15.36538000749654
 10
14.42595373407772
 20
15.33767004649651
 10
14.42595373407772
 20
15.31667395249657
 10
14.42595373407772
 20
15.30477209749655
  0
LWPOLYLINE
  5
9F56
330
1F
100
AcDbEntity
  8
CONTINUOUS1
100
AcDbPolyline
 90
        2
 70
     0
 43
0.0
 10
15.36589514007761
 20
15.30757971449658
 10
15.36589514007761
 20
14.95961828849654
  0
LWPOLYLINE
  5
9F5A
330
1F
100
AcDbEntity
  8
CONTINUOUS1
100
AcDbPolyline
 90
        7
 70
     0
 43
0.0
 10
15.36589514007761
 20
15.44686194149655
 10
15.36589514007761
 20
15.42098303449656
 10
15.36589514007761
 20
15.39296789849654
 10
15.36589514007761
 20
15.36519690249658
 10
15.36589514007761
 20
15.34029455849652
 10
15.36589514007761
 20
15.32051916749658
 10
15.36589514007761
 20
15.30757971449658
  0
LWPOLYLINE
  5
9F63
330
1F
100
AcDbEntity
  8
CONTINUOUS1
100
AcDbPolyline
 90
        5
 70
     0
 43
0.0
 10
15.36589514007761
 20
15.48574133549654
 10
15.36589514007761
 20
15.47933264449655
 10
15.36589514007761
 20
15.47054358149656
 10
15.36589514007761
 20
15.45961828849654
 10
15.36589514007761
 20
15.44686194149655
  0
LWPOLYLINE
  5
9F6A
330
1F
100
AcDbEntity
  8
CONTINUOUS1
100
AcDbPolyline
 90
        2
 70
     0
 43
0.0
 10
14.42595373407772
 20
15.48848791749658
 10
14.42595373407772
 20
15.59163733149656
  0
LWPOLYLINE
  5
9F6E
330
1F
100
AcDbEntity
  8
CONTINUOUS1
100
AcDbPolyline
 90
        2
 70
     0
 43
0.0
 10
15.36589514007761
 20
15.48574133549654
 10
15.74602209307754
 20
15.48574133549654
  0
LWPOLYLINE
  5
9F72
330
1F
100
AcDbEntity
  8
CONTINUOUS1
100
AcDbPolyline
 90
        2
 70
     0
 43
0.0
 10
15.36589514007761
 20
15.48574133549654
 10
15.36589514007761
 20
15.48574133549654
  0
LINE
  5
9F76
330
1F
100
AcDbEntity
  8
CONTINUOUS1
100
AcDbLine
 10
14.11589514007761
 20
15.59163733149656
 30
0.0
 11
14.40058642941006
 21
15.59163733149656
 31
0.0
  0
LINE
  5
9F77
330
1F
100
AcDbEntity
  8
CONTINUOUS1
100
AcDbLine
 10
14.40058642941006
 20
15.59163733149656
 30
0.0
 11
14.40058642941006
 21
15.20168371849657
 31
0.0
  0
LINE
  5
9F78
330
1F
100
AcDbEntity
  8
CONTINUOUS1
100
AcDbLine
 10
14.40058642941006
 20
15.20168371849657
 30
0.0
 11
14.11589514007761
 21
15.20168371849657
 31
0.0
  0
LINE
  5
9F79
330
1F
100
AcDbEntity
  8
CONTINUOUS1
100
AcDbLine
 10
14.22572298730534
 20
15.59163733149656
 30
0.0
 11
14.22572298730534
 21
15.20107029896512
 31
0.0
  0
LINE
  5
9F7A
330
1F
100
AcDbEntity
  8
CONTINUOUS1
100
AcDbLine
 10
15.47205871926622
 20
15.59163733149656
 30
0.0
 11
15.47205871926622
 21
15.20107029896512
 31
0.0
  0
LINE
  5
9F7B
330
1F
100
AcDbEntity
  8
CONTINUOUS1
100
AcDbLine
 10
15.47205871926622
 20
15.20107029896512
 30
0.0
 11
15.36589514007761
 21
15.20107029896512
 31
0.0
  0
LINE
  5
9F7C
330
1F
100
AcDbEntity
  8
CONTINUOUS1
100
AcDbLine
 10
15.47205871926622
 20
15.59163733149656
 30
0.0
 11
15.3622308720385
 21
15.59163733149656
 31
0.0
  0
LINE
  5
9F7D
330
1F
100
AcDbEntity
  8
CONTINUOUS1
100
AcDbLine
 10
15.47205871926622
 20
15.59163733149656
 30
0.0
 11
15.36589514007761
 21
15.59163733149656
 31
0.0
  0
LINE
  5
9F7E
330
1F
100
AcDbEntity
  8
CONTINUOUS1
100
AcDbLine
 10
15.47205871926622
 20
15.59163733149656
 30
0.0
 11
15.36589514007761
 21
15.59163733149656
 31
0.0
  0
LINE
  5
9F7F
330
1F
100
AcDbEntity
  8
CONTINUOUS1
100
AcDbLine
 10
15.47205871926622
 20
15.20107029896512
 30
0.0
 11
15.36589514007761
 21
15.20107029896512
 31
0.0
  0
LINE
  5
9F80
330
1F
100
AcDbEntity
  8
CONTINUOUS1
100
AcDbLine
 10
16.28848539317525
 20
15.58986731249657
 30
0.0
 11
16.28848539317525
 21
15.20290442149651
 31
0.0
  0
LINE
  5
9F81
330
1F
100
AcDbEntity
  8
CONTINUOUS1
100
AcDbLine
 10
16.80583654607749
 20
15.58986731249657
 30
0.0
 11
16.28848539317525
 21
15.58986731249657
 31
0.0
  0
LINE
  5
9F82
330
1F
100
AcDbEntity
  8
CONTINUOUS1
100
AcDbLine
 10
16.80583654607749
 20
15.20290442149651
 30
0.0
 11
16.28848539317525
 21
15.20290442149651
 31
0.0
  0
LINE
  5
9F83
330
1F
100
AcDbEntity
  8
CONTINUOUS1
100
AcDbLine
 10
15.46805335537133
 20
15.51348534446841
 30
0.0
 11
16.28848539317525
 21
15.51348534446841
 31
0.0
  0
LINE
  5
9F84
330
1F
100
AcDbEntity
  8
CONTINUOUS1
100
AcDbLine
 10
15.46805335537133
 20
15.27717139979284
 30
0.0
 11
16.28848539317525
 21
15.27717139979284
 31
0.0
  0
LINE
  5
9F85
330
1F
100
AcDbEntity
  8
CONTINUOUS1
100
AcDbLine
 10
15.46805335537133
 20
10.15102795017779
 30
0.0
 11
16.28848539317525
 21
10.15102795017779
 31
0.0
  0
LINE
  5
9F86
330
1F
100
AcDbEntity
  8
CONTINUOUS1
100
AcDbLine
 10
15.46805335537133
 20
10.38734189485337
 30
0.0
 11
16.28848539317525
 21
10.38734189485337
 31
0.0
  0
LINE
  5
9F87
330
1F
100
AcDbEntity
  8
CONTINUOUS1
100
AcDbLine
 10
16.80583654607749
 20
10.07676097188146
 30
0.0
 11
16.28848539317525
 21
10.07676097188146
 31
0.0
  0
LINE
  5
9F88
330
1F
100
AcDbEntity
  8
CONTINUOUS1
100
AcDbLine
 10
16.80583654607749
 20
10.46372386288151
 30
0.0
 11
16.28848539317525
 21
10.46372386288151
 31
0.0
  0
LINE
  5
9F89
330
1F
100
AcDbEntity
  8
CONTINUOUS1
100
AcDbLine
 10
16.28848539317525
 20
10.46372386288151
 30
0.0
 11
16.28848539317525
 21
10.07676097188146
 31
0.0
  0
LINE
  5
9F8A
330
1F
100
AcDbEntity
  8
CONTINUOUS1
100
AcDbLine
 10
15.47205871926622
 20
10.07492684935006
 30
0.0
 11
15.36589514007761
 21
10.07492684935006
 31
0.0
  0
LINE
  5
9F8B
330
1F
100
AcDbEntity
  8
CONTINUOUS1
100
AcDbLine
 10
15.47205871926622
 20
10.4654938818815
 30
0.0
 11
15.36589514007761
 21
10.4654938818815
 31
0.0
  0
LINE
  5
9F8C
330
1F
100
AcDbEntity
  8
CONTINUOUS1
100
AcDbLine
 10
15.47205871926622
 20
10.4654938818815
 30
0.0
 11
15.36589514007761
 21
10.4654938818815
 31
0.0
  0
LINE
  5
9F8D
330
1F
100
AcDbEntity
  8
CONTINUOUS1
100
AcDbLine
 10
15.47205871926622
 20
10.4654938818815
 30
0.0
 11
15.3622308720385
 21
10.4654938818815
 31
0.0
  0
LINE
  5
9F8E
330
1F
100
AcDbEntity
  8
CONTINUOUS1
100
AcDbLine
 10
15.47205871926622
 20
10.07492684935006
 30
0.0
 11
15.36589514007761
 21
10.07492684935006
 31
0.0
  0
LINE
  5
9F8F
330
1F
100
AcDbEntity
  8
CONTINUOUS1
100
AcDbLine
 10
15.47205871926622
 20
10.4654938818815
 30
0.0
 11
15.47205871926622
 21
10.07492684935006
 31
0.0
  0
LINE
  5
9F90
330
1F
100
AcDbEntity
  8
CONTINUOUS1
100
AcDbLine
 10
14.22572298730534
 20
10.4654938818815
 30
0.0
 11
14.22572298730534
 21
10.07492684935006
 31
0.0
  0
LINE
  5
9F91
330
1F
100
AcDbEntity
  8
CONTINUOUS1
100
AcDbLine
 10
14.40058642941006
 20
10.07554026888151
 30
0.0
 11
14.11589514007761
 21
10.07554026888151
 31
0.0
  0
LINE
  5
9F92
330
1F
100
AcDbEntity
  8
CONTINUOUS1
100
AcDbLine
 10
14.40058642941006
 20
10.4654938818815
 30
0.0
 11
14.40058642941006
 21
10.07554026888151
 31
0.0
  0
LINE
  5
9F93
330
1F
100
AcDbEntity
  8
CONTINUOUS1
100
AcDbLine
 10
14.11589514007761
 20
10.4654938818815
 30
0.0
 11
14.40058642941006
 21
10.4654938818815
 31
0.0
  0
LWPOLYLINE
  5
9F94
330
1F
100
AcDbEntity
  8
CENTER1
100
AcDbPolyline
 90
        2
 70
     0
 43
0.0
 10
12.91960607707739
 20
11.97007151888151
 10
11.55681310907772
 20
11.97007151888151
  0
LWPOLYLINE
  5
9F98
330
1F
100
AcDbEntity
  8
CENTER1
100
AcDbPolyline
 90
        2
 70
     0
 43
0.0
 10
12.96623693707743
 20
11.43564769088151
 10
11.62444006207744
 20
11.19901438988153
  0
LWPOLYLINE
  5
9F9C
330
1F
100
AcDbEntity
  8
CENTER1
100
AcDbPolyline
 90
        2
 70
     0
 43
0.0
 10
12.91960607707739
 20
11.97007151888151
 10
11.55681310907772
 20
11.97007151888151
  0
LWPOLYLINE
  5
9FA0
330
1F
100
AcDbEntity
  8
CENTER1
100
AcDbPolyline
 90
        2
 70
     0
 43
0.0
 10
12.92253576507761
 20
12.10422679188149
 10
11.56120764007761
 20
12.1637360698815
  0
LWPOLYLINE
  5
9FA4
330
1F
100
AcDbEntity
  8
CENTER1
100
AcDbPolyline
 90
        2
 70
     0
 43
0.0
 10
12.91960607707739
 20
11.97007151888151
 10
9.573902952077389
 20
11.97007151888151
  0
LWPOLYLINE
  5
9FA8
330
1F
100
AcDbEntity
  8
CENTER1
100
AcDbPolyline
 90
        2
 70
     0
 43
0.0
 10
12.97600256207743
 20
12.55722972188146
 10
9.692067015077611
 20
13.19553538588149
  0
LWPOLYLINE
  5
9FAC
330
1F
100
AcDbEntity
  8
CENTER1
100
AcDbPolyline
 90
        2
 70
     0
 43
0.0
 10
12.91960607707739
 20
11.97007151888151
 10
9.573902952077389
 20
11.97007151888151
  0
LWPOLYLINE
  5
9FB0
330
1F
100
AcDbEntity
  8
CENTER1
100
AcDbPolyline
 90
        2
 70
     0
 43
0.0
 10
13.04240881207744
 20
11.10892649888148
 10
9.830738890077611
 20
10.1727692728815
  0
LWPOLYLINE
  5
9FB4
330
1F
100
AcDbEntity
  8
CONTINUOUS1
100
AcDbPolyline
 90
        2
 70
     0
 43
0.0
 10
15.36589514007761
 20
10.35959788588149
 10
15.36589514007761
 20
10.35959788588149
  0
LWPOLYLINE
  5
9FB8
330
1F
100
AcDbEntity
  8
CONTINUOUS1
100
AcDbPolyline
 90
        2
 70
     0
 43
0.0
 10
12.98796545207739
 20
12.37949534688146
 10
13.7296646710775
 20
12.21067210488154
  0
LWPOLYLINE
  5
9FBC
330
1F
100
AcDbEntity
  8
CONTINUOUS1
100
AcDbPolyline
 90
        2
 70
     0
 43
0.0
 10
15.36589514007761
 20
13.04642649888148
 10
16.56682287407766
 20
13.04642649888148
  0
LWPOLYLINE
  5
9FC0
330
1F
100
AcDbEntity
  8
CONTINUOUS1
100
AcDbPolyline
 90
        2
 70
     0
 43
0.0
 10
15.36589514007761
 20
9.833474838881494
 10
16.86735998407771
 20
9.833474838881494
  0
LWPOLYLINE
  5
9FC4
330
1F
100
AcDbEntity
  8
CONTINUOUS1
100
AcDbPolyline
 90
        2
 70
     0
 43
0.0
 10
17.08391271807754
 20
9.958535873881482
 10
16.86735998407771
 20
9.833474838881494
  0
LWPOLYLINE
  5
9FC8
330
1F
100
AcDbEntity
  8
CONTINUOUS1
100
AcDbPolyline
 90
        2
 70
     0
 43
0.0
 10
17.08391271807754
 20
11.38144847188146
 10
16.93694006207743
 20
11.38144847188146
  0
LWPOLYLINE
  5
9FCC
330
1F
100
AcDbEntity
  8
CONTINUOUS1
100
AcDbPolyline
 90
        9
 70
     0
 43
0.0
 10
15.74602209307754
 20
10.35959788588149
 10
15.76970373407771
 20
10.36203929188149
 10
15.79192053007755
 20
10.36875315988151
 10
15.81218420207738
 20
10.3795563818815
 10
15.8307388900776
 20
10.39475413588149
 10
15.84587560907771
 20
10.41336985888147
 10
15.85686193707743
 20
10.43369456588151
 10
15.86345373407771
 20
10.45578929188149
 10
15.8658951400776
 20
10.47959300288152
  0
LWPOLYLINE
  5
9FD7
330
1F
100
AcDbEntity
  8
CONTINUOUS1
100
AcDbPolyline
 90
        2
 70
     0
 43
0.0
 10
15.36589514007761
 20
10.35959788588149
 10
15.74602209307754
 20
10.35959788588149
  0
LWPOLYLINE
  5
9FDB
330
1F
100
AcDbEntity
  8
CONTINUOUS1
100
AcDbPolyline
 90
        2
 70
     0
 43
0.0
 10
16.56682287407766
 20
13.04642649888148
 10
16.93694006207743
 20
13.04642649888148
  0
LWPOLYLINE
  5
9FDF
330
1F
100
AcDbEntity
  8
CONTINUOUS1
100
AcDbPolyline
 90
        2
 70
     0
 43
0.0
 10
14.11589514007761
 20
14.58249827688149
 10
14.11589514007761
 20
15.20145579588148
  0
LWPOLYLINE
  5
9FE3
330
1F
100
AcDbEntity
  8
CONTINUOUS1
100
AcDbPolyline
 90
        7
 70
     0
 43
0.0
 10
13.83488928007756
 20
12.90751048388147
 10
13.83488928007756
 20
12.92307444888148
 10
13.83488928007756
 20
12.93753978088153
 10
13.83488928007756
 20
12.94992991688149
 10
13.83488928007756
 20
12.9593903668815
 10
13.83488928007756
 20
12.9654938818815
 10
13.83488928007756
 20
12.9674470068815
  0
LWPOLYLINE
  5
9FEC
330
1F
100
AcDbEntity
  8
CONTINUOUS1
100
AcDbPolyline
 90
        9
 70
     0
 43
0.0
 10
13.83488928007756
 20
12.58249827688149
 10
13.80217443707744
 20
12.4918610698815
 10
13.77385412407768
 20
12.39994212388148
 10
13.74968420207739
 20
12.30674144088151
 10
13.72990881207744
 20
12.21250315988151
 10
13.71452795207739
 20
12.1173493508815
 10
13.70329748407772
 20
12.02176829588148
 10
13.69670568707744
 20
11.92582103088153
 10
13.6945084210775
 20
11.8295075538815
  0
LWPOLYLINE
  5
9FF7
330
1F
100
AcDbEntity
  8
CONTINUOUS1
100
AcDbPolyline
 90
        2
 70
     0
 43
0.0
 10
13.83488928007756
 20
10.75144358888149
 10
13.83488928007756
 20
11.07651683088152
  0
LWPOLYLINE
  5
9FFB
330
1F
100
AcDbEntity
  8
CONTINUOUS1
100
AcDbPolyline
 90
        2
 70
     0
 43
0.0
 10
14.11589514007761
 20
10.4654938818815
 10
14.11589514007761
 20
10.58249827688148
  0
LWPOLYLINE
  5
9FFF
330
1F
100
AcDbEntity
  8
CONTINUOUS1
100
AcDbPolyline
 90
        5
 70
     0
 43
0.0
 10
14.11589514007761
 20
10.4654938818815
 10
14.11589514007761
 20
10.45615550288152
 10
14.11589514007761
 20
10.4376618508815
 10
14.11589514007761
 20
10.4108063818815
 10
14.11589514007761
 20
10.37693187088148
  0
LWPOLYLINE
  5
A006
330
1F
100
AcDbEntity
  8
CONTINUOUS1
100
AcDbPolyline
 90
        2
 70
     0
 43
0.0
 10
14.42595373407772
 20
10.36234446788153
 10
14.42595373407772
 20
10.4654938818815
  0
LWPOLYLINE
  5
A00A
330
1F
100
AcDbEntity
  8
CONTINUOUS1
100
AcDbPolyline
 90
        5
 70
     0
 43
0.0
 10
15.36589514007761
 20
10.35959788588149
 10
15.36589514007761
 20
10.3531891948815
 10
15.36589514007761
 20
10.3444001318815
 10
15.36589514007761
 20
10.33347483888149
 10
15.36589514007761
 20
10.3207184918815
  0
LWPOLYLINE
  5
A011
330
1F
100
AcDbEntity
  8
CONTINUOUS1
100
AcDbPolyline
 90
        7
 70
     0
 43
0.0
 10
15.36589514007761
 20
10.3207184918815
 10
15.36589514007761
 20
10.2948395848815
 10
15.36589514007761
 20
10.26682444888148
 10
15.36589514007761
 20
10.23905345288153
 10
15.36589514007761
 20
10.21415110888147
 10
15.36589514007761
 20
10.19437571788153
 10
15.36589514007761
 20
10.18143626488153
  0
LWPOLYLINE
  5
A01A
330
1F
100
AcDbEntity
  8
CONTINUOUS1
100
AcDbPolyline
 90
        2
 70
     0
 43
0.0
 10
15.36589514007761
 20
10.18143626488153
 10
15.36589514007761
 20
9.833474838881494
  0
LWPOLYLINE
  5
A01E
330
1F
100
AcDbEntity
  8
CONTINUOUS1
100
AcDbPolyline
 90
        2
 70
     0
 43
0.0
 10
15.36589514007761
 20
15.48838206588152
 10
15.36589514007761
 20
15.83353587388148
  0
LWPOLYLINE
  5
A022
330
1F
100
AcDbEntity
  8
CONTINUOUS1
100
AcDbPolyline
 90
        9
 70
     0
 43
0.0
 10
15.36589514007761
 20
15.48838206588152
 10
15.36589514007761
 20
15.47641917488152
 10
15.36589514007761
 20
15.4554841168815
 10
15.36589514007761
 20
15.42771312088149
 10
15.36589514007761
 20
15.39652415588153
 10
15.36589514007761
 20
15.36527415588153
 10
15.36589514007761
 20
15.3375641948815
 10
15.36589514007761
 20
15.3165681008815
 10
15.36589514007761
 20
15.30466624588148
  0
LWPOLYLINE
  5
A02D
330
1F
100
AcDbEntity
  8
CONTINUOUS1
100
AcDbPolyline
 90
        2
 70
     0
 43
0.0
 10
14.11589514007761
 20
14.58249827688149
 10
13.95988928007756
 20
14.58249827688149
  0
LWPOLYLINE
  5
A031
330
1F
100
AcDbEntity
  8
CONTINUOUS1
100
AcDbPolyline
 90
        2
 70
     0
 43
0.0
 10
13.95988928007756
 20
12.9674470068815
 10
13.83488928007756
 20
12.9674470068815
  0
LWPOLYLINE
  5
A035
330
1F
100
AcDbEntity
  8
CONTINUOUS1
100
AcDbPolyline
 90
        7
 70
     0
 43
0.0
 10
13.95988928007756
 20
12.90751048388147
 10
13.95988928007756
 20
12.92307444888148
 10
13.95988928007756
 20
12.93753978088153
 10
13.95988928007756
 20
12.94992991688149
 10
13.95988928007756
 20
12.9593903668815
 10
13.95988928007756
 20
12.9654938818815
 10
13.95988928007756
 20
12.9674470068815
  0
LWPOLYLINE
  5
A03E
330
1F
100
AcDbEntity
  8
CONTINUOUS1
100
AcDbPolyline
 90
        2
 70
     0
 43
0.0
 10
13.95988928007756
 20
10.75144358888149
 10
13.95988928007756
 20
12.90751048388147
  0
LWPOLYLINE
  5
A042
330
1F
100
AcDbEntity
  8
CONTINUOUS1
100
AcDbPolyline
 90
        2
 70
     0
 43
0.0
 10
13.95988928007756
 20
10.69150706588151
 10
13.83488928007756
 20
10.69150706588151
  0
LWPOLYLINE
  5
A046
330
1F
100
AcDbEntity
  8
CONTINUOUS1
100
AcDbPolyline
 90
        7
 70
     0
 43
0.0
 10
13.95988928007756
 20
10.69150706588151
 10
13.95988928007756
 20
10.69358226088149
 10
13.95988928007756
 20
10.69950267088148
 10
13.95988928007756
 20
10.70908519088151
 10
13.95988928007756
 20
10.72147532788153
 10
13.95988928007756
 20
10.73594065988151
 10
13.95988928007756
 20
10.75144358888149
  0
LWPOLYLINE
  5
A04F
330
1F
100
AcDbEntity
  8
CONTINUOUS1
100
AcDbPolyline
 90
        2
 70
     0
 43
0.0
 10
15.36589514007761
 20
10.36234446788153
 10
15.36589514007761
 20
15.30466624588148
  0
LWPOLYLINE
  5
A053
330
1F
100
AcDbEntity
  8
CONTINUOUS1
100
AcDbPolyline
 90
        9
 70
     0
 43
0.0
 10
14.42595373407772
 20
10.36234446788153
 10
14.42595373407772
 20
10.3505036478815
 10
14.42595373407772
 20
10.3295075538815
 10
14.42595373407772
 20
10.30179759288153
 10
14.42595373407772
 20
10.27048655788149
 10
14.42595373407772
 20
10.23923655788149
 10
14.42595373407772
 20
10.21152659688146
 10
14.42595373407772
 20
10.19053050288152
 10
14.42595373407772
 20
10.1786286478815
  0
LWPOLYLINE
  5
A05E
330
1F
100
AcDbEntity
  8
CONTINUOUS1
100
AcDbPolyline
 90
        2
 70
     0
 43
0.0
 10
14.11589514007761
 20
10.4654938818815
 10
14.42595373407772
 20
10.4654938818815
  0
LWPOLYLINE
  5
A062
330
1F
100
AcDbEntity
  8
CONTINUOUS1
100
AcDbPolyline
 90
       13
 70
     0
 43
0.0
 10
14.11589514007761
 20
10.37693187088148
 10
14.11589514007761
 20
10.34702464388151
 10
14.11589514007761
 20
10.31589671388149
 10
14.11589514007761
 20
10.28342601088149
 10
14.11589514007761
 20
10.24961253488151
 10
14.11589514007761
 20
10.2164704448815
 10
14.11589514007761
 20
10.18576976088149
 10
14.11589514007761
 20
10.15738841288151
 10
14.11589514007761
 20
10.13163157788153
 10
14.11589514007761
 20
10.10996409688146
 10
14.11589514007761
 20
10.0934235698815
 10
14.11589514007761
 20
10.08194895988151
 10
14.11589514007761
 20
10.07554026888151
  0
LWPOLYLINE
  5
A071
330
1F
100
AcDbEntity
  8
CONTINUOUS1
100
AcDbPolyline
 90
        2
 70
     0
 43
0.0
 10
14.42595373407772
 20
10.36234446788153
 10
15.36589514007761
 20
10.36234446788153
  0
LWPOLYLINE
  5
A075
330
1F
100
AcDbEntity
  8
CONTINUOUS1
100
AcDbPolyline
 90
        9
 70
     0
 43
0.0
 10
15.36589514007761
 20
10.36234446788153
 10
15.36589514007761
 20
10.3505036478815
 10
15.36589514007761
 20
10.3295075538815
 10
15.36589514007761
 20
10.30179759288153
 10
15.36589514007761
 20
10.27048655788149
 10
15.36589514007761
 20
10.23923655788149
 10
15.36589514007761
 20
10.21152659688146
 10
15.36589514007761
 20
10.19053050288152
 10
15.36589514007761
 20
10.1786286478815
  0
LWPOLYLINE
  5
A080
330
1F
100
AcDbEntity
  8
CONTINUOUS1
100
AcDbPolyline
 90
        2
 70
     0
 43
0.0
 10
14.42595373407772
 20
10.18149061164388
 10
15.36589514007761
 20
10.18149061164388
  0
LWPOLYLINE
  5
A084
330
1F
100
AcDbEntity
  8
CONTINUOUS1
100
AcDbPolyline
 90
        2
 70
     0
 43
0.0
 10
15.36589514007761
 20
10.1786286478815
 10
15.36589514007761
 20
9.833474838881494
  0
LWPOLYLINE
  5
A088
330
1F
100
AcDbEntity
  8
CONTINUOUS1
100
AcDbPolyline
 90
        2
 70
     0
 43
0.0
 10
14.42595373407772
 20
10.07554026888151
 10
14.42595373407772
 20
10.1786286478815
  0
LWPOLYLINE
  5
A08C
330
1F
100
AcDbEntity
  8
CONTINUOUS1
100
AcDbPolyline
 90
        2
 70
     0
 43
0.0
 10
14.11589514007761
 20
10.07554026888151
 10
14.42595373407772
 20
10.07554026888151
  0
LWPOLYLINE
  5
A090
330
1F
100
AcDbEntity
  8
CONTINUOUS1
100
AcDbPolyline
 90
        2
 70
     0
 43
0.0
 10
14.11589514007761
 20
9.833474838881494
 10
14.11589514007761
 20
10.07554026888151
  0
LWPOLYLINE
  5
A094
330
1F
100
AcDbEntity
  8
CONTINUOUS1
100
AcDbPolyline
 90
        2
 70
     0
 43
0.0
 10
15.36589514007761
 20
10.83353587388148
 10
15.36589514007761
 20
13.04642649888148
  0
LWPOLYLINE
  5
A098
330
1F
100
AcDbEntity
  8
CONTINUOUS1
100
AcDbPolyline
 90
        2
 70
     0
 43
0.0
 10
15.36589514007761
 20
10.83353587388148
 10
15.36589514007761
 20
10.35959788588149
  0
LWPOLYLINE
  5
A09C
330
1F
100
AcDbEntity
  8
CONTINUOUS1
100
AcDbPolyline
 90
        2
 70
     0
 43
0.0
 10
15.74602209307754
 20
10.83353587388148
 10
15.36589514007761
 20
10.83353587388148
  0
LWPOLYLINE
  5
A0A0
330
1F
100
AcDbEntity
  8
CONTINUOUS1
100
AcDbPolyline
 90
        7
 70
     0
 43
0.0
 10
15.8658951400776
 20
10.7135407568815
 10
15.86174474907766
 20
10.7445466168815
 10
15.84978185907771
 20
10.77347728088153
 10
15.8307388900776
 20
10.79837962388148
 10
15.80583654607749
 20
10.81736155788149
 10
15.77702795207738
 20
10.82944651888152
 10
15.74602209307754
 20
10.83353587388148
  0
LWPOLYLINE
  5
A0A9
330
1F
100
AcDbEntity
  8
CONTINUOUS1
100
AcDbPolyline
 90
        2
 70
     0
 43
0.0
 10
15.8658951400776
 20
10.47959300288152
 10
15.8658951400776
 20
10.7135407568815
  0
LWPOLYLINE
  5
A0AD
330
1F
100
AcDbEntity
  8
CONTINUOUS1
100
AcDbPolyline
 90
        2
 70
     0
 43
0.0
 10
16.80583654607749
 20
10.35959788588149
 10
15.74602209307754
 20
10.35959788588149
  0
LWPOLYLINE
  5
A0B1
330
1F
100
AcDbEntity
  8
CONTINUOUS1
100
AcDbPolyline
 90
        2
 70
     0
 43
0.0
 10
15.36589514007761
 20
9.833474838881494
 10
15.36589514007761
 20
10.18143626488153
  0
LWPOLYLINE
  5
A0B5
330
1F
100
AcDbEntity
  8
CONTINUOUS1
100
AcDbPolyline
 90
        2
 70
     0
 43
0.0
 10
15.36589514007761
 20
10.18143626488153
 10
16.80583654607749
 20
10.18143626488153
  0
LWPOLYLINE
  5
A0B9
330
1F
100
AcDbEntity
  8
CONTINUOUS1
100
AcDbPolyline
 90
        2
 70
     0
 43
0.0
 10
17.08391271807754
 20
10.64353343288149
 10
17.08391271807754
 20
11.38144847188146
  0
LWPOLYLINE
  5
A0BD
330
1F
100
AcDbEntity
  8
CONTINUOUS1
100
AcDbPolyline
 90
        2
 70
     0
 43
0.0
 10
17.1158951400776
 20
10.64353343288149
 10
17.08391271807754
 20
10.64353343288149
  0
LWPOLYLINE
  5
A0C1
330
1F
100
AcDbEntity
  8
CONTINUOUS1
100
AcDbPolyline
 90
        2
 70
     0
 43
0.0
 10
17.1158951400776
 20
10.48044749588148
 10
17.1158951400776
 20
10.64353343288149
  0
LWPOLYLINE
  5
A0C5
330
1F
100
AcDbEntity
  8
CONTINUOUS1
100
AcDbPolyline
 90
        2
 70
     0
 43
0.0
 10
17.1158951400776
 20
10.48044749588148
 10
17.08391271807754
 20
10.48044749588148
  0
LWPOLYLINE
  5
A0C9
330
1F
100
AcDbEntity
  8
CONTINUOUS1
100
AcDbPolyline
 90
        2
 70
     0
 43
0.0
 10
16.80583654607749
 20
10.46372386288151
 10
17.08391271807754
 20
10.46372386288151
  0
LWPOLYLINE
  5
A0CD
330
1F
100
AcDbEntity
  8
CONTINUOUS1
100
AcDbPolyline
 90
        2
 70
     0
 43
0.0
 10
17.08391271807754
 20
10.48044749588148
 10
17.08391271807754
 20
10.46372386288151
  0
LWPOLYLINE
  5
A0D1
330
1F
100
AcDbEntity
  8
CONTINUOUS1
100
AcDbPolyline
 90
        2
 70
     0
 43
0.0
 10
16.80583654607749
 20
10.35959788588149
 10
16.80583654607749
 20
10.46372386288151
  0
LWPOLYLINE
  5
A0D5
330
1F
100
AcDbEntity
  8
CONTINUOUS1
100
AcDbPolyline
 90
        9
 70
     0
 43
0.0
 10
16.80583654607749
 20
10.35959788588149
 10
16.80583654607749
 20
10.3461091168815
 10
16.80583654607749
 20
10.32535716288151
 10
16.80583654607749
 20
10.29935618688147
 10
16.80583654607749
 20
10.27048655788149
 10
16.80583654607749
 20
10.24167796388149
 10
16.80583654607749
 20
10.21567698788151
 10
16.80583654607749
 20
10.19486399888148
 10
16.80583654607749
 20
10.18143626488153
  0
LWPOLYLINE
  5
A0E0
330
1F
100
AcDbEntity
  8
CONTINUOUS1
100
AcDbPolyline
 90
        2
 70
     0
 43
0.0
 10
16.80583654607749
 20
10.18143626488153
 10
16.80583654607749
 20
10.07676097188146
  0
LWPOLYLINE
  5
A0E4
330
1F
100
AcDbEntity
  8
CONTINUOUS1
100
AcDbPolyline
 90
        2
 70
     0
 43
0.0
 10
17.1158951400776
 20
10.27048655788149
 10
17.08391271807754
 20
10.27048655788149
  0
LWPOLYLINE
  5
A0E8
330
1F
100
AcDbEntity
  8
CONTINUOUS1
100
AcDbPolyline
 90
        9
 70
     0
 43
0.0
 10
17.1158951400776
 20
10.27048655788149
 10
17.1158951400776
 20
10.23545237788152
 10
17.1158951400776
 20
10.20249339388151
 10
17.1158951400776
 20
10.17167063988153
 10
17.1158951400776
 20
10.1429841168815
 10
17.1158951400776
 20
10.11838694888148
 10
17.1158951400776
 20
10.0992829448815
 10
17.1158951400776
 20
10.0853669288815
 10
17.1158951400776
 20
10.07676097188146
  0
LWPOLYLINE
  5
A0F3
330
1F
100
AcDbEntity
  8
CONTINUOUS1
100
AcDbPolyline
 90
        2
 70
     0
 43
0.0
 10
16.80583654607749
 20
10.07676097188146
 10
17.1158951400776
 20
10.07676097188146
  0
LWPOLYLINE
  5
A0F7
330
1F
100
AcDbEntity
  8
CONTINUOUS1
100
AcDbPolyline
 90
        2
 70
     0
 43
0.0
 10
17.1158951400776
 20
10.08548899888148
 10
17.1158951400776
 20
9.958535873881482
  0
LWPOLYLINE
  5
A0FB
330
1F
100
AcDbEntity
  8
CONTINUOUS1
100
AcDbPolyline
 90
        2
 70
     0
 43
0.0
 10
17.1158951400776
 20
10.64353343288149
 10
17.08391271807754
 20
10.64353343288149
  0
LWPOLYLINE
  5
A0FF
330
1F
100
AcDbEntity
  8
CONTINUOUS1
100
AcDbPolyline
 90
        7
 70
     0
 43
0.0
 10
17.1158951400776
 20
10.58353587388148
 10
17.1158951400776
 20
10.5990388038815
 10
17.1158951400776
 20
10.61350413588149
 10
17.1158951400776
 20
10.62595530788149
 10
17.1158951400776
 20
10.63547679188149
 10
17.1158951400776
 20
10.64145823788151
 10
17.1158951400776
 20
10.64353343288149
  0
LWPOLYLINE
  5
A108
330
1F
100
AcDbEntity
  8
CONTINUOUS1
100
AcDbPolyline
 90
        2
 70
     0
 43
0.0
 10
17.1158951400776
 20
10.58353587388148
 10
17.1158951400776
 20
10.41025706588151
  0
LWPOLYLINE
  5
A10C
330
1F
100
AcDbEntity
  8
CONTINUOUS1
100
AcDbPolyline
 90
        2
 70
     0
 43
0.0
 10
17.1158951400776
 20
10.41025706588151
 10
17.08391271807754
 20
10.41025706588151
  0
LWPOLYLINE
  5
A110
330
1F
100
AcDbEntity
  8
CONTINUOUS1
100
AcDbPolyline
 90
        7
 70
     0
 43
0.0
 10
17.1158951400776
 20
10.08548899888148
 10
17.1158951400776
 20
10.10105296388149
 10
17.1158951400776
 20
10.11551829588148
 10
17.1158951400776
 20
10.12796946788153
 10
17.1158951400776
 20
10.13749095288152
 10
17.1158951400776
 20
10.1434723978815
 10
17.1158951400776
 20
10.14548655788149
  0
LWPOLYLINE
  5
A119
330
1F
100
AcDbEntity
  8
CONTINUOUS1
100
AcDbPolyline
 90
        2
 70
     0
 43
0.0
 10
17.1158951400776
 20
10.14554759288153
 10
17.08391271807754
 20
10.14554759288153
  0
LWPOLYLINE
  5
A11D
330
1F
100
AcDbEntity
  8
CONTINUOUS1
100
AcDbPolyline
 90
        2
 70
     0
 43
0.0
 10
17.1158951400776
 20
10.14554759288153
 10
17.1158951400776
 20
10.14554759288153
  0
LWPOLYLINE
  5
A121
330
1F
100
AcDbEntity
  8
CONTINUOUS1
100
AcDbPolyline
 90
        5
 70
     0
 43
0.0
 10
17.1158951400776
 20
10.1451813818815
 10
17.1158951400776
 20
10.14426585488154
 10
17.1158951400776
 20
10.14133616688149
 10
17.1158951400776
 20
10.13657542488152
 10
17.1158951400776
 20
10.13016673388147
  0
LWPOLYLINE
  5
A128
330
1F
100
AcDbEntity
  8
CONTINUOUS1
100
AcDbPolyline
 90
        2
 70
     0
 43
0.0
 10
16.93694006207743
 20
11.38144847188146
 10
16.93694006207743
 20
13.04642649888148
  0
LWPOLYLINE
  5
A12C
330
1F
100
AcDbEntity
  8
CONTINUOUS1
100
AcDbPolyline
 90
        2
 70
     0
 43
0.0
 10
16.93694006207743
 20
13.4864899758815
 10
16.93694006207743
 20
13.6686188818815
  0
LWPOLYLINE
  5
A130
330
1F
100
AcDbEntity
  8
CONTINUOUS1
100
AcDbPolyline
 90
        2
 70
     0
 43
0.0
 10
16.93694006207743
 20
13.4864899758815
 10
16.93694006207743
 20
13.4864899758815
  0
LWPOLYLINE
  5
A134
330
1F
100
AcDbEntity
  8
CONTINUOUS1
100
AcDbPolyline
 90
        5
 70
     0
 43
0.0
 10
16.93694006207743
 20
13.44358226088149
 10
16.93694006207743
 20
13.46170970288153
 10
16.93694006207743
 20
13.47519847188146
 10
16.93694006207743
 20
13.48368235888147
 10
16.93694006207743
 20
13.4864899758815
  0
LWPOLYLINE
  5
A13B
330
1F
100
AcDbEntity
  8
CONTINUOUS1
100
AcDbPolyline
 90
        2
 70
     0
 43
0.0
 10
16.93694006207743
 20
13.04642649888148
 10
16.93694006207743
 20
13.44358226088149
  0
LWPOLYLINE
  5
A13F
330
1F
100
AcDbEntity
  8
CONTINUOUS1
100
AcDbPolyline
 90
        2
 70
     0
 43
0.0
 10
16.93694006207743
 20
13.60453196788153
 10
16.93694006207743
 20
14.47654124588148
  0
LWPOLYLINE
  5
A143
330
1F
100
AcDbEntity
  8
CONTINUOUS1
100
AcDbPolyline
 90
        2
 70
     0
 43
0.0
 10
16.56682287407766
 20
13.60453196788153
 10
16.56682287407766
 20
13.04642649888148
  0
LWPOLYLINE
  5
A147
330
1F
100
AcDbEntity
  8
CONTINUOUS1
100
AcDbPolyline
 90
        2
 70
     0
 43
0.0
 10
16.93694006207743
 20
13.60453196788153
 10
16.56682287407766
 20
13.60453196788153
  0
LWPOLYLINE
  5
A14B
330
1F
100
AcDbEntity
  8
CONTINUOUS1
100
AcDbPolyline
 90
        2
 70
     0
 43
0.0
 10
16.93694006207743
 20
13.4864899758815
 10
16.56682287407766
 20
13.4864899758815
  0
LWPOLYLINE
  5
A14F
330
1F
100
AcDbEntity
  8
CONTINUOUS1
100
AcDbPolyline
 90
        2
 70
     0
 43
0.0
 10
17.08391271807754
 20
14.61991282788153
 10
17.1158951400776
 20
14.59745188988153
  0
LWPOLYLINE
  5
A153
330
1F
100
AcDbEntity
  8
CONTINUOUS1
100
AcDbPolyline
 90
        2
 70
     0
 43
0.0
 10
17.1158951400776
 20
14.47654124588148
 10
17.1158951400776
 20
14.59745188988153
  0
LWPOLYLINE
  5
A157
330
1F
100
AcDbEntity
  8
CONTINUOUS1
100
AcDbPolyline
 90
        2
 70
     0
 43
0.0
 10
17.08391271807754
 20
14.61991282788153
 10
17.08391271807754
 20
15.02353831588152
  0
LWPOLYLINE
  5
A15B
330
1F
100
AcDbEntity
  8
CONTINUOUS1
100
AcDbPolyline
 90
        2
 70
     0
 43
0.0
 10
17.08391271807754
 20
15.70847483888149
 10
16.86735998407771
 20
15.83353587388148
  0
LWPOLYLINE
  5
A15F
330
1F
100
AcDbEntity
  8
CONTINUOUS1
100
AcDbPolyline
 90
        2
 70
     0
 43
0.0
 10
17.1158951400776
 20
15.70847483888149
 10
17.08391271807754
 20
15.70847483888149
  0
LWPOLYLINE
  5
A163
330
1F
100
AcDbEntity
  8
CONTINUOUS1
100
AcDbPolyline
 90
        9
 70
     0
 43
0.0
 10
15.36589514007761
 20
15.48838206588152
 10
15.36589514007761
 20
15.47641917488152
 10
15.36589514007761
 20
15.4554841168815
 10
15.36589514007761
 20
15.42771312088149
 10
15.36589514007761
 20
15.39652415588153
 10
15.36589514007761
 20
15.36527415588153
 10
15.36589514007761
 20
15.3375641948815
 10
15.36589514007761
 20
15.3165681008815
 10
15.36589514007761
 20
15.30466624588148
  0
LWPOLYLINE
  5
A16E
330
1F
100
AcDbEntity
  8
CONTINUOUS1
100
AcDbPolyline
 90
        2
 70
     0
 43
0.0
 10
15.36589514007761
 20
15.48838206588152
 10
15.36589514007761
 20
15.83353587388148
  0
LWPOLYLINE
  5
A172
330
1F
100
AcDbEntity
  8
CONTINUOUS1
100
AcDbPolyline
 90
        9
 70
     0
 43
0.0
 10
17.1158951400776
 20
15.5914704448815
 10
17.1158951400776
 20
15.58432933088152
 10
17.1158951400776
 20
15.57132884288153
 10
17.1158951400776
 20
15.55246897988155
 10
17.1158951400776
 20
15.52781077688149
 10
17.1158951400776
 20
15.4984528668815
 10
17.1158951400776
 20
15.46689769088152
 10
17.1158951400776
 20
15.43284007388149
 10
17.1158951400776
 20
15.39652415588153
  0
LWPOLYLINE
  5
A17D
330
1F
100
AcDbEntity
  8
CONTINUOUS1
100
AcDbPolyline
 90
        2
 70
     0
 43
0.0
 10
17.1158951400776
 20
15.39652415588153
 10
17.08391271807754
 20
15.39652415588153
  0
LWPOLYLINE
  5
A181
330
1F
100
AcDbEntity
  8
CONTINUOUS1
100
AcDbPolyline
 90
        9
 70
     0
 43
0.0
 10
17.08391271807754
 20
15.39652415588153
 10
17.08391271807754
 20
15.36008616688149
 10
17.08391271807754
 20
15.32615062088148
 10
17.08391271807754
 20
15.29447337388148
 10
17.08391271807754
 20
15.26517649888148
 10
17.08391271807754
 20
15.24045726088149
 10
17.08391271807754
 20
15.22165843288149
 10
17.08391271807754
 20
15.2086579448815
 10
17.08391271807754
 20
15.20145579588148
  0
LWPOLYLINE
  5
A18C
330
1F
100
AcDbEntity
  8
CONTINUOUS1
100
AcDbPolyline
 90
        2
 70
     0
 43
0.0
 10
17.1158951400776
 20
15.70847483888149
 10
17.1158951400776
 20
15.5814606788815
  0
LWPOLYLINE
  5
A190
330
1F
100
AcDbEntity
  8
CONTINUOUS1
100
AcDbPolyline
 90
        2
 70
     0
 43
0.0
 10
17.1158951400776
 20
15.08347483888149
 10
17.1158951400776
 20
15.25669261288151
  0
LWPOLYLINE
  5
A194
330
1F
100
AcDbEntity
  8
CONTINUOUS1
100
AcDbPolyline
 90
        7
 70
     0
 43
0.0
 10
17.1158951400776
 20
15.02353831588152
 10
17.1158951400776
 20
15.02549144088152
 10
17.1158951400776
 20
15.03153392088148
 10
17.1158951400776
 20
15.04105540588153
 10
17.1158951400776
 20
15.05350657788153
 10
17.1158951400776
 20
15.06791087388148
 10
17.1158951400776
 20
15.08347483888149
  0
LWPOLYLINE
  5
A19D
330
1F
100
AcDbEntity
  8
CONTINUOUS1
100
AcDbPolyline
 90
        7
 70
     0
 43
0.0
 10
17.1158951400776
 20
15.52152415588153
 10
17.1158951400776
 20
15.52353831588152
 10
17.1158951400776
 20
15.52958079588148
 10
17.1158951400776
 20
15.53904124588148
 10
17.1158951400776
 20
15.55149241688149
 10
17.1158951400776
 20
15.56589671388149
 10
17.1158951400776
 20
15.5814606788815
  0
LWPOLYLINE
  5
A1A6
330
1F
100
AcDbEntity
  8
CONTINUOUS1
100
AcDbPolyline
 90
        2
 70
     0
 43
0.0
 10
17.1158951400776
 20
15.52152415588153
 10
17.1158951400776
 20
15.52152415588153
  0
LWPOLYLINE
  5
A1AA
330
1F
100
AcDbEntity
  8
CONTINUOUS1
100
AcDbPolyline
 90
        5
 70
     0
 43
0.0
 10
17.1158951400776
 20
15.53659983888149
 10
17.1158951400776
 20
15.53013011288151
 10
17.1158951400776
 20
15.52536937088149
 10
17.1158951400776
 20
15.52250071788153
 10
17.1158951400776
 20
15.52152415588153
  0
LWPOLYLINE
  5
A1B1
330
1F
100
AcDbEntity
  8
CONTINUOUS1
100
AcDbPolyline
 90
        2
 70
     0
 43
0.0
 10
17.1158951400776
 20
15.52152415588153
 10
17.08391271807754
 20
15.52152415588153
  0
LWPOLYLINE
  5
A1B5
330
1F
100
AcDbEntity
  8
CONTINUOUS1
100
AcDbPolyline
 90
        2
 70
     0
 43
0.0
 10
17.1158951400776
 20
15.70847483888149
 10
17.08391271807754
 20
15.70847483888149
  0
LWPOLYLINE
  5
A1B9
330
1F
100
AcDbEntity
  8
CONTINUOUS1
100
AcDbPolyline
 90
        2
 70
     0
 43
0.0
 10
17.1158951400776
 20
15.02353831588152
 10
17.08391271807754
 20
15.02353831588152
  0
LWPOLYLINE
  5
A1BD
330
1F
100
AcDbEntity
  8
CONTINUOUS1
100
AcDbPolyline
 90
        2
 70
     0
 43
0.0
 10
17.1158951400776
 20
15.25669261288151
 10
17.08391271807754
 20
15.25669261288151
  0
LWPOLYLINE
  5
A1C1
330
1F
100
AcDbEntity
  8
CONTINUOUS1
100
AcDbPolyline
 90
       13
 70
     0
 43
0.0
 10
17.08391271807754
 20
15.25669261288151
 10
17.08391271807754
 20
15.27585765188149
 10
17.08391271807754
 20
15.29691478088153
 10
17.08391271807754
 20
15.31986399888148
 10
17.08391271807754
 20
15.34482737788152
 10
17.08391271807754
 20
15.37082835488154
 10
17.08391271807754
 20
15.39676829588148
 10
17.08391271807754
 20
15.42270823788151
 10
17.08391271807754
 20
15.44870921388149
 10
17.08391271807754
 20
15.47367259288153
 10
17.08391271807754
 20
15.49662181188147
 10
17.08391271807754
 20
15.51761790588153
 10
17.08391271807754
 20
15.58986731249657
  0
LWPOLYLINE
  5
A1D0
330
1F
100
AcDbEntity
  8
CONTINUOUS1
100
AcDbPolyline
 90
        2
 70
     0
 43
0.0
 10
17.1158951400776
 20
15.02353831588152
 10
17.1158951400776
 20
15.18650218288149
  0
LWPOLYLINE
  5
A1D4
330
1F
100
AcDbEntity
  8
CONTINUOUS1
100
AcDbPolyline
 90
        2
 70
     0
 43
0.0
 10
17.08391271807754
 20
15.18650218288149
 10
17.08391271807754
 20
15.20145579588148
  0
LWPOLYLINE
  5
A1D8
330
1F
100
AcDbEntity
  8
CONTINUOUS1
100
AcDbPolyline
 90
        2
 70
     0
 43
0.0
 10
17.1158951400776
 20
15.02353831588152
 10
17.08391271807754
 20
15.02353831588152
  0
LWPOLYLINE
  5
A1DC
330
1F
100
AcDbEntity
  8
CONTINUOUS1
100
AcDbPolyline
 90
        2
 70
     0
 43
0.0
 10
17.1158951400776
 20
15.18650218288149
 10
17.08391271807754
 20
15.18650218288149
  0
LWPOLYLINE
  5
A1E0
330
1F
100
AcDbEntity
  8
CONTINUOUS1
100
AcDbPolyline
 90
        2
 70
     0
 43
0.0
 10
15.36589514007761
 20
13.04642649888148
 10
15.36589514007761
 20
15.30466624588148
  0
LWPOLYLINE
  5
A1E4
330
1F
100
AcDbEntity
  8
CONTINUOUS1
100
AcDbPolyline
 90
        2
 70
     0
 43
0.0
 10
16.93694006207743
 20
14.47654124588148
 10
17.1158951400776
 20
14.47654124588148
  0
LWPOLYLINE
  5
A1E8
330
1F
100
AcDbEntity
  8
CONTINUOUS1
100
AcDbPolyline
 90
        2
 70
     0
 43
0.0
 10
13.12321935907772
 20
10.96384593288149
 10
13.05339514007761
 20
11.20383616688149
  0
LWPOLYLINE
  5
A1EC
330
1F
100
AcDbEntity
  8
CONTINUOUS1
100
AcDbPolyline
 90
        2
 70
     0
 43
0.0
 10
13.12321935907772
 20
10.96384593288149
 10
13.81120764007762
 20
11.14084788588149
  0
LWPOLYLINE
  5
A1F0
330
1F
100
AcDbEntity
  8
CONTINUOUS1
100
AcDbPolyline
 90
        2
 70
     0
 43
0.0
 10
13.05339514007761
 20
11.20383616688149
 10
13.73381506207744
 20
11.4259431008815
  0
LWPOLYLINE
  5
A1F4
330
1F
100
AcDbEntity
  8
CONTINUOUS1
100
AcDbPolyline
 90
        2
 70
     0
 43
0.0
 10
13.03288732707739
 20
11.28025218288149
 10
12.9894302960775
 20
11.52646800288152
  0
LWPOLYLINE
  5
A1F8
330
1F
100
AcDbEntity
  8
CONTINUOUS1
100
AcDbPolyline
 90
        2
 70
     0
 43
0.0
 10
13.03288732707739
 20
11.28025218288149
 10
13.74284826507761
 20
11.3822419288815
  0
LWPOLYLINE
  5
A1FC
330
1F
100
AcDbEntity
  8
CONTINUOUS1
100
AcDbPolyline
 90
        2
 70
     0
 43
0.0
 10
12.9894302960775
 20
11.52646800288152
 10
13.70012365507756
 20
11.6752106788815
  0
LWPOLYLINE
  5
A200
330
1F
100
AcDbEntity
  8
CONTINUOUS1
100
AcDbPolyline
 90
        2
 70
     0
 43
0.0
 10
12.95744787407767
 20
11.93308421388149
 10
12.96843420207739
 20
12.18290110888147
  0
LWPOLYLINE
  5
A204
330
1F
100
AcDbEntity
  8
CONTINUOUS1
100
AcDbPolyline
 90
        2
 70
     0
 43
0.0
 10
12.96843420207739
 20
12.18290110888147
 10
13.72307287407767
 20
12.17392894088151
  0
LWPOLYLINE
  5
A208
330
1F
100
AcDbEntity
  8
CONTINUOUS1
100
AcDbPolyline
 90
        2
 70
     0
 43
0.0
 10
12.98796545207739
 20
12.37949534688146
 10
13.03581701507761
 20
12.62485667488152
  0
LWPOLYLINE
  5
A20C
330
1F
100
AcDbEntity
  8
CONTINUOUS1
100
AcDbPolyline
 90
        2
 70
     0
 43
0.0
 10
13.03581701507761
 20
12.62485667488152
 10
13.80510412407768
 20
12.50058909688146
  0
LWPOLYLINE
  5
A210
330
1F
100
AcDbEntity
  8
CONTINUOUS1
100
AcDbPolyline
 90
        2
 70
     0
 43
0.0
 10
17.1158951400776
 20
14.47654124588148
 10
17.1158951400776
 20
14.47654124588148
  0
LWPOLYLINE
  5
A214
330
1F
100
AcDbEntity
  8
CENTER1
100
AcDbPolyline
 90
        2
 70
     0
 43
0.0
 10
15.97600256207743
 20
11.95054026888151
 10
13.0070084210775
 20
11.42691966288151
  0
LWPOLYLINE
  5
A218
330
1F
100
AcDbEntity
  8
CENTER1
100
AcDbPolyline
 90
        2
 70
     0
 43
0.0
 10
15.97600256207743
 20
11.95054026888151
 10
12.9640396710775
 20
12.08200999588148
  0
LWPOLYLINE
  5
A21C
330
1F
100
AcDbEntity
  8
CENTER1
100
AcDbPolyline
 90
        2
 70
     0
 43
0.0
 10
15.97600256207743
 20
11.95054026888151
 10
13.01652990507756
 20
12.5257966168815
  0
LWPOLYLINE
  5
A220
330
1F
100
AcDbEntity
  8
CENTER1
100
AcDbPolyline
 90
        2
 70
     0
 43
0.0
 10
15.97600256207743
 20
11.95054026888151
 10
12.96110998407772
 20
11.95054026888151
  0
LWPOLYLINE
  5
A224
330
1F
100
AcDbEntity
  8
CENTER1
100
AcDbPolyline
 90
        2
 70
     0
 43
0.0
 10
15.97600256207743
 20
11.95054026888151
 10
13.08147131207744
 20
11.10691233888149
  0
LWPOLYLINE
  5
A228
330
1F
100
AcDbEntity
  8
CONTINUOUS1
100
AcDbPolyline
 90
        2
 70
     0
 43
0.0
 10
14.11589514007761
 20
15.83353587388148
 10
15.36589514007761
 20
15.83353587388148
  0
LWPOLYLINE
  5
A22C
330
1F
100
AcDbEntity
  8
CONTINUOUS1
100
AcDbPolyline
 90
        2
 70
     0
 43
0.0
 10
15.36589514007761
 20
15.83353587388148
 10
16.86735998407771
 20
15.83353587388148
  0
LWPOLYLINE
  5
A230
330
1F
100
AcDbEntity
  8
CONTINUOUS1
100
AcDbPolyline
 90
        2
 70
     0
 43
0.0
 10
17.1158951400776
 20
15.70847483888149
 10
17.1158951400776
 20
15.5914704448815
  0
LWPOLYLINE
  5
A234
330
1F
100
AcDbEntity
  8
CONTINUOUS1
100
AcDbPolyline
 90
        9
 70
     0
 43
0.0
 10
17.08391271807754
 20
10.46372386288151
 10
17.08391271807754
 20
10.4547516948815
 10
17.08391271807754
 20
10.44059153788151
 10
17.08391271807754
 20
10.42136546388149
 10
17.08391271807754
 20
10.3968903668815
 10
17.08391271807754
 20
10.36838694888148
 10
17.08391271807754
 20
10.33780833488151
 10
17.08391271807754
 20
10.30515452688149
 10
17.08391271807754
 20
10.27048655788149
  0
LWPOLYLINE
  5
A23F
330
1F
100
AcDbEntity
  8
CONTINUOUS1
100
AcDbPolyline
 90
        2
 70
     0
 43
0.0
 10
14.11589514007761
 20
9.833474838881494
 10
15.36589514007761
 20
9.833474838881494
  0
LWPOLYLINE
  5
A243
330
1F
100
AcDbEntity
  8
CONTINUOUS1
100
AcDbPolyline
 90
        7
 70
     0
 43
0.0
 10
13.83488928007756
 20
10.69150706588151
 10
13.83488928007756
 20
10.69358226088149
 10
13.83488928007756
 20
10.69950267088148
 10
13.83488928007756
 20
10.70908519088151
 10
13.83488928007756
 20
10.72147532788153
 10
13.83488928007756
 20
10.73594065988151
 10
13.83488928007756
 20
10.75144358888149
  0
LWPOLYLINE
  5
A24C
330
1F
100
AcDbEntity
  8
CONTINUOUS1
100
AcDbPolyline
 90
        9
 70
     0
 43
0.0
 10
13.6945084210775
 20
11.8295075538815
 10
13.69670568707744
 20
11.73313304188149
 10
13.70329748407772
 20
11.63718577688148
 10
13.71452795207739
 20
11.54160472188146
 10
13.72990881207744
 20
11.44645091288151
 10
13.74968420207739
 20
11.35215159688146
 10
13.77385412407768
 20
11.25907298388147
 10
13.80217443707744
 20
11.16721507388148
 10
13.83488928007756
 20
11.07651683088152
  0
LWPOLYLINE
  5
A257
330
1F
100
AcDbEntity
  8
CONTINUOUS1
100
AcDbPolyline
 90
        2
 70
     0
 43
0.0
 10
17.1158951400776
 20
9.958535873881482
 10
17.1158951400776
 20
10.07676097188146
  0
LWPOLYLINE
  5
A25B
330
1F
100
AcDbEntity
  8
CONTINUOUS1
100
AcDbPolyline
 90
        2
 70
     0
 43
0.0
 10
12.95744787407767
 20
11.93308421388149
 10
13.69499670207739
 20
11.87742015188149
  0
LWPOLYLINE
  5
A25F
330
1F
100
AcDbEntity
  8
CONTINUOUS1
100
AcDbPolyline
 90
        2
 70
     0
 43
0.0
 10
17.08391271807754
 20
9.958535873881482
 10
17.1158951400776
 20
9.958535873881482
  0
LWPOLYLINE
  5
A263
330
1F
100
AcDbEntity
  8
CONTINUOUS1
100
AcDbPolyline
 90
        2
 70
     0
 43
0.0
 10
14.11589514007761
 20
15.5914704448815
 10
14.11589514007761
 20
15.83353587388148
  0
LWPOLYLINE
  5
A267
330
1F
100
AcDbEntity
  8
CONTINUOUS1
100
AcDbPolyline
 90
       21
 70
     0
 43
0.0
 10
14.11589514007761
 20
15.5914704448815
 10
14.11589514007761
 20
15.58628245588152
 10
14.11589514007761
 20
15.57731028788151
 10
14.11589514007761
 20
15.56443187088149
 10
14.11589514007761
 20
15.54770823788151
 10
14.11589514007761
 20
15.52762767088148
 10
14.11589514007761
 20
15.50516673388147
 10
14.11589514007761
 20
15.48038645988151
 10
14.11589514007761
 20
15.4532868508815
 10
14.11589514007761
 20
15.42490550288152
 10
14.11589514007761
 20
15.39652415588153
 10
14.11589514007761
 20
15.36814280788149
 10
14.11589514007761
 20
15.33970042488152
 10
14.11589514007761
 20
15.3126618508815
 10
14.11589514007761
 20
15.28788157788153
 10
14.11589514007761
 20
15.26542063988153
 10
14.11589514007761
 20
15.24521800288152
 10
14.11589514007761
 20
15.22855540588153
 10
14.11589514007761
 20
15.21567698788151
 10
14.11589514007761
 20
15.20664378488151
 10
14.11589514007761
 20
15.20145579588148
  0
LWPOLYLINE
  5
A27E
330
1F
100
AcDbEntity
  8
CONTINUOUS1
100
AcDbPolyline
 90
        2
 70
     0
 43
0.0
 10
13.95988928007756
 20
10.58249827688148
 10
13.95988928007756
 20
14.58249827688149
  0
LWPOLYLINE
  5
A282
330
1F
100
AcDbEntity
  8
CONTINUOUS1
100
AcDbPolyline
 90
        2
 70
     0
 43
0.0
 10
13.83488928007756
 20
12.58249827688149
 10
13.83488928007756
 20
12.90751048388147
  0
LWPOLYLINE
  5
A286
330
1F
100
AcDbEntity
  8
CONTINUOUS1
100
AcDbPolyline
 90
        2
 70
     0
 43
0.0
 10
14.11589514007761
 20
10.58249827688148
 10
13.95988928007756
 20
10.58249827688148
  0
LWPOLYLINE
  5
A28A
330
1F
100
AcDbEntity
  8
CONTINUOUS1
100
AcDbPolyline
 90
        2
 70
     0
 43
0.0
 10
16.93694006207743
 20
14.47654124588148
 10
17.1158951400776
 20
14.47654124588148
  0
TEXT
  5
A28E
330
1F
100
AcDbEntity
  8
DIM
100
AcDbText
 10
9.29077136469472
 20
12.72288585674433
 30
0.0
 40
0.16
  1
ON
  7
SIMPLEX
100
AcDbText
  0
TEXT
  5
A28F
330
1F
100
AcDbEntity
  8
DIM
100
AcDbText
 10
8.974521946878539
 20
10.76432068746484
 30
0.0
 40
0.16
  1
RESET
  7
SIMPLEX
100
AcDbText
  0
TEXT
  5
A290
330
1F
100
AcDbEntity
  8
DIM
100
AcDbText
 10
11.36157379011893
 20
13.37024398290686
 30
0.0
 40
0.16
  1
TRIPPED
  7
SIMPLEX
100
AcDbText
  0
TEXT
  5
A291
330
1F
100
AcDbEntity
  8
DIM
100
AcDbText
 10
12.36720333697263
 20
10.55599237634914
 30
0.0
 40
0.16
  1
OFF
  7
SIMPLEX
100
AcDbText
  0
DIMENSION
  5
A292
330
1F
100
AcDbEntity
  8
DIM
100
AcDbDimension
  2
*D24
 10
23.95604477141561
 20
4.182305905021382
 30
0.0
 11
23.46223524760608
 21
3.682305905021386
 31
0.0
 70
    32
  3
SCHNEIDERELECTRIC
100
AcDbAlignedDimension
 13
25.01978217522673
 23
4.24627074802139
 33
0.0
 14
25.01978217522673
 24
4.182305905021382
 34
0.0
 50
90.0
100
AcDbRotatedDimension
1001
ACAD
1000
DSTYLE
1002
{
1070
    40
1040
2.0
1002
}
  0
LWPOLYLINE
  5
A8AA
330
1F
100
AcDbEntity
  8
CONTINUOUS2
100
AcDbPolyline
 90
        2
 70
     0
 43
0.0
 10
24.54789404179079
 20
10.33172673112419
 10
24.54759427575305
 20
15.29660173112453
  0
VIEWPORT
  5
32
330
1B
100
AcDbEntity
 67
     1
  8
0
100
AcDbViewport
 10
8.197700928165527
 20
5.16991097063436
 30
0.0
 40
18.37699957288286
 41
11.31343195395978
 68
     1
 69
     1
1001
ACAD
1000
MVIEW
1002
{
1070
    16
1010
0.0
1020
0.0
1030
0.0
1010
0.0
1020
0.0
1030
1.0
1040
0.0
1040
11.31343195395978
1040
8.197700928165527
1040
5.16991097063436
1040
50.0
1040
0.0
1040
0.0
1070
     0
1070
   100
1070
     1
1070
     0
1070
     0
1070
     0
1070
     0
1070
     0
1040
0.0
1040
0.0
1040
0.0
1040
0.5
1040
0.5
1040
0.5
1040
0.5
1070
     0
1002
{
1002
}
1002
}
1001
GENIUS_GENOREF_13
1005
0
1005
0
1005
0
1005
0
1005
0
1005
0
1001
GENIUS_GENSCREG_15
1000
PF
1040
1.0
1000
DF
1040
1.0
1000
MIN
1011
-0.9907988582759053
1021
-0.4868050063455325
1031
0.0
1000
MAX
1011
17.38620071460695
1021
10.60250462962139
1031
0.0
1000
FLAGS
1070
     2
  0
LWPOLYLINE
  5
175
330
1B
100
AcDbEntity
 67
     1
  8
VIEWPORT
100
AcDbPolyline
 90
        6
 70
     1
 43
0.0
 10
16.40000099999999
 20
10.25
 10
16.40000099999999
 20
0.9120019999999993
 10
8.002461
 20
0.9120019999999993
 10
8.002461
 20
0.0
 10
0.0
 20
0.0
 10
0.0
 20
10.25
1001
GENIUS_GENOREF_13
1005
0
1005
0
1005
0
1005
0
1005
0
1005
0
1005
0
1005
0
1005
0
1005
0
1005
0
1005
0
1005
0
1005
0
1005
0
1005
0
  0
VIEWPORT
  5
177
330
1B
100
AcDbEntity
 67
     1
  8
VIEWPORT
100
AcDbViewport
 10
8.200000499999999
 20
5.125
 30
0.0
 40
16.40000099999999
 41
10.25
 68
     2
 69
     2
1001
ACAD
1000
MVIEW
1002
{
1070
    16
1010
0.0
1020
0.0
1030
0.0
1010
0.0
1020
0.0
1030
1.0
1040
0.0
1040
20.5
1040
16.40000107636846
1040
10.25000004773027
1040
50.0
1040
0.0
1040
0.0
1070
     0
1070
   100
1070
     1
1070
     2
1070
     0
1070
     0
1070
     0
1070
     0
1040
0.0
1040
0.0
1040
0.0
1040
0.5
1040
0.5
1040
0.5
1040
0.5
1070
     0
1002
{
1002
}
1002
}
1001
GENIUS_GENOREF_13
1005
0
1005
0
1005
0
1005
0
1005
0
1005
0
1005
0
1005
0
1005
0
1005
0
1005
0
1005
0
1005
0
1005
0
1005
0
1005
0
1001
GENIUS_GENSCREG_15
1000
PF
1040
0.0
1000
DF
1040
0.0
1000
MIN
1011
0.0
1021
0.0
1031
0.0
1000
MAX
1011
16.40000099999999
1021
10.25
1031
0.0
1000
FLAGS
1070
     2
  0
INSERT
  5
B2C
330
1B
100
AcDbEntity
 67
     1
  8
TITLEBLOCK
100
AcDbBlockReference
 66
     1
  2
TITLE-PAD
 10
0.0
 20
0.0
 30
0.0
  0
ATTRIB
  5
B2D
330
B2C
100
AcDbEntity
 67
     1
  8
TEXT1
 62
     0
100
AcDbText
 10
8.804219301318941
 20
0.7045889456018736
 30
0.0
 40
0.1
  1
CIRCUIT BREAKERS (100A FRAME)
  7
ROMANS
 72
     4
 11
10.10183834893798
 21
0.7474460884590166
 31
0.0
100
AcDbAttribute
  2
DESCRIPTION 1
 70
     0
  0
ATTRIB
  5
B2E
330
B2C
100
AcDbEntity
 67
     1
  8
TEXT1
 62
     0
100
AcDbText
 10
8.72326692036656
 20
0.5588660282835287
 30
0.0
 40
0.1
  1
(THERMAL MAGNETIC MOLDED CASE)
  7
ROMANS
 72
     4
 11
10.10183834893798
 21
0.6017231711406717
 31
0.0
100
AcDbAttribute
  2
DESCRIPTION 2
 70
     0
  0
ATTRIB
  5
B2F
330
B2C
100
AcDbEntity
 67
     1
  8
TEXT1
 62
     0
100
AcDbText
 10
9.760885967985608
 20
0.4160002538223268
 30
0.0
 40
0.08
  1
SEE CHART
  7
ROMANS
 72
     4
 11
10.10183834893798
 21
0.4560002538223267
 31
0.0
100
AcDbAttribute
  2
DESCRIPTION 3
 70
     0
  0
ATTRIB
  5
B30
330
B2C
100
AcDbEntity
 67
     1
  8
TEXT1
 62
     0
100
AcDbText
 10
10.10183834893798
 20
0.3202773365039833
 30
0.0
 40
0.08
  1

  7
ROMANS
 72
     4
 11
10.10183834893798
 21
0.3202773365039833
 31
0.0
100
AcDbAttribute
  2
DESCRIPTION 4
 70
     0
  0
ATTRIB
  5
B31
330
B2C
100
AcDbEntity
 67
     1
  8
TEXT1
 62
     0
100
AcDbText
 10
10.10183834893798
 20
0.1845544191856399
 30
0.0
 40
0.08
  1

  7
ROMANS
 72
     4
 11
10.10183834893798
 21
0.1845544191856399
 31
0.0
100
AcDbAttribute
  2
DESCRIPTION 5
 70
     0
  0
ATTRIB
  5
B32
330
B2C
100
AcDbEntity
 67
     1
  8
TEXT1
 62
     0
100
AcDbText
 10
12.74772367103195
 20
0.096540546036505
 30
0.0
 40
0.12
  1
FA-FH_1P_100A_OUTLINE_001
 41
0.9512024731840066
  7
M_STANDARD
 11
12.74772367103195
 21
0.156540546036505
 31
0.0
100
AcDbAttribute
  2
DWGNO
 70
     0
 74
     2
  0
ATTRIB
  5
B33
330
B2C
100
AcDbEntity
 67
     1
  8
TEXT1
 62
     0
100
AcDbText
 10
15.78363597806468
 20
-0.1507193079929352
 30
0.0
 40
0.08
  1
E1001101
  7
ROMANS
 72
     2
 11
16.35506454949325
 21
-0.1107193079929352
 31
0.0
100
AcDbAttribute
  2
REF
 70
     0
 74
     2
  0
ATTRIB
  5
B34
330
B2C
100
AcDbEntity
 67
     1
  8
TEXT1
 62
     0
100
AcDbText
 10
0.0266402374038712
 20
-0.1507193079929352
 30
0.0
 40
0.08
  1
DECEMBER 2000
  7
ROMANS
 11
0.0266402374038712
 21
-0.1107193079929352
 31
0.0
100
AcDbAttribute
  2
DATE
 70
     0
 74
     2
  0
SEQEND
  5
B35
330
B2C
100
AcDbEntity
 67
     1
  8
0
  0
ENDSEC
  0
SECTION
  2
OBJECTS
  0
DICTIONARY
  5
C
330
0
100
AcDbDictionary
  3
ACAD_GROUP
350
D
  3
ACAD_LAYOUT
350
1A
  3
ACAD_MLINESTYLE
350
17
  3
ACAD_PLOTSETTINGS
350
19
  3
ACAD_PLOTSTYLENAME
350
E
  3
ACDBHEADERROUNDTRIPXREC
350
B0B8
  3
ACDBVARIABLEDICTIONARY
350
374
  3
ACMDICTIONARY
350
383
  3
AMG
350
36B
  3
AMGSNAPSETTINGS
350
399
  3
ASE_INDEX_DICTIONARY
350
6A
  3
DWGPROPS
350
AEF3
  0
DICTIONARY
  5
73
330
1F
100
AcDbDictionary
280
     1
  3
ACAD_INDEX
360
AEFA
  3
ACAD_LAYOUTSELFREF
360
B0DA
  0
DICTIONARY
  5
75
330
1B
100
AcDbDictionary
280
     1
  3
ACAD_LAYOUTSELFREF
360
B0D9
  0
DICTIONARY
  5
D
102
{ACAD_REACTORS
330
C
102
}
330
C
100
AcDbDictionary
  0
DICTIONARY
  5
1A
102
{ACAD_REACTORS
330
C
102
}
330
C
100
AcDbDictionary
  0
DICTIONARY
  5
17
102
{ACAD_REACTORS
330
C
102
}
330
C
100
AcDbDictionary
  3
STANDARD
350
18
  0
DICTIONARY
  5
19
102
{ACAD_REACTORS
330
C
102
}
330
C
100
AcDbDictionary
  3
A_SIZE_PAPER
350
2FF
  3
B_SIZE_PAPER
350
2FD
  3
D_SIZE_PAPER
350
2FE
  0
ACDBDICTIONARYWDFLT
  5
E
102
{ACAD_REACTORS
330
C
102
}
330
C
100
AcDbDictionary
281
     1
  3
Normal
350
F
100
AcDbDictionaryWithDefault
340
F
  0
DICTIONARY
  5
B0B8
102
{ACAD_REACTORS
330
C
102
}
330
C
100
AcDbDictionary
  3
CEPSNTYPE
350
B0C2
  3
DIMSTYLEDATA
350
B0C6
  3
FINGERPRINTGUID
350
B0C3
  3
HYPERLINKBASE
350
B0BB
  3
INSUNITS
350
B0C1
  3
LAYOUTDICT
350
B0BD
  3
LWETCUNION
350
B0C0
  3
PLOTSETDICT
350
B0BE
  3
PLOTSTYLNAMDICT
350
B0BF
  3
PSVPSCALE
350
B0C5
  3
PUCSBASE
350
B0C9
  3
PUCSORGBACK
350
B0CF
  3
PUCSORGBOTTOM
350
B0CB
  3
PUCSORGFRONT
350
B0CE
  3
PUCSORGLEFT
350
B0CC
  3
PUCSORGRIGHT
350
B0CD
  3
PUCSORGTOP
350
B0CA
  3
PUCSORTHOREF
350
B0C7
  3
PUCSORTHOVIEW
350
B0C8
  3
STYLESHEET
350
B0BC
  3
TSTACKALIGN
350
B0B9
  3
TSTACKSIZE
350
B0BA
  3
UCSBASE
350
B0D2
  3
UCSORGBACK
350
B0D8
  3
UCSORGBOTTOM
350
B0D4
  3
UCSORGFRONT
350
B0D7
  3
UCSORGLEFT
350
B0D5
  3
UCSORGRIGHT
350
B0D6
  3
UCSORGTOP
350
B0D3
  3
UCSORTHOREF
350
B0D0
  3
UCSORTHOVIEW
350
B0D1
  3
VERSIONGUID
350
B0C4
  0
DICTIONARY
  5
374
102
{ACAD_REACTORS
330
C
102
}
330
C
100
AcDbDictionary
  3
INDEXCTL
350
375
  0
DICTIONARY
  5
383
102
{ACAD_REACTORS
330
C
102
}
330
C
100
AcDbDictionary
  0
DICTIONARY
  5
36B
102
{ACAD_REACTORS
330
C
102
}
330
C
100
AcDbDictionary
  3
ACMGSETTINGS
350
36C
  0
DICTIONARY
  5
399
102
{ACAD_REACTORS
330
C
102
}
330
C
100
AcDbDictionary
  0
DICTIONARY
  5
6A
102
{ACAD_REACTORS
330
C
102
}
330
C
100
AcDbDictionary
  3
ASEBLOCKHIERARCHYINDEXRECORD
350
6C
1001
DCO15
1040
1379130883.246999
  0
XRECORD
  5
AEF3
102
{ACAD_REACTORS
330
C
102
}
330
C
100
AcDbXrecord
  1
DWGPROPS COOKIE
  2

  3

  4

  6

  7

  8
mgp706
  9

300
AmdtFileType=84
301
=
302
=
303
=
304
=
305
=
306
=
307
=
308
=
309
=
 40
0.3848156018518519
 41
2451764.535041909
 42
2451863.487468634
  1

 90
        1
  0
DICTIONARY
  5
AEFA
102
{ACAD_REACTORS
330
73
102
}
330
73
100
AcDbDictionary
  3
*A1
350
AEFB
  0
XRECORD
  5
B0DA
102
{ACAD_REACTORS
330
73
102
}
330
73
100
AcDbXrecord
340
1F
  0
XRECORD
  5
B0D9
102
{ACAD_REACTORS
330
75
102
}
330
75
100
AcDbXrecord
340
1B
  0
MLINESTYLE
  5
18
102
{ACAD_REACTORS
330
17
102
}
330
17
100
AcDbMlineStyle
  2
STANDARD
 70
     0
  3

 62
   256
 51
90.0
 52
90.0
 71
     2
 49
0.5
 62
   256
  6
BYLAYER
 49
-0.5
 62
   256
  6
BYLAYER
  0
PLOTSETTINGS
  5
2FF
102
{ACAD_REACTORS
330
19
102
}
330
19
100
AcDbPlotSettings
  1
A Size Paper
  2
none_device
  4
ANSI_A_(8.50_x_11.00_Inches)
  6

 40
6.349999904632568
 41
19.04999923706054
 42
6.350006103515625
 43
19.04998779296875
 44
215.8999938964843
 45
279.3999938964843
 46
19.04999999999999
 47
-9.651999999999999
 48
0.0
 49
0.0
140
0.0
141
0.0
142
1.0
143
1.6
 70
   740
 72
     0
 73
     1
 74
     1
  7
monochrome.ctb
 75
     0
147
0.625
148
0.0034886547032954
149
0.0199946439100934
  0
PLOTSETTINGS
  5
2FD
102
{ACAD_REACTORS
330
19
102
}
330
19
100
AcDbPlotSettings
  1
B Size Paper
  2
none_device
  4
ANSI_B_(11.00_x_17.00_Inches)
  6

 40
6.349999904632568
 41
19.04999923706054
 42
6.350006103515625
 43
19.04998779296875
 44
279.3999938964843
 45
431.7999877929687
 46
1.27
 47
-11.43
 48
0.0
 49
0.0
140
0.0
141
0.0
142
1.0
143
1.0
 70
   756
 72
     0
 73
     1
 74
     1
  7
monochrome.ctb
 75
    16
147
1.0
148
0.0034886547032954
149
0.0199946439100934
  0
PLOTSETTINGS
  5
2FE
102
{ACAD_REACTORS
330
19
102
}
330
19
100
AcDbPlotSettings
  1
D Size Paper
  2
none_device
  4
ANSI_D_(22.00_x_34.00_Inches)
  6

 40
6.349999904632568
 41
19.04999923706054
 42
6.3499755859375
 43
19.04998779296875
 44
558.7999877929687
 45
863.5999755859375
 46
8.889999999999998
 47
-3.809999999999999
 48
0.0
 49
0.0
140
0.0
141
0.0
142
1.0
143
0.5
 70
   740
 72
     0
 73
     1
 74
     1
  7
monochrome.ctb
 75
     0
147
2.0
148
0.0034886547032954
149
0.0199946439100934
  0
ACDBPLACEHOLDER
  5
F
102
{ACAD_REACTORS
330
E
102
}
330
E
100
AcDbPlaceHolder
280
     0
  0
XRECORD
  5
B0C2
102
{ACAD_REACTORS
330
B0B8
102
}
330
B0B8
100
AcDbXrecord
 90
        0
  0
XRECORD
  5
B0C6
102
{ACAD_REACTORS
330
B0B8
102
}
330
B0B8
100
AcDbXrecord
1000
DSTYLE
1002
{
1070
    79
 70
     1
1070
   148
 40
0.1
1070
   371
 70
    -1
1070
   372
 70
    -1
1002
}
  0
XRECORD
  5
B0C3
102
{ACAD_REACTORS
330
B0B8
102
}
330
B0B8
100
AcDbXrecord
  1
{4E694E3A-6C64-11D4-81E3-0004AC4461C9}
  0
XRECORD
  5
B0BB
102
{ACAD_REACTORS
330
B0B8
102
}
330
B0B8
100
AcDbXrecord
  1

  0
XRECORD
  5
B0C1
102
{ACAD_REACTORS
330
B0B8
102
}
330
B0B8
100
AcDbXrecord
 90
        1
  0
XRECORD
  5
B0BD
102
{ACAD_REACTORS
330
B0B8
102
}
330
B0B8
100
AcDbXrecord
340
1A
  0
XRECORD
  5
B0C0
102
{ACAD_REACTORS
330
B0B8
102
}
330
B0B8
100
AcDbXrecord
 90
    10269
  0
XRECORD
  5
B0BE
102
{ACAD_REACTORS
330
B0B8
102
}
330
B0B8
100
AcDbXrecord
340
19
  0
XRECORD
  5
B0BF
102
{ACAD_REACTORS
330
B0B8
102
}
330
B0B8
100
AcDbXrecord
340
E
  0
XRECORD
  5
B0C5
102
{ACAD_REACTORS
330
B0B8
102
}
330
B0B8
100
AcDbXrecord
 40
0.5
  0
XRECORD
  5
B0C9
102
{ACAD_REACTORS
330
B0B8
102
}
330
B0B8
100
AcDbXrecord
340
0
  0
XRECORD
  5
B0CF
102
{ACAD_REACTORS
330
B0B8
102
}
330
B0B8
100
AcDbXrecord
 10
0.0
 20
0.0
 30
0.0
  0
XRECORD
  5
B0CB
102
{ACAD_REACTORS
330
B0B8
102
}
330
B0B8
100
AcDbXrecord
 10
0.0
 20
0.0
 30
0.0
  0
XRECORD
  5
B0CE
102
{ACAD_REACTORS
330
B0B8
102
}
330
B0B8
100
AcDbXrecord
 10
0.0
 20
0.0
 30
0.0
  0
XRECORD
  5
B0CC
102
{ACAD_REACTORS
330
B0B8
102
}
330
B0B8
100
AcDbXrecord
 10
0.0
 20
0.0
 30
0.0
  0
XRECORD
  5
B0CD
102
{ACAD_REACTORS
330
B0B8
102
}
330
B0B8
100
AcDbXrecord
 10
0.0
 20
0.0
 30
0.0
  0
XRECORD
  5
B0CA
102
{ACAD_REACTORS
330
B0B8
102
}
330
B0B8
100
AcDbXrecord
 10
0.0
 20
0.0
 30
0.0
  0
XRECORD
  5
B0C7
102
{ACAD_REACTORS
330
B0B8
102
}
330
B0B8
100
AcDbXrecord
340
0
  0
XRECORD
  5
B0C8
102
{ACAD_REACTORS
330
B0B8
102
}
330
B0B8
100
AcDbXrecord
 70
     0
  0
XRECORD
  5
B0BC
102
{ACAD_REACTORS
330
B0B8
102
}
330
B0B8
100
AcDbXrecord
  1

  0
XRECORD
  5
B0B9
102
{ACAD_REACTORS
330
B0B8
102
}
330
B0B8
100
AcDbXrecord
 90
        1
  0
XRECORD
  5
B0BA
102
{ACAD_REACTORS
330
B0B8
102
}
330
B0B8
100
AcDbXrecord
 90
       70
  0
XRECORD
  5
B0D2
102
{ACAD_REACTORS
330
B0B8
102
}
330
B0B8
100
AcDbXrecord
340
0
  0
XRECORD
  5
B0D8
102
{ACAD_REACTORS
330
B0B8
102
}
330
B0B8
100
AcDbXrecord
 10
0.0
 20
0.0
 30
0.0
  0
XRECORD
  5
B0D4
102
{ACAD_REACTORS
330
B0B8
102
}
330
B0B8
100
AcDbXrecord
 10
0.0
 20
0.0
 30
0.0
  0
XRECORD
  5
B0D7
102
{ACAD_REACTORS
330
B0B8
102
}
330
B0B8
100
AcDbXrecord
 10
0.0
 20
0.0
 30
0.0
  0
XRECORD
  5
B0D5
102
{ACAD_REACTORS
330
B0B8
102
}
330
B0B8
100
AcDbXrecord
 10
0.0
 20
0.0
 30
0.0
  0
XRECORD
  5
B0D6
102
{ACAD_REACTORS
330
B0B8
102
}
330
B0B8
100
AcDbXrecord
 10
0.0
 20
0.0
 30
0.0
  0
XRECORD
  5
B0D3
102
{ACAD_REACTORS
330
B0B8
102
}
330
B0B8
100
AcDbXrecord
 10
0.0
 20
0.0
 30
0.0
  0
XRECORD
  5
B0D0
102
{ACAD_REACTORS
330
B0B8
102
}
330
B0B8
100
AcDbXrecord
340
0
  0
XRECORD
  5
B0D1
102
{ACAD_REACTORS
330
B0B8
102
}
330
B0B8
100
AcDbXrecord
 70
     0
  0
XRECORD
  5
B0C4
102
{ACAD_REACTORS
330
B0B8
102
}
330
B0B8
100
AcDbXrecord
  1
{0E39E2B5-D68A-11D4-B182-000629309E34}
  0
DICTIONARYVAR
  5
375
102
{ACAD_REACTORS
330
374
102
}
330
374
100
DictionaryVariables
280
     0
  1
1
  0
DICTIONARY
  5
36C
102
{ACAD_REACTORS
330
36B
102
}
330
36B
100
AcDbDictionary
  3
DWGSETTINGS
350
AEDF
  0
XRECORD
  5
6C
102
{ACAD_REACTORS
330
6A
102
}
330
6A
100
AcDbXrecord
  0
LAYER_INDEX
  5
AEFB
102
{ACAD_REACTORS
330
AEFA
102
}
330
AEFA
100
AcDbIndex
 40
2451899.405298101
100
AcDbLayerIndex
  8
0
360
AEFC
 90
        1
  8
BLOCKS
360
AEFD
 90
        0
  8
CENTER1
360
AEFE
 90
       17
  8
CENTER2
360
AEFF
 90
        8
  8
CENTER3
360
AF00
 90
        0
  8
CONSTRUCTION
360
AF01
 90
        0
  8
CONTINUOUS1
360
AF02
 90
      389
  8
CONTINUOUS2
360
AF03
 90
       32
  8
CONTINUOUS3
360
AF04
 90
        0
  8
DASHDOT1
360
AF05
 90
        0
  8
DASHDOT2
360
AF06
 90
        0
  8
DASHDOT3
360
AF07
 90
        0
  8
DIM
360
AF08
 90
       39
  8
HIDDEN1
360
AF09
 90
        0
  8
HIDDEN2
360
AF0A
 90
        0
  8
HIDDEN3
360
AF0B
 90
        0
  8
PHANTOM1
360
AF0C
 90
        0
  8
PHANTOM2
360
AF0D
 90
        0
  8
PHANTOM3
360
AF0E
 90
        0
  8
TEXT1
360
AF0F
 90
       48
  8
TEXT2
360
AF10
 90
        0
  8
TEXT3
360
AF11
 90
        0
  8
TITLEBLOCK
360
AF12
 90
       31
  8
VIEWPORT
360
AF13
 90
        2
  8
Defpoints
360
AF14
 90
        0
  8
REFERENCE
360
AF15
 90
        0
  0
XRECORD
  5
AEDF
102
{ACAD_REACTORS
330
36C
102
}
330
36C
100
AcDbXrecord
  1
VERSION
140
15.0
  1
PRODUCT
  2
AutoCAD Mechanical 2000
  0
IDBUFFER
  5
AEFC
330
0
100
AcDbIdBuffer
330
79E
  0
IDBUFFER
  5
AEFD
330
0
100
AcDbIdBuffer
  0
IDBUFFER
  5
AEFE
330
0
100
AcDbIdBuffer
330
9B68
330
9E79
330
9ED7
330
9ED8
330
9F94
330
9F98
330
9F9C
330
9FA0
330
9FA4
330
9FA8
330
9FAC
330
9FB0
330
A214
330
A218
330
A21C
330
A220
330
A224
  0
IDBUFFER
  5
AEFF
330
0
100
AcDbIdBuffer
330
9ADD
330
9ADF
330
9AFD
330
9B04
330
9B11
330
9B14
330
9B1E
330
9B22
  0
IDBUFFER
  5
AF00
330
0
100
AcDbIdBuffer
  0
IDBUFFER
  5
AF01
330
0
100
AcDbIdBuffer
  0
IDBUFFER
  5
AF02
330
0
100
AcDbIdBuffer
330
9ACD
330
9AD0
330
9AD1
330
9AD2
330
9AD3
330
9AD4
330
9AD5
330
9AD6
330
9AD7
330
9AD8
330
9AD9
330
9AE1
330
9AE2
330
9AE3
330
9AE4
330
9AE8
330
9AE9
330
9AEA
330
9AEC
330
9AED
330
9AF3
330
9AF4
330
9AF5
330
9AF6
330
9AF7
330
9AF8
330
9AF9
330
9AFA
330
9B05
330
9B06
330
9B07
330
9B08
330
9B09
330
9B0A
330
9B0C
330
9B15
330
9B16
330
9B17
330
9B18
330
9B2E
330
9B2F
330
9B30
330
9B31
330
9B32
330
9B33
330
9B34
330
9B35
330
9B36
330
9B57
330
9B69
330
9B6A
330
9B6E
330
9B72
330
9B7E
330
9B82
330
9B8D
330
9B91
330
9B95
330
9B99
330
9B9D
330
9BA1
330
9BAC
330
9BB0
330
9BBF
330
9BCE
330
9BD2
330
9BD6
330
9BDA
330
9BDE
330
9BE2
330
9BE6
330
9BED
330
9BF1
330
9BF5
330
9BF9
330
9BFD
330
9C01
330
9C0C
330
9C10
330
9C1B
330
9C1F
330
9C23
330
9C2E
330
9C42
330
9C4A
330
9C4E
330
9C56
330
9C5E
330
9C66
330
9C6E
330
9C72
330
9C76
330
9C7A
330
9C83
330
9C87
330
9C8B
330
9C94
330
9C98
330
9C9C
330
9CA0
330
9CA4
330
9CA8
330
9CB0
330
9CB8
330
9CC4
330
9CC8
330
9CCC
330
9CD4
330
9CD8
330
9CDC
330
9CE0
330
9CE4
330
9CE8
330
9CEC
330
9CF0
330
9CF4
330
9CF8
330
9CFC
330
9D00
330
9D04
330
9D08
330
9D0C
330
9D10
330
9D14
330
9D18
330
9D1C
330
9D20
330
9D28
330
9D34
330
9D38
330
9D40
330
9D44
330
9D48
330
9D5B
330
9D5F
330
9D63
330
9D67
330
9D6B
330
9D6F
330
9D73
330
9D77
330
9D7B
330
9D7F
330
9D83
330
9D87
330
9D8B
330
9D8F
330
9D93
330
9D97
330
9D9B
330
9D9F
330
9DA3
330
9DA7
330
9DAB
330
9DAF
330
9DB3
330
9DB7
330
9DBB
330
9DBF
330
9DC7
330
9DCB
330
9DCF
330
9DFA
330
9DFE
330
9E02
330
9E06
330
9E0A
330
9E0E
330
9E12
330
9E16
330
9E41
330
9E45
330
9E49
330
9E4D
330
9E51
330
9E55
330
9E59
330
9E5D
330
9E66
330
9E71
330
9E75
330
9E7D
330
9E81
330
9E85
330
9E89
330
9E8D
330
9E91
330
9E95
330
9EA0
330
9EA9
330
9EB4
330
9EB9
330
9EC4
330
9EE2
330
9EE3
330
9EE4
330
9EE5
330
9EE6
330
9EE7
330
9EE8
330
9EE9
330
9EEA
330
9EEB
330
9EEC
330
9EED
330
9EEE
330
9EFD
330
9F01
330
9F05
330
9F09
330
9F14
330
9F18
330
9F1C
330
9F20
330
9F24
330
9F28
330
9F2C
330
9F30
330
9F34
330
9F38
330
9F43
330
9F47
330
9F4B
330
9F56
330
9F5A
330
9F63
330
9F6A
330
9F6E
330
9F72
330
9F76
330
9F77
330
9F78
330
9F79
330
9F7A
330
9F7B
330
9F7C
330
9F7D
330
9F7E
330
9F7F
330
9F80
330
9F81
330
9F82
330
9F83
330
9F84
330
9F85
330
9F86
330
9F87
330
9F88
330
9F89
330
9F8A
330
9F8B
330
9F8C
330
9F8D
330
9F8E
330
9F8F
330
9F90
330
9F91
330
9F92
330
9F93
330
9FB4
330
9FB8
330
9FBC
330
9FC0
330
9FC4
330
9FC8
330
9FCC
330
9FD7
330
9FDB
330
9FDF
330
9FE3
330
9FEC
330
9FF7
330
9FFB
330
9FFF
330
A006
330
A00A
330
A011
330
A01A
330
A01E
330
A022
330
A02D
330
A031
330
A035
330
A03E
330
A042
330
A046
330
A04F
330
A053
330
A05E
330
A062
330
A071
330
A075
330
A080
330
A084
330
A088
330
A08C
330
A090
330
A094
330
A098
330
A09C
330
A0A0
330
A0A9
330
A0AD
330
A0B1
330
A0B5
330
A0B9
330
A0BD
330
A0C1
330
A0C5
330
A0C9
330
A0CD
330
A0D1
330
A0D5
330
A0E0
330
A0E4
330
A0E8
330
A0F3
330
A0F7
330
A0FB
330
A0FF
330
A108
330
A10C
330
A110
330
A119
330
A11D
330
A121
330
A128
330
A12C
330
A130
330
A134
330
A13B
330
A13F
330
A143
330
A147
330
A14B
330
A14F
330
A153
330
A157
330
A15B
330
A15F
330
A163
330
A16E
330
A172
330
A17D
330
A181
330
A18C
330
A190
330
A194
330
A19D
330
A1A6
330
A1AA
330
A1B1
330
A1B5
330
A1B9
330
A1BD
330
A1C1
330
A1D0
330
A1D4
330
A1D8
330
A1DC
330
A1E0
330
A1E4
330
A1E8
330
A1EC
330
A1F0
330
A1F4
330
A1F8
330
A1FC
330
A200
330
A204
330
A208
330
A20C
330
A210
330
A228
330
A22C
330
A230
330
A234
330
A23F
330
A243
330
A24C
330
A257
330
A25B
330
A25F
330
A263
330
A267
330
A27E
330
A282
330
A286
330
A28A
  0
IDBUFFER
  5
AF03
330
0
100
AcDbIdBuffer
330
9ACE
330
9ADA
330
9ADB
330
9ADC
330
9ADE
330
9AE0
330
9AE5
330
9AE6
330
9AE7
330
9AFC
330
9AFE
330
9AFF
330
9B00
330
9B01
330
9B02
330
9B03
330
9B0D
330
9B0E
330
9B0F
330
9B10
330
9B12
330
9B13
330
9B19
330
9B1A
330
9B1B
330
9B1C
330
9B1D
330
9B1F
330
9B20
330
9B21
330
9B23
330
A8AA
  0
IDBUFFER
  5
AF04
330
0
100
AcDbIdBuffer
  0
IDBUFFER
  5
AF05
330
0
100
AcDbIdBuffer
  0
IDBUFFER
  5
AF06
330
0
100
AcDbIdBuffer
  0
IDBUFFER
  5
AF07
330
0
100
AcDbIdBuffer
  0
IDBUFFER
  5
AF08
330
0
100
AcDbIdBuffer
330
9ABB
330
9ABC
330
9ABD
330
9ABF
330
9AC0
330
9AC1
330
9AC2
330
9AC3
330
9AC4
330
9AC5
330
9AC6
330
9AC7
330
9ACC
330
9B0B
330
9B24
330
9B65
330
9B66
330
9B67
330
9B86
330
9B87
330
9B88
330
9ED3
330
9ED4
330
9ED5
330
9ED6
330
9ED9
330
9EDA
330
9EDB
330
9EDC
330
9EDD
330
9EDE
330
9EDF
330
9EE0
330
9EE1
330
A28E
330
A28F
330
A290
330
A291
330
A292
  0
IDBUFFER
  5
AF09
330
0
100
AcDbIdBuffer
  0
IDBUFFER
  5
AF0A
330
0
100
AcDbIdBuffer
  0
IDBUFFER
  5
AF0B
330
0
100
AcDbIdBuffer
  0
IDBUFFER
  5
AF0C
330
0
100
AcDbIdBuffer
  0
IDBUFFER
  5
AF0D
330
0
100
AcDbIdBuffer
  0
IDBUFFER
  5
AF0E
330
0
100
AcDbIdBuffer
  0
IDBUFFER
  5
AF0F
330
0
100
AcDbIdBuffer
330
9ABE
330
9AC8
330
9AC9
330
9ACA
330
9ACB
330
9AEB
330
9AFB
330
9B25
330
9B26
330
9B27
330
9B28
330
9B29
330
9B2A
330
9B2B
330
9B2C
330
9B2D
330
9B37
330
9B38
330
9B39
330
9B3A
330
9B3B
330
9B3C
330
9B3D
330
9B3E
330
9B3F
330
9B40
330
9B41
330
9B42
330
9B43
330
9B44
330
9B45
330
9B46
330
9B47
330
9B48
330
9B49
330
9B4A
330
9B4B
330
9B4C
330
9B5D
330
9B5E
330
9B5F
330
9B60
330
9B61
330
9B62
330
9B63
330
9B64
330
9ED1
330
9ED2
  0
IDBUFFER
  5
AF10
330
0
100
AcDbIdBuffer
  0
IDBUFFER
  5
AF11
330
0
100
AcDbIdBuffer
  0
IDBUFFER
  5
AF12
330
0
100
AcDbIdBuffer
330
D70
330
D74
330
D75
330
D76
330
D77
330
D78
330
D79
330
D7A
330
D7E
330
D7F
330
D83
330
D87
330
D8B
330
D8C
330
D8D
330
D8E
330
D8F
330
D90
330
D94
330
D95
330
D96
330
D97
330
D98
330
D99
330
D9A
330
D9B
330
D9C
330
D9D
330
D9E
330
D9F
330
DA0
  0
IDBUFFER
  5
AF13
330
0
100
AcDbIdBuffer
330
BF7
330
BF8
  0
IDBUFFER
  5
AF14
330
0
100
AcDbIdBuffer
  0
IDBUFFER
  5
AF15
330
0
100
AcDbIdBuffer
  0
ENDSEC
  0
EOF