0
SECTION
  2
HEADER
  9
$ACADVER
  1
AC1014
  9
$ACADMAINTVER
 70
     9
  9
$DWGCODEPAGE
  3
ANSI_1252
  9
$INSBASE
 10
0.0
 20
0.0
 30
0.0
  9
$EXTMIN
 10
-0.0297171011774438
 20
-0.0465328290799988
 30
0.0
  9
$EXTMAX
 10
165.9680104897536
 20
102.4534671709199
 30
0.0
  9
$LIMMIN
 10
0.0
 20
0.0
  9
$LIMMAX
 10
16.40000099999999
 20
10.25
  9
$ORTHOMODE
 70
     0
  9
$REGENMODE
 70
     1
  9
$FILLMODE
 70
     1
  9
$QTEXTMODE
 70
     0
  9
$MIRRTEXT
 70
     1
  9
$DRAGMODE
 70
     2
  9
$LTSCALE
 40
1.0
  9
$OSMODE
 70
   195
  9
$ATTMODE
 70
     1
  9
$TEXTSIZE
 40
0.16
  9
$TRACEWID
 40
0.05
  9
$TEXTSTYLE
  7
ROMANS
  9
$CLAYER
  8
0
  9
$CELTYPE
  6
BYLAYER
  9
$CECOLOR
 62
   256
  9
$CELTSCALE
 40
1.0
  9
$DELOBJ
 70
     1
  9
$DISPSILH
 70
     0
  9
$DIMSCALE
 40
0.0
  9
$DIMASZ
 40
0.07
  9
$DIMEXO
 40
0.0625
  9
$DIMDLI
 40
0.38
  9
$DIMRND
 40
0.001
  9
$DIMDLE
 40
0.0
  9
$DIMEXE
 40
0.0625
  9
$DIMTP
 40
0.0
  9
$DIMTM
 40
0.0
  9
$DIMTXT
 40
0.1
  9
$DIMCEN
 40
0.09
  9
$DIMTSZ
 40
0.0
  9
$DIMTOL
 70
     0
  9
$DIMLIM
 70
     0
  9
$DIMTIH
 70
     1
  9
$DIMTOH
 70
     1
  9
$DIMSE1
 70
     0
  9
$DIMSE2
 70
     0
  9
$DIMTAD
 70
     0
  9
$DIMZIN
 70
     4
  9
$DIMBLK
  1
SEARROW
  9
$DIMASO
 70
     1
  9
$DIMSHO
 70
     1
  9
$DIMPOST
  1
\P
  9
$DIMAPOST
  1

  9
$DIMALT
 70
     1
  9
$DIMALTD
 70
     0
  9
$DIMALTF
 40
25.4
  9
$DIMLFAC
 40
1.0
  9
$DIMTOFL
 70
     0
  9
$DIMTVP
 40
0.0
  9
$DIMTIX
 70
     0
  9
$DIMSOXD
 70
     0
  9
$DIMSAH
 70
     0
  9
$DIMBLK1
  1

  9
$DIMBLK2
  1

  9
$DIMSTYLE
  2
SCHNEIDERELECTRIC_DUAL_BEL
  9
$DIMCLRD
 70
   256
  9
$DIMCLRE
 70
   256
  9
$DIMCLRT
 70
   256
  9
$DIMTFAC
 40
1.0
  9
$DIMGAP
 40
0.04
  9
$DIMJUST
 70
     0
  9
$DIMSD1
 70
     0
  9
$DIMSD2
 70
     0
  9
$DIMTOLJ
 70
     1
  9
$DIMTZIN
 70
     0
  9
$DIMALTZ
 70
     4
  9
$DIMALTTZ
 70
     0
  9
$DIMFIT
 70
     3
  9
$DIMUPT
 70
     0
  9
$DIMUNIT
 70
     2
  9
$DIMDEC
 70
     2
  9
$DIMTDEC
 70
     2
  9
$DIMALTU
 70
     2
  9
$DIMALTTD
 70
     0
  9
$DIMTXSTY
  7
ROMANS
  9
$DIMAUNIT
 70
     0
  9
$LUNITS
 70
     2
  9
$LUPREC
 70
     4
  9
$SKETCHINC
 40
0.1
  9
$FILLETRAD
 40
1.5
  9
$AUNITS
 70
     0
  9
$AUPREC
 70
     0
  9
$MENU
  1
.
  9
$ELEVATION
 40
0.0
  9
$PELEVATION
 40
0.0
  9
$THICKNESS
 40
0.0
  9
$LIMCHECK
 70
     0
  9
$BLIPMODE
 70
     0
  9
$CHAMFERA
 40
0.5
  9
$CHAMFERB
 40
0.5
  9
$CHAMFERC
 40
1.0
  9
$CHAMFERD
 40
0.0
  9
$SKPOLY
 70
     0
  9
$TDCREATE
 40
2451764.535041909
  9
$TDUPDATE
 40
2452598.349403252
  9
$TDINDWG
 40
0.9407214815
  9
$TDUSRTIMER
 40
0.9407212500
  9
$USRTIMER
 70
     1
  9
$ANGBASE
 50
0.0
  9
$ANGDIR
 70
     0
  9
$PDMODE
 70
     0
  9
$PDSIZE
 40
0.0
  9
$PLINEWID
 40
0.0
  9
$COORDS
 70
     2
  9
$SPLFRAME
 70
     0
  9
$SPLINETYPE
 70
     6
  9
$SPLINESEGS
 70
     8
  9
$ATTDIA
 70
     0
  9
$ATTREQ
 70
     1
  9
$HANDLING
 70
 22529
  9
$HANDSEED
  5
43F2
  9
$SURFTAB1
 70
     6
  9
$SURFTAB2
 70
     6
  9
$SURFTYPE
 70
     6
  9
$SURFU
 70
     6
  9
$SURFV
 70
     6
  9
$UCSNAME
  2

  9
$UCSORG
 10
0.0
 20
0.0
 30
0.0
  9
$UCSXDIR
 10
1.0
 20
0.0
 30
0.0
  9
$UCSYDIR
 10
0.0
 20
1.0
 30
0.0
  9
$PUCSNAME
  2

  9
$PUCSORG
 10
0.0
 20
0.0
 30
0.0
  9
$PUCSXDIR
 10
1.0
 20
0.0
 30
0.0
  9
$PUCSYDIR
 10
0.0
 20
1.0
 30
0.0
  9
$USERI1
 70
     0
  9
$USERI2
 70
     0
  9
$USERI3
 70
     0
  9
$USERI4
 70
     0
  9
$USERI5
 70
     0
  9
$USERR1
 40
0.0
  9
$USERR2
 40
0.0
  9
$USERR3
 40
0.0
  9
$USERR4
 40
0.0
  9
$USERR5
 40
0.0
  9
$WORLDVIEW
 70
     1
  9
$SHADEDGE
 70
     3
  9
$SHADEDIF
 70
    70
  9
$TILEMODE
 70
     0
  9
$MAXACTVP
 70
    48
  9
$PINSBASE
 10
0.0
 20
0.0
 30
0.0
  9
$PLIMCHECK
 70
     0
  9
$PEXTMIN
 10
-0.0013092099440968
 20
-0.1516873706303521
 30
-0.0000000000112498
  9
$PEXTMAX
 10
16.40102859138517
 20
10.25087142185894
 30
0.0000000000002956
  9
$PLIMMIN
 10
-0.4432876174912586
 20
-1.630844284394031
  9
$PLIMMAX
 10
16.84300814949491
 20
11.72674781336334
  9
$UNITMODE
 70
     0
  9
$VISRETAIN
 70
     1
  9
$PLINEGEN
 70
     0
  9
$PSLTSCALE
 70
     1
  9
$TREEDEPTH
 70
  3020
  9
$PICKSTYLE
 70
     1
  9
$CMLSTYLE
  2
STANDARD
  9
$CMLJUST
 70
     0
  9
$CMLSCALE
 40
1.0
  9
$PROXYGRAPHICS
 70
     1
  9
$MEASUREMENT
 70
     0
  0
ENDSEC
  0
SECTION
  2
CLASSES
  0
CLASS
  1
ACDBDICTIONARYWDFLT
  2
AcDbDictionaryWithDefault
  3
AutoCAD 2000
 90
        0
280
     0
281
     0
  0
CLASS
  1
ACDBPLACEHOLDER
  2
AcDbPlaceHolder
  3
AutoCAD 2000
 90
        0
280
     0
281
     0
  0
CLASS
  1
LAYOUT
  2
AcDbLayout
  3
AutoCAD 2000
 90
        0
280
     0
281
     0
  0
CLASS
  1
LONG_TRANSACTION
  2
AcDbLongTransaction
  3
AutoCAD 2000
 90
        0
280
     0
281
     0
  0
CLASS
  1
LWPOLYLINE
  2
AcDbPolyline
  3
AutoCAD 2000
 90
        0
280
     0
281
     1
  0
CLASS
  1
HATCH
  2
AcDbHatch
  3
AutoCAD 2000
 90
        0
280
     0
281
     1
  0
CLASS
  1
XRECORD
  2
AcDbXrecord
  3
AutoCAD 2000
 90
        0
280
     0
281
     0
  0
CLASS
  1
LONG_TRANSACTION
  2
AcDbLongTransaction
  3
AutoCAD 2000
 90
        0
280
     0
281
     0
  0
CLASS
  1
LWPOLYLINE
  2
AcDbPolyline
  3
AutoCAD 2000
 90
        0
280
     0
281
     1
  0
CLASS
  1
HATCH
  2
AcDbHatch
  3
AutoCAD 2000
 90
        0
280
     0
281
     1
  0
CLASS
  1
XRECORD
  2
AcDbXrecord
  3
AutoCAD 2000
 90
        0
280
     0
281
     0
  0
CLASS
  1
LONG_TRANSACTION
  2
AcDbLongTransaction
  3
AutoCAD 2000
 90
        0
280
     0
281
     0
  0
CLASS
  1
LWPOLYLINE
  2
AcDbPolyline
  3
AutoCAD 2000
 90
        0
280
     0
281
     1
  0
CLASS
  1
HATCH
  2
AcDbHatch
  3
AutoCAD 2000
 90
        0
280
     0
281
     1
  0
CLASS
  1
XRECORD
  2
AcDbXrecord
  3
AutoCAD 2000
 90
        0
280
     0
281
     0
  0
CLASS
  1
PLOTSETTINGS
  2
AcDbPlotSettings
  3
AutoCAD 2000
 90
        0
280
     0
281
     0
  0
CLASS
  1
ACME_DOCUMENT
  2
AcMeDbDoc
  3
AcMeServices
 90
        0
280
     0
281
     0
  0
CLASS
  1
AMGSETTINGSOBJ
  2
AmgSettingsObj
  3
"AcadM|Product Description: AutoCAD Mechanical 2000|Company: Autodesk"
 90
        0
280
     0
281
     0
  0
CLASS
  1
ACMESCOPE
  2
AcMeScope
  3
AcMeServices
 90
        0
280
     0
281
     0
  0
CLASS
  1
ACMECOMMANDHISTORY
  2
AcMeCommandHistory
  3
AcMeServices
 90
        0
280
     0
281
     0
  0
CLASS
  1
DICTIONARYVAR
  2
AcDbDictionaryVar
  3
AutoCAD 2000
 90
        0
280
     0
281
     0
  0
CLASS
  1
ACIMSYSVARMAN
  2
AcImSysVarManager
  3
AcMeServices
 90
        0
280
     0
281
     0
  0
CLASS
  1
ACIMREALSYSVAR
  2
AcImRealSysVar
  3
AcMeServices
 90
        0
280
     0
281
     0
  0
CLASS
  1
ACIMINTSYSVAR
  2
AcImIntSysVar
  3
AcMeServices
 90
        0
280
     0
281
     0
  0
CLASS
  1
ACMEDRAWINGMAN
  2
AcMeDrawingMan
  3
AcMeServices
 90
        0
280
     0
281
     0
  0
CLASS
  1
ACMEVIEW
  2
AcMeView
  3
AcMeServices
 90
        0
280
     0
281
     0
  0
CLASS
  1
ACDBENTITYCACHE
  2
AcMeEntityCache
  3
AcMeServices
 90
        0
280
     0
281
     0
  0
CLASS
  1
GSMANAGER
  2
AcMeGSManager
  3
AcMeServices
 90
        0
280
     0
281
     0
  0
CLASS
  1
AmdtInternalReactor
  2
AmdtInternalReactor
  3
AcMeServices
 90
        0
280
     0
281
     0
  0
CLASS
  1
ACMESTATEMGR
  2
AcMeStateMgr
  3
AcMeServices
 90
        0
280
     0
281
     0
  0
CLASS
  1
ACME_DATABASE
  2
AcMeDbDatabase
  3
AcMeServices
 90
        0
280
     0
281
     0
  0
CLASS
  1
ACRFINSADJUSTERMGR
  2
AcRfInsAdjusterMgr
  3
AcMeServices
 90
        0
280
     0
281
     0
  0
CLASS
  1
ACMDATADICTIONARY
  2
AcmDataDictionary
  3
"AcmSymBB|Product Description: AutoCAD Mechanical 2000|Company: Autodesk"
 90
        0
280
     0
281
     0
  0
CLASS
  1
ACMDATAENTRYBLOCK
  2
AcmDataEntryBlock
  3
"AcmSymBB|Product Description: AutoCAD Mechanical 2000|Company: Autodesk"
 90
        0
280
     0
281
     0
  0
CLASS
  1
AMGOBJPROPCFG
  2
AmgObjPropCfg
  3
"AmgLay|Product Description: AutoCAD Mechanical 2000|Company: Autodesk"
 90
        1
280
     0
281
     0
  0
CLASS
  1
ACAMGFILTERDAT
  2
AcAmgFilterDat
  3
"AcadM|Product Description: AutoCAD Mechanical 2000|Company: Autodesk"
 90
        0
280
     0
281
     0
  0
CLASS
  1
LAYER_INDEX
  2
AcDbLayerIndex
  3
AutoCAD 2000
 90
        0
280
     0
281
     0
  0
CLASS
  1
IDBUFFER
  2
AcDbIdBuffer
  3
AutoCAD 2000
 90
        0
280
     0
281
     0
  0
CLASS
  1
LONG_TRANSACTION
  2
AcDbLongTransaction
  3
AutoCAD 2000
 90
        0
280
     0
281
     0
  0
CLASS
  1
LWPOLYLINE
  2
AcDbPolyline
  3
AutoCAD 2000
 90
        0
280
     0
281
     1
  0
CLASS
  1
HATCH
  2
AcDbHatch
  3
AutoCAD 2000
 90
        0
280
     0
281
     1
  0
CLASS
  1
XRECORD
  2
AcDbXrecord
  3
AutoCAD 2000
 90
        0
280
     0
281
     0
  0
CLASS
  1
LONG_TRANSACTION
  2
AcDbLongTransaction
  3
AutoCAD 2000
 90
        0
280
     0
281
     0
  0
CLASS
  1
LWPOLYLINE
  2
AcDbPolyline
  3
AutoCAD 2000
 90
        0
280
     0
281
     1
  0
CLASS
  1
HATCH
  2
AcDbHatch
  3
AutoCAD 2000
 90
        0
280
     0
281
     1
  0
CLASS
  1
XRECORD
  2
AcDbXrecord
  3
AutoCAD 2000
 90
        0
280
     0
281
     0
  0
CLASS
  1
LONG_TRANSACTION
  2
AcDbLongTransaction
  3
AutoCAD 2000
 90
        0
280
     0
281
     0
  0
CLASS
  1
LWPOLYLINE
  2
AcDbPolyline
  3
AutoCAD 2000
 90
        0
280
     0
281
     1
  0
CLASS
  1
HATCH
  2
AcDbHatch
  3
AutoCAD 2000
 90
        0
280
     0
281
     1
  0
CLASS
  1
XRECORD
  2
AcDbXrecord
  3
AutoCAD 2000
 90
        0
280
     0
281
     0
  0
CLASS
  1
LONG_TRANSACTION
  2
AcDbLongTransaction
  3
AutoCAD 2000
 90
        0
280
     0
281
     0
  0
CLASS
  1
LWPOLYLINE
  2
AcDbPolyline
  3
AutoCAD 2000
 90
        0
280
     0
281
     1
  0
CLASS
  1
HATCH
  2
AcDbHatch
  3
AutoCAD 2000
 90
        0
280
     0
281
     1
  0
CLASS
  1
XRECORD
  2
AcDbXrecord
  3
AutoCAD 2000
 90
        0
280
     0
281
     0
  0
CLASS
  1
LONG_TRANSACTION
  2
AcDbLongTransaction
  3
AutoCAD 2000
 90
        0
280
     0
281
     0
  0
CLASS
  1
LWPOLYLINE
  2
AcDbPolyline
  3
AutoCAD 2000
 90
        0
280
     0
281
     1
  0
CLASS
  1
HATCH
  2
AcDbHatch
  3
AutoCAD 2000
 90
        0
280
     0
281
     1
  0
CLASS
  1
XRECORD
  2
AcDbXrecord
  3
AutoCAD 2000
 90
        0
280
     0
281
     0
  0
CLASS
  1
LONG_TRANSACTION
  2
AcDbLongTransaction
  3
AutoCAD 2000
 90
        0
280
     0
281
     0
  0
CLASS
  1
LWPOLYLINE
  2
AcDbPolyline
  3
AutoCAD 2000
 90
        0
280
     0
281
     1
  0
CLASS
  1
HATCH
  2
AcDbHatch
  3
AutoCAD 2000
 90
        0
280
     0
281
     1
  0
CLASS
  1
XRECORD
  2
AcDbXrecord
  3
AutoCAD 2000
 90
        0
280
     0
281
     0
  0
CLASS
  1
LONG_TRANSACTION
  2
AcDbLongTransaction
  3
AutoCAD 2000
 90
        0
280
     0
281
     0
  0
CLASS
  1
LWPOLYLINE
  2
AcDbPolyline
  3
AutoCAD 2000
 90
        0
280
     0
281
     1
  0
CLASS
  1
HATCH
  2
AcDbHatch
  3
AutoCAD 2000
 90
        0
280
     0
281
     1
  0
CLASS
  1
XRECORD
  2
AcDbXrecord
  3
AutoCAD 2000
 90
        0
280
     0
281
     0
  0
CLASS
  1
LONG_TRANSACTION
  2
AcDbLongTransaction
  3
AutoCAD 2000
 90
        0
280
     0
281
     0
  0
CLASS
  1
LWPOLYLINE
  2
AcDbPolyline
  3
AutoCAD 2000
 90
        0
280
     0
281
     1
  0
CLASS
  1
HATCH
  2
AcDbHatch
  3
AutoCAD 2000
 90
        0
280
     0
281
     1
  0
CLASS
  1
XRECORD
  2
AcDbXrecord
  3
AutoCAD 2000
 90
        0
280
     0
281
     0
  0
CLASS
  1
LONG_TRANSACTION
  2
AcDbLongTransaction
  3
AutoCAD 2000
 90
        0
280
     0
281
     0
  0
CLASS
  1
LWPOLYLINE
  2
AcDbPolyline
  3
AutoCAD 2000
 90
        0
280
     0
281
     1
  0
CLASS
  1
HATCH
  2
AcDbHatch
  3
AutoCAD 2000
 90
        0
280
     0
281
     1
  0
CLASS
  1
XRECORD
  2
AcDbXrecord
  3
AutoCAD 2000
 90
        0
280
     0
281
     0
  0
CLASS
  1
LONG_TRANSACTION
  2
AcDbLongTransaction
  3
AutoCAD 2000
 90
        0
280
     0
281
     0
  0
CLASS
  1
LWPOLYLINE
  2
AcDbPolyline
  3
AutoCAD 2000
 90
        0
280
     0
281
     1
  0
CLASS
  1
HATCH
  2
AcDbHatch
  3
AutoCAD 2000
 90
        0
280
     0
281
     1
  0
CLASS
  1
XRECORD
  2
AcDbXrecord
  3
AutoCAD 2000
 90
        0
280
     0
281
     0
  0
CLASS
  1
LONG_TRANSACTION
  2
AcDbLongTransaction
  3
AutoCAD 2000
 90
        0
280
     0
281
     0
  0
CLASS
  1
LWPOLYLINE
  2
AcDbPolyline
  3
AutoCAD 2000
 90
        0
280
     0
281
     1
  0
CLASS
  1
HATCH
  2
AcDbHatch
  3
AutoCAD 2000
 90
        0
280
     0
281
     1
  0
CLASS
  1
XRECORD
  2
AcDbXrecord
  3
AutoCAD 2000
 90
        0
280
     0
281
     0
  0
CLASS
  1
LONG_TRANSACTION
  2
AcDbLongTransaction
  3
AutoCAD 2000
 90
        0
280
     0
281
     0
  0
CLASS
  1
LWPOLYLINE
  2
AcDbPolyline
  3
AutoCAD 2000
 90
        0
280
     0
281
     1
  0
CLASS
  1
HATCH
  2
AcDbHatch
  3
AutoCAD 2000
 90
        0
280
     0
281
     1
  0
CLASS
  1
XRECORD
  2
AcDbXrecord
  3
AutoCAD 2000
 90
        0
280
     0
281
     0
  0
CLASS
  1
LONG_TRANSACTION
  2
AcDbLongTransaction
  3
AutoCAD 2000
 90
        0
280
     0
281
     0
  0
CLASS
  1
LWPOLYLINE
  2
AcDbPolyline
  3
AutoCAD 2000
 90
        0
280
     0
281
     1
  0
CLASS
  1
HATCH
  2
AcDbHatch
  3
AutoCAD 2000
 90
        0
280
     0
281
     1
  0
CLASS
  1
XRECORD
  2
AcDbXrecord
  3
AutoCAD 2000
 90
        0
280
     0
281
     0
  0
CLASS
  1
LONG_TRANSACTION
  2
AcDbLongTransaction
  3
AutoCAD 2000
 90
        0
280
     0
281
     0
  0
CLASS
  1
LWPOLYLINE
  2
AcDbPolyline
  3
AutoCAD 2000
 90
        0
280
     0
281
     1
  0
CLASS
  1
HATCH
  2
AcDbHatch
  3
AutoCAD 2000
 90
        0
280
     0
281
     1
  0
CLASS
  1
XRECORD
  2
AcDbXrecord
  3
AutoCAD 2000
 90
        0
280
     0
281
     0
  0
CLASS
  1
LONG_TRANSACTION
  2
AcDbLongTransaction
  3
AutoCAD 2000
 90
        0
280
     0
281
     0
  0
CLASS
  1
LWPOLYLINE
  2
AcDbPolyline
  3
AutoCAD 2000
 90
        0
280
     0
281
     1
  0
CLASS
  1
HATCH
  2
AcDbHatch
  3
AutoCAD 2000
 90
        0
280
     0
281
     1
  0
CLASS
  1
XRECORD
  2
AcDbXrecord
  3
AutoCAD 2000
 90
        0
280
     0
281
     0
  0
CLASS
  1
LONG_TRANSACTION
  2
AcDbLongTransaction
  3
AutoCAD 2000
 90
        0
280
     0
281
     0
  0
CLASS
  1
LWPOLYLINE
  2
AcDbPolyline
  3
AutoCAD 2000
 90
        0
280
     0
281
     1
  0
CLASS
  1
HATCH
  2
AcDbHatch
  3
AutoCAD 2000
 90
        0
280
     0
281
     1
  0
CLASS
  1
XRECORD
  2
AcDbXrecord
  3
AutoCAD 2000
 90
        0
280
     0
281
     0
  0
CLASS
  1
LONG_TRANSACTION
  2
AcDbLongTransaction
  3
AutoCAD 2000
 90
        0
280
     0
281
     0
  0
CLASS
  1
LWPOLYLINE
  2
AcDbPolyline
  3
AutoCAD 2000
 90
        0
280
     0
281
     1
  0
CLASS
  1
HATCH
  2
AcDbHatch
  3
AutoCAD 2000
 90
        0
280
     0
281
     1
  0
CLASS
  1
XRECORD
  2
AcDbXrecord
  3
AutoCAD 2000
 90
        0
280
     0
281
     0
  0
CLASS
  1
LONG_TRANSACTION
  2
AcDbLongTransaction
  3
AutoCAD 2000
 90
        0
280
     0
281
     0
  0
CLASS
  1
LWPOLYLINE
  2
AcDbPolyline
  3
AutoCAD 2000
 90
        0
280
     0
281
     1
  0
CLASS
  1
HATCH
  2
AcDbHatch
  3
AutoCAD 2000
 90
        0
280
     0
281
     1
  0
CLASS
  1
XRECORD
  2
AcDbXrecord
  3
AutoCAD 2000
 90
        0
280
     0
281
     0
  0
CLASS
  1
LONG_TRANSACTION
  2
AcDbLongTransaction
  3
AutoCAD 2000
 90
        0
280
     0
281
     0
  0
CLASS
  1
LWPOLYLINE
  2
AcDbPolyline
  3
AutoCAD 2000
 90
        0
280
     0
281
     1
  0
CLASS
  1
HATCH
  2
AcDbHatch
  3
AutoCAD 2000
 90
        0
280
     0
281
     1
  0
CLASS
  1
XRECORD
  2
AcDbXrecord
  3
AutoCAD 2000
 90
        0
280
     0
281
     0
  0
CLASS
  1
LONG_TRANSACTION
  2
AcDbLongTransaction
  3
AutoCAD 2000
 90
        0
280
     0
281
     0
  0
CLASS
  1
LWPOLYLINE
  2
AcDbPolyline
  3
AutoCAD 2000
 90
        0
280
     0
281
     1
  0
CLASS
  1
HATCH
  2
AcDbHatch
  3
AutoCAD 2000
 90
        0
280
     0
281
     1
  0
CLASS
  1
XRECORD
  2
AcDbXrecord
  3
AutoCAD 2000
 90
        0
280
     0
281
     0
  0
CLASS
  1
LONG_TRANSACTION
  2
AcDbLongTransaction
  3
AutoCAD 2000
 90
        0
280
     0
281
     0
  0
CLASS
  1
LWPOLYLINE
  2
AcDbPolyline
  3
AutoCAD 2000
 90
        0
280
     0
281
     1
  0
CLASS
  1
HATCH
  2
AcDbHatch
  3
AutoCAD 2000
 90
        0
280
     0
281
     1
  0
CLASS
  1
XRECORD
  2
AcDbXrecord
  3
AutoCAD 2000
 90
        0
280
     0
281
     0
  0
CLASS
  1
LONG_TRANSACTION
  2
AcDbLongTransaction
  3
AutoCAD 2000
 90
        0
280
     0
281
     0
  0
CLASS
  1
LWPOLYLINE
  2
AcDbPolyline
  3
AutoCAD 2000
 90
        0
280
     0
281
     1
  0
CLASS
  1
HATCH
  2
AcDbHatch
  3
AutoCAD 2000
 90
        0
280
     0
281
     1
  0
CLASS
  1
XRECORD
  2
AcDbXrecord
  3
AutoCAD 2000
 90
        0
280
     0
281
     0
  0
CLASS
  1
LONG_TRANSACTION
  2
AcDbLongTransaction
  3
AutoCAD 2000
 90
        0
280
     0
281
     0
  0
CLASS
  1
LWPOLYLINE
  2
AcDbPolyline
  3
AutoCAD 2000
 90
        0
280
     0
281
     1
  0
CLASS
  1
HATCH
  2
AcDbHatch
  3
AutoCAD 2000
 90
        0
280
     0
281
     1
  0
CLASS
  1
XRECORD
  2
AcDbXrecord
  3
AutoCAD 2000
 90
        0
280
     0
281
     0
  0
CLASS
  1
LONG_TRANSACTION
  2
AcDbLongTransaction
  3
AutoCAD 2000
 90
        0
280
     0
281
     0
  0
CLASS
  1
LWPOLYLINE
  2
AcDbPolyline
  3
AutoCAD 2000
 90
        0
280
     0
281
     1
  0
CLASS
  1
HATCH
  2
AcDbHatch
  3
AutoCAD 2000
 90
        0
280
     0
281
     1
  0
CLASS
  1
XRECORD
  2
AcDbXrecord
  3
AutoCAD 2000
 90
        0
280
     0
281
     0
  0
ENDSEC
  0
SECTION
  2
TABLES
  0
TABLE
  2
VPORT
  5
8
330
0
100
AcDbSymbolTable
 70
     1
  0
VPORT
  5
410D
330
8
100
AcDbSymbolTableRecord
100
AcDbViewportTableRecord
  2
*ACTIVE
 70
     0
 10
0.0
 20
0.0
 11
1.0
 21
1.0
 12
82.97126490536529
 22
51.20346740957137
 13
0.0
 23
0.0
 14
0.5
 24
0.5
 15
0.5
 25
0.5
 16
0.0
 26
0.0
 36
1.0
 17
0.0
 27
0.0
 37
0.0
 40
103.3700728684402
 41
1.763713080168776
 42
50.0
 43
0.0
 44
0.0
 50
0.0
 51
0.0
 71
     0
 72
   100
 73
     1
 74
     2
 75
     0
 76
     0
 77
     0
 78
     0
  0
ENDTAB
  0
TABLE
  2
LTYPE
  5
5
330
0
100
AcDbSymbolTable
 70
     3
  0
LTYPE
  5
14
330
5
100
AcDbSymbolTableRecord
100
AcDbLinetypeTableRecord
  2
BYBLOCK
 70
     0
  3

 72
    65
 73
     0
 40
0.0
  0
LTYPE
  5
15
330
5
100
AcDbSymbolTableRecord
100
AcDbLinetypeTableRecord
  2
BYLAYER
 70
     0
  3

 72
    65
 73
     0
 40
0.0
  0
LTYPE
  5
16
330
5
100
AcDbSymbolTableRecord
100
AcDbLinetypeTableRecord
  2
CONTINUOUS
 70
     0
  3
Solid line
 72
    65
 73
     0
 40
0.0
  0
LTYPE
  5
3D
330
5
100
AcDbSymbolTableRecord
100
AcDbLinetypeTableRecord
  2
CENTER2
 70
     0
  3
Center (.5x) ___ _ ___ _ ___ _ ___ _ ___ _ ___
 72
    65
 73
     4
 40
1.125
 49
0.75
 74
     0
 49
-0.125
 74
     0
 49
0.125
 74
     0
 49
-0.125
 74
     0
  0
LTYPE
  5
40
330
5
100
AcDbSymbolTableRecord
100
AcDbLinetypeTableRecord
  2
HIDDEN2
 70
     0
  3
Hidden (.5x) _ _ _ _ _ _ _ _ _ _ _ _ _ _ _ _ _
 72
    65
 73
     2
 40
0.1875
 49
0.125
 74
     0
 49
-0.0625
 74
     0
  0
ENDTAB
  0
TABLE
  2
LAYER
  5
2
330
0
100
AcDbSymbolTable
 70
    11
  0
LAYER
  5
10
330
2
100
AcDbSymbolTableRecord
100
AcDbLayerTableRecord
  2
0
 70
     0
 62
     7
  6
CONTINUOUS
  0
LAYER
  5
43
330
2
100
AcDbSymbolTableRecord
100
AcDbLayerTableRecord
  2
CENTER1
 70
     0
 62
     2
  6
CENTER2
  0
LAYER
  5
47
330
2
100
AcDbSymbolTableRecord
100
AcDbLayerTableRecord
  2
CONTINUOUS1
 70
     0
 62
     7
  6
CONTINUOUS
  0
LAYER
  5
48
330
2
100
AcDbSymbolTableRecord
100
AcDbLayerTableRecord
  2
CONTINUOUS2
 70
     0
 62
   254
  6
CONTINUOUS
  0
LAYER
  5
49
330
2
100
AcDbSymbolTableRecord
100
AcDbLayerTableRecord
  2
CONTINUOUS3
 70
     0
 62
   253
  6
CONTINUOUS
  0
LAYER
  5
4D
330
2
100
AcDbSymbolTableRecord
100
AcDbLayerTableRecord
  2
DIM
 70
     0
 62
     2
  6
CONTINUOUS
  0
LAYER
  5
4E
330
2
100
AcDbSymbolTableRecord
100
AcDbLayerTableRecord
  2
HIDDEN1
 70
     0
 62
     5
  6
HIDDEN2
  0
LAYER
  5
55
330
2
100
AcDbSymbolTableRecord
100
AcDbLayerTableRecord
  2
TEXT1
 70
     0
 62
     3
  6
CONTINUOUS
  0
LAYER
  5
58
330
2
100
AcDbSymbolTableRecord
100
AcDbLayerTableRecord
  2
TITLEBLOCK
 70
     0
 62
     9
  6
CONTINUOUS
  0
LAYER
  5
59
330
2
100
AcDbSymbolTableRecord
100
AcDbLayerTableRecord
  2
VIEWPORT
 70
     0
 62
     9
  6
CONTINUOUS
  0
LAYER
  5
2B59
330
2
100
AcDbSymbolTableRecord
100
AcDbLayerTableRecord
  2
DEFPOINTS
 70
     0
 62
     7
  6
CONTINUOUS
  0
ENDTAB
  0
TABLE
  2
STYLE
  5
3
330
0
100
AcDbSymbolTable
 70
     3
  0
STYLE
  5
11
330
3
100
AcDbSymbolTableRecord
100
AcDbTextStyleTableRecord
  2
STANDARD
 70
     0
 40
0.0
 41
1.0
 50
0.0
 71
     0
 42
0.2
  3
txt
  4

  0
STYLE
  5
36
330
3
100
AcDbSymbolTableRecord
100
AcDbTextStyleTableRecord
  2
ROMANS
 70
     0
 40
0.0
 41
1.0
 50
0.0
 71
     0
 42
0.16
  3
romans.shx
  4

  0
STYLE
  5
6CC
330
3
100
AcDbSymbolTableRecord
100
AcDbTextStyleTableRecord
  2
M_STANDARD
 70
     0
 40
0.0
 41
0.8
 50
0.0
 71
     0
 42
0.0
  3
MEDUSA.SHX
  4

  0
ENDTAB
  0
TABLE
  2
VIEW
  5
6
330
0
100
AcDbSymbolTable
 70
     0
  0
ENDTAB
  0
TABLE
  2
UCS
  5
7
330
0
100
AcDbSymbolTable
 70
     0
  0
ENDTAB
  0
TABLE
  2
APPID
  5
9
330
0
100
AcDbSymbolTable
 70
    11
  0
APPID
  5
12
330
9
100
AcDbSymbolTableRecord
100
AcDbRegAppTableRecord
  2
ACAD
 70
     0
  0
APPID
  5
6B
330
9
100
AcDbSymbolTableRecord
100
AcDbRegAppTableRecord
  2
DCO15
 70
     0
  0
APPID
  5
370
330
9
100
AcDbSymbolTableRecord
100
AcDbRegAppTableRecord
  2
MCAD_NO_VIS
 70
     0
  0
APPID
  5
371
330
9
100
AcDbSymbolTableRecord
100
AcDbRegAppTableRecord
  2
ACAD_TEMP_GRAPHIC
 70
     0
  0
APPID
  5
387
330
9
100
AcDbSymbolTableRecord
100
AcDbRegAppTableRecord
  2
GENIUS_GENSCREG_15
 70
     0
  0
APPID
  5
389
330
9
100
AcDbSymbolTableRecord
100
AcDbRegAppTableRecord
  2
GENIUS_GENODEF_13
 70
     0
  0
APPID
  5
38A
330
9
100
AcDbSymbolTableRecord
100
AcDbRegAppTableRecord
  2
GENIUS_GENOBJ-N-SDF_13
 70
     0
  0
APPID
  5
38B
330
9
100
AcDbSymbolTableRecord
100
AcDbRegAppTableRecord
  2
GENIUS_GENOENT_13
 70
     0
  0
APPID
  5
38C
330
9
100
AcDbSymbolTableRecord
100
AcDbRegAppTableRecord
  2
GENIUS_GENOREF_13
 70
     0
  0
APPID
  5
38D
330
9
100
AcDbSymbolTableRecord
100
AcDbRegAppTableRecord
  2
GENIUS_GENOLIS_13
 70
     0
  0
APPID
  5
6CE
330
9
100
AcDbSymbolTableRecord
100
AcDbRegAppTableRecord
  2
MED_PRIMTYPE
 70
     0
  0
ENDTAB
  0
TABLE
  2
DIMSTYLE
  5
A
330
0
100
AcDbSymbolTable
 70
     1
  0
DIMSTYLE
105
3336
102
{ACAD_REACTORS
330
2CD7
330
2C0D
330
2BFF
330
2BEF
330
2BA1
330
2B7F
330
2B71
330
2B58
330
2B4A
330
2B65
102
}
330
A
100
AcDbSymbolTableRecord
100
AcDbDimStyleTableRecord
  2
SCHNEIDERELECTRIC_DUAL_BEL
 70
     0
  3
\P
  4

  5
SEARROW
  6

  7

 40
0.0
 41
0.07
 42
0.0625
 43
0.38
 44
0.0625
 45
0.001
 46
0.0
 47
0.0
 48
0.0
140
0.1
141
0.09
142
0.0
143
25.4
144
1.0
145
0.0
146
1.0
147
0.04
 71
     0
 72
     0
 73
     1
 74
     1
 75
     0
 76
     0
 77
     0
 78
     4
170
     1
171
     0
172
     0
173
     0
174
     0
175
     0
176
   256
177
   256
178
   256
270
     2
271
     2
272
     2
273
     2
274
     0
340
36
275
     0
280
     0
281
     0
282
     0
283
     1
284
     0
285
     4
286
     0
287
     3
288
     0
  0
ENDTAB
  0
TABLE
  2
BLOCK_RECORD
  5
1
330
0
100
AcDbSymbolTable
 70
    13
  0
BLOCK_RECORD
  5
1F
102
{ACAD_XDICTIONARY
360
73
102
}
330
1
100
AcDbSymbolTableRecord
100
AcDbBlockTableRecord
  2
*MODEL_SPACE
  0
BLOCK_RECORD
  5
1B
102
{ACAD_XDICTIONARY
360
75
102
}
330
1
100
AcDbSymbolTableRecord
100
AcDbBlockTableRecord
  2
*PAPER_SPACE
  0
BLOCK_RECORD
  5
841
330
1
100
AcDbSymbolTableRecord
100
AcDbBlockTableRecord
  2
LOGO-PAD
1001
ACAD
1000
DesignCenter Data
1002
{
1070
     1
1070
     1
1002
}
  0
BLOCK_RECORD
  5
AE5
330
1
100
AcDbSymbolTableRecord
100
AcDbBlockTableRecord
  2
TITLE-PAD
1001
ACAD
1000
DesignCenter Data
1002
{
1070
     1
1070
     1
1002
}
  0
BLOCK_RECORD
  5
2916
330
1
100
AcDbSymbolTableRecord
100
AcDbBlockTableRecord
  2
M_PFN_2
  0
BLOCK_RECORD
  5
2B5A
330
1
100
AcDbSymbolTableRecord
100
AcDbBlockTableRecord
  2
*D3
  0
BLOCK_RECORD
  5
2B66
330
1
100
AcDbSymbolTableRecord
100
AcDbBlockTableRecord
  2
*D4
  0
BLOCK_RECORD
  5
2B72
330
1
100
AcDbSymbolTableRecord
100
AcDbBlockTableRecord
  2
*D5
  0
BLOCK_RECORD
  5
2B80
330
1
100
AcDbSymbolTableRecord
100
AcDbBlockTableRecord
  2
*D6
  0
BLOCK_RECORD
  5
2BA2
330
1
100
AcDbSymbolTableRecord
100
AcDbBlockTableRecord
  2
*D7
  0
BLOCK_RECORD
  5
2BF0
330
1
100
AcDbSymbolTableRecord
100
AcDbBlockTableRecord
  2
*D8
  0
BLOCK_RECORD
  5
2C00
330
1
100
AcDbSymbolTableRecord
100
AcDbBlockTableRecord
  2
*D9
  0
BLOCK_RECORD
  5
2C0E
330
1
100
AcDbSymbolTableRecord
100
AcDbBlockTableRecord
  2
*D10
  0
BLOCK_RECORD
  5
2CD8
330
1
100
AcDbSymbolTableRecord
100
AcDbBlockTableRecord
  2
*D11
  0
BLOCK_RECORD
  5
3000
330
1
100
AcDbSymbolTableRecord
100
AcDbBlockTableRecord
  2
SEARROW
1001
ACAD
1000
DesignCenter Data
1002
{
1070
     1
1070
     1
1002
}
  0
ENDTAB
  0
ENDSEC
  0
SECTION
  2
BLOCKS
  0
BLOCK
  5
20
330
1F
100
AcDbEntity
  8
0
100
AcDbBlockBegin
  2
*MODEL_SPACE
 70
     0
 10
0.0
 20
0.0
 30
0.0
  3
*MODEL_SPACE
  1

  0
ENDBLK
  5
21
330
1F
100
AcDbEntity
  8
0
100
AcDbBlockEnd
  0
BLOCK
  5
1C
330
1B
100
AcDbEntity
 67
     1
  8
0
100
AcDbBlockBegin
  2
*PAPER_SPACE
 70
     0
 10
0.0
 20
0.0
 30
0.0
  3
*PAPER_SPACE
  1

  0
ENDBLK
  5
1D
330
1B
100
AcDbEntity
 67
     1
  8
0
100
AcDbBlockEnd
  0
BLOCK
  5
852
330
841
100
AcDbEntity
  8
0
100
AcDbBlockBegin
  2
LOGO-PAD
 70
     0
 10
0.0
 20
0.0
 30
0.0
  3
LOGO-PAD
  1

  0
HATCH
  5
842
330
841
100
AcDbEntity
  8
TITLEBLOCK
 62
     0
100
AcDbHatch
 10
0.0
 20
0.0
 30
0.0
210
0.0
220
0.0
230
1.0
  2
SOLID
 70
     1
 71
     0
 91
        2
 92
        1
 93
       11
 72
     2
 10
1.203771209334867
 20
0.3650136751459491
 40
0.021562648149145
 50
90.00000747299615
 51
179.9997683268519
 73
     1
 72
     1
 10
1.182208561185898
 20
0.3650137623336376
 11
1.182208392435807
 21
0.2795138227272444
 72
     2
 10
1.203771079023129
 20
0.2795136821032751
 40
0.0215626865877801
 50
179.9996263378447
 51
269.9998903896797
 73
     1
 72
     1
 10
1.203771037772394
 20
0.2579509955155343
 11
1.330521045577125
 21
0.2579511736405264
 72
     2
 10
1.330521265257171
 20
0.2795136382789064
 40
0.021562464639499
 50
269.9994162661957
 51
311.7040125634689
 73
     1
 72
     1
 10
1.344866398698837
 20
0.2634152834601535
 11
1.352083334663557
 21
0.2579511736405264
 72
     1
 10
1.352083334663557
 20
0.2579511736405264
 11
1.365099386916806
 21
0.2751416404960081
 72
     1
 10
1.365099386916806
 20
0.2751416404960081
 11
1.352083522163621
 21
0.284997066934386
 72
     1
 10
1.352083522163621
 20
0.284997066934386
 11
1.352083690913712
 21
0.3650136723335662
 72
     2
 10
1.330521042764654
 20
0.3650136751460369
 40
0.0215626481490576
 50
359.9999925267666
 51
449.9999925267678
 73
     1
 72
     1
 10
1.330521045577125
 20
0.3865763232950938
 11
1.203771206522485
 21
0.3865763232950938
 97
        0
 92
       16
 93
       10
 72
     2
 10
1.21455271481628
 20
0.3542325202904111
 40
0.0107811520434708
 50
90.00043844291294
 51
179.9999701074038
 73
     1
 72
     1
 10
1.203771562772811
 20
0.3542325259151993
 11
1.203771562772811
 21
0.2902950591455122
 72
     2
 10
1.214552849813946
 20
0.2902948416431456
 40
0.0107812870433294
 50
179.9988441113203
 51
269.9988441346395
 73
     1
 72
     1
 10
1.214552632315967
 20
0.2795135546020104
 11
1.323606134809704
 21
0.2795135546020104
 72
     1
 10
1.323606134809704
 20
0.2795135546020104
 11
1.280867956889135
 21
0.311873265117333
 72
     1
 10
1.280867956889135
 20
0.311873265117333
 11
1.293884009142384
 21
0.3290635557226322
 72
     1
 10
1.293884009142384
 20
0.3290635557226322
 11
1.330521045577125
 21
0.3013240413506308
 72
     1
 10
1.330521045577125
 20
0.3013240413506308
 11
1.330521045577125
 21
0.3542324377902786
 72
     2
 10
1.319739809158772
 20
0.3542324359152127
 40
0.0107812364183532
 50
0.0000099648460607
 51
90.00000996484372
 73
     1
 72
     1
 10
1.319739807283706
 20
0.3650136723335662
 11
1.214552632315967
 21
0.3650136723335662
 97
        0
 75
     0
 76
     1
 98
        1
 10
-7.279586802153931
 20
-0.4081141432880261
  0
HATCH
  5
843
330
841
100
AcDbEntity
  8
TITLEBLOCK
 62
     0
100
AcDbHatch
 10
0.0
 20
0.0
 30
0.0
210
0.0
220
0.0
230
1.0
  2
SOLID
 70
     1
 71
     0
 91
        1
 92
        1
 93
        4
 72
     1
 10
3.703333445713536
 20
0.1990762889281312
 11
1.018147379006204
 21
0.1990762889281312
 72
     1
 10
1.018147379006204
 20
0.1990762889281312
 11
1.018147379006204
 21
0.220706173683743
 72
     1
 10
1.018147379006204
 20
0.220706173683743
 11
3.703333445713536
 21
0.220706173683743
 72
     1
 10
3.703333445713536
 20
0.220706173683743
 11
3.703333445713536
 21
0.1990762889281312
 97
        0
 75
     0
 76
     1
 98
        1
 10
-7.279586802153931
 20
-0.4081141432880261
  0
HATCH
  5
844
330
841
100
AcDbEntity
  8
TITLEBLOCK
 62
     0
100
AcDbHatch
 10
0.0
 20
0.0
 30
0.0
210
0.0
220
0.0
230
1.0
  2
SOLID
 70
     1
 71
     0
 91
        4
 92
        1
 93
        4
 72
     1
 10
0.8306472632318495
 20
0.4814782717956759
 11
0.4556470182475714
 21
0.4814782717956759
 72
     1
 10
0.4556470182475714
 20
0.4814782717956759
 11
0.4556470182475714
 21
0.1064783844396073
 72
     1
 10
0.4556470182475714
 20
0.1064783844396073
 11
0.8306472632318495
 21
0.1064783844396073
 72
     1
 10
0.8306472632318495
 20
0.1064783844396073
 11
0.8306472632318495
 21
0.4814782717956759
 97
        0
 92
        0
 93
       10
 72
     1
 10
0.7368972019857374
 20
0.4177282462416896
 11
0.5193971779121789
 21
0.4177282462416896
 72
     1
 10
0.5193971779121789
 20
0.4177282462416896
 11
0.5193971779121789
 21
0.37460312508514
 72
     1
 10
0.5193971779121789
 20
0.37460312508514
 11
0.5531473465883146
 21
0.37460312508514
 72
     1
 10
0.5531473465883146
 20
0.37460312508514
 11
0.5531473465883146
 21
0.2133535311501431
 72
     1
 10
0.5531473465883146
 20
0.2133535311501431
 11
0.5193971779121789
 21
0.2133535311501431
 72
     1
 10
0.5193971779121789
 20
0.2133535311501431
 11
0.5193971779121789
 21
0.1702282758831428
 72
     1
 10
0.5193971779121789
 20
0.1702282758831428
 11
0.7368972019857374
 21
0.1702282758831428
 72
     1
 10
0.7368972019857374
 20
0.1702282758831428
 11
0.7668970141602749
 21
0.2002283115750982
 72
     1
 10
0.7668970141602749
 20
0.2002283115750982
 11
0.7668970141602749
 21
0.3877281658462506
 72
     1
 10
0.7668970141602749
 20
0.3877281658462506
 11
0.7368972019857374
 21
0.4177282462416896
 97
        0
 92
       16
 93
        4
 72
     1
 10
0.7987720492890098
 20
0.4496031025563197
 11
0.4875220533764768
 21
0.4496031025563197
 72
     1
 10
0.4875220533764768
 20
0.4496031025563197
 11
0.4875220533764768
 21
0.1383533301613751
 72
     1
 10
0.4875220533764768
 20
0.1383533301613751
 11
0.7987720492890098
 21
0.1383533301613751
 72
     1
 10
0.7987720492890098
 20
0.1383533301613751
 11
0.7987720492890098
 21
0.4496031025563197
 97
        0
 92
        0
 93
        4
 72
     1
 10
0.5962724677448641
 20
0.37460312508514
 11
0.5962724677448641
 21
0.2133535311501431
 72
     1
 10
0.5962724677448641
 20
0.2133535311501431
 11
0.7237719824106926
 21
0.2133535311501431
 72
     1
 10
0.7237719824106926
 20
0.2133535311501431
 11
0.7237719824106926
 21
0.37460312508514
 72
     1
 10
0.7237719824106926
 20
0.37460312508514
 11
0.5962724677448641
 21
0.37460312508514
 97
        0
 75
     0
 76
     1
 98
        1
 10
-7.279586802153931
 20
-0.313212194787444
  0
HATCH
  5
845
330
841
100
AcDbEntity
  8
TITLEBLOCK
 62
     0
100
AcDbHatch
 10
0.0
 20
0.0
 30
0.0
210
0.0
220
0.0
230
1.0
  2
SOLID
 70
     1
 71
     0
 91
        1
 92
        1
 93
       26
 72
     1
 10
1.050490193885575
 20
0.3650136723335662
 11
1.138990457951802
 21
0.3650136723335662
 72
     2
 10
1.138990281703138
 20
0.3542326140418093
 40
0.0107810582931976
 50
270.0009366709926
 51
360.0009366862294
 73
     0
 72
     1
 10
1.149771339994895
 20
0.3542324377902786
 11
1.171333797831589
 21
0.3542324377902786
 72
     1
 10
1.171333797831589
 20
0.3542324377902786
 11
1.171333797831589
 21
0.3650136723335662
 72
     2
 10
1.149771243432702
 20
0.365013768896207
 40
0.0215625543991033
 50
359.9997434148255
 51
449.9997434160159
 73
     1
 72
     1
 10
1.149771339994895
 20
0.3865763232950938
 11
1.039708786842066
 21
0.3865763232950938
 72
     2
 10
1.039709408398413
 20
0.3650142939052909
 40
0.0215620293987615
 50
90.00165163282177
 51
180.0014125206716
 73
     1
 72
     1
 10
1.018147379006204
 20
0.3650137623336376
 11
1.018147379006204
 21
0.3334199129435318
 72
     2
 10
1.039709363397143
 20
0.3334193363730153
 40
0.0215619843986475
 50
179.9984679027414
 51
269.9984679437668
 73
     1
 72
     1
 10
1.039708786842066
 20
0.3118573519820755
 11
1.138990457951802
 21
0.311857620107139
 72
     2
 10
1.138990280765661
 20
0.3010765608779043
 40
0.0107810592306907
 50
270.0009416531222
 51
360.0009416684906
 73
     0
 72
     1
 10
1.149771339994895
 20
0.3010763836888712
 11
1.149771508744986
 21
0.2902949691454408
 72
     2
 10
1.138990231076649
 20
0.2902948322713164
 40
0.0107812776692067
 50
359.9992725992319
 51
449.9997907459082
 73
     0
 72
     1
 10
1.138990270451738
 20
0.279513554602181
 11
1.050490193885575
 21
0.2795135546020104
 72
     2
 10
1.05049014888543
 20
0.2902951041454384
 40
0.0107815495435218
 50
89.99976085826782
 51
179.9997608594354
 73
     0
 72
     1
 10
1.039708599342002
 20
0.2902950591455122
 11
1.018147379006204
 21
0.2902950591455122
 72
     1
 10
1.018147379006204
 20
0.2902950591455122
 11
1.018147379006204
 21
0.2795138227272444
 72
     2
 10
1.039709273392517
 20
0.2795130680345569
 40
0.0215618943995203
 50
179.9979945776083
 51
269.9987071039827
 73
     1
 72
     1
 10
1.039708786842066
 20
0.2579511736405264
 11
1.149771339994895
 21
0.2579511736405264
 72
     2
 10
1.149771378432784
 20
0.2795135930396681
 40
0.0215624193991759
 50
269.9998978626289
 51
359.9996636967671
 73
     1
 72
     1
 10
1.171333797831589
 20
0.2795134664769192
 11
1.171333797831589
 21
0.3114825579869829
 72
     2
 10
1.149771333432362
 20
0.3114825645494808
 40
0.0215624643992288
 50
359.9999825621309
 51
449.9999825620359
 73
     1
 72
     1
 10
1.149771339994895
 20
0.3330450289487088
 11
1.050490193885575
 21
0.3330447608234748
 72
     2
 10
1.050490103885701
 20
0.3438262653667981
 40
0.0107815045436989
 50
89.99952171675776
 51
179.9999900368059
 73
     0
 72
     1
 10
1.039708599342002
 20
0.3438262634919964
 11
1.039708786842066
 21
0.3542325259151993
 72
     2
 10
1.050490107634269
 20
0.3542323515402983
 40
0.0107813207936133
 50
180.0009266903443
 51
270.0004583701697
 73
     0
 97
        0
 75
     0
 76
     1
 98
        1
 10
-7.279586802153931
 20
-0.4081141432880261
  0
HATCH
  5
846
330
841
100
AcDbEntity
  8
TITLEBLOCK
 62
     0
100
AcDbHatch
 10
0.0
 20
0.0
 30
0.0
210
0.0
220
0.0
230
1.0
  2
SOLID
 70
     1
 71
     0
 91
        1
 92
        1
 93
       18
 72
     2
 10
2.471082802883087
 20
0.3650137595211706
 40
0.021562563774099
 50
180.0000074732525
 51
269.9997683261728
 73
     0
 72
     1
 10
2.471082715695484
 20
0.3865763232950938
 11
2.586957622645552
 21
0.3865763232950938
 72
     2
 10
2.586957713583391
 20
0.3650135813961111
 40
0.0215627418991744
 50
269.9997583630888
 51
359.999758364108
 73
     0
 72
     1
 10
2.608520455482373
 20
0.3650136723335662
 11
2.608520455482373
 21
0.3542324377902786
 72
     1
 10
2.608520455482373
 20
0.3542324377902786
 11
2.586957622645552
 21
0.3542324377902786
 72
     2
 10
2.576176208103625
 20
0.3542322577916381
 40
0.0107814145434302
 50
0.0009565685814303
 51
90.00095658455173
 73
     1
 72
     1
 10
2.576176028101979
 20
0.3650136723335662
 11
2.481864141488966
 21
0.3650136723335662
 72
     2
 10
2.481864045863444
 20
0.3542323421656055
 40
0.0107813301683848
 50
89.99949181235312
 51
179.9994918168631
 73
     1
 72
     1
 10
2.471082715695484
 20
0.3542324377902786
 11
2.471082715695484
 21
0.2902950591455122
 72
     2
 10
2.481864090863785
 20
0.2902951097704553
 40
0.0107813751684203
 50
180.0002690376259
 51
270.0002690388874
 73
     1
 72
     1
 10
2.481864141488966
 20
0.2795137346021532
 11
2.576176028101979
 21
0.2795135546020104
 72
     2
 10
2.576176073102679
 20
0.2902951041456356
 40
0.010781549543719
 50
269.9997608553225
 51
359.9992825760937
 73
     1
 72
     1
 10
2.586957622645552
 20
0.2902949691454408
 11
2.608520455482373
 21
0.2902950591455122
 72
     1
 10
2.608520455482373
 20
0.2902950591455122
 11
2.608520099232048
 21
0.2795134664769192
 72
     2
 10
2.586957670458414
 20
0.2795136024145366
 40
0.0215624287740632
 50
0.0003612140281018
 51
90.00012704854281
 73
     0
 72
     1
 10
2.586957622645552
 20
0.2579511736405264
 11
2.471082715695484
 21
0.2579511736405264
 72
     2
 10
2.471082667882924
 20
0.2795136024144634
 40
0.02156242877399
 50
89.99987295225965
 51
179.9998729525419
 73
     0
 72
     1
 10
2.449520239108988
 20
0.2795135546020104
 11
2.449520239108988
 21
0.3650137623336376
 97
        0
 75
     0
 76
     1
 98
        1
 10
-7.279586802153931
 20
-0.4081141432880261
  0
HATCH
  5
847
330
841
100
AcDbEntity
  8
TITLEBLOCK
 62
     0
100
AcDbHatch
 10
0.0
 20
0.0
 30
0.0
210
0.0
220
0.0
230
1.0
  2
SOLID
 70
     1
 71
     0
 91
        1
 92
        1
 93
       12
 72
     1
 10
2.026708344139745
 20
0.3865765014202565
 11
1.890208311215626
 21
0.3865765014202565
 72
     1
 10
1.890208311215626
 20
0.3865765014202565
 11
1.890208311215626
 21
0.2579511736405264
 72
     1
 10
1.890208311215626
 20
0.2579511736405264
 11
2.026708344139745
 21
0.2579511736405264
 72
     1
 10
2.026708344139745
 20
0.2579511736405264
 11
2.026708344139745
 21
0.2795135546020104
 72
     1
 10
2.026708344139745
 20
0.2795135546020104
 11
1.911770600302059
 21
0.2795135546020104
 72
     1
 10
1.911770600302059
 20
0.2795135546020104
 11
1.911770600302059
 21
0.3114825579869829
 72
     1
 10
1.911770600302059
 20
0.3114825579869829
 11
2.026708344139745
 21
0.3114825579869829
 72
     1
 10
2.026708344139745
 20
0.3114825579869829
 11
2.026708344139745
 21
0.333044848948566
 72
     1
 10
2.026708344139745
 20
0.333044848948566
 11
1.911770600302059
 21
0.333044848948566
 72
     1
 10
1.911770600302059
 20
0.333044848948566
 11
1.911770600302059
 21
0.3650136723335662
 72
     1
 10
1.911770600302059
 20
0.3650136723335662
 11
2.026708344139745
 21
0.3650136723335662
 72
     1
 10
2.026708344139745
 20
0.3650136723335662
 11
2.026708344139745
 21
0.3865765014202565
 97
        0
 75
     0
 76
     1
 98
        1
 10
-7.279586802153931
 20
-0.4081141432880261
  0
HATCH
  5
848
330
841
100
AcDbEntity
  8
TITLEBLOCK
 62
     0
100
AcDbHatch
 10
0.0
 20
0.0
 30
0.0
210
0.0
220
0.0
230
1.0
  2
SOLID
 70
     1
 71
     0
 91
        2
 92
        1
 93
        8
 72
     1
 10
1.614830743814064
 20
0.3865765014202565
 11
1.531145595393223
 21
0.2579509955155343
 72
     1
 10
1.531145595393223
 20
0.2579509955155343
 11
1.556870855949323
 21
0.2579511736405264
 72
     1
 10
1.556870855949323
 20
0.2579511736405264
 11
1.570898996363819
 21
0.2795135546020104
 72
     1
 10
1.570898996363819
 20
0.2795135546020104
 11
1.673830432358027
 21
0.2795135546020104
 72
     1
 10
1.673830432358027
 20
0.2795135546020104
 11
1.687858760272586
 21
0.2579514417655899
 72
     1
 10
1.687858760272586
 20
0.2579514417655899
 11
1.713583120827973
 21
0.2579514417655899
 72
     1
 10
1.713583120827973
 20
0.2579514417655899
 11
1.629898141157394
 21
0.3865765014202565
 72
     1
 10
1.629898141157394
 20
0.3865765014202565
 11
1.614830743814064
 21
0.3865765014202565
 97
        0
 92
       16
 93
        3
 72
     1
 10
1.622364536235675
 20
0.3586169575295115
 11
1.659801223192726
 21
0.3010763836888712
 72
     1
 10
1.659801223192726
 20
0.3010763836888712
 11
1.584928205528949
 21
0.3010762055637086
 72
     1
 10
1.584928205528949
 20
0.3010762055637086
 11
1.622364348735612
 21
0.3586165994043766
 97
        0
 75
     0
 76
     1
 98
        1
 10
-7.279586802153931
 20
-0.4081141432880261
  0
HATCH
  5
849
330
841
100
AcDbEntity
  8
TITLEBLOCK
 62
     0
100
AcDbHatch
 10
0.0
 20
0.0
 30
0.0
210
0.0
220
0.0
230
1.0
  2
SOLID
 70
     1
 71
     0
 91
        1
 92
        1
 93
       12
 72
     1
 10
1.392021104504447
 20
0.3865765014202565
 11
1.370458815418015
 21
0.3865765014202565
 72
     1
 10
1.370458815418015
 20
0.3865765014202565
 11
1.370458627917951
 21
0.2795138227272444
 72
     2
 10
1.39202114575308
 20
0.2795135133528436
 40
0.0215625178373483
 50
179.999177932392
 51
269.9998903944058
 73
     1
 72
     1
 10
1.392021104504447
 20
0.2579509955155343
 11
1.509583287556818
 21
0.2579511736405264
 72
     2
 10
1.509583335369764
 20
0.2795136024146219
 40
0.0215624287741484
 50
269.9998729512306
 51
359.9996387857453
 73
     1
 72
     1
 10
1.531145764143484
 20
0.2795134664769192
 11
1.531146120393639
 21
0.3865765014202565
 72
     1
 10
1.531146120393639
 20
0.3865765014202565
 11
1.509583287556818
 21
0.3865765014202565
 72
     1
 10
1.509583287556818
 20
0.3865765014202565
 11
1.509583287556818
 21
0.2902950591455122
 72
     2
 10
1.498801916139266
 20
0.290294926019563
 40
0.0107813714183743
 50
359.9992925246018
 51
449.9992925333428
 73
     0
 72
     1
 10
1.49880204926357
 20
0.2795135546020104
 11
1.402802342797695
 21
0.2795135546020104
 72
     2
 10
1.402802382172719
 20
0.2902950197703451
 40
0.0107814651684066
 50
90.00020925010334
 51
180.0002092508632
 73
     0
 72
     1
 10
1.392020917004384
 20
0.2902950591455122
 11
1.392021104504447
 21
0.3865765014202565
 97
        0
 75
     0
 76
     1
 98
        1
 10
-7.279586802153931
 20
-0.4081141432880261
  0
HATCH
  5
84A
330
841
100
AcDbEntity
  8
TITLEBLOCK
 62
     0
100
AcDbHatch
 10
0.0
 20
0.0
 30
0.0
210
0.0
220
0.0
230
1.0
  2
SOLID
 70
     1
 71
     0
 91
        2
 92
        1
 93
       13
 72
     2
 10
1.851958289039648
 20
0.2899198104641797
 40
0.0215625675244637
 50
0.0002565813902296
 51
90.00070498518821
 73
     1
 72
     2
 10
1.851958289040149
 20
0.3330449455099156
 40
0.0215625675245372
 50
269.9992950134807
 51
359.9995092535441
 73
     1
 72
     1
 10
1.873520856563896
 20
0.3330447608234748
 11
1.873520856563896
 21
0.3650136657708798
 72
     2
 10
1.851957894958188
 20
0.3650135398162329
 40
0.0215629616060761
 50
0.0003346789653151
 51
89.99920945081219
 73
     1
 72
     1
 10
1.851958192477166
 20
0.3865765014202565
 11
1.720333350237904
 21
0.3865765014202565
 72
     1
 10
1.720333350237904
 20
0.3865765014202565
 11
1.720333350237904
 21
0.2579511736405264
 72
     1
 10
1.720333350237904
 20
0.2579511736405264
 11
1.741896183074725
 21
0.2579511736405264
 72
     1
 10
1.741896183074725
 20
0.2579511736405264
 11
1.741896183074725
 21
0.3007013215688856
 72
     1
 10
1.741896183074725
 20
0.3007013215688856
 11
1.841176785433827
 21
0.3007013215688856
 72
     2
 10
1.841176693559081
 20
0.2899201789011263
 40
0.0107811426681508
 50
270.0004882631974
 51
360.0004882673548
 73
     0
 72
     1
 10
1.851957836226841
 20
0.289920087025598
 11
1.851958192477166
 21
0.2579511736405264
 72
     1
 10
1.851958192477166
 20
0.2579511736405264
 11
1.873520856563896
 21
0.2579511736405264
 72
     1
 10
1.873520856563896
 20
0.2579511736405264
 11
1.873520856563896
 21
0.2899199070254552
 97
        0
 92
       16
 93
        6
 72
     2
 10
1.841176693559081
 20
0.3542325296658069
 40
0.0107811426681508
 50
270.0004882631974
 51
360.0004882673548
 73
     0
 72
     1
 10
1.851957836226841
 20
0.3542324377902786
 11
1.851958192477166
 21
0.333044848948566
 72
     2
 10
1.841176871684197
 20
0.333044935198247
 40
0.0107813207933138
 50
0.0004583615308307
 51
90.00045836519477
 73
     0
 72
     1
 10
1.841176785433827
 20
0.3222636144052784
 11
1.741896183074725
 21
0.3222638825303419
 72
     1
 10
1.741896183074725
 20
0.3222638825303419
 11
1.741896183074725
 21
0.3650136723335662
 72
     1
 10
1.741896183074725
 20
0.3650136723335662
 11
1.841176785433827
 21
0.3650136723335662
 97
        0
 75
     0
 76
     1
 98
        1
 10
-7.279586802153931
 20
-0.4081141432880261
  0
HATCH
  5
84B
330
841
100
AcDbEntity
  8
TITLEBLOCK
 62
     0
100
AcDbHatch
 10
0.0
 20
0.0
 30
0.0
210
0.0
220
0.0
230
1.0
  2
SOLID
 70
     1
 71
     0
 91
        2
 92
        1
 93
       10
 72
     1
 10
2.168832611988261
 20
0.3650136723335662
 11
2.168832611988261
 21
0.2795135546021492
 72
     1
 10
2.168832611988261
 20
0.2795135546021492
 11
2.148020079641632
 21
0.2795135546021492
 72
     1
 10
2.148020079641632
 20
0.2795135546021492
 11
2.148020079641632
 21
0.2579511736406499
 72
     1
 10
2.148020079641632
 20
0.2579511736406499
 11
2.314895263659607
 21
0.2579511736406499
 72
     2
 10
2.314895311472477
 20
0.2795136024147182
 40
0.0215624287741214
 50
269.9998729514336
 51
359.9996387859474
 73
     1
 72
     1
 10
2.336457740246171
 20
0.2795134664770916
 11
2.336457740246171
 21
0.3650136723335662
 72
     2
 10
2.314895087410214
 20
0.3650138485844006
 40
0.0215626528366775
 50
359.9995316703829
 51
449.999531674211
 73
     1
 72
     1
 10
2.314895263659607
 20
0.386576501420358
 11
2.148020079641632
 21
0.386576501420358
 72
     1
 10
2.148020079641632
 20
0.386576501420358
 11
2.148020079641632
 21
0.3650136723335662
 72
     1
 10
2.148020079641632
 20
0.3650136723335662
 11
2.168832611988261
 21
0.3650136723335662
 97
        0
 92
       16
 93
        6
 72
     1
 10
2.190395257324933
 20
0.3650136723335662
 11
2.304113856616218
 21
0.3650136723335662
 72
     2
 10
2.304113942866619
 20
0.3542323515405775
 40
0.0107813207933337
 50
269.9995416346447
 51
359.9995416383139
 73
     0
 72
     1
 10
2.314895263659607
 20
0.3542324377902877
 11
2.314895263659607
 21
0.2902949691455452
 72
     2
 10
2.304113807866077
 20
0.2902950103956483
 40
0.0107814557936096
 50
0.0002192149982456
 51
89.99974092762393
 73
     0
 72
     1
 10
2.304113856616218
 20
0.2795135546021492
 11
2.190395257324933
 21
0.2795135546021492
 72
     1
 10
2.190395257324933
 20
0.2795135546021492
 11
2.190395257324933
 21
0.3650136723335662
 97
        0
 75
     0
 76
     1
 98
        1
 10
-7.279586802153931
 20
-0.4081141432880261
  0
HATCH
  5
84C
330
841
100
AcDbEntity
  8
TITLEBLOCK
 62
     0
100
AcDbHatch
 10
0.0
 20
0.0
 30
0.0
210
0.0
220
0.0
230
1.0
  2
SOLID
 70
     1
 71
     0
 91
        2
 92
        1
 93
        8
 72
     1
 10
3.241392303571654
 20
0.3865765014202565
 11
3.157707226761072
 21
0.2579509955155343
 72
     1
 10
3.157707226761072
 20
0.2579509955155343
 11
3.183432299816939
 21
0.2579511736405264
 72
     1
 10
3.183432299816939
 20
0.2579511736405264
 11
3.197460983981823
 21
0.2795133764768478
 72
     1
 10
3.197460983981823
 20
0.2795133764768478
 11
3.30039082622498
 21
0.2795135546020104
 72
     1
 10
3.30039082622498
 20
0.2795135546020104
 11
3.314419679139785
 21
0.2579514417655899
 72
     1
 10
3.314419679139785
 20
0.2579514417655899
 11
3.340144583445731
 21
0.2579511736405264
 72
     1
 10
3.340144583445731
 20
0.2579511736405264
 11
3.256459603774981
 21
0.3865765014202565
 72
     1
 10
3.256459603774981
 20
0.3865765014202565
 11
3.241392303571654
 21
0.3865765014202565
 97
        0
 92
       16
 93
        3
 72
     1
 10
3.248925740352245
 20
0.358616778466603
 11
3.211489480646473
 21
0.3010762055637086
 72
     1
 10
3.211489480646473
 20
0.3010762055637086
 11
3.28636178580994
 21
0.3010763836888712
 72
     1
 10
3.28636178580994
 20
0.3010763836888712
 11
3.248925740352245
 21
0.358616778466603
 97
        0
 75
     0
 76
     1
 98
        1
 10
-7.279586802153931
 20
-0.4081141432880261
  0
HATCH
  5
84D
330
841
100
AcDbEntity
  8
TITLEBLOCK
 62
     0
100
AcDbHatch
 10
0.0
 20
0.0
 30
0.0
210
0.0
220
0.0
230
1.0
  2
SOLID
 70
     1
 71
     0
 91
        1
 92
        1
 93
       13
 72
     1
 10
2.838488736968525
 20
0.3865765014202565
 11
2.806145209588674
 21
0.3865765014202565
 72
     1
 10
2.806145209588674
 20
0.3865765014202565
 11
2.806145209588674
 21
0.2579511736405264
 72
     1
 10
2.806145209588674
 20
0.2579511736405264
 11
2.827707667425368
 21
0.2579511736405264
 72
     1
 10
2.827707667425368
 20
0.2579511736405264
 11
2.827707667425368
 21
0.3640633654626753
 72
     1
 10
2.827707667425368
 20
0.3640633654626753
 11
2.899718420719221
 21
0.2579514417655899
 72
     1
 10
2.899718420719221
 20
0.2579514417655899
 11
2.922570860648686
 21
0.2579511736405264
 72
     1
 10
2.922570860648686
 20
0.2579511736405264
 11
2.994582138942956
 21
0.3640642598382782
 72
     1
 10
2.994582138942956
 20
0.3640642598382782
 11
2.994582138942956
 21
0.2579511736405264
 72
     1
 10
2.994582138942956
 20
0.2579511736405264
 11
3.016144596779479
 21
0.2579511736405264
 72
     1
 10
3.016144596779479
 20
0.2579511736405264
 11
3.016144596779479
 21
0.3865765014202565
 72
     1
 10
3.016144596779479
 20
0.3865765014202565
 11
2.983801425649954
 21
0.3865765014202565
 72
     1
 10
2.983801425649954
 20
0.3865765014202565
 11
2.911144640683954
 21
0.2795135546020104
 72
     1
 10
2.911144640683954
 20
0.2795135546020104
 11
2.838488380718199
 21
0.3865765014202565
 97
        0
 75
     0
 76
     1
 98
        1
 10
-7.279586802153931
 20
-0.4081141432880261
  0
HATCH
  5
84E
330
841
100
AcDbEntity
  8
TITLEBLOCK
 62
     0
100
AcDbHatch
 10
0.0
 20
0.0
 30
0.0
210
0.0
220
0.0
230
1.0
  2
SOLID
 70
     1
 71
     0
 91
        2
 92
        1
 93
        8
 72
     1
 10
2.79358243888161
 20
0.2795134664769192
 11
2.793582795131936
 21
0.3650136723335662
 72
     2
 10
2.772020240733041
 20
0.3650137688961994
 40
0.0215625543991104
 50
359.9997434148459
 51
449.999743415997
 73
     1
 72
     1
 10
2.772020337295241
 20
0.3865763232950938
 11
2.640957676673206
 21
0.3865763232950938
 72
     2
 10
2.640957763860811
 20
0.3650137595211699
 40
0.0215625637741002
 50
90.00023167383188
 51
179.9999925267453
 73
     1
 72
     1
 10
2.61939520008671
 20
0.3650137623336376
 11
2.61939520008671
 21
0.2795135546020104
 72
     2
 10
2.640957628860649
 20
0.2795136024144641
 40
0.0215624287739915
 50
180.0001270474597
 51
270.0001270477355
 73
     1
 72
     1
 10
2.640957676673206
 20
0.2579511736405264
 11
2.772020337295241
 21
0.2579511736405264
 72
     2
 10
2.772020197607671
 20
0.2795134149140743
 40
0.0215622412740004
 50
270.000371181646
 51
360.000137014207
 73
     1
 97
        0
 92
       16
 93
        8
 72
     2
 10
2.651738913091431
 20
0.3542324359149649
 40
0.0107812364186015
 50
89.9999900344766
 51
179.999521702949
 73
     1
 72
     1
 10
2.640957676673206
 20
0.3542325259151993
 11
2.640957676673206
 21
0.2902950591455122
 72
     2
 10
2.651738958091508
 20
0.2902950160204556
 40
0.010781281418388
 50
179.9997708172488
 51
269.9997708181704
 73
     1
 72
     1
 10
2.651738914966625
 20
0.2795137346021532
 11
2.761238742751839
 21
0.2795135546020104
 72
     2
 10
2.761238956501978
 20
0.2902951041442614
 40
0.0107815495443698
 50
269.9988640797126
 51
359.9992825833961
 73
     1
 72
     1
 10
2.772020506045503
 20
0.2902949691454408
 11
2.772020337295241
 21
0.3542324377902786
 72
     2
 10
2.761239007127366
 20
0.3542323421656908
 40
0.0107813301682991
 50
0.0005081826837109
 51
90.00050818719378
 73
     1
 72
     1
 10
2.76123891150193
 20
0.3650136723335662
 11
2.651738914966625
 21
0.3650136723335662
 97
        0
 75
     0
 76
     1
 98
        1
 10
-7.279586802153931
 20
-0.4081141432880261
  0
HATCH
  5
84F
330
841
100
AcDbEntity
  8
TITLEBLOCK
 62
     0
100
AcDbHatch
 10
0.0
 20
0.0
 30
0.0
210
0.0
220
0.0
230
1.0
  2
SOLID
 70
     1
 71
     0
 91
        2
 92
        1
 93
        8
 72
     2
 10
3.162769048174736
 20
0.3650134554401196
 40
0.0215630459811904
 50
270.0005663490367
 51
359.9994236862867
 73
     0
 72
     1
 10
3.184332094154836
 20
0.3650136723335662
 11
3.184332094154836
 21
0.3222638825303419
 72
     2
 10
3.162769397256125
 20
0.3222640184675962
 40
0.0215626968991391
 50
0.0003612085718475
 51
90.00036121084693
 73
     0
 72
     1
 10
3.162769261318015
 20
0.3007013215688856
 11
3.052707420665665
 21
0.3007013215688856
 72
     1
 10
3.052707420665665
 20
0.3007013215688856
 11
3.052707420665665
 21
0.2579511736405264
 72
     1
 10
3.052707420665665
 20
0.2579511736405264
 11
3.031144250328662
 21
0.2579511736405264
 72
     1
 10
3.031144250328662
 20
0.2579511736405264
 11
3.031144250328662
 21
0.3865765014202565
 72
     1
 10
3.031144250328662
 20
0.3865765014202565
 11
3.162769261318015
 21
0.3865765014202565
 97
        0
 92
       16
 93
        6
 72
     2
 10
3.151988118650169
 20
0.3542325296657216
 40
0.0107811426682361
 50
270.0004882627443
 51
360.0004882669015
 73
     0
 72
     1
 10
3.162769261318015
 20
0.3542324377902786
 11
3.162769261318015
 21
0.333044848948566
 72
     2
 10
3.151988118650169
 20
0.333044757073123
 40
0.0107811426682367
 50
359.9995117330984
 51
449.9995117372556
 73
     0
 72
     1
 10
3.15198821052483
 20
0.3222636144052784
 11
3.052707420665665
 21
0.3222638825303419
 72
     1
 10
3.052707420665665
 20
0.3222638825303419
 11
3.052707420665665
 21
0.3650136723335662
 72
     1
 10
3.052707420665665
 20
0.3650136723335662
 11
3.15198821052483
 21
0.3650136723335662
 97
        0
 75
     0
 76
     1
 98
        1
 10
-7.279586802153931
 20
-0.4081141432880261
  0
HATCH
  5
850
330
841
100
AcDbEntity
  8
TITLEBLOCK
 62
     0
100
AcDbHatch
 10
0.0
 20
0.0
 30
0.0
210
0.0
220
0.0
230
1.0
  2
SOLID
 70
     1
 71
     0
 91
        1
 92
        1
 93
        9
 72
     1
 10
3.556847887515953
 20
0.3865763232950938
 11
3.525206566844968
 21
0.3865765014202565
 72
     1
 10
3.525206566844968
 20
0.3865765014202565
 11
3.60348814923547
 21
0.3136817019238036
 72
     1
 10
3.60348814923547
 20
0.3136817019238036
 11
3.603486349234383
 21
0.2579511736405264
 72
     1
 10
3.603486349234383
 20
0.2579511736405264
 11
3.625050607072164
 21
0.2579511736405264
 72
     1
 10
3.625050607072164
 20
0.2579511736405264
 11
3.625050607072164
 21
0.3136813437984982
 72
     1
 10
3.625050607072164
 20
0.3136813437984982
 11
3.703331833212512
 21
0.3865766795454191
 72
     1
 10
3.703331833212512
 20
0.3865766795454191
 11
3.671691225042007
 21
0.3865765014202565
 72
     1
 10
3.671691225042007
 20
0.3865765014202565
 11
3.61426955627898
 21
0.3331056458632473
 72
     1
 10
3.61426955627898
 20
0.3331056458632473
 11
3.556847887515953
 21
0.3865763232950938
 97
        0
 75
     0
 76
     1
 98
        1
 10
-7.279586802153931
 20
-0.4081141432880261
  0
HATCH
  5
851
330
841
100
AcDbEntity
  8
TITLEBLOCK
 62
     0
100
AcDbHatch
 10
0.0
 20
0.0
 30
0.0
210
0.0
220
0.0
230
1.0
  2
SOLID
 70
     1
 71
     0
 91
        1
 92
        1
 93
       10
 72
     1
 10
3.376247484495632
 20
0.3865765014202565
 11
3.345207161752892
 21
0.3865765014202565
 72
     1
 10
3.345207161752892
 20
0.3865765014202565
 11
3.345207161752892
 21
0.2579511736405264
 72
     1
 10
3.345207161752892
 20
0.2579511736405264
 11
3.366769638339558
 21
0.2579511736405264
 72
     1
 10
3.366769638339558
 20
0.2579511736405264
 11
3.366769638339558
 21
0.3659393041881229
 72
     1
 10
3.366769638339558
 20
0.3659393041881229
 11
3.48273627034943
 21
0.2579509955155343
 72
     1
 10
3.48273627034943
 20
0.2579509955155343
 11
3.515082122730785
 21
0.2579511736405264
 72
     1
 10
3.515082122730785
 20
0.2579511736405264
 11
3.515082122730785
 21
0.3865765014202565
 72
     1
 10
3.515082122730785
 20
0.3865765014202565
 11
3.49351767739277
 21
0.3865765014202565
 72
     1
 10
3.49351767739277
 20
0.3865765014202565
 11
3.49351767739277
 21
0.277374671329744
 72
     1
 10
3.49351767739277
 20
0.277374671329744
 11
3.376247484495632
 21
0.3865765014202565
 97
        0
 75
     0
 76
     1
 98
        1
 10
-7.279586802153931
 20
-0.4081141432880261
  0
ENDBLK
  5
853
330
841
100
AcDbEntity
  8
0
100
AcDbBlockEnd
  0
BLOCK
  5
AF5
330
AE5
100
AcDbEntity
  8
0
100
AcDbBlockBegin
  2
TITLE-PAD
 70
     2
 10
0.0
 20
0.0
 30
0.0
  3
TITLE-PAD
  1

  0
LWPOLYLINE
  5
B1D
330
AE5
100
AcDbEntity
  8
CONTINUOUS2
 62
     0
100
AcDbPolyline
 90
        7
 70
     1
 43
0.0
 10
16.40000099999999
 20
0.0
 10
16.40000099999999
 20
0.0
 10
16.40000099999999
 20
0.0
 10
8.002461
 20
0.0
 10
8.002461
 20
0.9120019999999993
 10
16.40000099999999
 20
0.9120019999999993
 10
16.40000099999999
 20
0.0
  0
INSERT
  5
B1E
330
AE5
100
AcDbEntity
  8
TITLEBLOCK
 62
     0
100
AcDbBlockReference
  2
LOGO-PAD
 10
12.245701
 20
0.3040000000000003
 30
0.0
  0
LINE
  5
B1F
330
AE5
100
AcDbEntity
  8
CONTINUOUS2
 62
     0
100
AcDbLine
 10
16.40000099999999
 20
0.3040000000000003
 30
0.0
 11
12.245701
 21
0.3040000000000003
 31
0.0
  0
LINE
  5
B20
330
AE5
100
AcDbEntity
  8
CONTINUOUS2
 62
     0
100
AcDbLine
 10
12.245701
 20
0.9120019999999993
 30
0.0
 11
12.245701
 21
0.0
 31
0.0
  0
TEXT
  5
B21
330
AE5
100
AcDbEntity
  8
TEXT1
  6
CONTINUOUS
 62
     0
100
AcDbText
 10
12.36897712113656
 20
0.0611566731182909
 30
0.0
 40
0.0699999951940822
  1
NO.
  7
ROMANS
 11
12.36897712113656
 21
0.096156670715332
 31
0.0
100
AcDbText
 73
     2
  0
TEXT
  5
B22
330
AE5
100
AcDbEntity
  8
TEXT1
  6
CONTINUOUS
 62
     0
100
AcDbText
 10
12.36897712113656
 20
0.1661566731182908
 30
0.0
 40
0.0699999951940822
  1
DWG#
  7
ROMANS
 11
12.36897712113656
 21
0.2011566707153319
 31
0.0
100
AcDbText
 73
     2
  0
ATTDEF
  5
B23
330
AE5
100
AcDbEntity
  8
TEXT1
 62
     0
100
AcDbText
 10
10.10183834893798
 20
0.7474460884590166
 30
0.0
 40
0.1
  1

  7
ROMANS
 72
     4
 11
10.10183834893798
 21
0.7474460884590166
 31
0.0
100
AcDbAttributeDefinition
  3
DESCRIPTION 1
  2
DESCRIPTION 1
 70
     0
  0
ATTDEF
  5
B24
330
AE5
100
AcDbEntity
  8
TEXT1
 62
     0
100
AcDbText
 10
10.10183834893798
 20
0.6017231711406717
 30
0.0
 40
0.1
  1

  7
ROMANS
 72
     4
 11
10.10183834893798
 21
0.6017231711406717
 31
0.0
100
AcDbAttributeDefinition
  3
DESCRIPTION 2
  2
DESCRIPTION 2
 70
     0
  0
ATTDEF
  5
B25
330
AE5
100
AcDbEntity
  8
TEXT1
 62
     0
100
AcDbText
 10
10.10183834893798
 20
0.4560002538223267
 30
0.0
 40
0.08
  1

  7
ROMANS
 72
     4
 11
10.10183834893798
 21
0.4560002538223267
 31
0.0
100
AcDbAttributeDefinition
  3
DESCRIPTION 3
  2
DESCRIPTION 3
 70
     0
  0
ATTDEF
  5
B26
330
AE5
100
AcDbEntity
  8
TEXT1
 62
     0
100
AcDbText
 10
10.10183834893798
 20
0.3202773365039833
 30
0.0
 40
0.08
  1

  7
ROMANS
 72
     4
 11
10.10183834893798
 21
0.3202773365039833
 31
0.0
100
AcDbAttributeDefinition
  3
DESCRIPTION 4
  2
DESCRIPTION 4
 70
     0
  0
ATTDEF
  5
B27
330
AE5
100
AcDbEntity
  8
TEXT1
 62
     0
100
AcDbText
 10
10.10183834893798
 20
0.1845544191856399
 30
0.0
 40
0.08
  1

  7
ROMANS
 72
     4
 11
10.10183834893798
 21
0.1845544191856399
 31
0.0
100
AcDbAttributeDefinition
  3
DESCRIPTION 5
  2
DESCRIPTION 5
 70
     0
  0
ATTDEF
  5
B28
330
AE5
100
AcDbEntity
  8
TEXT1
 62
     0
100
AcDbText
 10
12.74772367103195
 20
0.096540546036505
 30
0.0
 40
0.12
  1

 41
0.9512024731840066
  7
M_STANDARD
 11
12.74772367103195
 21
0.156540546036505
 31
0.0
100
AcDbAttributeDefinition
  3
DRAWING NUMBER
  2
DWGNO
 70
     0
 74
     2
  0
ATTDEF
  5
B29
330
AE5
100
AcDbEntity
  8
TEXT1
 62
     0
100
AcDbText
 10
16.35506454949325
 20
-0.1507193079929352
 30
0.0
 40
0.08
  1

  7
ROMANS
 72
     2
 11
16.35506454949325
 21
-0.1107193079929352
 31
0.0
100
AcDbAttributeDefinition
  3
REF DWG #
  2
REF
 70
     0
 74
     2
  0
ATTDEF
  5
B2A
330
AE5
100
AcDbEntity
  8
TEXT1
 62
     0
100
AcDbText
 10
0.0266402374038712
 20
-0.1507193079929352
 30
0.0
 40
0.08
  1

  7
ROMANS
 11
0.0266402374038712
 21
-0.1107193079929352
 31
0.0
100
AcDbAttributeDefinition
  3
DATE MODIFIED
  2
DATE
 70
     0
 74
     2
  0
LWPOLYLINE
  5
B2B
330
AE5
100
AcDbEntity
  8
CONTINUOUS3
 62
     0
100
AcDbPolyline
 90
        4
 70
   129
 43
0.0
 10
0.0
 20
0.0
 10
16.40000099999999
 20
0.0
 10
16.40000099999999
 20
10.25
 10
0.0
 20
10.25
  0
ENDBLK
  5
AF6
330
AE5
100
AcDbEntity
  8
0
100
AcDbBlockEnd
  0
BLOCK
  5
2918
330
2916
100
AcDbEntity
  8
0
100
AcDbBlockBegin
  2
M_PFN_2
 70
     0
 10
0.0
 20
0.0
 30
0.0
  3
M_PFN_2
  1

  0
POINT
  5
2917
330
2916
100
AcDbEntity
  8
0
  6
BYBLOCK
 62
     0
100
AcDbPoint
 10
0.0
 20
0.0
 30
0.0
  0
ENDBLK
  5
2919
330
2916
100
AcDbEntity
  8
0
100
AcDbBlockEnd
  0
BLOCK
  5
2B63
330
2B5A
100
AcDbEntity
  8
0
100
AcDbBlockBegin
  2
*D3
 70
     1
 10
0.0
 20
0.0
 30
0.0
  3
*D3
  1

  0
LINE
  5
431E
330
2B5A
100
AcDbEntity
  8
DIM
100
AcDbLine
 10
64.92192636081634
 20
87.98657078575663
 30
0.0
 11
63.88859302748315
 21
87.98657078575665
 31
0.0
  0
LINE
  5
431F
330
2B5A
100
AcDbEntity
  8
DIM
100
AcDbLine
 10
63.88859302748315
 20
87.98657078575665
 30
0.0
 11
61.05522854748565
 21
90.91850610886986
 31
0.0
  0
MTEXT
  5
4320
330
2B5A
100
AcDbEntity
  8
DIM
100
AcDbMText
 10
66.84573588462587
 20
87.98657078575663
 30
0.0
 40
1.0
 41
0.0
 71
     5
 72
     1
  1
\A1;R.25\P[6]
  7
ROMANS
1001
ACAD
1000
MTEXTBEGIN
1070
    73
1070
     1
1070
    44
1040
1.0
1070
    74
1070
     0
1000
MTEXTEND
  0
INSERT
  5
4321
330
2B5A
100
AcDbEntity
  8
DIM
100
AcDbBlockReference
  2
SEARROW
 10
60.56878760587821
 20
91.42187000341143
 30
0.0
 41
0.7000000000000001
 42
0.7000000000000001
 43
0.7000000000000001
 50
134.0204944619514
  0
LINE
  5
4322
330
2B5A
100
AcDbEntity
  8
DIM
100
AcDbLine
 10
59.01582082241917
 20
92.77016612423743
 30
0.0
 11
59.51582082241916
 21
92.77016612423745
 31
0.0
  0
LINE
  5
4323
330
2B5A
100
AcDbEntity
  8
DIM
100
AcDbLine
 10
59.26582082241917
 20
92.52016612423743
 30
0.0
 11
59.26582082241917
 21
93.02016612423743
 31
0.0
  0
POINT
  5
4324
330
2B5A
100
AcDbEntity
  8
DEFPOINTS
 62
     0
100
AcDbPoint
 10
60.56878760587821
 20
91.42187000341143
 30
0.0
  0
POINT
  5
4325
330
2B5A
100
AcDbEntity
  8
DEFPOINTS
 62
     0
100
AcDbPoint
 10
57.96285403896014
 20
94.11846224506343
 30
0.0
  0
ENDBLK
  5
2B64
330
2B5A
100
AcDbEntity
  8
0
100
AcDbBlockEnd
  0
BLOCK
  5
2B6F
330
2B66
100
AcDbEntity
  8
0
100
AcDbBlockBegin
  2
*D4
 70
     1
 10
0.0
 20
0.0
 30
0.0
  3
*D4
  1

  0
LINE
  5
4326
330
2B66
100
AcDbEntity
  8
DIM
100
AcDbLine
 10
66.14155173873221
 20
96.70753907923387
 30
0.0
 11
65.4415517387322
 21
96.70753907923387
 31
0.0
  0
LINE
  5
4327
330
2B66
100
AcDbEntity
  8
DIM
100
AcDbLine
 10
65.4415517387322
 20
96.70753907923387
 30
0.0
 11
61.04328674444058
 21
95.3300116748294
 31
0.0
  0
MTEXT
  5
4328
330
2B66
100
AcDbEntity
  8
DIM
100
AcDbMText
 10
68.06536126254174
 20
96.70753907923387
 30
0.0
 40
1.0
 41
0.0
 71
     5
 72
     1
  1
\A1;R.16\P[4]
  7
ROMANS
1001
ACAD
1000
MTEXTBEGIN
1070
    73
1070
     1
1070
    44
1040
1.0
1070
    74
1070
     0
1000
MTEXTEND
  0
INSERT
  5
4329
330
2B66
100
AcDbEntity
  8
DIM
100
AcDbBlockReference
  2
SEARROW
 10
60.37528362254246
 20
95.12079449309144
 30
0.0
 41
0.7000000000000001
 42
0.7000000000000001
 43
0.7000000000000001
 50
197.3904471099091
  0
LINE
  5
432A
330
2B66
100
AcDbEntity
  8
DIM
100
AcDbLine
 10
59.01582082241908
 20
94.77331306272722
 30
0.0
 11
59.51582082241907
 21
94.77331306272722
 31
0.0
  0
LINE
  5
432B
330
2B66
100
AcDbEntity
  8
DIM
100
AcDbLine
 10
59.26582082241907
 20
94.52331306272723
 30
0.0
 11
59.26582082241907
 21
95.02331306272722
 31
0.0
  0
POINT
  5
432C
330
2B66
100
AcDbEntity
  8
DEFPOINTS
 62
     0
100
AcDbPoint
 10
60.37528362254246
 20
95.12079449309144
 30
0.0
  0
POINT
  5
432D
330
2B66
100
AcDbEntity
  8
DEFPOINTS
 62
     0
100
AcDbPoint
 10
58.15635802229568
 20
94.42583163236301
 30
0.0
  0
ENDBLK
  5
2B70
330
2B66
100
AcDbEntity
  8
0
100
AcDbBlockEnd
  0
BLOCK
  5
2B7D
330
2B72
100
AcDbEntity
  8
0
100
AcDbBlockBegin
  2
*D5
 70
     1
 10
0.0
 20
0.0
 30
0.0
  3
*D5
  1

  0
LINE
  5
432E
330
2B72
100
AcDbEntity
  8
DIM
100
AcDbLine
 10
38.99999148652693
 20
86.9174938584352
 30
0.0
 11
33.8136707841714
 21
86.9174938584352
 31
0.0
  0
LINE
  5
432F
330
2B72
100
AcDbEntity
  8
DIM
100
AcDbLine
 10
38.99999148652693
 20
56.65749385843518
 30
0.0
 11
33.8136707841714
 21
56.65749385843518
 31
0.0
  0
LINE
  5
4330
330
2B72
100
AcDbEntity
  8
DIM
100
AcDbLine
 10
34.4386707841714
 20
86.2174938584352
 30
0.0
 11
34.4386707841714
 21
73.78273195367327
 31
0.0
  0
LINE
  5
4331
330
2B72
100
AcDbEntity
  8
DIM
100
AcDbLine
 10
34.4386707841714
 20
57.35749385843519
 30
0.0
 11
34.4386707841714
 21
69.79225576319709
 31
0.0
  0
INSERT
  5
4332
330
2B72
100
AcDbEntity
  8
DIM
100
AcDbBlockReference
  2
SEARROW
 10
34.4386707841714
 20
86.9174938584352
 30
0.0
 41
0.7000000000000001
 42
0.7000000000000001
 43
0.7000000000000001
 50
90.0
  0
INSERT
  5
4333
330
2B72
100
AcDbEntity
  8
DIM
100
AcDbBlockReference
  2
SEARROW
 10
34.4386707841714
 20
56.65749385843518
 30
0.0
 41
0.7000000000000001
 42
0.7000000000000001
 43
0.7000000000000001
 50
270.0
  0
MTEXT
  5
4334
330
2B72
100
AcDbEntity
  8
DIM
100
AcDbMText
 10
34.43867078417139
 20
71.7874938584352
 30
0.0
 40
1.0
 41
0.0
 71
     5
 72
     1
  1
\A1;30.26\P [769]
  7
ROMANS
1001
ACAD
1000
MTEXTBEGIN
1070
    73
1070
     1
1070
    44
1040
1.0
1070
    74
1070
     0
1000
MTEXTEND
  0
POINT
  5
4335
330
2B72
100
AcDbEntity
  8
DEFPOINTS
 62
     0
100
AcDbPoint
 10
39.62499148652693
 20
86.9174938584352
 30
0.0
  0
POINT
  5
4336
330
2B72
100
AcDbEntity
  8
DEFPOINTS
 62
     0
100
AcDbPoint
 10
39.62499148652693
 20
56.65749385843518
 30
0.0
  0
POINT
  5
4337
330
2B72
100
AcDbEntity
  8
DEFPOINTS
 62
     0
100
AcDbPoint
 10
34.4386707841714
 20
56.65749385843518
 30
0.0
  0
ENDBLK
  5
2B7E
330
2B72
100
AcDbEntity
  8
0
100
AcDbBlockEnd
  0
BLOCK
  5
2B8B
330
2B80
100
AcDbEntity
  8
0
100
AcDbBlockBegin
  2
*D6
 70
     1
 10
0.0
 20
0.0
 30
0.0
  3
*D6
  1

  0
LINE
  5
4338
330
2B80
100
AcDbEntity
  8
DIM
100
AcDbLine
 10
39.62499148652693
 20
56.05249385843519
 30
0.0
 11
39.62499148652693
 21
49.72575327496741
 31
0.0
  0
LINE
  5
4339
330
2B80
100
AcDbEntity
  8
DIM
100
AcDbLine
 10
49.87499148652694
 20
56.05249385843519
 30
0.0
 11
49.87499148652694
 21
49.72575327496741
 31
0.0
  0
LINE
  5
433A
330
2B80
100
AcDbEntity
  8
DIM
100
AcDbLine
 10
40.32499148652694
 20
50.35075327496741
 30
0.0
 11
41.96903910557455
 21
50.35075327496741
 31
0.0
  0
LINE
  5
433B
330
2B80
100
AcDbEntity
  8
DIM
100
AcDbLine
 10
49.17499148652693
 20
50.35075327496741
 30
0.0
 11
47.53094386747931
 21
50.35075327496741
 31
0.0
  0
INSERT
  5
433C
330
2B80
100
AcDbEntity
  8
DIM
100
AcDbBlockReference
  2
SEARROW
 10
39.62499148652693
 20
50.35075327496741
 30
0.0
 41
0.7000000000000001
 42
0.7000000000000001
 43
0.7000000000000001
 50
180.0
  0
INSERT
  5
433D
330
2B80
100
AcDbEntity
  8
DIM
100
AcDbBlockReference
  2
SEARROW
 10
49.87499148652694
 20
50.35075327496741
 30
0.0
 41
0.7000000000000001
 42
0.7000000000000001
 43
0.7000000000000001
  0
MTEXT
  5
433E
330
2B80
100
AcDbEntity
  8
DIM
100
AcDbMText
 10
44.74999148652694
 20
50.35075327496741
 30
0.0
 40
1.0
 41
0.0
 71
     5
 72
     1
  1
\A1;10.25\P [260]
  7
ROMANS
1001
ACAD
1000
MTEXTBEGIN
1070
    73
1070
     1
1070
    44
1040
1.0
1070
    74
1070
     0
1000
MTEXTEND
  0
POINT
  5
433F
330
2B80
100
AcDbEntity
  8
DEFPOINTS
 62
     0
100
AcDbPoint
 10
39.62499148652693
 20
56.67749385843519
 30
0.0
  0
POINT
  5
4340
330
2B80
100
AcDbEntity
  8
DEFPOINTS
 62
     0
100
AcDbPoint
 10
49.87499148652694
 20
56.67749385843519
 30
0.0
  0
POINT
  5
4341
330
2B80
100
AcDbEntity
  8
DEFPOINTS
 62
     0
100
AcDbPoint
 10
49.87499148652694
 20
50.35075327496741
 30
0.0
  0
ENDBLK
  5
2B8C
330
2B80
100
AcDbEntity
  8
0
100
AcDbBlockEnd
  0
BLOCK
  5
2BAD
330
2BA2
100
AcDbEntity
  8
0
100
AcDbBlockBegin
  2
*D7
 70
     1
 10
0.0
 20
0.0
 30
0.0
  3
*D7
  1

  0
LINE
  5
4342
330
2BA2
100
AcDbEntity
  8
DIM
100
AcDbLine
 10
41.53523810263918
 20
56.37345021223696
 30
0.0
 11
26.98686754773531
 21
56.37345021223696
 31
0.0
  0
LINE
  5
4343
330
2BA2
100
AcDbEntity
  8
DIM
100
AcDbLine
 10
41.53523810263918
 20
87.20249385843519
 30
0.0
 11
26.98686754773531
 21
87.20249385843521
 31
0.0
  0
LINE
  5
4344
330
2BA2
100
AcDbEntity
  8
DIM
100
AcDbLine
 10
27.61186754773531
 20
57.07345021223696
 30
0.0
 11
27.61186754773531
 21
72.18992297419555
 31
0.0
  0
LINE
  5
4345
330
2BA2
100
AcDbEntity
  8
DIM
100
AcDbLine
 10
27.61186754773531
 20
86.50249385843521
 30
0.0
 11
27.61186754773531
 21
76.18039916467174
 31
0.0
  0
INSERT
  5
4346
330
2BA2
100
AcDbEntity
  8
DIM
100
AcDbBlockReference
  2
SEARROW
 10
27.61186754773531
 20
56.37345021223696
 30
0.0
 41
0.7000000000000001
 42
0.7000000000000001
 43
0.7000000000000001
 50
270.0
  0
INSERT
  5
4347
330
2BA2
100
AcDbEntity
  8
DIM
100
AcDbBlockReference
  2
SEARROW
 10
27.61186754773531
 20
87.20249385843521
 30
0.0
 41
0.7000000000000001
 42
0.7000000000000001
 43
0.7000000000000001
 50
90.0
  0
MTEXT
  5
4348
330
2BA2
100
AcDbEntity
  8
DIM
100
AcDbMText
 10
27.6118675477353
 20
74.18516106943364
 30
0.0
 40
1.0
 41
0.0
 71
     5
 72
     1
  1
\A1;30.83\P [783]
  7
ROMANS
1001
ACAD
1000
MTEXTBEGIN
1070
    73
1070
     1
1070
    44
1040
1.0
1070
    74
1070
     0
1000
MTEXTEND
  0
POINT
  5
4349
330
2BA2
100
AcDbEntity
  8
DEFPOINTS
 62
     0
100
AcDbPoint
 10
42.16023810263918
 20
56.37345021223696
 30
0.0
  0
POINT
  5
434A
330
2BA2
100
AcDbEntity
  8
DEFPOINTS
 62
     0
100
AcDbPoint
 10
42.16023810263918
 20
87.20249385843519
 30
0.0
  0
POINT
  5
434B
330
2BA2
100
AcDbEntity
  8
DEFPOINTS
 62
     0
100
AcDbPoint
 10
27.61186754773531
 20
87.20249385843521
 30
0.0
  0
ENDBLK
  5
2BAE
330
2BA2
100
AcDbEntity
  8
0
100
AcDbBlockEnd
  0
BLOCK
  5
2BFB
330
2BF0
100
AcDbEntity
  8
0
100
AcDbBlockBegin
  2
*D8
 70
     1
 10
0.0
 20
0.0
 30
0.0
  3
*D8
  1

  0
LINE
  5
434C
330
2BF0
100
AcDbEntity
  8
DIM
100
AcDbLine
 10
84.64984823073109
 20
54.1824938584352
 30
0.0
 11
84.64984823073109
 21
44.72575327496741
 31
0.0
  0
LINE
  5
434D
330
2BF0
100
AcDbEntity
  8
DIM
100
AcDbLine
 10
71.68984823073109
 20
73.56249385843513
 30
0.0
 11
71.68984823073109
 21
44.72575327496741
 31
0.0
  0
LINE
  5
434E
330
2BF0
100
AcDbEntity
  8
DIM
100
AcDbLine
 10
83.94984823073109
 20
45.35075327496741
 30
0.0
 11
80.95080061168347
 21
45.35075327496741
 31
0.0
  0
LINE
  5
434F
330
2BF0
100
AcDbEntity
  8
DIM
100
AcDbLine
 10
72.38984823073109
 20
45.35075327496741
 30
0.0
 11
75.3888958497787
 21
45.35075327496741
 31
0.0
  0
INSERT
  5
4350
330
2BF0
100
AcDbEntity
  8
DIM
100
AcDbBlockReference
  2
SEARROW
 10
84.64984823073109
 20
45.35075327496741
 30
0.0
 41
0.7000000000000001
 42
0.7000000000000001
 43
0.7000000000000001
  0
INSERT
  5
4351
330
2BF0
100
AcDbEntity
  8
DIM
100
AcDbBlockReference
  2
SEARROW
 10
71.68984823073109
 20
45.35075327496741
 30
0.0
 41
0.7000000000000001
 42
0.7000000000000001
 43
0.7000000000000001
 50
180.0
  0
MTEXT
  5
4352
330
2BF0
100
AcDbEntity
  8
DIM
100
AcDbMText
 10
78.16984823073109
 20
45.35075327496741
 30
0.0
 40
1.0
 41
0.0
 71
     5
 72
     1
  1
\A1;12.96\P [329]
  7
ROMANS
1001
ACAD
1000
MTEXTBEGIN
1070
    73
1070
     1
1070
    44
1040
1.0
1070
    74
1070
     0
1000
MTEXTEND
  0
POINT
  5
4353
330
2BF0
100
AcDbEntity
  8
DEFPOINTS
 62
     0
100
AcDbPoint
 10
84.64984823073109
 20
54.8074938584352
 30
0.0
  0
POINT
  5
4354
330
2BF0
100
AcDbEntity
  8
DEFPOINTS
 62
     0
100
AcDbPoint
 10
71.68984823073109
 20
74.18749385843513
 30
0.0
  0
POINT
  5
4355
330
2BF0
100
AcDbEntity
  8
DEFPOINTS
 62
     0
100
AcDbPoint
 10
71.68984823073109
 20
45.35075327496741
 30
0.0
  0
ENDBLK
  5
2BFC
330
2BF0
100
AcDbEntity
  8
0
100
AcDbBlockEnd
  0
BLOCK
  5
2C0B
330
2C00
100
AcDbEntity
  8
0
100
AcDbBlockBegin
  2
*D9
 70
     1
 10
0.0
 20
0.0
 30
0.0
  3
*D9
  1

  0
LINE
  5
4356
330
2C00
100
AcDbEntity
  8
DIM
100
AcDbLine
 10
84.64984823073109
 20
54.1824938584352
 30
0.0
 11
84.64984823073109
 21
49.72575327496741
 31
0.0
  0
LINE
  5
4357
330
2C00
100
AcDbEntity
  8
DIM
100
AcDbLine
 10
77.47360964240953
 20
56.05249385843519
 30
0.0
 11
77.47360964240953
 21
49.72575327496741
 31
0.0
  0
LINE
  5
4358
330
2C00
100
AcDbEntity
  8
DIM
100
AcDbLine
 10
85.34984823073109
 20
50.35075327496741
 30
0.0
 11
86.0498482307311
 21
50.35075327496741
 31
0.0
  0
LINE
  5
4359
330
2C00
100
AcDbEntity
  8
DIM
100
AcDbLine
 10
76.77360964240953
 20
50.35075327496741
 30
0.0
 11
76.07360964240952
 21
50.35075327496741
 31
0.0
  0
INSERT
  5
435A
330
2C00
100
AcDbEntity
  8
DIM
100
AcDbBlockReference
  2
SEARROW
 10
84.64984823073109
 20
50.35075327496741
 30
0.0
 41
0.7000000000000001
 42
0.7000000000000001
 43
0.7000000000000001
 50
180.0
  0
INSERT
  5
435B
330
2C00
100
AcDbEntity
  8
DIM
100
AcDbBlockReference
  2
SEARROW
 10
77.47360964240953
 20
50.35075327496741
 30
0.0
 41
0.7000000000000001
 42
0.7000000000000001
 43
0.7000000000000001
  0
MTEXT
  5
435C
330
2C00
100
AcDbEntity
  8
DIM
100
AcDbMText
 10
81.06172893657031
 20
50.35075327496741
 30
0.0
 40
1.0
 41
0.0
 71
     5
 72
     1
  1
\A1;7.18\P [182]
  7
ROMANS
1001
ACAD
1000
MTEXTBEGIN
1070
    73
1070
     1
1070
    44
1040
1.0
1070
    74
1070
     0
1000
MTEXTEND
  0
POINT
  5
435D
330
2C00
100
AcDbEntity
  8
DEFPOINTS
 62
     0
100
AcDbPoint
 10
84.64984823073109
 20
54.8074938584352
 30
0.0
  0
POINT
  5
435E
330
2C00
100
AcDbEntity
  8
DEFPOINTS
 62
     0
100
AcDbPoint
 10
77.47360964240953
 20
56.67749385843519
 30
0.0
  0
POINT
  5
435F
330
2C00
100
AcDbEntity
  8
DEFPOINTS
 62
     0
100
AcDbPoint
 10
77.47360964240953
 20
50.35075327496741
 30
0.0
  0
ENDBLK
  5
2C0C
330
2C00
100
AcDbEntity
  8
0
100
AcDbBlockEnd
  0
BLOCK
  5
2C19
330
2C0E
100
AcDbEntity
  8
0
100
AcDbBlockBegin
  2
*D10
 70
     1
 10
0.0
 20
0.0
 30
0.0
  3
*D10
  1

  0
LINE
  5
4360
330
2C0E
100
AcDbEntity
  8
DIM
100
AcDbLine
 10
42.18999148652694
 20
87.54345021223695
 30
0.0
 11
42.18999148652694
 21
92.96739564645809
 31
0.0
  0
LINE
  5
4361
330
2C0E
100
AcDbEntity
  8
DIM
100
AcDbLine
 10
47.30999148652695
 20
87.56345021223694
 30
0.0
 11
47.30999148652695
 21
92.96739564645809
 31
0.0
  0
LINE
  5
4362
330
2C0E
100
AcDbEntity
  8
DIM
100
AcDbLine
 10
46.60999148652694
 20
92.34239564645809
 30
0.0
 11
42.88999148652695
 21
92.34239564645809
 31
0.0
  0
LINE
  5
4363
330
2C0E
100
AcDbEntity
  8
DIM
100
AcDbLine
 10
42.18999148652694
 20
92.34239564645809
 30
0.0
 11
38.93475272603304
 21
92.34239564645809
 31
0.0
  0
INSERT
  5
4364
330
2C0E
100
AcDbEntity
  8
DIM
100
AcDbBlockReference
  2
SEARROW
 10
47.30999148652695
 20
92.34239564645809
 30
0.0
 41
0.7000000000000001
 42
0.7000000000000001
 43
0.7000000000000001
  0
INSERT
  5
4365
330
2C0E
100
AcDbEntity
  8
DIM
100
AcDbBlockReference
  2
SEARROW
 10
42.18999148652694
 20
92.34239564645809
 30
0.0
 41
0.7000000000000001
 42
0.7000000000000001
 43
0.7000000000000001
 50
180.0
  0
MTEXT
  5
4366
330
2C0E
100
AcDbEntity
  8
DIM
100
AcDbMText
 10
36.15380034508067
 20
92.34239564645809
 30
0.0
 40
1.0
 41
0.0
 71
     5
 72
     1
  1
\A1;5.12\P [130]
  7
ROMANS
1001
ACAD
1000
MTEXTBEGIN
1070
    73
1070
     1
1070
    44
1040
1.0
1070
    74
1070
     0
1000
MTEXTEND
  0
POINT
  5
4367
330
2C0E
100
AcDbEntity
  8
DEFPOINTS
 62
     0
100
AcDbPoint
 10
42.18999148652694
 20
86.91845021223695
 30
0.0
  0
POINT
  5
4368
330
2C0E
100
AcDbEntity
  8
DEFPOINTS
 62
     0
100
AcDbPoint
 10
47.30999148652695
 20
86.93845021223694
 30
0.0
  0
POINT
  5
4369
330
2C0E
100
AcDbEntity
  8
DEFPOINTS
 62
     0
100
AcDbPoint
 10
47.30999148652695
 20
92.34239564645809
 30
0.0
  0
ENDBLK
  5
2C1A
330
2C0E
100
AcDbEntity
  8
0
100
AcDbBlockEnd
  0
BLOCK
  5
2CE3
330
2CD8
100
AcDbEntity
  8
0
100
AcDbBlockBegin
  2
*D11
 70
     1
 10
0.0
 20
0.0
 30
0.0
  3
*D11
  1

  0
LINE
  5
436A
330
2CD8
100
AcDbEntity
  8
DIM
100
AcDbLine
 10
39.37499148652694
 20
35.00920556519912
 30
0.0
 11
39.37499148652694
 21
43.21590436315301
 31
0.0
  0
LINE
  5
436B
330
2CD8
100
AcDbEntity
  8
DIM
100
AcDbLine
 10
51.33499148652694
 20
41.20801408202108
 30
0.0
 11
51.33499148652694
 21
43.21590436315301
 31
0.0
  0
LINE
  5
436C
330
2CD8
100
AcDbEntity
  8
DIM
100
AcDbLine
 10
40.07499148652693
 20
42.59090436315301
 30
0.0
 11
42.57403910557456
 21
42.59090436315301
 31
0.0
  0
LINE
  5
436D
330
2CD8
100
AcDbEntity
  8
DIM
100
AcDbLine
 10
50.63499148652693
 20
42.59090436315301
 30
0.0
 11
48.13594386747932
 21
42.59090436315301
 31
0.0
  0
INSERT
  5
436E
330
2CD8
100
AcDbEntity
  8
DIM
100
AcDbBlockReference
  2
SEARROW
 10
39.37499148652694
 20
42.59090436315301
 30
0.0
 41
0.7000000000000001
 42
0.7000000000000001
 43
0.7000000000000001
 50
180.0
  0
INSERT
  5
436F
330
2CD8
100
AcDbEntity
  8
DIM
100
AcDbBlockReference
  2
SEARROW
 10
51.33499148652694
 20
42.59090436315301
 30
0.0
 41
0.7000000000000001
 42
0.7000000000000001
 43
0.7000000000000001
  0
MTEXT
  5
4370
330
2CD8
100
AcDbEntity
  8
DIM
100
AcDbMText
 10
45.35499148652694
 20
42.59090436315301
 30
0.0
 40
1.0
 41
0.0
 71
     5
 72
     1
  1
\A1;11.96\P [304]
  7
ROMANS
1001
ACAD
1000
MTEXTBEGIN
1070
    73
1070
     1
1070
    44
1040
1.0
1070
    74
1070
     0
1000
MTEXTEND
  0
POINT
  5
4371
330
2CD8
100
AcDbEntity
  8
DEFPOINTS
 62
     0
100
AcDbPoint
 10
39.37499148652694
 20
34.38420556519912
 30
0.0
  0
POINT
  5
4372
330
2CD8
100
AcDbEntity
  8
DEFPOINTS
 62
     0
100
AcDbPoint
 10
51.33499148652694
 20
40.58301408202108
 30
0.0
  0
POINT
  5
4373
330
2CD8
100
AcDbEntity
  8
DEFPOINTS
 62
     0
100
AcDbPoint
 10
51.33499148652694
 20
42.59090436315301
 30
0.0
  0
ENDBLK
  5
2CE4
330
2CD8
100
AcDbEntity
  8
0
100
AcDbBlockEnd
  0
BLOCK
  5
3002
330
3000
100
AcDbEntity
  8
0
100
AcDbBlockBegin
  2
SEARROW
 70
     0
 10
0.0
 20
0.0
 30
0.0
  3
SEARROW
  1

  0
LWPOLYLINE
  5
3001
330
3000
100
AcDbEntity
  8
0
  6
BYBLOCK
100
AcDbPolyline
 90
        2
 70
     0
 10
0.0
 20
0.0
 40
0.0
 41
0.5000000001500001
 10
-1.000000000300019
 20
0.0
 40
0.5000000001500001
 41
0.5000000001500001
  0
ENDBLK
  5
3003
330
3000
100
AcDbEntity
  8
0
100
AcDbBlockEnd
  0
ENDSEC
  0
SECTION
  2
ENTITIES
  0
LWPOLYLINE
  5
BF7
330
1F
100
AcDbEntity
  8
VIEWPORT
100
AcDbPolyline
 90
        6
 70
     1
 43
0.0
 10
163.9702928988225
 20
102.4534671709199
 10
163.9702928988225
 20
9.073487170919992
 10
79.99489289882255
 20
9.073487170919992
 10
79.99489289882255
 20
-0.0465328290799988
 10
-0.0297171011774438
 20
-0.0465328290799988
 10
-0.0297171011774438
 20
102.4534671709199
1001
GENIUS_GENOREF_13
1005
0
1005
0
1005
0
1005
0
1005
0
1005
0
1005
0
1005
0
  0
VIEWPORT
  5
BF8
330
1F
100
AcDbEntity
  8
VIEWPORT
100
AcDbViewport
 10
81.97028789882255
 20
51.20346717091999
 30
0.0
 40
164.0000099999999
 41
102.4999999999999
 69
     0
1001
ACAD
1000
MVIEW
1002
{
1070
    16
1010
0.0
1020
0.0
1030
0.0
1010
0.0
1020
0.0
1030
1.0
1040
0.0
1040
20.5
1040
16.39338663516312
1040
10.27133046991457
1040
50.0
1040
0.0
1040
0.0
1070
     0
1070
   100
1070
     1
1070
     2
1070
     0
1070
     0
1070
     0
1070
     0
1040
0.0
1040
0.0
1040
0.0
1040
0.5
1040
0.5
1040
0.5
1040
0.5
1070
     0
1002
{
1002
}
1002
}
1001
GENIUS_GENOREF_13
1005
0
1005
0
1005
0
1005
0
1005
0
1005
0
1005
0
1005
0
1001
GENIUS_GENSCREG_15
1000
PF
1040
0.0
1000
DF
1040
0.0
1000
MIN
1011
-0.0297171011774438
1021
-0.0465328290799988
1031
0.0
1000
MAX
1011
163.9702928988225
1021
102.4534671709199
1031
0.0
1000
FLAGS
1070
     2
  0
TEXT
  5
1D97
330
1F
100
AcDbEntity
  8
TEXT1
100
AcDbText
 10
2.47028289882256
 20
3.153467170920001
 30
0.0
 40
0.8
  1
FIELD CONVERTIBLE TO FEED TWO ALTERNATE LOADS FROM A SINGLE SOURCE
  7
ROMANS
 11
2.47028289882256
 21
3.553467170920001
 31
0.0
100
AcDbText
 73
     2
  0
TEXT
  5
1D98
330
1F
100
AcDbEntity
  8
TEXT1
100
AcDbText
 10
2.47028289882256
 20
6.453467170920001
 30
0.0
 40
0.8
  1
 200,000 AMPERES WHEN USED IN CONJUNCTION WITH CLASS J OR R FUSES.
  7
ROMANS
 11
2.47028289882256
 21
6.853467170920001
 31
0.0
100
AcDbText
 73
     2
  0
TEXT
  5
1D99
330
1F
100
AcDbEntity
  8
TEXT1
100
AcDbText
 10
2.47028289882256
 20
4.253467170920001
 30
0.0
 40
0.8
  1
FOR DC RATINGS USE 2 SWITCHING POLES.
  7
ROMANS
 11
2.47028289882256
 21
4.653467170920001
 31
0.0
100
AcDbText
 73
     2
  0
TEXT
  5
1D9A
330
1F
100
AcDbEntity
  8
TEXT1
100
AcDbText
 10
2.47028289882256
 20
5.353467170920001
 30
0.0
 40
0.8
  1
FOR SINGLE PHASE HP RATINGS USE 2 SWITCHING POLES.
  7
ROMANS
 11
2.47028289882256
 21
5.753467170920002
 31
0.0
100
AcDbText
 73
     2
  0
TEXT
  5
1D9B
330
1F
100
AcDbEntity
  8
TEXT1
100
AcDbText
 10
2.47028289882256
 20
9.75346717092
 30
0.0
 40
0.8
  1
FINISH-GRAY BAKED ENAMEL
  7
ROMANS
 11
2.47028289882256
 21
10.15346717092
 31
0.0
100
AcDbText
 73
     2
  0
TEXT
  5
1D9C
330
1F
100
AcDbEntity
  8
TEXT1
100
AcDbText
 10
2.47028289882256
 20
7.553467170920001
 30
0.0
 40
0.8
  1
 10,000 AMPERES WHEN USED IN CONJUNCTION WITH CLASS H OR K FUSES.
  7
ROMANS
 11
2.47028289882256
 21
7.953467170920001
 31
0.0
100
AcDbText
 73
     2
  0
TEXT
  5
1D9D
330
1F
100
AcDbEntity
  8
TEXT1
100
AcDbText
 10
2.47028289882256
 20
8.65346717092
 30
0.0
 40
0.8
  1
SHORT CIRCUIT CURRENT RATING:
  7
ROMANS
 11
2.47028289882256
 21
9.053467170920001
 31
0.0
100
AcDbText
 73
     2
  0
TEXT
  5
1D9F
330
1F
100
AcDbEntity
  8
TEXT1
100
AcDbText
 10
2.47028289882256
 20
10.85346717092
 30
0.0
 40
0.8
  1
UL LISTED FILE E-2875
  7
ROMANS
 11
2.47028289882256
 21
11.25346717092
 31
0.0
100
AcDbText
 73
     2
  0
TEXT
  5
1DA2
330
1F
100
AcDbEntity
  8
TEXT1
100
AcDbText
 10
2.47028289882256
 20
11.95346717092
 30
0.0
 40
0.8
  1
NOTES:
  7
ROMANS
 11
2.47028289882256
 21
12.35346717092
 31
0.0
100
AcDbText
 73
     2
  0
TEXT
  5
1E50
330
1F
100
AcDbEntity
  8
TEXT1
100
AcDbText
 10
158.7083881369177
 20
13.98598717091999
 30
0.0
 40
0.8
  1
30
  7
ROMANS
 72
     1
 11
159.4702928988225
 21
14.38598717091999
 31
0.0
100
AcDbText
 73
     2
  0
LINE
  5
1E71
330
1F
100
AcDbEntity
  8
CONTINUOUS1
100
AcDbLine
 10
143.878398629833
 20
93.82846717091998
 30
0.0
 11
161.4702928988225
 21
93.82846717091998
 31
0.0
  0
TEXT
  5
1EBF
330
1F
100
AcDbEntity
  8
TEXT1
100
AcDbText
 10
146.0807795822139
 20
97.68883282460315
 30
0.0
 40
0.9999999999999998
  1
WIRING DIAGRAMS
  7
ROMANS
 72
     1
 11
152.628398629833
 21
98.18883282460314
 31
0.0
100
AcDbText
 73
     2
  0
LINE
  5
1F5D
330
1F
100
AcDbEntity
  8
CONTINUOUS1
100
AcDbLine
 10
143.878398629833
 20
99.45346717092
 30
0.0
 11
143.878398629833
 21
69.57849013518954
 31
0.0
  0
CIRCLE
  5
1FAA
330
1F
100
AcDbEntity
  8
CONTINUOUS1
100
AcDbCircle
 10
153.1035275399381
 20
77.32849013519427
 30
0.0
 40
0.3124885178652199
  0
LINE
  5
1FAB
330
1F
100
AcDbEntity
  8
CONTINUOUS1
100
AcDbLine
 10
150.5992749332013
 20
72.32849013518954
 30
0.0
 11
150.5992749332013
 21
83.57849013518954
 31
0.0
  0
LINE
  5
1FAC
330
1F
100
AcDbEntity
  8
CONTINUOUS1
100
AcDbLine
 10
149.6660275399383
 20
73.26599013518955
 30
0.0
 11
149.6660275399381
 21
84.51599013518954
 31
0.0
  0
CIRCLE
  5
1FAD
330
1F
100
AcDbEntity
  8
CONTINUOUS1
100
AcDbCircle
 10
151.541027539938
 20
77.32849013518954
 30
0.0
 40
0.3124885178652199
  0
LINE
  5
1FAE
330
1F
100
AcDbEntity
  8
CONTINUOUS1
100
AcDbLine
 10
148.7285275399382
 20
74.51599013518954
 30
0.0
 11
151.5325223264646
 21
74.51599013518954
 31
0.0
  0
LINE
  5
1FAF
330
1F
100
AcDbEntity
  8
CONTINUOUS1
100
AcDbLine
 10
153.0950223264647
 20
73.26599013518954
 30
0.0
 11
153.0950223264646
 21
77.01611738487604
 31
0.0
  0
LINE
  5
1FB0
330
1F
100
AcDbEntity
  8
CONTINUOUS1
100
AcDbLine
 10
149.6660275399383
 20
73.26599013518954
 30
0.0
 11
153.0950223264647
 21
73.26599013518955
 31
0.0
  0
LINE
  5
1FB1
330
1F
100
AcDbEntity
  8
CONTINUOUS1
100
AcDbLine
 10
151.5325223264646
 20
74.51599013518954
 30
0.0
 11
151.5325223264646
 21
77.01611738487132
 31
0.0
  0
LINE
  5
1FB2
330
1F
100
AcDbEntity
  8
CONTINUOUS1
100
AcDbLine
 10
148.7285275399381
 20
85.45349013518956
 30
0.0
 11
151.5325223264646
 21
85.45349013518956
 31
0.0
  0
TEXT
  5
1FB3
330
1F
100
AcDbEntity
  8
TEXT1
100
AcDbText
 10
149.2426903242476
 20
88.20020716868304
 30
0.0
 40
0.8
  1
A
  7
ROMANS
 72
     1
 11
149.5855474671047
 21
88.60020716868305
 31
0.0
100
AcDbText
 73
     2
  0
LINE
  5
1FB4
330
1F
100
AcDbEntity
  8
CONTINUOUS1
100
AcDbLine
 10
153.0950223264647
 20
84.5159901351896
 30
0.0
 11
153.0950223264647
 21
87.01611738487605
 31
0.0
  0
LINE
  5
1FB5
330
1F
100
AcDbEntity
  8
CONTINUOUS1
100
AcDbLine
 10
151.5325223264646
 20
85.45349013518956
 30
0.0
 11
151.5325223264647
 21
87.01611738487132
 31
0.0
  0
CIRCLE
  5
1FB6
330
1F
100
AcDbEntity
  8
CONTINUOUS1
100
AcDbCircle
 10
153.1035275399381
 20
81.07846717091998
 30
0.0
 40
0.3124885178652199
  0
CIRCLE
  5
1FB7
330
1F
100
AcDbEntity
  8
CONTINUOUS1
100
AcDbCircle
 10
151.541027539938
 20
81.07846717091998
 30
0.0
 40
0.3124885178652199
  0
LINE
  5
1FB8
330
1F
100
AcDbEntity
  8
CONTINUOUS1
100
AcDbLine
 10
153.103527539938
 20
78.57847865305476
 30
0.0
 11
153.8252153764251
 21
79.82847865305476
 31
0.0
  0
LINE
  5
1FB9
330
1F
100
AcDbEntity
  8
CONTINUOUS1
100
AcDbLine
 10
151.541027539938
 20
78.57847865305476
 30
0.0
 11
152.2627153764251
 21
79.82847865305476
 31
0.0
  0
LINE
  5
1FBA
330
1F
100
AcDbEntity
  8
HIDDEN1
100
AcDbLine
 10
151.8961441180262
 20
79.19355860891352
 30
0.0
 11
155.0211441180262
 21
79.1935586089135
 31
0.0
  0
LINE
  5
1FBB
330
1F
100
AcDbEntity
  8
CONTINUOUS1
100
AcDbLine
 10
151.541027539938
 20
77.64097865305476
 30
0.0
 11
151.541027539938
 21
78.57847865305476
 31
0.0
  0
LINE
  5
1FBC
330
1F
100
AcDbEntity
  8
CONTINUOUS1
100
AcDbLine
 10
153.1035275399381
 20
77.64097865305476
 30
0.0
 11
153.1035275399381
 21
78.57847865305476
 31
0.0
  0
LINE
  5
1FBD
330
1F
100
AcDbEntity
  8
CONTINUOUS1
100
AcDbLine
 10
151.541027539938
 20
79.82847865305476
 30
0.0
 11
151.541027539938
 21
80.76597865305476
 31
0.0
  0
LINE
  5
1FBE
330
1F
100
AcDbEntity
  8
CONTINUOUS1
100
AcDbLine
 10
153.1035275399381
 20
79.82847865305476
 30
0.0
 11
153.1035275399381
 21
80.76597865305476
 31
0.0
  0
LINE
  5
1FBF
330
1F
100
AcDbEntity
  8
CONTINUOUS1
100
AcDbLine
 10
149.6660275399381
 20
84.51599013518954
 30
0.0
 11
153.0950223264647
 21
84.51599013518956
 31
0.0
  0
LINE
  5
1FC0
330
1F
100
AcDbEntity
  8
CONTINUOUS1
100
AcDbLine
 10
153.103527539938
 20
88.57847865305476
 30
0.0
 11
153.8252153764251
 21
89.82847865305476
 31
0.0
  0
LINE
  5
1FC1
330
1F
100
AcDbEntity
  8
CONTINUOUS1
100
AcDbLine
 10
151.541027539938
 20
88.57847865305476
 30
0.0
 11
152.2627153764251
 21
89.82847865305476
 31
0.0
  0
HATCH
  5
1FC2
330
1F
100
AcDbEntity
  8
CONTINUOUS1
100
AcDbHatch
 10
0.0
 20
0.0
 30
0.0
210
0.0
220
0.0
230
1.0
  2
SOLID
 70
     1
 71
     0
 91
        1
 92
        7
 72
     1
 73
     1
 93
        2
 10
153.4160160578033
 20
87.32849013519427
 42
1.0
 10
152.7910390220728
 20
87.32849013519427
 42
1.0
 97
        0
 75
     0
 76
     1
 47
0.0123481865299739
 98
        1
 10
153.2740291716282
 20
87.10247089250037
  0
CIRCLE
  5
1FC3
330
1F
100
AcDbEntity
  8
CONTINUOUS1
100
AcDbCircle
 10
153.1035275399381
 20
87.32849013519427
 30
0.0
 40
0.3124885178652199
  0
HATCH
  5
1FC4
330
1F
100
AcDbEntity
  8
CONTINUOUS1
100
AcDbHatch
 10
0.0
 20
0.0
 30
0.0
210
0.0
220
0.0
230
1.0
  2
SOLID
 70
     1
 71
     0
 91
        1
 92
        7
 72
     1
 73
     1
 93
        2
 10
151.2285390220728
 20
87.32849013518954
 42
1.0
 10
151.8535160578033
 20
87.32849013518954
 42
1.0
 97
        0
 75
     0
 76
     1
 47
0.0123481865299739
 98
        1
 10
151.7346571039697
 20
87.31856404536065
  0
CIRCLE
  5
1FC5
330
1F
100
AcDbEntity
  8
CONTINUOUS1
100
AcDbCircle
 10
151.541027539938
 20
87.32849013518954
 30
0.0
 40
0.3124885178652199
  0
LINE
  5
1FC6
330
1F
100
AcDbEntity
  8
CONTINUOUS1
100
AcDbLine
 10
151.541027539938
 20
87.64097865305476
 30
0.0
 11
151.541027539938
 21
88.57847865305476
 31
0.0
  0
LINE
  5
1FC7
330
1F
100
AcDbEntity
  8
CONTINUOUS1
100
AcDbLine
 10
153.1035275399381
 20
87.64097865305476
 30
0.0
 11
153.1035275399381
 21
88.57847865305476
 31
0.0
  0
CIRCLE
  5
1FC8
330
1F
100
AcDbEntity
  8
CONTINUOUS1
100
AcDbCircle
 10
153.1035275399381
 20
91.07846717091998
 30
0.0
 40
0.3124885178652199
  0
CIRCLE
  5
1FC9
330
1F
100
AcDbEntity
  8
CONTINUOUS1
100
AcDbCircle
 10
151.541027539938
 20
91.07846717091998
 30
0.0
 40
0.3124885178652199
  0
LINE
  5
1FCA
330
1F
100
AcDbEntity
  8
HIDDEN1
100
AcDbLine
 10
151.8961441180262
 20
89.19355860891352
 30
0.0
 11
155.0211441180262
 21
89.19355860891352
 31
0.0
  0
LINE
  5
1FCB
330
1F
100
AcDbEntity
  8
CONTINUOUS1
100
AcDbLine
 10
151.541027539938
 20
89.82847865305476
 30
0.0
 11
151.541027539938
 21
90.76597865305476
 31
0.0
  0
LINE
  5
1FCC
330
1F
100
AcDbEntity
  8
CONTINUOUS1
100
AcDbLine
 10
153.1035275399381
 20
89.82847865305476
 30
0.0
 11
153.1035275399381
 21
90.76597865305476
 31
0.0
  0
CIRCLE
  5
200A
330
1F
100
AcDbEntity
  8
CONTINUOUS1
100
AcDbCircle
 10
154.6660275399381
 20
81.07846717091998
 30
0.0
 40
0.3124885178652199
  0
LINE
  5
200B
330
1F
100
AcDbEntity
  8
CONTINUOUS1
100
AcDbLine
 10
154.6660275399381
 20
79.82847865305476
 30
0.0
 11
154.6660275399381
 21
80.76597865305476
 31
0.0
  0
LINE
  5
200C
330
1F
100
AcDbEntity
  8
CONTINUOUS1
100
AcDbLine
 10
154.666027539938
 20
78.57847865305476
 30
0.0
 11
155.3877153764251
 21
79.82847865305476
 31
0.0
  0
CIRCLE
  5
200D
330
1F
100
AcDbEntity
  8
CONTINUOUS1
100
AcDbCircle
 10
154.6660275399381
 20
77.32849013519427
 30
0.0
 40
0.3124885178652199
  0
LINE
  5
200E
330
1F
100
AcDbEntity
  8
CONTINUOUS1
100
AcDbLine
 10
154.6660275399381
 20
77.64097865305476
 30
0.0
 11
154.6660275399381
 21
78.57847865305476
 31
0.0
  0
LINE
  5
200F
330
1F
100
AcDbEntity
  8
CONTINUOUS1
100
AcDbLine
 10
154.6575223264646
 20
72.32849013518954
 30
0.0
 11
154.6575223264646
 21
77.01611738487604
 31
0.0
  0
LINE
  5
2010
330
1F
100
AcDbEntity
  8
CONTINUOUS1
100
AcDbLine
 10
154.6575223264646
 20
83.5784901351896
 30
0.0
 11
154.6575223264646
 21
87.01611738487605
 31
0.0
  0
CIRCLE
  5
2011
330
1F
100
AcDbEntity
  8
CONTINUOUS1
100
AcDbCircle
 10
154.6660275399381
 20
87.32849013519427
 30
0.0
 40
0.3124885178652199
  0
HATCH
  5
2012
330
1F
100
AcDbEntity
  8
CONTINUOUS1
100
AcDbHatch
 10
0.0
 20
0.0
 30
0.0
210
0.0
220
0.0
230
1.0
  2
SOLID
 70
     1
 71
     0
 91
        1
 92
        7
 72
     1
 73
     1
 93
        2
 10
154.9785160578033
 20
87.32849013519427
 42
1.0
 10
154.3535390220728
 20
87.32849013519427
 42
1.0
 97
        0
 75
     0
 76
     1
 47
0.0123481865299739
 98
        1
 10
154.8365291716282
 20
87.10247089250037
  0
LINE
  5
2013
330
1F
100
AcDbEntity
  8
CONTINUOUS1
100
AcDbLine
 10
154.6660275399381
 20
87.64097865305476
 30
0.0
 11
154.6660275399381
 21
88.57847865305476
 31
0.0
  0
LINE
  5
2014
330
1F
100
AcDbEntity
  8
CONTINUOUS1
100
AcDbLine
 10
154.666027539938
 20
88.57847865305476
 30
0.0
 11
155.3877153764251
 21
89.82847865305476
 31
0.0
  0
LINE
  5
2015
330
1F
100
AcDbEntity
  8
CONTINUOUS1
100
AcDbLine
 10
154.6660275399381
 20
89.82847865305476
 30
0.0
 11
154.6660275399381
 21
90.76597865305476
 31
0.0
  0
CIRCLE
  5
2016
330
1F
100
AcDbEntity
  8
CONTINUOUS1
100
AcDbCircle
 10
154.6660275399381
 20
91.07846717091998
 30
0.0
 40
0.3124885178652199
  0
LINE
  5
2017
330
1F
100
AcDbEntity
  8
CONTINUOUS1
100
AcDbLine
 10
148.7285275399383
 20
74.51599013518954
 30
0.0
 11
148.7285275399381
 21
85.45349013518956
 31
0.0
  0
LINE
  5
2018
330
1F
100
AcDbEntity
  8
CONTINUOUS1
100
AcDbLine
 10
150.5992749332014
 20
72.32849013518954
 30
0.0
 11
154.6575223264647
 21
72.32849013518954
 31
0.0
  0
LINE
  5
2019
330
1F
100
AcDbEntity
  8
CONTINUOUS1
100
AcDbLine
 10
150.5992749332013
 20
83.57849013518954
 30
0.0
 11
154.6575223264646
 21
83.5784901351896
 31
0.0
  0
LINE
  5
201B
330
1F
100
AcDbEntity
  8
CONTINUOUS1
100
AcDbLine
 10
143.878398629833
 20
96.95346717092
 30
0.0
 11
161.4702928988225
 21
96.95346717092
 31
0.0
  0
TEXT
  5
2021
330
1F
100
AcDbEntity
  8
TEXT1
100
AcDbText
 10
149.6505362405182
 20
94.26596717091999
 30
0.0
 40
0.9999999999999998
  1
FUSIBLE
  7
ROMANS
 72
     1
 11
152.6743457643277
 21
94.76596717091998
 31
0.0
100
AcDbText
 73
     2
  0
TEXT
  5
2025
330
1F
100
AcDbEntity
  8
TEXT1
100
AcDbText
 10
151.1743457643277
 20
95.51596717091999
 30
0.0
 40
0.9999999999999998
  1
NOT
  7
ROMANS
 72
     1
 11
152.6743457643277
 21
96.01596717092
 31
0.0
100
AcDbText
 73
     2
  0
LINE
  5
2082
330
1F
100
AcDbEntity
  8
CONTINUOUS1
100
AcDbLine
 10
161.4702928988225
 20
22.19848717091999
 30
0.0
 11
136.7827928988225
 21
22.19848717091999
 31
0.0
  0
LINE
  5
2084
330
1F
100
AcDbEntity
  8
CONTINUOUS1
100
AcDbLine
 10
161.4702928988225
 20
22.19848717091999
 30
0.0
 11
161.4702928988225
 21
11.57348717091998
 31
0.0
  0
LINE
  5
208B
330
1F
100
AcDbEntity
  8
CONTINUOUS1
100
AcDbLine
 10
161.4702928988225
 20
11.57348717091999
 30
0.0
 11
136.7827928988225
 21
11.57348717091999
 31
0.0
  0
LINE
  5
208C
330
1F
100
AcDbEntity
  8
CONTINUOUS1
100
AcDbLine
 10
161.4702928988225
 20
13.44848717091999
 30
0.0
 11
136.7827928988225
 21
13.44848717091999
 31
0.0
  0
LINE
  5
208D
330
1F
100
AcDbEntity
  8
CONTINUOUS1
100
AcDbLine
 10
161.4702928988225
 20
15.32348717091999
 30
0.0
 11
136.7827928988225
 21
15.32348717091999
 31
0.0
  0
LINE
  5
208E
330
1F
100
AcDbEntity
  8
CONTINUOUS1
100
AcDbLine
 10
157.4702928988225
 20
17.19848717092012
 30
0.0
 11
157.4702928988225
 21
11.57348717091999
 31
0.0
  0
LINE
  5
208F
330
1F
100
AcDbEntity
  8
CONTINUOUS1
100
AcDbLine
 10
152.7827928988225
 20
22.19848717091999
 30
0.0
 11
152.7827928988225
 21
11.57348717091998
 31
0.0
  0
LINE
  5
2090
330
1F
100
AcDbEntity
  8
CONTINUOUS1
100
AcDbLine
 10
148.7827928988225
 20
17.19848717092011
 30
0.0
 11
148.7827928988225
 21
11.57348717091999
 31
0.0
  0
LINE
  5
2092
330
1F
100
AcDbEntity
  8
CONTINUOUS1
100
AcDbLine
 10
140.7827928988225
 20
17.1984871709201
 30
0.0
 11
140.7827928988225
 21
11.57348717091999
 31
0.0
  0
LINE
  5
2093
330
1F
100
AcDbEntity
  8
CONTINUOUS1
100
AcDbLine
 10
136.7827928988225
 20
22.19848717092001
 30
0.0
 11
136.7827928988225
 21
11.57348717092001
 31
0.0
  0
LINE
  5
2094
330
1F
100
AcDbEntity
  8
CONTINUOUS1
100
AcDbLine
 10
132.0952928988226
 20
17.19848717092001
 30
0.0
 11
132.0952928988226
 21
11.57348717092001
 31
0.0
  0
LINE
  5
2095
330
1F
100
AcDbEntity
  8
CONTINUOUS1
100
AcDbLine
 10
127.4077928988225
 20
19.07348717092001
 30
0.0
 11
127.4077928988225
 21
11.57348717092001
 31
0.0
  0
LINE
  5
2096
330
1F
100
AcDbEntity
  8
CONTINUOUS1
100
AcDbLine
 10
122.7202928988226
 20
17.19848717092001
 30
0.0
 11
122.7202928988226
 21
11.57348717092001
 31
0.0
  0
LINE
  5
2097
330
1F
100
AcDbEntity
  8
CONTINUOUS1
100
AcDbLine
 10
118.0327928988225
 20
22.19848717092001
 30
0.0
 11
118.0327928988225
 21
11.57348717092001
 31
0.0
  0
LINE
  5
2098
330
1F
100
AcDbEntity
  8
CONTINUOUS1
100
AcDbLine
 10
113.3452928988226
 20
17.19848717092001
 30
0.0
 11
113.3452928988226
 21
11.57348717092001
 31
0.0
  0
LINE
  5
2099
330
1F
100
AcDbEntity
  8
CONTINUOUS1
100
AcDbLine
 10
108.6577928988225
 20
22.19848717092002
 30
0.0
 11
108.6577928988226
 21
11.57348717092001
 31
0.0
  0
LINE
  5
209A
330
1F
100
AcDbEntity
  8
CONTINUOUS1
100
AcDbLine
 10
52.40779289882258
 20
22.19848717092001
 30
0.0
 11
52.40779289882258
 21
11.57348717092001
 31
0.0
  0
LINE
  5
209B
330
1F
100
AcDbEntity
  8
CONTINUOUS1
100
AcDbLine
 10
57.09529289882258
 20
17.19848717092001
 30
0.0
 11
57.09529289882258
 21
11.57348717092001
 31
0.0
  0
LINE
  5
209C
330
1F
100
AcDbEntity
  8
CONTINUOUS1
100
AcDbLine
 10
61.78279289882258
 20
22.19848717092001
 30
0.0
 11
61.78279289882258
 21
11.57348717092001
 31
0.0
  0
LINE
  5
209D
330
1F
100
AcDbEntity
  8
CONTINUOUS1
100
AcDbLine
 10
66.47029289882258
 20
17.19848717092001
 30
0.0
 11
66.47029289882259
 21
11.57348717092001
 31
0.0
  0
LINE
  5
209E
330
1F
100
AcDbEntity
  8
CONTINUOUS1
100
AcDbLine
 10
71.15779289882258
 20
19.07348717092001
 30
0.0
 11
71.15779289882258
 21
11.57348717092001
 31
0.0
  0
LINE
  5
209F
330
1F
100
AcDbEntity
  8
CONTINUOUS1
100
AcDbLine
 10
75.84529289882258
 20
17.19848717092001
 30
0.0
 11
75.84529289882259
 21
11.57348717092001
 31
0.0
  0
LINE
  5
20A0
330
1F
100
AcDbEntity
  8
CONTINUOUS1
100
AcDbLine
 10
80.53279289882256
 20
22.19848717092002
 30
0.0
 11
80.53279289882258
 21
11.57348717092001
 31
0.0
  0
LINE
  5
20A1
330
1F
100
AcDbEntity
  8
CONTINUOUS1
100
AcDbLine
 10
85.22029289882258
 20
17.19848717092001
 30
0.0
 11
85.2202928988226
 21
11.57348717092001
 31
0.0
  0
LINE
  5
20A2
330
1F
100
AcDbEntity
  8
CONTINUOUS1
100
AcDbLine
 10
89.90779289882258
 20
22.19848717092001
 30
0.0
 11
89.90779289882258
 21
11.57348717092001
 31
0.0
  0
LINE
  5
20A3
330
1F
100
AcDbEntity
  8
CONTINUOUS1
100
AcDbLine
 10
94.5952928988226
 20
17.19848717092001
 30
0.0
 11
94.5952928988226
 21
11.57348717092001
 31
0.0
  0
LINE
  5
20A4
330
1F
100
AcDbEntity
  8
CONTINUOUS1
100
AcDbLine
 10
99.28279289882258
 20
19.07348717092001
 30
0.0
 11
99.28279289882258
 21
11.57348717092001
 31
0.0
  0
LINE
  5
20A5
330
1F
100
AcDbEntity
  8
CONTINUOUS1
100
AcDbLine
 10
103.9702928988226
 20
17.19848717092001
 30
0.0
 11
103.9702928988226
 21
11.57348717092001
 31
0.0
  0
LINE
  5
20A6
330
1F
100
AcDbEntity
  8
CONTINUOUS1
100
AcDbLine
 10
47.72029289882257
 20
22.19848717092001
 30
0.0
 11
47.72029289882257
 21
11.57348717092001
 31
0.0
  0
LINE
  5
20A7
330
1F
100
AcDbEntity
  8
CONTINUOUS1
100
AcDbLine
 10
42.40779289882257
 20
22.19848717092001
 30
0.0
 11
42.40779289882257
 21
11.57348717092001
 31
0.0
  0
LINE
  5
20AB
330
1F
100
AcDbEntity
  8
CONTINUOUS1
100
AcDbLine
 10
161.4702928988225
 20
15.32348717091999
 30
0.0
 11
136.7827928988225
 21
15.32348717091999
 31
0.0
  0
TEXT
  5
20B6
330
1F
100
AcDbEntity
  8
TEXT1
100
AcDbText
 10
158.7083881369177
 20
12.11098717091999
 30
0.0
 40
0.8
  1
50
  7
ROMANS
 72
     1
 11
159.4702928988225
 21
12.51098717091999
 31
0.0
100
AcDbText
 73
     2
  0
TEXT
  5
20BD
330
1F
100
AcDbEntity
  8
TEXT1
100
AcDbText
 10
153.9637452797749
 20
13.98598717091999
 30
0.0
 40
0.8
  1
NA
  7
ROMANS
 72
     1
 11
154.7827928988225
 21
14.38598717091999
 31
0.0
100
AcDbText
 73
     2
  0
TEXT
  5
20BE
330
1F
100
AcDbEntity
  8
TEXT1
100
AcDbText
 10
153.9637452797749
 20
12.11098717091999
 30
0.0
 40
0.8
  1
NA
  7
ROMANS
 72
     1
 11
154.7827928988225
 21
12.51098717091999
 31
0.0
100
AcDbText
 73
     2
  0
TEXT
  5
20C5
330
1F
100
AcDbEntity
  8
TEXT1
100
AcDbText
 10
149.9637452797749
 20
13.98598717091999
 30
0.0
 40
0.8
  1
10
  7
ROMANS
 72
     1
 11
150.7827928988225
 21
14.38598717091999
 31
0.0
100
AcDbText
 73
     2
  0
TEXT
  5
20C6
330
1F
100
AcDbEntity
  8
TEXT1
100
AcDbText
 10
150.0208881369177
 20
12.11098717091999
 30
0.0
 40
0.8
  1
20
  7
ROMANS
 72
     1
 11
150.7827928988225
 21
12.51098717091999
 31
0.0
100
AcDbText
 73
     2
  0
TEXT
  5
20CD
330
1F
100
AcDbEntity
  8
TEXT1
100
AcDbText
 10
145.9637452797749
 20
13.98598717091999
 30
0.0
 40
0.8
  1
NA
  7
ROMANS
 72
     1
 11
146.7827928988225
 21
14.38598717091999
 31
0.0
100
AcDbText
 73
     2
  0
TEXT
  5
20CE
330
1F
100
AcDbEntity
  8
TEXT1
100
AcDbText
 10
145.9637452797749
 20
12.11098717091999
 30
0.0
 40
0.8
  1
NA
  7
ROMANS
 72
     1
 11
146.7827928988225
 21
12.51098717091999
 31
0.0
100
AcDbText
 73
     2
  0
TEXT
  5
20D5
330
1F
100
AcDbEntity
  8
TEXT1
100
AcDbText
 10
142.4018405178701
 20
13.98598717091999
 30
0.0
 40
0.8
  1
5
  7
ROMANS
 72
     1
 11
142.7827928988225
 21
14.38598717091999
 31
0.0
100
AcDbText
 73
     2
  0
TEXT
  5
20D6
330
1F
100
AcDbEntity
  8
TEXT1
100
AcDbText
 10
141.8304119464415
 20
12.11098717091999
 30
0.0
 40
0.8
  1
7.5
  7
ROMANS
 72
     1
 11
142.7827928988225
 21
12.51098717091999
 31
0.0
100
AcDbText
 73
     2
  0
TEXT
  5
20DD
330
1F
100
AcDbEntity
  8
TEXT1
100
AcDbText
 10
137.9637452797749
 20
13.98598717091999
 30
0.0
 40
0.8
  1
NA
  7
ROMANS
 72
     1
 11
138.7827928988225
 21
14.38598717091999
 31
0.0
100
AcDbText
 73
     2
  0
TEXT
  5
20DE
330
1F
100
AcDbEntity
  8
TEXT1
100
AcDbText
 10
137.9637452797749
 20
12.11098717091999
 30
0.0
 40
0.8
  1
NA
  7
ROMANS
 72
     1
 11
138.7827928988225
 21
12.51098717091999
 31
0.0
100
AcDbText
 73
     2
  0
TEXT
  5
20E5
330
1F
100
AcDbEntity
  8
TEXT1
100
AcDbText
 10
133.6580905178702
 20
13.98598717092001
 30
0.0
 40
0.8
  1
60
  7
ROMANS
 72
     1
 11
134.4390428988226
 21
14.38598717092001
 31
0.0
100
AcDbText
 73
     2
  0
TEXT
  5
20E6
330
1F
100
AcDbEntity
  8
TEXT1
100
AcDbText
 10
133.6771381369178
 20
12.11098717092001
 30
0.0
 40
0.8
  1
75
  7
ROMANS
 72
     1
 11
134.4390428988226
 21
12.51098717092001
 31
0.0
100
AcDbText
 73
     2
  0
TEXT
  5
20ED
330
1F
100
AcDbEntity
  8
TEXT1
100
AcDbText
 10
128.9324952797749
 20
13.98598717092001
 30
0.0
 40
0.8
  1
NA
  7
ROMANS
 72
     1
 11
129.7515428988226
 21
14.38598717092001
 31
0.0
100
AcDbText
 73
     2
  0
TEXT
  5
20EE
330
1F
100
AcDbEntity
  8
TEXT1
100
AcDbText
 10
128.9324952797749
 20
12.11098717092001
 30
0.0
 40
0.8
  1
NA
  7
ROMANS
 72
     1
 11
129.7515428988226
 21
12.51098717092001
 31
0.0
100
AcDbText
 73
     2
  0
TEXT
  5
20F5
330
1F
100
AcDbEntity
  8
TEXT1
100
AcDbText
 10
124.3021381369178
 20
13.98598717092001
 30
0.0
 40
0.8
  1
30
  7
ROMANS
 72
     1
 11
125.0640428988226
 21
14.38598717092001
 31
0.0
100
AcDbText
 73
     2
  0
TEXT
  5
20F6
330
1F
100
AcDbEntity
  8
TEXT1
100
AcDbText
 10
124.3021381369178
 20
12.11098717092001
 30
0.0
 40
0.8
  1
40
  7
ROMANS
 72
     1
 11
125.0640428988226
 21
12.51098717092001
 31
0.0
100
AcDbText
 73
     2
  0
TEXT
  5
20FD
330
1F
100
AcDbEntity
  8
TEXT1
100
AcDbText
 10
119.5574952797749
 20
13.98598717092001
 30
0.0
 40
0.8
  1
NA
  7
ROMANS
 72
     1
 11
120.3765428988226
 21
14.38598717092001
 31
0.0
100
AcDbText
 73
     2
  0
TEXT
  5
20FE
330
1F
100
AcDbEntity
  8
TEXT1
100
AcDbText
 10
119.5574952797749
 20
12.11098717092001
 30
0.0
 40
0.8
  1
NA
  7
ROMANS
 72
     1
 11
120.3765428988226
 21
12.51098717092001
 31
0.0
100
AcDbText
 73
     2
  0
TEXT
  5
2105
330
1F
100
AcDbEntity
  8
TEXT1
100
AcDbText
 10
114.9271381369178
 20
13.98598717092001
 30
0.0
 40
0.8
  1
30
  7
ROMANS
 72
     1
 11
115.6890428988226
 21
14.38598717092001
 31
0.0
100
AcDbText
 73
     2
  0
TEXT
  5
2106
330
1F
100
AcDbEntity
  8
TEXT1
100
AcDbText
 10
114.9271381369178
 20
12.11098717092001
 30
0.0
 40
0.8
  1
75
  7
ROMANS
 72
     1
 11
115.6890428988226
 21
12.51098717092001
 31
0.0
100
AcDbText
 73
     2
  0
TEXT
  5
210D
330
1F
100
AcDbEntity
  8
TEXT1
100
AcDbText
 10
110.1824952797749
 20
13.98598717092001
 30
0.0
 40
0.8
  1
NA
  7
ROMANS
 72
     1
 11
111.0015428988226
 21
14.38598717092001
 31
0.0
100
AcDbText
 73
     2
  0
TEXT
  5
210E
330
1F
100
AcDbEntity
  8
TEXT1
100
AcDbText
 10
110.1824952797749
 20
12.11098717092001
 30
0.0
 40
0.8
  1
NA
  7
ROMANS
 72
     1
 11
111.0015428988226
 21
12.51098717092001
 31
0.0
100
AcDbText
 73
     2
  0
TEXT
  5
2115
330
1F
100
AcDbEntity
  8
TEXT1
100
AcDbText
 10
105.5521381369178
 20
13.98598717092001
 30
0.0
 40
0.8
  1
50
  7
ROMANS
 72
     1
 11
106.3140428988226
 21
14.38598717092001
 31
0.0
100
AcDbText
 73
     2
  0
TEXT
  5
2116
330
1F
100
AcDbEntity
  8
TEXT1
100
AcDbText
 10
105.5330905178702
 20
12.11098717092001
 30
0.0
 40
0.8
  1
60
  7
ROMANS
 72
     1
 11
106.3140428988226
 21
12.51098717092001
 31
0.0
100
AcDbText
 73
     2
  0
TEXT
  5
211D
330
1F
100
AcDbEntity
  8
TEXT1
100
AcDbText
 10
100.8074952797749
 20
13.98598717092001
 30
0.0
 40
0.8
  1
NA
  7
ROMANS
 72
     1
 11
101.6265428988226
 21
14.38598717092001
 31
0.0
100
AcDbText
 73
     2
  0
TEXT
  5
211E
330
1F
100
AcDbEntity
  8
TEXT1
100
AcDbText
 10
100.8074952797749
 20
12.11098717092001
 30
0.0
 40
0.8
  1
NA
  7
ROMANS
 72
     1
 11
101.6265428988226
 21
12.51098717092001
 31
0.0
100
AcDbText
 73
     2
  0
TEXT
  5
2125
330
1F
100
AcDbEntity
  8
TEXT1
100
AcDbText
 10
96.17713813691784
 20
13.98598717092001
 30
0.0
 40
0.8
  1
25
  7
ROMANS
 72
     1
 11
96.9390428988226
 21
14.38598717092001
 31
0.0
100
AcDbText
 73
     2
  0
TEXT
  5
2126
330
1F
100
AcDbEntity
  8
TEXT1
100
AcDbText
 10
96.17713813691784
 20
12.11098717092001
 30
0.0
 40
0.8
  1
40
  7
ROMANS
 72
     1
 11
96.9390428988226
 21
12.51098717092001
 31
0.0
100
AcDbText
 73
     2
  0
TEXT
  5
212D
330
1F
100
AcDbEntity
  8
TEXT1
100
AcDbText
 10
91.43249527977497
 20
13.98598717092001
 30
0.0
 40
0.8
  1
NA
  7
ROMANS
 72
     1
 11
92.2515428988226
 21
14.38598717092001
 31
0.0
100
AcDbText
 73
     2
  0
TEXT
  5
212E
330
1F
100
AcDbEntity
  8
TEXT1
100
AcDbText
 10
91.43249527977497
 20
12.11098717092001
 30
0.0
 40
0.8
  1
NA
  7
ROMANS
 72
     1
 11
92.2515428988226
 21
12.51098717092001
 31
0.0
100
AcDbText
 73
     2
  0
TEXT
  5
2135
330
1F
100
AcDbEntity
  8
TEXT1
100
AcDbText
 10
86.74499527977497
 20
13.98598717092001
 30
0.0
 40
0.8
  1
15
  7
ROMANS
 72
     1
 11
87.5640428988226
 21
14.38598717092001
 31
0.0
100
AcDbText
 73
     2
  0
TEXT
  5
2136
330
1F
100
AcDbEntity
  8
TEXT1
100
AcDbText
 10
86.80213813691784
 20
12.11098717092001
 30
0.0
 40
0.8
  1
40
  7
ROMANS
 72
     1
 11
87.5640428988226
 21
12.51098717092001
 31
0.0
100
AcDbText
 73
     2
  0
TEXT
  5
2145
330
1F
100
AcDbEntity
  8
TEXT1
100
AcDbText
 10
77.42713813691783
 20
13.98598717092001
 30
0.0
 40
0.8
  1
20
  7
ROMANS
 72
     1
 11
78.18904289882259
 21
14.38598717092001
 31
0.0
100
AcDbText
 73
     2
  0
TEXT
  5
2146
330
1F
100
AcDbEntity
  8
TEXT1
100
AcDbText
 10
77.42713813691783
 20
12.11098717092001
 30
0.0
 40
0.8
  1
40
  7
ROMANS
 72
     1
 11
78.18904289882259
 21
12.51098717092001
 31
0.0
100
AcDbText
 73
     2
  0
TEXT
  5
2155
330
1F
100
AcDbEntity
  8
TEXT1
100
AcDbText
 10
67.99499527977497
 20
13.98598717092001
 30
0.0
 40
0.8
  1
10
  7
ROMANS
 72
     1
 11
68.81404289882259
 21
14.38598717092001
 31
0.0
100
AcDbText
 73
     2
  0
TEXT
  5
2156
330
1F
100
AcDbEntity
  8
TEXT1
100
AcDbText
 10
68.05213813691783
 20
12.11098717092001
 30
0.0
 40
0.8
  1
20
  7
ROMANS
 72
     1
 11
68.81404289882259
 21
12.51098717092001
 31
0.0
100
AcDbText
 73
     2
  0
TEXT
  5
215D
330
1F
100
AcDbEntity
  8
TEXT1
100
AcDbText
 10
63.30749527977498
 20
13.98598717092001
 30
0.0
 40
0.8
  1
NA
  7
ROMANS
 72
     1
 11
64.12654289882259
 21
14.38598717092001
 31
0.0
100
AcDbText
 73
     2
  0
TEXT
  5
215E
330
1F
100
AcDbEntity
  8
TEXT1
100
AcDbText
 10
63.30749527977498
 20
12.11098717092001
 30
0.0
 40
0.8
  1
NA
  7
ROMANS
 72
     1
 11
64.12654289882259
 21
12.51098717092001
 31
0.0
100
AcDbText
 73
     2
  0
TEXT
  5
2165
330
1F
100
AcDbEntity
  8
TEXT1
100
AcDbText
 10
59.05809051787021
 20
13.98598717092001
 30
0.0
 40
0.8
  1
5
  7
ROMANS
 72
     1
 11
59.43904289882259
 21
14.38598717092001
 31
0.0
100
AcDbText
 73
     2
  0
TEXT
  5
2166
330
1F
100
AcDbEntity
  8
TEXT1
100
AcDbText
 10
58.48666194644164
 20
12.11098717092001
 30
0.0
 40
0.8
  1
7.5
  7
ROMANS
 72
     1
 11
59.43904289882259
 21
12.51098717092001
 31
0.0
100
AcDbText
 73
     2
  0
TEXT
  5
216D
330
1F
100
AcDbEntity
  8
TEXT1
100
AcDbText
 10
55.85719766072734
 20
17.73598717092001
 30
0.0
 40
0.8
  1
1PH
  7
ROMANS
 72
     1
 11
57.09529289882258
 21
18.13598717092001
 31
0.0
100
AcDbText
 73
     2
  0
TEXT
  5
216E
330
1F
100
AcDbEntity
  8
TEXT1
100
AcDbText
 10
53.93249527977498
 20
12.11098717092001
 30
0.0
 40
0.8
  1
NA
  7
ROMANS
 72
     1
 11
54.75154289882259
 21
12.51098717092001
 31
0.0
100
AcDbText
 73
     2
  0
TEXT
  5
2178
330
1F
100
AcDbEntity
  8
TEXT1
100
AcDbText
 10
53.93249527977498
 20
13.98598717092001
 30
0.0
 40
0.8
  1
NA
  7
ROMANS
 72
     1
 11
54.75154289882259
 21
14.38598717092001
 31
0.0
100
AcDbText
 73
     2
  0
TEXT
  5
2179
330
1F
100
AcDbEntity
  8
TEXT1
100
AcDbText
 10
53.6658286131083
 20
15.86098717092001
 30
0.0
 40
0.8
  1
STD
  7
ROMANS
 72
     1
 11
54.75154289882259
 21
16.26098717092001
 31
0.0
100
AcDbText
 73
     2
  0
TEXT
  5
217A
330
1F
100
AcDbEntity
  8
TEXT1
100
AcDbText
 10
58.23904289882259
 20
15.86098717092001
 30
0.0
 40
0.8
  1
MAX
  7
ROMANS
 72
     1
 11
59.43904289882259
 21
16.26098717092001
 31
0.0
100
AcDbText
 73
     2
  0
TEXT
  5
217B
330
1F
100
AcDbEntity
  8
TEXT1
100
AcDbText
 10
54.40957861310829
 20
20.23598717092001
 30
0.0
 40
0.8
  1
120 VAC
  7
ROMANS
 72
     1
 11
57.09529289882258
 21
20.63598717092001
 31
0.0
100
AcDbText
 73
     2
  0
TEXT
  5
2180
330
1F
100
AcDbEntity
  8
TEXT1
100
AcDbText
 10
65.23219766072734
 20
17.73598717092001
 30
0.0
 40
0.8
  1
1PH
  7
ROMANS
 72
     1
 11
66.47029289882258
 21
18.13598717092001
 31
0.0
100
AcDbText
 73
     2
  0
TEXT
  5
2183
330
1F
100
AcDbEntity
  8
TEXT1
100
AcDbText
 10
74.6643405178702
 20
17.73598717092001
 30
0.0
 40
0.8
  1
3PH
  7
ROMANS
 72
     1
 11
75.84529289882258
 21
18.13598717092001
 31
0.0
100
AcDbText
 73
     2
  0
TEXT
  5
2189
330
1F
100
AcDbEntity
  8
TEXT1
100
AcDbText
 10
93.35719766072733
 20
17.73598717092001
 30
0.0
 40
0.8
  1
1PH
  7
ROMANS
 72
     1
 11
94.59529289882258
 21
18.13598717092001
 31
0.0
100
AcDbText
 73
     2
  0
TEXT
  5
218C
330
1F
100
AcDbEntity
  8
TEXT1
100
AcDbText
 10
102.7893405178702
 20
17.73598717092001
 30
0.0
 40
0.8
  1
3PH
  7
ROMANS
 72
     1
 11
103.9702928988225
 21
18.13598717092001
 31
0.0
100
AcDbText
 73
     2
  0
TEXT
  5
2192
330
1F
100
AcDbEntity
  8
TEXT1
100
AcDbText
 10
121.4821976607273
 20
17.73598717092001
 30
0.0
 40
0.8
  1
1PH
  7
ROMANS
 72
     1
 11
122.7202928988225
 21
18.13598717092001
 31
0.0
100
AcDbText
 73
     2
  0
TEXT
  5
2195
330
1F
100
AcDbEntity
  8
TEXT1
100
AcDbText
 10
130.9143405178701
 20
17.73598717092001
 30
0.0
 40
0.8
  1
3PH
  7
ROMANS
 72
     1
 11
132.0952928988225
 21
18.13598717092001
 31
0.0
100
AcDbText
 73
     2
  0
TEXT
  5
21A0
330
1F
100
AcDbEntity
  8
TEXT1
100
AcDbText
 10
68.52922147025115
 20
20.23598717092001
 30
0.0
 40
0.8
  1
240 VAC
  7
ROMANS
 72
     1
 11
71.15779289882258
 21
20.63598717092001
 31
0.0
100
AcDbText
 73
     2
  0
TEXT
  5
21A3
330
1F
100
AcDbEntity
  8
TEXT1
100
AcDbText
 10
96.65422147025115
 20
20.23598717092001
 30
0.0
 40
0.8
  1
480 VAC
  7
ROMANS
 72
     1
 11
99.28279289882258
 21
20.63598717092001
 31
0.0
100
AcDbText
 73
     2
  0
TEXT
  5
21A6
330
1F
100
AcDbEntity
  8
TEXT1
100
AcDbText
 10
124.7601738512035
 20
20.23598717092001
 30
0.0
 40
0.8
  1
600 VAC
  7
ROMANS
 72
     1
 11
127.4077928988225
 21
20.63598717092001
 31
0.0
100
AcDbText
 73
     2
  0
TEXT
  5
21AA
330
1F
100
AcDbEntity
  8
TEXT1
100
AcDbText
 10
48.00932509785532
 20
18.77036217091997
 30
0.0
 40
0.8
  1
WIRING
  7
ROMANS
 72
     1
 11
49.97122985976009
 21
19.17036217091997
 31
0.0
100
AcDbText
 73
     2
  0
TEXT
  5
21AB
330
1F
100
AcDbEntity
  8
TEXT1
100
AcDbText
 10
48.65694414547437
 20
17.27036217091998
 30
0.0
 40
0.8
  1
DIAG
  7
ROMANS
 72
     1
 11
49.97122985976009
 21
17.67036217091998
 31
0.0
100
AcDbText
 73
     2
  0
TEXT
  5
21AC
330
1F
100
AcDbEntity
  8
TEXT1
100
AcDbText
 10
49.72118575596545
 20
13.98598717092001
 30
0.0
 40
0.8
  1
A
  7
ROMANS
 72
     1
 11
50.06404289882259
 21
14.38598717092001
 31
0.0
100
AcDbText
 73
     2
  0
TEXT
  5
21AD
330
1F
100
AcDbEntity
  8
TEXT1
100
AcDbText
 10
49.72118575596545
 20
12.11098717092001
 30
0.0
 40
0.8
  1
A
  7
ROMANS
 72
     1
 11
50.06404289882259
 21
12.51098717092001
 31
0.0
100
AcDbText
 73
     2
  0
TEXT
  5
21B4
330
1F
100
AcDbEntity
  8
TEXT1
100
AcDbText
 10
44.28309051787021
 20
13.98598717092001
 30
0.0
 40
0.8
  1
60
  7
ROMANS
 72
     1
 11
45.06404289882259
 21
14.38598717092001
 31
0.0
100
AcDbText
 73
     2
  0
TEXT
  5
21B5
330
1F
100
AcDbEntity
  8
TEXT1
100
AcDbText
 10
43.86404289882259
 20
12.11098717092001
 30
0.0
 40
0.8
  1
100
  7
ROMANS
 72
     1
 11
45.06404289882259
 21
12.51098717092001
 31
0.0
100
AcDbText
 73
     2
  0
TEXT
  5
21BC
330
1F
100
AcDbEntity
  8
TEXT1
100
AcDbText
 10
42.66646795499818
 20
18.77036217091997
 30
0.0
 40
0.8
  1
AMPERE
  7
ROMANS
 72
     1
 11
44.97122985976008
 21
19.17036217091997
 31
0.0
100
AcDbText
 73
     2
  0
TEXT
  5
21BD
330
1F
100
AcDbEntity
  8
TEXT1
100
AcDbText
 10
42.93313462166485
 20
17.27036217091998
 30
0.0
 40
0.8
  1
RATING
  7
ROMANS
 72
     1
 11
44.97122985976008
 21
17.67036217091998
 31
0.0
100
AcDbText
 73
     2
  0
LINE
  5
21BE
330
1F
100
AcDbEntity
  8
CONTINUOUS1
100
AcDbLine
 10
30.40779289882257
 20
22.19848717092001
 30
0.0
 11
30.40779289882257
 21
11.57348717092001
 31
0.0
  0
TEXT
  5
21C9
330
1F
100
AcDbEntity
  8
TEXT1
100
AcDbText
 10
24.03164652642675
 20
18.77036217091997
 30
0.0
 40
0.8
  1
CATALOG
  7
ROMANS
 72
     1
 11
26.56497985976008
 21
19.17036217091997
 31
0.0
100
AcDbText
 73
     2
  0
TEXT
  5
21CA
330
1F
100
AcDbEntity
  8
TEXT1
100
AcDbText
 10
24.08878938356961
 20
17.27036217091998
 30
0.0
 40
0.8
  1
NUMBER
  7
ROMANS
 72
     1
 11
26.56497985976008
 21
17.67036217091998
 31
0.0
100
AcDbText
 73
     2
  0
TEXT
  5
21CC
330
1F
100
AcDbEntity
  8
TEXT1
100
AcDbText
 10
23.17207861310831
 20
13.98598717092001
 30
0.0
 40
0.8
  1
DTU362AWK
  7
ROMANS
 72
     1
 11
26.6577928988226
 21
14.38598717092001
 31
0.0
100
AcDbText
 73
     2
  0
TEXT
  5
21CD
330
1F
100
AcDbEntity
  8
TEXT1
100
AcDbText
 10
23.17207861310831
 20
12.11098717092001
 30
0.0
 40
0.8
  1
DTU363AWK
  7
ROMANS
 72
     1
 11
26.6577928988226
 21
12.51098717092001
 31
0.0
100
AcDbText
 73
     2
  0
LWPOLYLINE
  5
22D5
330
1F
100
AcDbEntity
  8
CONTINUOUS1
100
AcDbPolyline
 90
        4
 70
   128
 43
0.0
 10
78.17931404240953
 20
71.20318712178361
 10
78.17931404240953
 20
56.67749385843519
 10
77.47360964240953
 20
56.67749385843519
 10
77.47360964240953
 20
71.73651406178419
  0
CIRCLE
  5
22E9
330
1F
100
AcDbEntity
  8
CONTINUOUS1
100
AcDbCircle
 10
80.66622552320342
 20
77.41481402916192
 30
0.0
 40
0.2041678406250078
  0
LWPOLYLINE
  5
2329
330
1F
100
AcDbEntity
  8
CONTINUOUS1
100
AcDbPolyline
 90
        4
 70
   129
 43
0.0
 10
39.62499148652692
 20
34.09710556519912
 10
39.62499148652692
 20
34.80301408202108
 10
49.62499148652693
 20
34.80301408202108
 10
49.62499148652693
 20
34.09710556519912
  0
LINE
  5
232D
330
1F
100
AcDbEntity
  8
CONTINUOUS1
100
AcDbLine
 10
51.73499148652693
 20
29.92331408202106
 30
0.0
 11
51.73499148652695
 21
36.14060381369682
 31
0.0
  0
LWPOLYLINE
  5
232E
330
1F
100
AcDbEntity
  8
CONTINUOUS1
100
AcDbPolyline
 90
        4
 70
   129
 43
0.0
 10
39.62499148652692
 20
34.09710556519912
 10
39.62499148652692
 20
27.97011408202109
 10
49.62499148652693
 20
27.97011408202108
 10
49.62499148652693
 20
34.09710556519912
  0
LINE
  5
2344
330
1F
100
AcDbEntity
  8
CONTINUOUS1
100
AcDbLine
 10
50.79952872318264
 20
29.92331408202108
 30
0.0
 11
51.73499148652691
 21
29.92331408202106
 31
0.0
  0
LINE
  5
2345
330
1F
100
AcDbEntity
  8
CONTINUOUS1
100
AcDbLine
 10
50.79952872318264
 20
29.92331408202108
 30
0.0
 11
49.62499148652693
 21
29.92331408202108
 31
0.0
  0
LINE
  5
2348
330
1F
100
AcDbEntity
  8
CONTINUOUS1
100
AcDbLine
 10
50.50916167297589
 20
30.75325301536603
 30
0.0
 11
51.03499148652694
 21
33.55319753040237
 31
0.0
  0
LINE
  5
2388
330
1F
100
AcDbEntity
  8
CONTINUOUS1
100
AcDbLine
 10
81.11917104240957
 20
75.68249385843518
 30
0.0
 11
78.95431404240952
 21
75.68249385843519
 31
0.0
  0
LINE
  5
238C
330
1F
100
AcDbEntity
  8
CONTINUOUS1
100
AcDbLine
 10
74.79182441073376
 20
74.18249385843521
 30
0.0
 11
76.53775901861109
 21
74.18249385843525
 31
0.0
  0
LINE
  5
23A8
330
1F
100
AcDbEntity
  8
CONTINUOUS1
100
AcDbLine
 10
74.7918244107338
 20
75.67749385843519
 30
0.0
 11
74.79182441073376
 21
74.18749385843522
 31
0.0
  0
LINE
  5
23AB
330
1F
100
AcDbEntity
  8
CONTINUOUS1
100
AcDbLine
 10
76.53775901861113
 20
75.68249385843519
 30
0.0
 11
74.7918244107338
 21
75.68249385843519
 31
0.0
  0
LINE
  5
23AC
330
1F
100
AcDbEntity
  8
CONTINUOUS1
100
AcDbLine
 10
78.95431404240952
 20
74.18249385843521
 30
0.0
 11
81.11917104240953
 21
74.18249385843525
 31
0.0
  0
LINE
  5
23DB
330
1F
100
AcDbEntity
  8
CONTINUOUS1
100
AcDbLine
 10
82.69661414240955
 20
73.07375023900009
 30
0.0
 11
82.69661414240955
 21
76.77187062637694
 31
0.0
  0
LINE
  5
23DC
330
1F
100
AcDbEntity
  8
CONTINUOUS1
100
AcDbLine
 10
82.56690481724616
 20
76.99102845431688
 30
0.0
 11
80.30431404240955
 21
78.68249385843518
 31
0.0
  0
LINE
  5
23DD
330
1F
100
AcDbEntity
  8
CONTINUOUS1
100
AcDbLine
 10
80.30431404240955
 20
78.68249385843518
 30
0.0
 11
78.40792365343893
 21
78.68249385843521
 31
0.0
  0
LINE
  5
23E2
330
1F
100
AcDbEntity
  8
CONTINUOUS1
100
AcDbLine
 10
78.40792423735772
 20
71.18249351270226
 30
0.0
 11
80.30431404240955
 21
71.18249438041963
 31
0.0
  0
LINE
  5
23E3
330
1F
100
AcDbEntity
  8
CONTINUOUS1
100
AcDbLine
 10
80.41702622367896
 20
71.20917795834991
 30
0.0
 11
82.59835105042316
 21
72.87506478219345
 31
0.0
  0
ARC
  5
2404
330
1F
100
AcDbEntity
  8
CONTINUOUS1
100
AcDbCircle
 10
80.33812303151188
 20
71.31249439588938
 30
0.0
 40
0.13
100
AcDbArc
 50
270.0000262164151
 51
307.3691226227381
  0
ARC
  5
2405
330
1F
100
AcDbEntity
  8
CONTINUOUS1
100
AcDbCircle
 10
82.44661414240955
 20
73.07375023900009
 30
0.0
 40
0.25
100
AcDbArc
 50
307.3691226227381
 51
0.0
  0
ARC
  5
2406
330
1F
100
AcDbEntity
  8
CONTINUOUS1
100
AcDbCircle
 10
82.44661414240955
 20
76.77187062637694
 30
0.0
 40
0.25
100
AcDbArc
 50
0.0
 51
61.23863269339783
  0
LWPOLYLINE
  5
2412
330
1F
100
AcDbEntity
  8
CONTINUOUS1
100
AcDbPolyline
 90
        8
 70
   128
 43
0.0
 10
79.73977414934515
 20
77.9324938584352
 10
79.08431404240952
 20
77.9324938584352
 42
0.4142135623730951
 10
78.95431404240952
 20
77.8024938584352
 10
78.95431404240952
 20
72.0624938584352
 42
0.4142135623730951
 10
79.08431404240952
 20
71.93249385843521
 10
79.73977414934515
 20
71.93249385843521
 42
0.2139313869628475
 10
79.8368391989012
 20
71.97601625350376
 10
81.8186017220024
 20
74.20040576643788
  0
ARC
  5
2427
330
1F
100
AcDbEntity
  8
CONTINUOUS1
100
AcDbCircle
 10
79.73977414934515
 20
77.8024938584352
 30
0.0
 40
0.13
100
AcDbArc
 50
41.69861803182949
 51
90.0
  0
CIRCLE
  5
2428
330
1F
100
AcDbEntity
  8
CONTINUOUS1
100
AcDbCircle
 10
80.66622552320342
 20
72.45017368770847
 30
0.0
 40
0.2041678406250078
  0
CIRCLE
  5
2429
330
1F
100
AcDbEntity
  8
CONTINUOUS1
100
AcDbCircle
 10
76.93554413217964
 20
74.35721538323988
 30
0.0
 40
0.1613178000000062
  0
CIRCLE
  5
242A
330
1F
100
AcDbEntity
  8
CONTINUOUS1
100
AcDbCircle
 10
77.52771561173159
 20
74.65311200308402
 30
0.0
 40
0.1613178000000062
  0
CIRCLE
  5
242B
330
1F
100
AcDbEntity
  8
CONTINUOUS1
100
AcDbCircle
 10
77.21189079520525
 20
75.22517880144933
 30
0.0
 40
0.1613178000000062
  0
LINE
  5
2432
330
1F
100
AcDbEntity
  8
CONTINUOUS1
100
AcDbLine
 10
49.87499148652694
 20
86.9174938584352
 30
0.0
 11
49.87499148652693
 21
56.65749385843518
 31
0.0
  0
LINE
  5
2433
330
1F
100
AcDbEntity
  8
CONTINUOUS1
100
AcDbLine
 10
39.62499148652694
 20
86.9174938584352
 30
0.0
 11
39.62499148652693
 21
56.65749385843518
 31
0.0
  0
LINE
  5
2434
330
1F
100
AcDbEntity
  8
CONTINUOUS1
100
AcDbLine
 10
51.33499148652694
 20
78.68249385843519
 30
0.0
 11
51.33499148652694
 21
71.20858360016343
 31
0.0
  0
LINE
  5
2435
330
1F
100
AcDbEntity
  8
CONTINUOUS1
100
AcDbLine
 10
51.33499148652694
 20
78.68249385843519
 30
0.0
 11
49.87499148652693
 21
78.68249385843519
 31
0.0
  0
LINE
  5
2436
330
1F
100
AcDbEntity
  8
CONTINUOUS1
100
AcDbLine
 10
51.33499148652694
 20
71.20858360016343
 30
0.0
 11
49.87499148652693
 21
71.20858360016341
 31
0.0
  0
LINE
  5
2437
330
1F
100
AcDbEntity
  8
CONTINUOUS1
100
AcDbLine
 10
50.90999148652695
 20
74.0705387292993
 30
0.0
 11
50.40999148652694
 21
74.0705387292993
 31
0.0
  0
LINE
  5
2438
330
1F
100
AcDbEntity
  8
CONTINUOUS1
100
AcDbLine
 10
50.90999148652695
 20
75.82053872929932
 30
0.0
 11
50.40999148652694
 21
75.82053872929932
 31
0.0
  0
LINE
  5
2439
330
1F
100
AcDbEntity
  8
CONTINUOUS1
100
AcDbLine
 10
51.33499148652694
 20
71.95858351203771
 30
0.0
 11
49.87499148652693
 21
71.95858351203767
 31
0.0
  0
LINE
  5
243A
330
1F
100
AcDbEntity
  8
CONTINUOUS1
100
AcDbLine
 10
51.33499148652694
 20
77.9324938584352
 30
0.0
 11
49.87499148652693
 21
77.93249385843521
 31
0.0
  0
LINE
  5
243F
330
1F
100
AcDbEntity
  8
CONTINUOUS1
100
AcDbLine
 10
50.90999148652693
 20
75.82053872929932
 30
0.0
 11
50.90999148652695
 21
74.0705387292993
 31
0.0
  0
LINE
  5
2440
330
1F
100
AcDbEntity
  8
CONTINUOUS1
100
AcDbLine
 10
50.90999148652693
 20
75.82053872929932
 30
0.0
 11
50.90999148652695
 21
74.0705387292993
 31
0.0
  0
LINE
  5
2441
330
1F
100
AcDbEntity
  8
CONTINUOUS1
100
AcDbLine
 10
50.40999148652694
 20
75.82053872929932
 30
0.0
 11
50.40999148652694
 21
74.0705387292993
 31
0.0
  0
LINE
  5
2442
330
1F
100
AcDbEntity
  8
CONTINUOUS1
100
AcDbLine
 10
39.62499148652693
 20
86.9174938584352
 30
0.0
 11
49.87499148652694
 21
86.9174938584352
 31
0.0
  0
LINE
  5
2443
330
1F
100
AcDbEntity
  8
CONTINUOUS1
100
AcDbLine
 10
39.62499148652693
 20
56.65749385843518
 30
0.0
 11
49.87499148652694
 21
56.65749385843518
 31
0.0
  0
LINE
  5
247E
330
1F
100
AcDbEntity
  8
CONTINUOUS1
100
AcDbLine
 10
51.03499148652695
 20
36.14060381369684
 30
0.0
 11
51.73499148652695
 21
36.14060381369682
 31
0.0
  0
LINE
  5
2481
330
1F
100
AcDbEntity
  8
CONTINUOUS1
100
AcDbLine
 10
51.23499148652693
 20
30.75325301536603
 30
0.0
 11
49.62499148652693
 21
30.75325301536603
 31
0.0
  0
LINE
  5
2486
330
1F
100
AcDbEntity
  8
CONTINUOUS1
100
AcDbLine
 10
50.3091616729759
 20
30.75325301536602
 30
0.0
 11
50.83499148652694
 21
33.55319753040237
 31
0.0
  0
LINE
  5
2487
330
1F
100
AcDbEntity
  8
CONTINUOUS1
100
AcDbLine
 10
51.33499148652694
 20
37.44101408202107
 30
0.0
 11
51.33499148652694
 21
40.58301408202108
 31
0.0
  0
LINE
  5
2488
330
1F
100
AcDbEntity
  8
CONTINUOUS1
100
AcDbLine
 10
51.33499148652694
 20
40.58301408202108
 30
0.0
 11
50.53499148652694
 21
40.58301408202108
 31
0.0
  0
LINE
  5
2489
330
1F
100
AcDbEntity
  8
CONTINUOUS1
100
AcDbLine
 10
50.53499148652694
 20
40.58301408202108
 30
0.0
 11
50.53499148652694
 21
37.44101408202107
 31
0.0
  0
LINE
  5
248C
330
1F
100
AcDbEntity
  8
CONTINUOUS1
100
AcDbLine
 10
51.03499148652695
 20
37.44101408202109
 30
0.0
 11
51.03499148652694
 21
33.55319753040237
 31
0.0
  0
LINE
  5
248D
330
1F
100
AcDbEntity
  8
CONTINUOUS1
100
AcDbLine
 10
50.83499148652695
 20
37.44101408202109
 30
0.0
 11
50.83499148652694
 21
33.55319753040237
 31
0.0
  0
LINE
  5
2490
330
1F
100
AcDbEntity
  8
CONTINUOUS1
100
AcDbLine
 10
51.23499148652693
 20
29.92331408202106
 30
0.0
 11
51.23499148652694
 21
36.14060381369682
 31
0.0
  0
LINE
  5
24B8
330
1F
100
AcDbEntity
  8
CONTINUOUS1
100
AcDbLine
 10
84.07161414240954
 20
86.36876365843519
 30
0.0
 11
84.07161414240954
 21
57.13130035843519
 31
0.0
  0
LINE
  5
24B9
330
1F
100
AcDbEntity
  8
CONTINUOUS1
100
AcDbLine
 10
84.07161414240954
 20
57.00130035843519
 30
0.0
 11
78.23931404240953
 21
57.00130035843519
 31
0.0
  0
LINE
  5
24BA
330
1F
100
AcDbEntity
  8
CONTINUOUS1
100
AcDbLine
 10
84.07161414240954
 20
86.61368735843518
 30
0.0
 11
78.23931404240953
 21
86.61368735843518
 31
0.0
  0
LWPOLYLINE
  5
24BB
330
1F
100
AcDbEntity
  8
CONTINUOUS1
100
AcDbPolyline
 90
        4
 70
   128
 43
0.0
 10
78.17931404240953
 20
78.66180038027997
 10
78.17931404240953
 20
86.93749385843519
 10
77.47360964240953
 20
86.93749385843519
 10
77.47360964240953
 20
77.99847365508615
  0
ARC
  5
269E
330
1F
100
AcDbEntity
  8
CONTINUOUS1
100
AcDbCircle
 10
73.24083632073246
 20
71.69499612971498
 30
0.0
 40
2.756194678761516
100
AcDbArc
 50
59.35984295716897
 51
120.6401570428339
  0
LINE
  5
269F
330
1F
100
AcDbEntity
  8
CONTINUOUS1
100
AcDbLine
 10
74.6618244107338
 20
75.80749385843519
 30
0.0
 11
71.81984823073112
 21
75.80749385843519
 31
0.0
  0
LINE
  5
26A0
330
1F
100
AcDbEntity
  8
CONTINUOUS1
100
AcDbLine
 10
74.7918244107338
 20
75.67749385843519
 30
0.0
 11
74.79182441073376
 21
74.18749385843522
 31
0.0
  0
ARC
  5
26A1
330
1F
100
AcDbEntity
  8
CONTINUOUS1
100
AcDbCircle
 10
74.66182441073377
 20
74.18749385843522
 30
0.0
 40
0.13
100
AcDbArc
 50
281.4914422702381
 51
359.999999999999
  0
ARC
  5
26A2
330
1F
100
AcDbEntity
  8
CONTINUOUS1
100
AcDbCircle
 10
74.67527186671489
 20
74.12134693161593
 30
0.0
 40
0.0625
100
AcDbArc
 50
241.5693506049482
 51
281.4914422702366
  0
ARC
  5
26A3
330
1F
100
AcDbEntity
  8
CONTINUOUS1
100
AcDbCircle
 10
74.6618244107338
 20
75.67749385843519
 30
0.0
 40
0.13
100
AcDbArc
 50
359.9999999999993
 51
89.99999999999984
  0
LINE
  5
26A4
330
1F
100
AcDbEntity
  8
CONTINUOUS1
100
AcDbLine
 10
71.68984823073107
 20
74.18749385843513
 30
0.0
 11
71.6898482307311
 21
75.67749385843521
 31
0.0
  0
ARC
  5
26A5
330
1F
100
AcDbEntity
  8
CONTINUOUS1
100
AcDbCircle
 10
71.81984823073107
 20
74.18749385843513
 30
0.0
 40
0.13
100
AcDbArc
 50
179.9999999999993
 51
258.5085577297482
  0
ARC
  5
26A6
330
1F
100
AcDbEntity
  8
CONTINUOUS1
100
AcDbCircle
 10
71.80640077474994
 20
74.12134693161585
 30
0.0
 40
0.0625
100
AcDbArc
 50
258.5085577297479
 51
298.4306493950517
  0
ARC
  5
26A7
330
1F
100
AcDbEntity
  8
CONTINUOUS1
100
AcDbCircle
 10
71.81984823073112
 20
75.67749385843521
 30
0.0
 40
0.13
100
AcDbArc
 50
89.99999999999984
 51
179.9999999999984
  0
LINE
  5
27DB
330
1F
100
AcDbEntity
  8
CONTINUOUS1
100
AcDbLine
 10
39.62499148652694
 20
83.43249385843519
 30
0.0
 11
39.37499148652694
 21
83.43249385843519
 31
0.0
  0
LINE
  5
27DC
330
1F
100
AcDbEntity
  8
CONTINUOUS1
100
AcDbLine
 10
39.62499148652693
 20
60.18249385843519
 30
0.0
 11
39.37499148652694
 21
60.18249385843519
 31
0.0
  0
LINE
  5
27DD
330
1F
100
AcDbEntity
  8
CONTINUOUS1
100
AcDbLine
 10
39.62499148652694
 20
81.43249385843519
 30
0.0
 11
39.37499148652694
 21
81.43249385843519
 31
0.0
  0
LINE
  5
27DE
330
1F
100
AcDbEntity
  8
CONTINUOUS1
100
AcDbLine
 10
39.62499148652693
 20
62.18249385843519
 30
0.0
 11
39.37499148652694
 21
62.1824938584352
 31
0.0
  0
TEXT
  5
29A3
330
1F
100
AcDbEntity
  8
TEXT1
100
AcDbText
 10
68.14698170852247
 20
30.39849751100803
 30
0.0
 40
1.0
  1
NEMA TYPES 12, 3R OR 5
  7
ROMANS
 72
     1
 11
78.55174361328437
 21
30.89849751100803
 31
0.0
100
AcDbText
 73
     2
  0
LWPOLYLINE
  5
29AF
330
1F
100
AcDbEntity
  8
CONTINUOUS1
100
AcDbPolyline
 90
        4
 70
   129
 43
0.0
 10
78.27931404240954
 20
81.6646910907596
 10
78.27931404240954
 20
83.68967944795555
 10
81.12946599075675
 20
83.68967944795555
 10
81.12946599075675
 20
81.6646910907596
  0
LINE
  5
29B0
330
1F
100
AcDbEntity
  8
CONTINUOUS1
100
AcDbLine
 10
80.61437818397054
 20
83.68967944795555
 30
0.0
 11
80.61437818397054
 21
81.66469109075961
 31
0.0
  0
LWPOLYLINE
  5
29B9
330
1F
100
AcDbEntity
  8
CONTINUOUS1
100
AcDbPolyline
 90
        8
 70
   129
 43
0.0
 10
84.30273977724665
 20
56.16347006268855
 10
84.07161414240954
 20
56.67208345146647
 10
84.07161414240954
 20
59.0494871007899
 10
84.418722595894
 20
59.0494871007899
 10
84.418722595894
 20
56.7472509440967
 10
84.64984823073109
 20
56.24546569867786
 10
84.64984823073109
 20
55.0424938584352
 10
84.30273977724665
 20
55.0424938584352
  0
LINE
  5
29D3
330
1F
100
AcDbEntity
  8
CONTINUOUS1
100
AcDbLine
 10
78.27931404240951
 20
81.92165578656839
 30
0.0
 11
78.80829159658955
 21
81.92165578656839
 31
0.0
  0
LWPOLYLINE
  5
29DA
330
1F
100
AcDbEntity
  8
CONTINUOUS1
100
AcDbPolyline
 90
        8
 70
   129
 43
0.0
 10
84.30273977724665
 20
87.29659395418188
 10
84.07161414240954
 20
86.78798056540395
 10
84.07161414240954
 20
84.41057691608053
 10
84.418722595894
 20
84.41057691608053
 10
84.418722595894
 20
86.71281307277373
 10
84.64984823073109
 20
87.21459831819258
 10
84.64984823073109
 20
88.5324938584352
 10
84.30273977724665
 20
88.5324938584352
  0
LWPOLYLINE
  5
29DB
330
1F
100
AcDbEntity
  8
CONTINUOUS1
100
AcDbPolyline
 90
        4
 70
   129
 43
0.0
 10
80.47663662861642
 20
82.44522449061291
 10
80.47663662861642
 20
82.9005353284543
 10
80.28732063241346
 20
82.9005353284543
 10
80.28732063241346
 20
82.44522449061291
  0
LINE
  5
29DC
330
1F
100
AcDbEntity
  8
CONTINUOUS1
100
AcDbLine
 10
78.27931404240951
 20
83.14888555973849
 30
0.0
 11
78.80829159658955
 21
83.14888555973849
 31
0.0
  0
LINE
  5
29DD
330
1F
100
AcDbEntity
  8
CONTINUOUS1
100
AcDbLine
 10
78.27931404240951
 20
82.20548497897665
 30
0.0
 11
78.80829159658955
 21
82.20548497897665
 31
0.0
  0
LINE
  5
29DE
330
1F
100
AcDbEntity
  8
CONTINUOUS1
100
AcDbLine
 10
78.27931404240951
 20
83.43271600043898
 30
0.0
 11
78.80829159658955
 21
83.43271600043898
 31
0.0
  0
CIRCLE
  5
29E1
330
1F
100
AcDbEntity
  8
CONTINUOUS1
100
AcDbCircle
 10
80.85526737272997
 20
82.70540104227181
 30
0.0
 40
0.136070092088207
  0
TEXT
  5
29E8
330
1F
100
AcDbEntity
  8
DIM
100
AcDbText
 10
54.81280988782549
 20
83.11475275455473
 30
0.0
 40
1.0
  1
(6 HOLES)
  7
ROMANS
 72
     1
 11
58.83661941163501
 21
83.61475275455473
 31
0.0
100
AcDbText
 73
     2
  0
TEXT
  5
2A04
330
1F
100
AcDbEntity
  8
TEXT1
100
AcDbText
 10
72.68249527977497
 20
13.98598717092001
 30
0.0
 40
0.8
  1
NA
  7
ROMANS
 72
     1
 11
73.50154289882259
 21
14.38598717092001
 31
0.0
100
AcDbText
 73
     2
  0
TEXT
  5
2A05
330
1F
100
AcDbEntity
  8
TEXT1
100
AcDbText
 10
72.68249527977497
 20
12.11098717092001
 30
0.0
 40
0.8
  1
NA
  7
ROMANS
 72
     1
 11
73.50154289882259
 21
12.51098717092001
 31
0.0
100
AcDbText
 73
     2
  0
TEXT
  5
2A06
330
1F
100
AcDbEntity
  8
TEXT1
100
AcDbText
 10
82.05749527977497
 20
13.98598717092001
 30
0.0
 40
0.8
  1
NA
  7
ROMANS
 72
     1
 11
82.8765428988226
 21
14.38598717092001
 31
0.0
100
AcDbText
 73
     2
  0
TEXT
  5
2A07
330
1F
100
AcDbEntity
  8
TEXT1
100
AcDbText
 10
82.05749527977497
 20
12.11098717092001
 30
0.0
 40
0.8
  1
NA
  7
ROMANS
 72
     1
 11
82.8765428988226
 21
12.51098717092001
 31
0.0
100
AcDbText
 73
     2
  0
TEXT
  5
2A08
330
1F
100
AcDbEntity
  8
TEXT1
100
AcDbText
 10
2.47028289882256
 20
2.053467170920001
 30
0.0
 40
0.8
  1
FOR CORNER GROUNDED DELTA SYSTEM, USE 2 SWITCHING POLES AND INSTALL NEUTRAL FOR GROUNDED CONDUCTOR.
  7
ROMANS
 11
2.47028289882256
 21
2.453467170920001
 31
0.0
100
AcDbText
 73
     2
  0
LWPOLYLINE
  5
2A63
330
1F
100
AcDbEntity
  8
CONTINUOUS1
100
AcDbPolyline
 90
        4
 70
   129
 43
0.0
 10
78.27931404240954
 20
61.83537292611079
 10
78.27931404240954
 20
59.81038456891486
 10
81.12946599075675
 20
59.81038456891486
 10
81.12946599075675
 20
61.83537292611079
  0
LINE
  5
2A64
330
1F
100
AcDbEntity
  8
CONTINUOUS1
100
AcDbLine
 10
80.61437818397054
 20
59.81038456891486
 30
0.0
 11
80.61437818397054
 21
61.83537292611077
 31
0.0
  0
LINE
  5
2A65
330
1F
100
AcDbEntity
  8
CONTINUOUS1
100
AcDbLine
 10
78.27931404240951
 20
61.57840823030202
 30
0.0
 11
78.80829159658955
 21
61.57840823030202
 31
0.0
  0
LINE
  5
2A66
330
1F
100
AcDbEntity
  8
CONTINUOUS1
100
AcDbLine
 10
78.27931404240951
 20
61.29457903789374
 30
0.0
 11
78.80829159658955
 21
61.29457903789374
 31
0.0
  0
LINE
  5
2A67
330
1F
100
AcDbEntity
  8
CONTINUOUS1
100
AcDbLine
 10
78.27931404240951
 20
60.35117845713189
 30
0.0
 11
78.80829159658955
 21
60.35117845713189
 31
0.0
  0
CIRCLE
  5
2A68
330
1F
100
AcDbEntity
  8
CONTINUOUS1
100
AcDbCircle
 10
80.85526737272997
 20
60.79466297459858
 30
0.0
 40
0.136070092088207
  0
LWPOLYLINE
  5
2A69
330
1F
100
AcDbEntity
  8
CONTINUOUS1
100
AcDbPolyline
 90
        4
 70
   129
 43
0.0
 10
80.47663662861642
 20
61.05483952625748
 10
80.47663662861642
 20
60.5995286884161
 10
80.28732063241346
 20
60.5995286884161
 10
80.28732063241346
 20
61.05483952625748
  0
LINE
  5
2A6A
330
1F
100
AcDbEntity
  8
CONTINUOUS1
100
AcDbLine
 10
78.27931404240951
 20
60.0673480164314
 30
0.0
 11
78.80829159658955
 21
60.0673480164314
 31
0.0
  0
LWPOLYLINE
  5
2A75
330
1F
100
AcDbEntity
  8
CONTINUOUS1
100
AcDbPolyline
 90
        2
 70
     0
 43
0.0
 10
78.13839860593571
 20
78.58145380530273
 42
0.4546704677445689
 10
78.13839903891436
 20
71.28353353385334
  0
LWPOLYLINE
  5
2A76
330
1F
100
AcDbEntity
  8
CONTINUOUS1
100
AcDbPolyline
 90
        2
 70
     0
 43
0.0
 10
78.40792365343893
 20
78.68249385843519
 42
0.1812810932881313
 10
78.13839860593571
 20
78.58145380530273
  0
LWPOLYLINE
  5
2A77
330
1F
100
AcDbEntity
  8
CONTINUOUS1
100
AcDbPolyline
 90
        2
 70
     0
 43
0.0
 10
78.13839903891438
 20
71.28353353385339
 42
0.1812811807986346
 10
78.40792423735774
 20
71.18249351270228
  0
LWPOLYLINE
  5
2A78
330
1F
100
AcDbEntity
  8
CONTINUOUS1
100
AcDbPolyline
 90
        2
 70
     0
 43
0.0
 10
81.8186017220024
 20
74.20040576643788
 42
0.4276388645429607
 10
81.81860172200234
 20
75.66458195043257
  0
LWPOLYLINE
  5
2A79
330
1F
100
AcDbEntity
  8
CONTINUOUS1
100
AcDbPolyline
 90
        2
 70
     0
 43
0.0
 10
81.81860172200249
 20
75.66458195043242
 10
79.8368391989012
 20
77.88897146336664
  0
LWPOLYLINE
  5
2A7A
330
1F
100
AcDbEntity
  8
CONTINUOUS1
100
AcDbPolyline
 90
        2
 70
     0
 43
0.0
 10
81.11917104240955
 20
74.18249385843527
 42
0.9966722222067744
 10
81.11917104240955
 20
75.68249385843518
  0
LINE
  5
2AC6
330
1F
100
AcDbEntity
  8
CENTER1
100
AcDbLine
 10
44.74999148652694
 20
86.9174938584352
 30
0.0
 11
44.74999148652694
 21
86.96080914537086
 31
0.0
  0
LWPOLYLINE
  5
2AC7
330
1F
100
AcDbEntity
  8
CONTINUOUS1
100
AcDbPolyline
 90
        6
 70
   128
 43
0.0
 10
44.50079276597723
 20
86.9174938584352
 42
-0.2665987627269912
 10
44.60703590883915
 20
87.14258811143912
 10
44.59499148652695
 20
87.20249385843519
 42
-1.013549547389829
 10
44.90499148652694
 20
87.20249385843519
 10
44.89294706421474
 20
87.14258811143912
 42
-0.2665987627269836
 10
44.99919020707665
 20
86.9174938584352
 42
-0.2665987627269836
  0
LINE
  5
2AC8
330
1F
100
AcDbEntity
  8
CENTER1
100
AcDbLine
 10
44.72023810263918
 20
86.93749374178112
 30
0.0
 11
44.7742901277189
 21
86.93749374178112
 31
0.0
  0
INSERT
  5
2AC9
330
1F
100
AcDbEntity
  8
DIM
100
AcDbBlockReference
  2
M_PFN_2
 10
44.72023810263918
 20
86.93749374178112
 30
0.0
 50
180.0000000000118
  0
LINE
  5
2ACA
330
1F
100
AcDbEntity
  8
CENTER1
100
AcDbLine
 10
44.72023810263918
 20
87.20249385843519
 30
0.0
 11
44.7742901277189
 21
87.20249385843519
 31
0.0
  0
INSERT
  5
2ACB
330
1F
100
AcDbEntity
  8
DIM
100
AcDbBlockReference
  2
M_PFN_2
 10
44.72023810263918
 20
87.20249385843519
 30
0.0
 50
180.0000000000118
  0
LINE
  5
2ACC
330
1F
100
AcDbEntity
  8
CENTER1
100
AcDbLine
 10
44.74999148652694
 20
87.1751348086472
 30
0.0
 11
44.74999148652694
 21
87.22580926202493
 31
0.0
  0
LINE
  5
2AF0
330
1F
100
AcDbEntity
  8
CONTINUOUS1
100
AcDbLine
 10
41.06499148652694
 20
86.9174938584352
 30
0.0
 11
41.06499148652694
 21
87.03249385843518
 31
0.0
  0
LINE
  5
2AF1
330
1F
100
AcDbEntity
  8
CONTINUOUS1
100
AcDbLine
 10
42.56499148652694
 20
88.53249385843518
 30
0.0
 11
46.93499148652693
 21
88.5324938584352
 31
0.0
  0
LINE
  5
2AF2
330
1F
100
AcDbEntity
  8
CONTINUOUS1
100
AcDbLine
 10
48.43499148652694
 20
87.03249385843518
 30
0.0
 11
48.43499148652694
 21
86.9174938584352
 31
0.0
  0
ARC
  5
2AFA
330
1F
100
AcDbEntity
  8
CONTINUOUS1
100
AcDbCircle
 10
46.93499148652693
 20
87.03249385843518
 30
0.0
 40
1.5
100
AcDbArc
 50
0.0
 51
90.0
  0
ARC
  5
2AFB
330
1F
100
AcDbEntity
  8
CONTINUOUS1
100
AcDbCircle
 10
42.56499148652694
 20
87.03249385843518
 30
0.0
 40
1.5
100
AcDbArc
 50
90.0
 51
180.0
  0
LINE
  5
2B0C
330
1F
100
AcDbEntity
  8
CONTINUOUS1
100
AcDbLine
 10
49.62499148652693
 20
28.54831408202108
 30
0.0
 11
49.62499148652693
 21
27.97011408202108
 31
0.0
  0
LINE
  5
2B0D
330
1F
100
AcDbEntity
  8
CONTINUOUS1
100
AcDbLine
 10
49.62499148652693
 20
27.97011408202108
 30
0.0
 11
39.62499148652692
 21
27.97011408202109
 31
0.0
  0
LINE
  5
2B0E
330
1F
100
AcDbEntity
  8
CONTINUOUS1
100
AcDbLine
 10
39.62499148652692
 20
27.97011408202109
 30
0.0
 11
39.62499148652692
 21
28.54831408202109
 31
0.0
  0
LINE
  5
2B0F
330
1F
100
AcDbEntity
  8
CONTINUOUS1
100
AcDbLine
 10
41.24999148652693
 20
27.97011408202109
 30
0.0
 11
48.24999148652693
 21
27.97011408202108
 31
0.0
  0
LINE
  5
2B14
330
1F
100
AcDbEntity
  8
CONTINUOUS1
100
AcDbLine
 10
51.33499148652694
 20
37.44101408202109
 30
0.0
 11
50.53499148652694
 21
37.44101408202109
 31
0.0
  0
LINE
  5
2B18
330
1F
100
AcDbEntity
  8
CENTER1
100
AcDbLine
 10
42.37499148652695
 20
28.32621408202109
 30
0.0
 11
42.37499148652695
 21
27.49801408202108
 31
0.0
  0
LINE
  5
2B19
330
1F
100
AcDbEntity
  8
CENTER1
100
AcDbLine
 10
44.74999148652694
 20
28.32621408202109
 30
0.0
 11
44.74999148652694
 21
27.49801408202108
 31
0.0
  0
LINE
  5
2B1A
330
1F
100
AcDbEntity
  8
CENTER1
100
AcDbLine
 10
47.12499148652693
 20
28.32621408202109
 30
0.0
 11
47.12499148652693
 21
27.49801408202108
 31
0.0
  0
LINE
  5
2B1B
330
1F
100
AcDbEntity
  8
HIDDEN1
100
AcDbLine
 10
42.62499148652695
 20
27.97011408202109
 30
0.0
 11
42.62499148652695
 21
27.62301408202108
 31
0.0
  0
LINE
  5
2B1C
330
1F
100
AcDbEntity
  8
HIDDEN1
100
AcDbLine
 10
42.12499148652695
 20
27.97011408202109
 30
0.0
 11
42.12499148652695
 21
27.62301408202108
 31
0.0
  0
LINE
  5
2B1D
330
1F
100
AcDbEntity
  8
HIDDEN1
100
AcDbLine
 10
44.99999148652694
 20
27.97011408202108
 30
0.0
 11
44.99999148652693
 21
27.62301408202108
 31
0.0
  0
LINE
  5
2B1E
330
1F
100
AcDbEntity
  8
HIDDEN1
100
AcDbLine
 10
44.49999148652693
 20
27.97011408202109
 30
0.0
 11
44.49999148652693
 21
27.62301408202108
 31
0.0
  0
LINE
  5
2B1F
330
1F
100
AcDbEntity
  8
HIDDEN1
100
AcDbLine
 10
47.37499148652694
 20
27.97011408202109
 30
0.0
 11
47.37499148652694
 21
27.62301408202108
 31
0.0
  0
LINE
  5
2B20
330
1F
100
AcDbEntity
  8
HIDDEN1
100
AcDbLine
 10
46.87499148652693
 20
27.97011408202109
 30
0.0
 11
46.87499148652693
 21
27.62301408202108
 31
0.0
  0
LINE
  5
2B27
330
1F
100
AcDbEntity
  8
HIDDEN1
100
AcDbLine
 10
84.30273977724665
 20
87.37701568153433
 30
0.0
 11
84.64984823073109
 21
87.37701568153433
 31
0.0
  0
LINE
  5
2B28
330
1F
100
AcDbEntity
  8
CENTER1
100
AcDbLine
 10
84.13154868435027
 20
87.22201568153433
 30
0.0
 11
84.7748482307311
 21
87.22201568153433
 31
0.0
  0
LINE
  5
2B29
330
1F
100
AcDbEntity
  8
CENTER1
100
AcDbLine
 10
84.01112652963519
 20
86.95701556488026
 30
0.0
 11
84.66882648253911
 21
86.95701556488026
 31
0.0
  0
LINE
  5
2B2A
330
1F
100
AcDbEntity
  8
HIDDEN1
100
AcDbLine
 10
84.07161414240954
 20
86.70701556488026
 30
0.0
 11
84.418722595894
 21
86.70701556488026
 31
0.0
  0
LINE
  5
2B30
330
1F
100
AcDbEntity
  8
HIDDEN1
100
AcDbLine
 10
84.07161414240954
 20
56.86797215199014
 30
0.0
 11
84.418722595894
 21
56.86797215199014
 31
0.0
  0
LINE
  5
2B31
330
1F
100
AcDbEntity
  8
CENTER1
100
AcDbLine
 10
83.95890255420241
 20
56.61797215199014
 30
0.0
 11
84.61589185888721
 21
56.61797215199014
 31
0.0
  0
LINE
  5
2B32
330
1F
100
AcDbEntity
  8
CENTER1
100
AcDbLine
 10
84.07932470891749
 20
56.35297203533607
 30
0.0
 11
84.737952682223
 21
56.35297203533607
 31
0.0
  0
LINE
  5
2B33
330
1F
100
AcDbEntity
  8
HIDDEN1
100
AcDbLine
 10
84.2870612864573
 20
56.19797203533607
 30
0.0
 11
84.64984823073109
 21
56.19797203533607
 31
0.0
  0
LINE
  5
2B3B
330
1F
100
AcDbEntity
  8
CONTINUOUS1
100
AcDbLine
 10
49.87499148652694
 20
61.83537292611079
 30
0.0
 11
50.12499148652693
 21
61.83537292611079
 31
0.0
  0
LINE
  5
2B3C
330
1F
100
AcDbEntity
  8
CONTINUOUS1
100
AcDbLine
 10
50.12499148652693
 20
61.83537292611079
 30
0.0
 11
50.12499148652693
 21
59.81038456891486
 31
0.0
  0
LINE
  5
2B3D
330
1F
100
AcDbEntity
  8
CONTINUOUS1
100
AcDbLine
 10
50.12499148652693
 20
59.81038456891486
 30
0.0
 11
49.87499148652694
 21
59.81038456891486
 31
0.0
  0
LINE
  5
2B3E
330
1F
100
AcDbEntity
  8
CONTINUOUS1
100
AcDbLine
 10
49.87499148652694
 20
59.81038456891486
 30
0.0
 11
49.87499148652694
 21
61.83537292611079
 31
0.0
  0
LINE
  5
2B3F
330
1F
100
AcDbEntity
  8
CONTINUOUS1
100
AcDbLine
 10
49.87499148652694
 20
83.68967944795555
 30
0.0
 11
50.12499148652693
 21
83.68967944795555
 31
0.0
  0
LINE
  5
2B40
330
1F
100
AcDbEntity
  8
CONTINUOUS1
100
AcDbLine
 10
50.12499148652693
 20
83.68967944795555
 30
0.0
 11
50.12499148652693
 21
81.6646910907596
 31
0.0
  0
LINE
  5
2B41
330
1F
100
AcDbEntity
  8
CONTINUOUS1
100
AcDbLine
 10
50.12499148652693
 20
81.6646910907596
 30
0.0
 11
49.87499148652694
 21
81.6646910907596
 31
0.0
  0
LINE
  5
2B42
330
1F
100
AcDbEntity
  8
CONTINUOUS1
100
AcDbLine
 10
49.87499148652694
 20
81.6646910907596
 30
0.0
 11
49.87499148652694
 21
83.68967944795555
 31
0.0
  0
LWPOLYLINE
  5
2B44
330
1F
100
AcDbEntity
  8
CONTINUOUS1
100
AcDbPolyline
 90
        4
 70
   129
 43
0.0
 10
60.33798765507751
 20
94.30837389667221
 42
-3.183467006560767
 10
58.19365398976064
 20
94.30837389667221
 10
58.1033208224191
 20
94.75766699914274
 42
-1.013549547389829
 10
60.42832082241904
 20
94.75766699914274
  0
LEADER
  5
2B4A
330
1F
100
AcDbEntity
  8
DIM
100
AcDbLeader
  3
SCHNEIDERELECTRIC_DUAL_BEL
 76
     3
 10
47.53607356031961
 20
87.04420313015477
 30
0.0
 10
53.37304081645232
 20
92.83549784313789
 30
0.0
 10
55.79458218889556
 20
92.83549784313789
 30
0.0
1001
ACAD
1000
DSTYLE
1002
{
1070
     5
1000
SEARROW
1070
    40
1040
10.0
1070
   342
1005
3000
1002
}
  0
DIMENSION
  5
2B58
330
1F
100
AcDbEntity
  8
DIM
100
AcDbDimension
  2
*D3
 10
57.96285403896014
 20
94.11846224506343
 30
0.0
 11
66.84573588462587
 21
87.98657078575663
 31
0.0
 70
   163
  1
R.25\P[6]
  3
SCHNEIDERELECTRIC_DUAL_BEL
100
AcDbDiametricDimension
 15
60.56878760587821
 25
91.42187000341143
 35
0.0
 40
0.0
1001
ACAD
1000
DSTYLE
1002
{
1070
   141
1040
0.025
1070
    40
1040
10.0
1002
}
  0
DIMENSION
  5
2B65
330
1F
100
AcDbEntity
  8
DIM
100
AcDbDimension
  2
*D4
 10
58.15635802229568
 20
94.42583163236301
 30
0.0
 11
68.06536126254174
 21
96.70753907923387
 31
0.0
 70
   163
  1
R.16\P[4]
  3
SCHNEIDERELECTRIC_DUAL_BEL
100
AcDbDiametricDimension
 15
60.37528362254246
 25
95.12079449309144
 35
0.0
 40
0.0
1001
ACAD
1000
DSTYLE
1002
{
1070
    40
1040
10.0
1070
   141
1040
0.025
1002
}
  0
DIMENSION
  5
2B71
330
1F
100
AcDbEntity
  8
DIM
100
AcDbDimension
  2
*D5
 10
34.4386707841714
 20
56.65749385843518
 30
0.0
 11
34.43867078417139
 21
71.7874938584352
 31
0.0
 70
   160
  3
SCHNEIDERELECTRIC_DUAL_BEL
100
AcDbAlignedDimension
 13
39.62499148652693
 23
86.9174938584352
 33
0.0
 14
39.62499148652693
 24
56.65749385843518
 34
0.0
 50
90.0
100
AcDbRotatedDimension
1001
ACAD
1000
DSTYLE
1002
{
1070
    40
1040
10.0
1002
}
  0
DIMENSION
  5
2B7F
330
1F
100
AcDbEntity
  8
DIM
100
AcDbDimension
  2
*D6
 10
49.87499148652694
 20
50.35075327496741
 30
0.0
 11
44.74999148652694
 21
50.35075327496741
 31
0.0
 70
   160
  3
SCHNEIDERELECTRIC_DUAL_BEL
100
AcDbAlignedDimension
 13
39.62499148652693
 23
56.67749385843519
 33
0.0
 14
49.87499148652694
 24
56.67749385843519
 34
0.0
100
AcDbRotatedDimension
1001
ACAD
1000
DSTYLE
1002
{
1070
    40
1040
10.0
1002
}
  0
DIMENSION
  5
2BA1
330
1F
100
AcDbEntity
  8
DIM
100
AcDbDimension
  2
*D7
 10
27.61186754773531
 20
87.20249385843521
 30
0.0
 11
27.6118675477353
 21
74.18516106943364
 31
0.0
 70
   160
  3
SCHNEIDERELECTRIC_DUAL_BEL
100
AcDbAlignedDimension
 13
42.16023810263918
 23
56.37345021223696
 33
0.0
 14
42.16023810263918
 24
87.20249385843519
 34
0.0
 50
90.0
100
AcDbRotatedDimension
1001
ACAD
1000
DSTYLE
1002
{
1070
    40
1040
10.0
1002
}
  0
DIMENSION
  5
2BEF
330
1F
100
AcDbEntity
  8
DIM
100
AcDbDimension
  2
*D8
 10
71.68984823073109
 20
45.35075327496741
 30
0.0
 11
78.16984823073109
 21
45.35075327496741
 31
0.0
 70
   160
  3
SCHNEIDERELECTRIC_DUAL_BEL
100
AcDbAlignedDimension
 13
84.64984823073109
 23
54.8074938584352
 33
0.0
 14
71.68984823073109
 24
74.18749385843513
 34
0.0
100
AcDbRotatedDimension
1001
ACAD
1000
DSTYLE
1002
{
1070
    40
1040
10.0
1002
}
  0
DIMENSION
  5
2BFF
330
1F
100
AcDbEntity
  8
DIM
100
AcDbDimension
  2
*D9
 10
77.47360964240953
 20
50.35075327496741
 30
0.0
 11
81.06172893657031
 21
50.35075327496741
 31
0.0
 70
    32
  3
SCHNEIDERELECTRIC_DUAL_BEL
100
AcDbAlignedDimension
 13
84.64984823073109
 23
54.8074938584352
 33
0.0
 14
77.47360964240953
 24
56.67749385843519
 34
0.0
100
AcDbRotatedDimension
1001
ACAD
1000
DSTYLE
1002
{
1070
    40
1040
10.0
1002
}
  0
DIMENSION
  5
2C0D
330
1F
100
AcDbEntity
  8
DIM
100
AcDbDimension
  2
*D10
 10
47.30999148652695
 20
92.34239564645809
 30
0.0
 11
36.15380034508067
 21
92.34239564645809
 31
0.0
 70
   160
  3
SCHNEIDERELECTRIC_DUAL_BEL
100
AcDbAlignedDimension
 13
42.18999148652694
 23
86.91845021223695
 33
0.0
 14
47.30999148652695
 24
86.93845021223694
 34
0.0
100
AcDbRotatedDimension
1001
ACAD
1000
DSTYLE
1002
{
1070
    40
1040
10.0
1002
}
  0
LINE
  5
2C1E
330
1F
100
AcDbEntity
  8
CONTINUOUS1
100
AcDbLine
 10
39.37499148652694
 20
83.43249385843519
 30
0.0
 11
39.37499148652694
 21
81.43249385843519
 31
0.0
  0
LINE
  5
2C22
330
1F
100
AcDbEntity
  8
CONTINUOUS1
100
AcDbLine
 10
39.37499148652694
 20
62.1824938584352
 30
0.0
 11
39.37499148652694
 21
60.18249385843519
 31
0.0
  0
DIMENSION
  5
2CD7
330
1F
100
AcDbEntity
  8
DIM
100
AcDbDimension
  2
*D11
 10
51.33499148652694
 20
42.59090436315301
 30
0.0
 11
45.35499148652694
 21
42.59090436315301
 31
0.0
 70
   160
  3
SCHNEIDERELECTRIC_DUAL_BEL
100
AcDbAlignedDimension
 13
39.37499148652694
 23
34.38420556519912
 33
0.0
 14
51.33499148652694
 24
40.58301408202108
 34
0.0
100
AcDbRotatedDimension
1001
ACAD
1000
DSTYLE
1002
{
1070
    40
1040
10.0
1002
}
  0
LINE
  5
2D45
330
1F
100
AcDbEntity
  8
CONTINUOUS1
100
AcDbLine
 10
41.24999148652693
 20
27.62301408202109
 30
0.0
 11
41.24999148652694
 21
27.97011408202109
 31
0.0
  0
LINE
  5
2D46
330
1F
100
AcDbEntity
  8
CONTINUOUS1
100
AcDbLine
 10
48.24999148652694
 20
27.97011408202109
 30
0.0
 11
48.24999148652693
 21
27.62301408202108
 31
0.0
  0
LINE
  5
2D7E
330
1F
100
AcDbEntity
  8
CONTINUOUS1
100
AcDbLine
 10
23.03279289882258
 20
22.19848717092001
 30
0.0
 11
23.03279289882258
 21
11.57348717092001
 31
0.0
  0
TEXT
  5
2DD9
330
1F
100
AcDbEntity
  8
TEXT1
100
AcDbText
 10
1.128254056007038
 20
2.160114717931431
 30
0.0
 40
0.6
  1
4
  7
ROMANS
 72
     1
 11
1.428254056007038
 21
2.460114717931431
 31
0.0
100
AcDbText
 73
     2
  0
TEXT
  5
2DDA
330
1F
100
AcDbEntity
  8
TEXT1
100
AcDbText
 10
1.185396913149896
 20
5.460114717931429
 30
0.0
 40
0.6
  1
1
  7
ROMANS
 72
     1
 11
1.428254056007038
 21
5.760114717931429
 31
0.0
100
AcDbText
 73
     2
  0
TEXT
  5
2DDC
330
1F
100
AcDbEntity
  8
TEXT1
100
AcDbText
 10
1.142539770292753
 20
4.360114717931431
 30
0.0
 40
0.6
  1
2
  7
ROMANS
 72
     1
 11
1.428254056007038
 21
4.660114717931431
 31
0.0
100
AcDbText
 73
     2
  0
TEXT
  5
2DDF
330
1F
100
AcDbEntity
  8
TEXT1
100
AcDbText
 10
1.142539770292753
 20
3.260114717931431
 30
0.0
 40
0.6
  1
3
  7
ROMANS
 72
     1
 11
1.428254056007038
 21
3.560114717931431
 31
0.0
100
AcDbText
 73
     2
  0
TEXT
  5
2DE3
330
1F
100
AcDbEntity
  8
TEXT1
100
AcDbText
 10
34.36969766072734
 20
17.27700971793141
 30
0.0
 40
0.8
  1
RATING
  7
ROMANS
 72
     1
 11
36.40779289882257
 21
17.67700971793141
 31
0.0
100
AcDbText
 73
     2
  0
TEXT
  5
2DE4
330
1F
100
AcDbEntity
  8
TEXT1
100
AcDbText
 10
33.9316024226321
 20
18.7770097179314
 30
0.0
 40
0.8
  1
VOLTAGE
  7
ROMANS
 72
     1
 11
36.40779289882257
 21
19.17700971793139
 31
0.0
100
AcDbText
 73
     2
  0
TEXT
  5
2DE6
330
1F
100
AcDbEntity
  8
TEXT1
100
AcDbText
 10
58.97879589299369
 20
18.05901697151529
 30
0.0
 40
0.6
  1
1
  7
ROMANS
 72
     1
 11
59.22165303585083
 21
18.3590169715153
 31
0.0
100
AcDbText
 73
     2
  0
TEXT
  5
2DEB
330
1F
100
AcDbEntity
  8
TEXT1
100
AcDbText
 10
82.78859953336393
 20
20.73598717092001
 30
0.0
 40
0.8
  1
CORNER
  7
ROMANS
 72
     1
 11
85.18859953336393
 21
21.13598717092001
 31
0.0
100
AcDbText
 73
     2
  0
TEXT
  5
2DEC
330
1F
100
AcDbEntity
  8
TEXT1
100
AcDbText
 10
81.96955191431632
 20
19.23598717092001
 30
0.0
 40
0.8
  1
GROUNDED
  7
ROMANS
 72
     1
 11
85.18859953336393
 21
19.63598717092001
 31
0.0
100
AcDbText
 73
     2
  0
TEXT
  5
2DED
330
1F
100
AcDbEntity
  8
TEXT1
100
AcDbText
 10
80.82669477145918
 20
17.73598717092001
 30
0.0
 40
0.8
  1
DELTA SYSTEM
  7
ROMANS
 72
     1
 11
85.18859953336393
 21
18.13598717092001
 31
0.0
100
AcDbText
 73
     2
  0
TEXT
  5
2DF0
330
1F
100
AcDbEntity
  8
TEXT1
100
AcDbText
 10
110.9135995333639
 20
20.73598717092001
 30
0.0
 40
0.8
  1
CORNER
  7
ROMANS
 72
     1
 11
113.3135995333639
 21
21.13598717092001
 31
0.0
100
AcDbText
 73
     2
  0
TEXT
  5
2DF1
330
1F
100
AcDbEntity
  8
TEXT1
100
AcDbText
 10
110.0945519143163
 20
19.23598717092001
 30
0.0
 40
0.8
  1
GROUNDED
  7
ROMANS
 72
     1
 11
113.3135995333639
 21
19.63598717092001
 31
0.0
100
AcDbText
 73
     2
  0
TEXT
  5
2DF2
330
1F
100
AcDbEntity
  8
TEXT1
100
AcDbText
 10
108.9516947714591
 20
17.73598717092001
 30
0.0
 40
0.8
  1
DELTA SYSTEM
  7
ROMANS
 72
     1
 11
113.3135995333639
 21
18.13598717092001
 31
0.0
100
AcDbText
 73
     2
  0
TEXT
  5
2E15
330
1F
100
AcDbEntity
  8
TEXT1
100
AcDbText
 10
153.369879563448
 20
20.23598717092001
 30
0.0
 40
0.8
  1
600 VAC
  7
ROMANS
 72
     1
 11
156.0174986110671
 21
20.63598717092
 31
0.0
100
AcDbText
 73
     2
  0
TEXT
  5
2E17
330
1F
100
AcDbEntity
  8
TEXT1
100
AcDbText
 10
137.27464146821
 20
20.23598717092001
 30
0.0
 40
0.8
  1
125 VDC
  7
ROMANS
 72
     1
 11
140.0174986110671
 21
20.63598717092001
 31
0.0
100
AcDbText
 73
     2
  0
TEXT
  5
2E1A
330
1F
100
AcDbEntity
  8
TEXT1
100
AcDbText
 10
145.3317843253528
 20
20.23598717092001
 30
0.0
 40
0.8
  1
250 VDC
  7
ROMANS
 72
     1
 11
148.0174986110671
 21
20.63598717092001
 31
0.0
100
AcDbText
 73
     2
  0
TEXT
  5
2E1F
330
1F
100
AcDbEntity
  8
TEXT1
100
AcDbText
 10
30.88398337501305
 20
13.99263471793144
 30
0.0
 40
0.8
  1
600 VAC: 600VDC
  7
ROMANS
 72
     1
 11
36.40779289882257
 21
14.39263471793144
 31
0.0
100
AcDbText
 73
     2
  0
TEXT
  5
2E20
330
1F
100
AcDbEntity
  8
TEXT1
100
AcDbText
 10
30.88398337501305
 20
12.11763471793144
 30
0.0
 40
0.8
  1
600 VAC: 600VDC
  7
ROMANS
 72
     1
 11
36.40779289882257
 21
12.51763471793144
 31
0.0
100
AcDbText
 73
     2
  0
LINE
  5
2E29
330
1F
100
AcDbEntity
  8
CONTINUOUS1
100
AcDbLine
 10
144.7827928988225
 20
22.19848717091999
 30
0.0
 11
144.7827928988225
 21
11.57348717091999
 31
0.0
  0
LINE
  5
2E2B
330
1F
100
AcDbEntity
  8
CONTINUOUS1
100
AcDbLine
 10
136.7827928988225
 20
22.19848717092002
 30
0.0
 11
136.7827928988225
 21
11.57348717092001
 31
0.0
  0
LINE
  5
2E2E
330
1F
100
AcDbEntity
  8
CONTINUOUS1
100
AcDbLine
 10
136.7827928988225
 20
22.19848717092002
 30
0.0
 11
23.03279289882258
 21
22.19848717092001
 31
0.0
  0
LINE
  5
2E2F
330
1F
100
AcDbEntity
  8
CONTINUOUS1
100
AcDbLine
 10
136.7827928988225
 20
15.32348717092001
 30
0.0
 11
23.03279289882258
 21
15.32348717092001
 31
0.0
  0
LINE
  5
2E30
330
1F
100
AcDbEntity
  8
CONTINUOUS1
100
AcDbLine
 10
136.7827928988225
 20
15.32348717092001
 30
0.0
 11
33.65779289882258
 21
15.32348717092001
 31
0.0
  0
LINE
  5
2E31
330
1F
100
AcDbEntity
  8
CONTINUOUS1
100
AcDbLine
 10
136.7827928988225
 20
13.44848717092001
 30
0.0
 11
23.03279289882258
 21
13.44848717092001
 31
0.0
  0
LINE
  5
2E32
330
1F
100
AcDbEntity
  8
CONTINUOUS1
100
AcDbLine
 10
136.7827928988225
 20
11.57348717092001
 30
0.0
 11
23.03279289882258
 21
11.57348717092001
 31
0.0
  0
LWPOLYLINE
  5
2EDF
330
1F
100
AcDbEntity
  8
CONTINUOUS1
100
AcDbPolyline
 90
        6
 70
   128
 43
0.0
 10
41.94079276597722
 20
86.9174938584352
 42
-0.2665987627269912
 10
42.04703590883915
 20
87.14258811143912
 10
42.03499148652695
 20
87.20249385843519
 42
-1.013549547389829
 10
42.34499148652694
 20
87.20249385843519
 10
42.33294706421474
 20
87.14258811143912
 42
-0.2665987627269836
 10
42.43919020707664
 20
86.9174938584352
 42
-0.2665987627269836
  0
LINE
  5
2EE0
330
1F
100
AcDbEntity
  8
CENTER1
100
AcDbLine
 10
42.18999148652694
 20
87.1751348086472
 30
0.0
 11
42.18999148652694
 21
87.22580926202493
 31
0.0
  0
LINE
  5
2EE1
330
1F
100
AcDbEntity
  8
CENTER1
100
AcDbLine
 10
42.16023810263918
 20
87.20249385843519
 30
0.0
 11
42.2142901277189
 21
87.20249385843519
 31
0.0
  0
INSERT
  5
2EE2
330
1F
100
AcDbEntity
  8
DIM
100
AcDbBlockReference
  2
M_PFN_2
 10
42.16023810263918
 20
87.20249385843519
 30
0.0
 50
180.0000000000118
  0
LINE
  5
2EE3
330
1F
100
AcDbEntity
  8
CENTER1
100
AcDbLine
 10
42.16023810263918
 20
86.93749374178112
 30
0.0
 11
42.2142901277189
 21
86.93749374178112
 31
0.0
  0
INSERT
  5
2EE4
330
1F
100
AcDbEntity
  8
DIM
100
AcDbBlockReference
  2
M_PFN_2
 10
42.16023810263918
 20
86.93749374178112
 30
0.0
 50
180.0000000000118
  0
LINE
  5
2EE5
330
1F
100
AcDbEntity
  8
CENTER1
100
AcDbLine
 10
42.18999148652694
 20
86.9174938584352
 30
0.0
 11
42.18999148652694
 21
86.96080914537086
 31
0.0
  0
LWPOLYLINE
  5
2EE6
330
1F
100
AcDbEntity
  8
CONTINUOUS1
100
AcDbPolyline
 90
        6
 70
   128
 43
0.0
 10
47.06079276597724
 20
86.9174938584352
 42
-0.2665987627269825
 10
47.16703590883915
 20
87.14258811143912
 10
47.15499148652695
 20
87.20249385843519
 42
-1.013549547389829
 10
47.46499148652694
 20
87.20249385843519
 10
47.45294706421474
 20
87.14258811143912
 42
-0.2665987627269836
 10
47.55919020707666
 20
86.9174938584352
 42
-0.2665987627269836
  0
LINE
  5
2EE7
330
1F
100
AcDbEntity
  8
CENTER1
100
AcDbLine
 10
47.30999148652695
 20
87.1751348086472
 30
0.0
 11
47.30999148652695
 21
87.22580926202493
 31
0.0
  0
LINE
  5
2EE8
330
1F
100
AcDbEntity
  8
CENTER1
100
AcDbLine
 10
47.28023810263919
 20
87.20249385843519
 30
0.0
 11
47.33429012771892
 21
87.20249385843519
 31
0.0
  0
INSERT
  5
2EE9
330
1F
100
AcDbEntity
  8
DIM
100
AcDbBlockReference
  2
M_PFN_2
 10
47.28023810263919
 20
87.20249385843519
 30
0.0
 50
180.0000000000118
  0
LINE
  5
2EEA
330
1F
100
AcDbEntity
  8
CENTER1
100
AcDbLine
 10
47.28023810263919
 20
86.93749374178112
 30
0.0
 11
47.33429012771892
 21
86.93749374178112
 31
0.0
  0
INSERT
  5
2EEB
330
1F
100
AcDbEntity
  8
DIM
100
AcDbBlockReference
  2
M_PFN_2
 10
47.28023810263919
 20
86.93749374178112
 30
0.0
 50
180.0000000000118
  0
LINE
  5
2EEC
330
1F
100
AcDbEntity
  8
CENTER1
100
AcDbLine
 10
47.30999148652695
 20
86.9174938584352
 30
0.0
 11
47.30999148652695
 21
86.96080914537086
 31
0.0
  0
LINE
  5
2F01
330
1F
100
AcDbEntity
  8
CONTINUOUS1
100
AcDbLine
 10
42.56499148652694
 20
55.04249385843521
 30
0.0
 11
46.93499148652693
 21
55.04249385843519
 31
0.0
  0
LINE
  5
2F02
330
1F
100
AcDbEntity
  8
CENTER1
100
AcDbLine
 10
42.18999148652694
 20
56.38033108512407
 30
0.0
 11
42.18999148652694
 21
56.32965663174634
 31
0.0
  0
LWPOLYLINE
  5
2F03
330
1F
100
AcDbEntity
  8
CONTINUOUS1
100
AcDbPolyline
 90
        6
 70
   128
 43
0.0
 10
41.94313518748408
 20
56.6574938584352
 42
0.2877772864670534
 10
42.04703590883915
 20
56.41287778233214
 10
42.03499148652695
 20
56.35297203533608
 42
1.013549547389829
 10
42.34499148652694
 20
56.35297203533608
 10
42.33294706421474
 20
56.41287778233214
 42
0.2877772864670534
 10
42.43684778556979
 20
56.6574938584352
 42
0.2877772864670534
  0
ARC
  5
2F04
330
1F
100
AcDbEntity
  8
CONTINUOUS1
100
AcDbCircle
 10
42.56499148652694
 20
56.5424938584352
 30
0.0
 40
1.5
100
AcDbArc
 50
180.0
 51
270.0
  0
LINE
  5
2F05
330
1F
100
AcDbEntity
  8
CONTINUOUS1
100
AcDbLine
 10
41.06499148652694
 20
56.6574938584352
 30
0.0
 11
41.06499148652694
 21
56.5424938584352
 31
0.0
  0
LINE
  5
2F06
330
1F
100
AcDbEntity
  8
CENTER1
100
AcDbLine
 10
42.18999148652694
 20
56.64533120177813
 30
0.0
 11
42.18999148652694
 21
56.59465674840041
 31
0.0
  0
INSERT
  5
2F07
330
1F
100
AcDbEntity
  8
DIM
100
AcDbBlockReference
  2
M_PFN_2
 10
42.16023810263918
 20
56.61797215199015
 30
0.0
 41
-1.0
 50
359.999999999988
  0
LINE
  5
2F08
330
1F
100
AcDbEntity
  8
CENTER1
100
AcDbLine
 10
42.16023810263918
 20
56.61797215199015
 30
0.0
 11
42.2142901277189
 21
56.61797215199015
 31
0.0
  0
INSERT
  5
2F09
330
1F
100
AcDbEntity
  8
DIM
100
AcDbBlockReference
  2
M_PFN_2
 10
42.16023810263918
 20
56.35297203533608
 30
0.0
 41
-1.0
 50
359.999999999988
  0
LINE
  5
2F0A
330
1F
100
AcDbEntity
  8
CENTER1
100
AcDbLine
 10
42.16023810263918
 20
56.35297203533608
 30
0.0
 11
42.2142901277189
 21
56.35297203533608
 31
0.0
  0
LINE
  5
2F0B
330
1F
100
AcDbEntity
  8
CENTER1
100
AcDbLine
 10
47.30999148652695
 20
56.38033108512407
 30
0.0
 11
47.30999148652695
 21
56.32965663174634
 31
0.0
  0
LWPOLYLINE
  5
2F0C
330
1F
100
AcDbEntity
  8
CONTINUOUS1
100
AcDbPolyline
 90
        6
 70
   128
 43
0.0
 10
47.0631351874841
 20
56.6574938584352
 42
0.2877772864670534
 10
47.16703590883915
 20
56.41287778233214
 10
47.15499148652695
 20
56.35297203533608
 42
1.013549547389829
 10
47.46499148652694
 20
56.35297203533608
 10
47.45294706421474
 20
56.41287778233214
 42
0.2877772864670534
 10
47.55684778556981
 20
56.6574938584352
 42
0.2877772864670534
  0
ARC
  5
2F0D
330
1F
100
AcDbEntity
  8
CONTINUOUS1
100
AcDbCircle
 10
46.93499148652693
 20
56.5424938584352
 30
0.0
 40
1.5
100
AcDbArc
 50
270.0
 51
0.0
  0
LWPOLYLINE
  5
2F0E
330
1F
100
AcDbEntity
  8
CONTINUOUS1
100
AcDbPolyline
 90
        6
 70
   128
 43
0.0
 10
44.50313518748409
 20
56.6574938584352
 42
0.2877772864670534
 10
44.60703590883915
 20
56.41287778233214
 10
44.59499148652695
 20
56.35297203533608
 42
1.013549547389829
 10
44.90499148652694
 20
56.35297203533608
 10
44.89294706421474
 20
56.41287778233214
 42
0.2877772864670534
 10
44.9968477855698
 20
56.6574938584352
 42
0.2877772864670534
  0
LINE
  5
2F0F
330
1F
100
AcDbEntity
  8
CENTER1
100
AcDbLine
 10
44.74999148652694
 20
56.38033108512407
 30
0.0
 11
44.74999148652694
 21
56.32965663174634
 31
0.0
  0
LINE
  5
2F10
330
1F
100
AcDbEntity
  8
CENTER1
100
AcDbLine
 10
44.72023810263918
 20
56.35297203533608
 30
0.0
 11
44.7742901277189
 21
56.35297203533608
 31
0.0
  0
INSERT
  5
2F11
330
1F
100
AcDbEntity
  8
DIM
100
AcDbBlockReference
  2
M_PFN_2
 10
44.72023810263918
 20
56.35297203533608
 30
0.0
 41
-1.0
 50
359.999999999988
  0
LINE
  5
2F12
330
1F
100
AcDbEntity
  8
CENTER1
100
AcDbLine
 10
44.72023810263918
 20
56.61797215199015
 30
0.0
 11
44.7742901277189
 21
56.61797215199015
 31
0.0
  0
INSERT
  5
2F13
330
1F
100
AcDbEntity
  8
DIM
100
AcDbBlockReference
  2
M_PFN_2
 10
44.72023810263918
 20
56.61797215199015
 30
0.0
 41
-1.0
 50
359.999999999988
  0
LINE
  5
2F14
330
1F
100
AcDbEntity
  8
CENTER1
100
AcDbLine
 10
44.74999148652694
 20
56.64533120177813
 30
0.0
 11
44.74999148652694
 21
56.59465674840041
 31
0.0
  0
LINE
  5
2F15
330
1F
100
AcDbEntity
  8
CENTER1
100
AcDbLine
 10
47.30999148652695
 20
56.64533120177813
 30
0.0
 11
47.30999148652695
 21
56.59465674840041
 31
0.0
  0
INSERT
  5
2F16
330
1F
100
AcDbEntity
  8
DIM
100
AcDbBlockReference
  2
M_PFN_2
 10
47.28023810263919
 20
56.61797215199015
 30
0.0
 41
-1.0
 50
359.999999999988
  0
LINE
  5
2F17
330
1F
100
AcDbEntity
  8
CENTER1
100
AcDbLine
 10
47.28023810263919
 20
56.61797215199015
 30
0.0
 11
47.33429012771892
 21
56.61797215199015
 31
0.0
  0
INSERT
  5
2F18
330
1F
100
AcDbEntity
  8
DIM
100
AcDbBlockReference
  2
M_PFN_2
 10
47.28023810263919
 20
56.35297203533608
 30
0.0
 41
-1.0
 50
359.999999999988
  0
LINE
  5
2F19
330
1F
100
AcDbEntity
  8
CENTER1
100
AcDbLine
 10
47.28023810263919
 20
56.35297203533608
 30
0.0
 11
47.33429012771892
 21
56.35297203533608
 31
0.0
  0
LINE
  5
2F1A
330
1F
100
AcDbEntity
  8
CONTINUOUS1
100
AcDbLine
 10
48.43499148652694
 20
56.5424938584352
 30
0.0
 11
48.43499148652694
 21
56.6574938584352
 31
0.0
  0
LINE
  5
31BE
330
1F
100
AcDbEntity
  8
CONTINUOUS1
100
AcDbLine
 10
41.24999148652693
 20
27.62301408202109
 30
0.0
 11
48.24999148652693
 21
27.62301408202108
 31
0.0
  0
CIRCLE
  5
31C7
330
1F
100
AcDbEntity
  8
CONTINUOUS1
100
AcDbCircle
 10
39.49999148652693
 20
34.09710556519912
 30
0.0
 40
0.1249999999999929
  0
CIRCLE
  5
347C
330
1F
100
AcDbEntity
  8
CONTINUOUS1
100
AcDbCircle
 10
77.80128841613489
 20
77.41481402916192
 30
0.0
 40
0.1613178000000062
  0
CIRCLE
  5
347D
330
1F
100
AcDbEntity
  8
CONTINUOUS1
100
AcDbCircle
 10
78.11711323266123
 20
77.98688082752723
 30
0.0
 40
0.1613178000000062
  0
CIRCLE
  5
347E
330
1F
100
AcDbEntity
  8
CONTINUOUS1
100
AcDbCircle
 10
78.39345989568684
 20
77.11891740931777
 30
0.0
 40
0.1613178000000062
  0
CIRCLE
  5
347F
330
1F
100
AcDbEntity
  8
CONTINUOUS1
100
AcDbCircle
 10
78.39345989568684
 20
72.74607030755264
 30
0.0
 40
0.1613178000000062
  0
CIRCLE
  5
3480
330
1F
100
AcDbEntity
  8
CONTINUOUS1
100
AcDbCircle
 10
77.80128841613489
 20
72.4501736877085
 30
0.0
 40
0.1613178000000062
  0
CIRCLE
  5
3481
330
1F
100
AcDbEntity
  8
CONTINUOUS1
100
AcDbCircle
 10
78.11711323266123
 20
71.87810688934319
 30
0.0
 40
0.1613178000000062
  0
LINE
  5
34E2
330
1F
100
AcDbEntity
  8
CONTINUOUS1
100
AcDbLine
 10
143.878398629833
 20
99.45346717092
 30
0.0
 11
161.4702928988225
 21
99.45346717092
 31
0.0
  0
LINE
  5
34E3
330
1F
100
AcDbEntity
  8
CONTINUOUS1
100
AcDbLine
 10
161.4702928988225
 20
99.45346717092
 30
0.0
 11
161.4702928988225
 21
69.57849013518954
 31
0.0
  0
LINE
  5
34E9
330
1F
100
AcDbEntity
  8
CONTINUOUS1
100
AcDbLine
 10
143.878398629833
 20
69.57849013518954
 30
0.0
 11
161.4702928988225
 21
69.57849013518954
 31
0.0
  0
TEXT
  5
34EC
330
1F
100
AcDbEntity
  8
TEXT1
100
AcDbText
 10
151.3791076690896
 20
92.05346717091998
 30
0.0
 40
0.8
  1
LINE
  7
ROMANS
 72
     1
 11
152.6743457643277
 21
92.45346717091999
 31
0.0
100
AcDbText
 73
     2
  0
TEXT
  5
34ED
330
1F
100
AcDbEntity
  8
TEXT1
100
AcDbText
 10
151.1695838595658
 20
70.55349013518955
 30
0.0
 40
0.8
  1
LOAD
  7
ROMANS
 72
     1
 11
152.6743457643277
 21
70.95349013518955
 31
0.0
100
AcDbText
 73
     2
  0
TEXT
  5
3610
330
1F
100
AcDbEntity
  8
TEXT1
100
AcDbText
 10
151.7703348771365
 20
82.27737552235209
 30
0.0
 40
0.8
  1
LINE
  7
ROMANS
 72
     1
 11
153.0655729723746
 21
82.67737552235209
 31
0.0
100
AcDbText
 73
     2
  0
CIRCLE
  5
36F8
330
1F
100
AcDbEntity
  8
TEXT1
100
AcDbCircle
 10
1.428254056007038
 20
5.760114717931429
 30
0.0
 40
0.5
  0
CIRCLE
  5
36FF
330
1F
100
AcDbEntity
  8
TEXT1
100
AcDbCircle
 10
1.428254056007038
 20
4.660114717931431
 30
0.0
 40
0.5
  0
CIRCLE
  5
3705
330
1F
100
AcDbEntity
  8
TEXT1
100
AcDbCircle
 10
1.428254056007038
 20
3.560114717931431
 30
0.0
 40
0.5
  0
CIRCLE
  5
370B
330
1F
100
AcDbEntity
  8
TEXT1
100
AcDbCircle
 10
1.428254056007038
 20
2.460114717931431
 30
0.0
 40
0.5
  0
CIRCLE
  5
375A
330
1F
100
AcDbEntity
  8
TEXT1
100
AcDbCircle
 10
59.22053896114414
 20
18.35546767004359
 30
0.0
 40
0.575
  0
CIRCLE
  5
3764
330
1F
100
AcDbEntity
  8
TEXT1
100
AcDbCircle
 10
68.43052429397161
 20
18.35191836857189
 30
0.0
 40
0.575
  0
TEXT
  5
3765
330
1F
100
AcDbEntity
  8
TEXT1
100
AcDbText
 10
68.18878122582116
 20
18.05546767004359
 30
0.0
 40
0.6
  1
1
  7
ROMANS
 72
     1
 11
68.4316383686783
 21
18.35546767004359
 31
0.0
100
AcDbText
 73
     2
  0
CIRCLE
  5
376C
330
1F
100
AcDbEntity
  8
TEXT1
100
AcDbCircle
 10
88.75733364902023
 20
21.41683998213293
 30
0.0
 40
0.575
  0
TEXT
  5
376D
330
1F
100
AcDbEntity
  8
TEXT1
100
AcDbText
 10
88.45844772372693
 20
21.12038928360463
 30
0.0
 40
0.6
  1
4
  7
ROMANS
 72
     1
 11
88.75844772372692
 21
21.42038928360463
 31
0.0
100
AcDbText
 73
     2
  0
CIRCLE
  5
3774
330
1F
100
AcDbEntity
  8
TEXT1
100
AcDbCircle
 10
96.56737055112515
 20
18.35191836857189
 30
0.0
 40
0.575
  0
TEXT
  5
3775
330
1F
100
AcDbEntity
  8
TEXT1
100
AcDbText
 10
96.3256274829747
 20
18.05546767004359
 30
0.0
 40
0.6
  1
1
  7
ROMANS
 72
     1
 11
96.56848462583184
 21
18.35546767004359
 31
0.0
100
AcDbText
 73
     2
  0
CIRCLE
  5
377C
330
1F
100
AcDbEntity
  8
TEXT1
100
AcDbCircle
 10
116.7615796338125
 20
21.33417914616481
 30
0.0
 40
0.575
  0
TEXT
  5
377D
330
1F
100
AcDbEntity
  8
TEXT1
100
AcDbText
 10
116.4626937085192
 20
21.03772844763652
 30
0.0
 40
0.6
  1
4
  7
ROMANS
 72
     1
 11
116.7626937085192
 21
21.33772844763652
 31
0.0
100
AcDbText
 73
     2
  0
CIRCLE
  5
3784
330
1F
100
AcDbEntity
  8
TEXT1
100
AcDbCircle
 10
124.6353786029929
 20
18.35191836857189
 30
0.0
 40
0.575
  0
TEXT
  5
3785
330
1F
100
AcDbEntity
  8
TEXT1
100
AcDbText
 10
124.3936355348425
 20
18.05546767004359
 30
0.0
 40
0.6
  1
1
  7
ROMANS
 72
     1
 11
124.6364926776996
 21
18.35546767004359
 31
0.0
100
AcDbText
 73
     2
  0
CIRCLE
  5
378C
330
1F
100
AcDbEntity
  8
TEXT1
100
AcDbCircle
 10
143.540751757821
 20
21.02914343494171
 30
0.0
 40
0.575
  0
TEXT
  5
378D
330
1F
100
AcDbEntity
  8
TEXT1
100
AcDbText
 10
143.2561515468134
 20
20.73269273641342
 30
0.0
 40
0.6
  1
2
  7
ROMANS
 72
     1
 11
143.5418658325277
 21
21.03269273641342
 31
0.0
100
AcDbText
 73
     2
  0
CIRCLE
  5
3794
330
1F
100
AcDbEntity
  8
TEXT1
100
AcDbCircle
 10
151.4559915344089
 20
21.02914343494171
 30
0.0
 40
0.575
  0
TEXT
  5
3795
330
1F
100
AcDbEntity
  8
TEXT1
100
AcDbText
 10
151.1713913234014
 20
20.73269273641342
 30
0.0
 40
0.6
  1
2
  7
ROMANS
 72
     1
 11
151.4571056091156
 21
21.03269273641342
 31
0.0
100
AcDbText
 73
     2
  0
CIRCLE
  5
379C
330
1F
100
AcDbEntity
  8
TEXT1
100
AcDbCircle
 10
159.702760168244
 20
21.02914343494171
 30
0.0
 40
0.575
  0
TEXT
  5
379D
330
1F
100
AcDbEntity
  8
TEXT1
100
AcDbText
 10
159.4181599572364
 20
20.73269273641342
 30
0.0
 40
0.6
  1
2
  7
ROMANS
 72
     1
 11
159.7038742429506
 21
21.03269273641342
 31
0.0
100
AcDbText
 73
     2
  0
LWPOLYLINE
  5
37AC
330
1F
100
AcDbEntity
  8
CONTINUOUS1
100
AcDbPolyline
 90
        2
 70
     0
 43
0.0
 10
52.40779289882258
 20
17.19848717092001
 10
161.4702928988225
 20
17.19848717092012
  0
LWPOLYLINE
  5
37AE
330
1F
100
AcDbEntity
  8
CONTINUOUS1
100
AcDbPolyline
 90
        2
 70
     0
 43
0.0
 10
80.53279289882258
 20
19.07348717092001
 10
52.40779289882258
 20
19.07348717092001
  0
TEXT
  5
37B6
330
1F
100
AcDbEntity
  8
TEXT1
100
AcDbText
 10
67.61404289882259
 20
15.86098717092002
 30
0.0
 40
0.8
  1
MAX
  7
ROMANS
 72
     1
 11
68.81404289882259
 21
16.26098717092002
 31
0.0
100
AcDbText
 73
     2
  0
TEXT
  5
37B7
330
1F
100
AcDbEntity
  8
TEXT1
100
AcDbText
 10
63.0408286131083
 20
15.86098717092002
 30
0.0
 40
0.8
  1
STD
  7
ROMANS
 72
     1
 11
64.12654289882259
 21
16.26098717092002
 31
0.0
100
AcDbText
 73
     2
  0
TEXT
  5
37BE
330
1F
100
AcDbEntity
  8
TEXT1
100
AcDbText
 10
76.98904289882259
 20
15.86098717092002
 30
0.0
 40
0.8
  1
MAX
  7
ROMANS
 72
     1
 11
78.18904289882259
 21
16.26098717092002
 31
0.0
100
AcDbText
 73
     2
  0
TEXT
  5
37BF
330
1F
100
AcDbEntity
  8
TEXT1
100
AcDbText
 10
72.4158286131083
 20
15.86098717092002
 30
0.0
 40
0.8
  1
STD
  7
ROMANS
 72
     1
 11
73.50154289882259
 21
16.26098717092002
 31
0.0
100
AcDbText
 73
     2
  0
TEXT
  5
37C6
330
1F
100
AcDbEntity
  8
TEXT1
100
AcDbText
 10
86.36404289882257
 20
15.86098717092003
 30
0.0
 40
0.8
  1
MAX
  7
ROMANS
 72
     1
 11
87.56404289882258
 21
16.26098717092003
 31
0.0
100
AcDbText
 73
     2
  0
TEXT
  5
37C7
330
1F
100
AcDbEntity
  8
TEXT1
100
AcDbText
 10
81.79082861310829
 20
15.86098717092003
 30
0.0
 40
0.8
  1
STD
  7
ROMANS
 72
     1
 11
82.87654289882258
 21
16.26098717092003
 31
0.0
100
AcDbText
 73
     2
  0
TEXT
  5
37CE
330
1F
100
AcDbEntity
  8
TEXT1
100
AcDbText
 10
95.73904289882259
 20
15.86098717092005
 30
0.0
 40
0.8
  1
MAX
  7
ROMANS
 72
     1
 11
96.9390428988226
 21
16.26098717092005
 31
0.0
100
AcDbText
 73
     2
  0
TEXT
  5
37CF
330
1F
100
AcDbEntity
  8
TEXT1
100
AcDbText
 10
91.16582861310829
 20
15.86098717092005
 30
0.0
 40
0.8
  1
STD
  7
ROMANS
 72
     1
 11
92.2515428988226
 21
16.26098717092005
 31
0.0
100
AcDbText
 73
     2
  0
LWPOLYLINE
  5
37D1
330
1F
100
AcDbEntity
  8
CONTINUOUS1
100
AcDbPolyline
 90
        2
 70
     0
 43
0.0
 10
108.6577928988225
 20
19.07348717092012
 10
89.90779289882258
 20
19.07348717092012
  0
LWPOLYLINE
  5
37D3
330
1F
100
AcDbEntity
  8
CONTINUOUS1
100
AcDbPolyline
 90
        2
 70
     0
 43
0.0
 10
136.7827928988225
 20
19.07348717092012
 10
118.0327928988226
 20
19.07348717092013
  0
TEXT
  5
37DA
330
1F
100
AcDbEntity
  8
TEXT1
100
AcDbText
 10
105.1140428988226
 20
15.86098717092006
 30
0.0
 40
0.8
  1
MAX
  7
ROMANS
 72
     1
 11
106.3140428988226
 21
16.26098717092006
 31
0.0
100
AcDbText
 73
     2
  0
TEXT
  5
37DB
330
1F
100
AcDbEntity
  8
TEXT1
100
AcDbText
 10
100.5408286131083
 20
15.86098717092006
 30
0.0
 40
0.8
  1
STD
  7
ROMANS
 72
     1
 11
101.6265428988226
 21
16.26098717092006
 31
0.0
100
AcDbText
 73
     2
  0
TEXT
  5
37E2
330
1F
100
AcDbEntity
  8
TEXT1
100
AcDbText
 10
114.4890428988226
 20
15.86098717092007
 30
0.0
 40
0.8
  1
MAX
  7
ROMANS
 72
     1
 11
115.6890428988226
 21
16.26098717092007
 31
0.0
100
AcDbText
 73
     2
  0
TEXT
  5
37E3
330
1F
100
AcDbEntity
  8
TEXT1
100
AcDbText
 10
109.9158286131083
 20
15.86098717092007
 30
0.0
 40
0.8
  1
STD
  7
ROMANS
 72
     1
 11
111.0015428988226
 21
16.26098717092007
 31
0.0
100
AcDbText
 73
     2
  0
TEXT
  5
37EA
330
1F
100
AcDbEntity
  8
TEXT1
100
AcDbText
 10
123.8640428988226
 20
15.86098717092008
 30
0.0
 40
0.8
  1
MAX
  7
ROMANS
 72
     1
 11
125.0640428988226
 21
16.26098717092008
 31
0.0
100
AcDbText
 73
     2
  0
TEXT
  5
37EB
330
1F
100
AcDbEntity
  8
TEXT1
100
AcDbText
 10
119.2908286131083
 20
15.86098717092008
 30
0.0
 40
0.8
  1
STD
  7
ROMANS
 72
     1
 11
120.3765428988226
 21
16.26098717092008
 31
0.0
100
AcDbText
 73
     2
  0
TEXT
  5
37F2
330
1F
100
AcDbEntity
  8
TEXT1
100
AcDbText
 10
133.2390428988226
 20
15.86098717092004
 30
0.0
 40
0.8
  1
MAX
  7
ROMANS
 72
     1
 11
134.4390428988226
 21
16.26098717092004
 31
0.0
100
AcDbText
 73
     2
  0
TEXT
  5
37F3
330
1F
100
AcDbEntity
  8
TEXT1
100
AcDbText
 10
128.6658286131083
 20
15.86098717092004
 30
0.0
 40
0.8
  1
STD
  7
ROMANS
 72
     1
 11
129.7515428988226
 21
16.26098717092004
 31
0.0
100
AcDbText
 73
     2
  0
TEXT
  5
3802
330
1F
100
AcDbEntity
  8
TEXT1
100
AcDbText
 10
141.5827928988225
 20
15.8609871709201
 30
0.0
 40
0.8
  1
MAX
  7
ROMANS
 72
     1
 11
142.7827928988225
 21
16.2609871709201
 31
0.0
100
AcDbText
 73
     2
  0
TEXT
  5
3803
330
1F
100
AcDbEntity
  8
TEXT1
100
AcDbText
 10
137.6970786131082
 20
15.8609871709201
 30
0.0
 40
0.8
  1
STD
  7
ROMANS
 72
     1
 11
138.7827928988225
 21
16.2609871709201
 31
0.0
100
AcDbText
 73
     2
  0
TEXT
  5
380B
330
1F
100
AcDbEntity
  8
TEXT1
100
AcDbText
 10
145.6970786131082
 20
15.86098717092008
 30
0.0
 40
0.8
  1
STD
  7
ROMANS
 72
     1
 11
146.7827928988225
 21
16.26098717092008
 31
0.0
100
AcDbText
 73
     2
  0
TEXT
  5
380C
330
1F
100
AcDbEntity
  8
TEXT1
100
AcDbText
 10
149.5827928988225
 20
15.86098717092008
 30
0.0
 40
0.8
  1
MAX
  7
ROMANS
 72
     1
 11
150.7827928988225
 21
16.26098717092008
 31
0.0
100
AcDbText
 73
     2
  0
TEXT
  5
3813
330
1F
100
AcDbEntity
  8
TEXT1
100
AcDbText
 10
153.6970786131082
 20
15.86098717092011
 30
0.0
 40
0.8
  1
STD
  7
ROMANS
 72
     1
 11
154.7827928988225
 21
16.26098717092011
 31
0.0
100
AcDbText
 73
     2
  0
TEXT
  5
3814
330
1F
100
AcDbEntity
  8
TEXT1
100
AcDbText
 10
157.5827928988225
 20
15.86098717092011
 30
0.0
 40
0.8
  1
MAX
  7
ROMANS
 72
     1
 11
158.7827928988225
 21
16.26098717092011
 31
0.0
100
AcDbText
 73
     2
  0
TEXT
  5
38DC
330
1F
100
AcDbEntity
  8
TEXT1
100
AcDbText
 10
152.875540564579
 20
23.4778795001208
 30
0.0
 40
0.7999999903327091
  1
MILLIMETERS
  7
ROMANS
 11
152.875540564579
 21
23.87787949528715
 31
0.0
100
AcDbText
 73
     2
  0
TEXT
  5
38DD
330
1F
100
AcDbEntity
  8
TEXT1
100
AcDbText
 10
152.875540564579
 20
24.87787964453451
 30
0.0
 40
1.000000031915377
  1
INCHES
  7
ROMANS
 11
152.875540564579
 21
25.3778796604922
 31
0.0
100
AcDbText
 73
     2
  0
TEXT
  5
38DE
330
1F
100
AcDbEntity
  8
TEXT1
100
AcDbText
 10
141.1634888125209
 20
24.35183753208399
 30
0.0
 40
0.7999999903327091
  1
DUAL DIMENSIONS:
  7
ROMANS
 11
141.1634888125209
 21
24.75183752725034
 31
0.0
100
AcDbText
 73
     2
  0
CIRCLE
  5
3995
330
1F
100
AcDbEntity
  8
TEXT1
100
AcDbCircle
 10
160.1697425261592
 20
98.14513605347556
 30
0.0
 40
0.5
  0
TEXT
  5
3996
330
1F
100
AcDbEntity
  8
TEXT1
100
AcDbText
 10
159.8840282404449
 20
97.84513605347557
 30
0.0
 40
0.6
  1
3
  7
ROMANS
 72
     1
 11
160.1697425261592
 21
98.14513605347556
 31
0.0
100
AcDbText
 73
     2
  0
LWPOLYLINE
  5
3DEB
330
1F
100
AcDbEntity
  8
CONTINUOUS1
100
AcDbPolyline
 90
        4
 70
   129
 43
0.0
 10
132.8095260474252
 20
55.02008097249121
 10
161.4702928988225
 20
55.02008097249121
 10
161.4702928988225
 20
67.07849013518954
 10
132.8095260474251
 20
67.07849013518954
  0
LINE
  5
3DEC
330
1F
100
AcDbEntity
  8
CONTINUOUS1
100
AcDbLine
 10
132.8095260474252
 20
62.27849013593955
 30
0.0
 11
161.4702928988225
 21
62.27849013593955
 31
0.0
  0
TEXT
  5
3DED
330
1F
100
AcDbEntity
  8
TEXT1
100
AcDbText
 10
157.0017157481116
 20
62.94515680538058
 30
0.0
 40
0.7999999941179109
  1
TYPE
  7
ROMANS
 72
     1
 11
158.3921919283641
 21
63.34515680243953
 31
0.0
100
AcDbText
 73
     2
  0
LINE
  5
3DEE
330
1F
100
AcDbEntity
  8
CONTINUOUS1
100
AcDbLine
 10
132.8095260474252
 20
64.41182346893954
 30
0.0
 11
161.4702928988225
 21
64.41182346893954
 31
0.0
  0
TEXT
  5
3DEF
330
1F
100
AcDbEntity
  8
TEXT1
100
AcDbText
 10
140.3692866887495
 20
62.94515680538058
 30
0.0
 40
0.7999999941179109
  1
MAX WIRE
  7
ROMANS
 72
     1
 11
143.3597628572379
 21
63.34515680243953
 31
0.0
100
AcDbText
 73
     2
  0
TEXT
  5
3DF0
330
1F
100
AcDbEntity
  8
TEXT1
100
AcDbText
 10
142.4922904596769
 20
65.34515680500558
 30
0.0
 40
0.7999999941179109
  1
TERMINAL LUGS
  7
ROMANS
 72
     1
 11
147.1399094731237
 21
65.74515680206454
 31
0.0
100
AcDbText
 73
     2
  0
LINE
  5
3DF1
330
1F
100
AcDbEntity
  8
CONTINUOUS1
100
AcDbLine
 10
139.2510387088115
 20
64.41182346893953
 30
0.0
 11
139.2510387088115
 21
55.02008097249121
 31
0.0
  0
TEXT
  5
3DF2
330
1F
100
AcDbEntity
  8
TEXT1
100
AcDbText
 10
133.1571263500073
 20
62.94515680538058
 30
0.0
 40
0.7999999941179109
  1
AMPERES
  7
ROMANS
 72
     1
 11
135.823792997067
 21
63.34515680243953
 31
0.0
100
AcDbText
 73
     2
  0
LINE
  5
3DF3
330
1F
100
AcDbEntity
  8
CONTINUOUS1
100
AcDbLine
 10
147.3008711646371
 20
64.41182346893953
 30
0.0
 11
147.3008711646371
 21
55.02008097249121
 31
0.0
  0
LINE
  5
3DF4
330
1F
100
AcDbEntity
  8
CONTINUOUS1
100
AcDbLine
 10
155.4490148680963
 20
64.41182346893954
 30
0.0
 11
155.4490148680963
 21
55.02008097249121
 31
0.0
  0
TEXT
  5
3DF5
330
1F
100
AcDbEntity
  8
TEXT1
100
AcDbText
 10
148.5803317699155
 20
62.94515680538058
 30
0.0
 40
0.7999999941179109
  1
MIN WIRE
  7
ROMANS
 72
     1
 11
151.4184269871433
 21
63.34515680243953
 31
0.0
100
AcDbText
 73
     2
  0
LINE
  5
3DF9
330
1F
100
AcDbEntity
  8
CONTINUOUS1
100
AcDbLine
 10
132.8095260474252
 20
58.64928555421538
 30
0.0
 11
161.4702928988225
 21
58.64928555421538
 31
0.0
  0
TEXT
  5
3EED
330
1F
100
AcDbEntity
  8
TEXT1
100
AcDbText
 10
135.0428406218565
 20
60.81182347238055
 30
0.0
 40
0.7999999941179109
  1
60
  7
ROMANS
 72
     1
 11
135.8237929970669
 21
61.21182346943951
 31
0.0
100
AcDbText
 73
     2
  0
TEXT
  5
3EEE
330
1F
100
AcDbEntity
  8
TEXT1
100
AcDbText
 10
140.9788104937916
 20
60.81182347238055
 30
0.0
 40
0.7999999941179109
  1
#3 AWG
  7
ROMANS
 72
     1
 11
143.3597628572377
 21
61.21182346943951
 31
0.0
100
AcDbText
 73
     2
  0
TEXT
  5
3EEF
330
1F
100
AcDbEntity
  8
TEXT1
100
AcDbText
 10
148.6565222455456
 20
60.81182347238055
 30
0.0
 40
0.7999999941179109
  1
#12 AWG
  7
ROMANS
 72
     1
 11
151.4184269871432
 21
61.21182346943951
 31
0.0
100
AcDbText
 73
     2
  0
TEXT
  5
3EF0
330
1F
100
AcDbEntity
  8
TEXT1
100
AcDbText
 10
157.7255252665992
 20
60.81182347238058
 30
0.0
 40
0.7999999941179109
  1
AL
  7
ROMANS
 72
     1
 11
158.3921919283641
 21
61.21182346943953
 31
0.0
100
AcDbText
 73
     2
  0
TEXT
  5
4005
330
1F
100
AcDbEntity
  8
TEXT1
100
AcDbText
 10
165.2179424344018
 20
12.32695434183999
 30
0.0
 40
0.6
  1
1
  7
ROMANS
 72
     1
 11
165.460799577259
 21
12.62695434183999
 31
0.0
100
AcDbText
 73
     2
  0
TEXT
  5
4006
330
1F
100
AcDbEntity
  8
TEXT1
100
AcDbText
 10
165.1750852915447
 20
11.22695434183999
 30
0.0
 40
0.6
  1
2
  7
ROMANS
 72
     1
 11
165.460799577259
 21
11.52695434183999
 31
0.0
100
AcDbText
 73
     2
  0
CIRCLE
  5
4025
330
1F
100
AcDbEntity
  8
TEXT1
100
AcDbCircle
 10
165.4680104897536
 20
12.62695434183999
 30
0.0
 40
0.5
  0
CIRCLE
  5
4026
330
1F
100
AcDbEntity
  8
TEXT1
100
AcDbCircle
 10
165.460799577259
 20
11.52695434183999
 30
0.0
 40
0.5
  0
TEXT
  5
4041
330
1F
100
AcDbEntity
  8
TEXT1
100
AcDbText
 10
135.0428406218565
 20
59.31595222365647
 30
0.0
 40
0.7999999941179109
  1
60
  7
ROMANS
 72
     1
 11
135.8237929970669
 21
59.71595222071542
 31
0.0
100
AcDbText
 73
     2
  0
TEXT
  5
4042
330
1F
100
AcDbEntity
  8
TEXT1
100
AcDbText
 10
140.9788104937916
 20
59.31595222365647
 30
0.0
 40
0.7999999941179109
  1
#3 AWG
  7
ROMANS
 72
     1
 11
143.3597628572377
 21
59.71595222071542
 31
0.0
100
AcDbText
 73
     2
  0
TEXT
  5
4043
330
1F
100
AcDbEntity
  8
TEXT1
100
AcDbText
 10
148.6565222455456
 20
59.31595222365647
 30
0.0
 40
0.7999999941179109
  1
#14 AWG
  7
ROMANS
 72
     1
 11
151.4184269871432
 21
59.71595222071542
 31
0.0
100
AcDbText
 73
     2
  0
TEXT
  5
4044
330
1F
100
AcDbEntity
  8
TEXT1
100
AcDbText
 10
157.5921919342462
 20
59.3159522236565
 30
0.0
 40
0.7999999941179109
  1
CU
  7
ROMANS
 72
     1
 11
158.3921919283641
 21
59.71595222071545
 31
0.0
100
AcDbText
 73
     2
  0
TEXT
  5
4045
330
1F
100
AcDbEntity
  8
TEXT1
100
AcDbText
 10
157.7255252665992
 20
57.18261889065641
 30
0.0
 40
0.7999999941179109
  1
AL
  7
ROMANS
 72
     1
 11
158.3921919283641
 21
57.58261888771537
 31
0.0
100
AcDbText
 73
     2
  0
TEXT
  5
4046
330
1F
100
AcDbEntity
  8
TEXT1
100
AcDbText
 10
157.5921919342462
 20
55.68674764193232
 30
0.0
 40
0.7999999941179109
  1
CU
  7
ROMANS
 72
     1
 11
158.3921919283641
 21
56.08674763899128
 31
0.0
100
AcDbText
 73
     2
  0
TEXT
  5
4047
330
1F
100
AcDbEntity
  8
TEXT1
100
AcDbText
 10
148.6565222455457
 20
55.6867476419323
 30
0.0
 40
0.7999999941179109
  1
#14 AWG
  7
ROMANS
 72
     1
 11
151.4184269871432
 21
56.08674763899125
 31
0.0
100
AcDbText
 73
     2
  0
TEXT
  5
4048
330
1F
100
AcDbEntity
  8
TEXT1
100
AcDbText
 10
148.6565222455457
 20
57.18261889065638
 30
0.0
 40
0.7999999941179109
  1
#12 AWG
  7
ROMANS
 72
     1
 11
151.4184269871432
 21
57.58261888771534
 31
0.0
100
AcDbText
 73
     2
  0
TEXT
  5
4049
330
1F
100
AcDbEntity
  8
TEXT1
100
AcDbText
 10
140.1788104996737
 20
55.6867476419323
 30
0.0
 40
0.7999999941179109
  1
#1/0 AWG
  7
ROMANS
 72
     1
 11
143.3597628572377
 21
56.08674763899125
 31
0.0
100
AcDbText
 73
     2
  0
TEXT
  5
404A
330
1F
100
AcDbEntity
  8
TEXT1
100
AcDbText
 10
140.1788104996737
 20
57.18261889065638
 30
0.0
 40
0.7999999941179109
  1
#1/0 AWG
  7
ROMANS
 72
     1
 11
143.3597628572377
 21
57.58261888771534
 31
0.0
100
AcDbText
 73
     2
  0
TEXT
  5
404B
330
1F
100
AcDbEntity
  8
TEXT1
100
AcDbText
 10
134.62379300589
 20
57.18261889065638
 30
0.0
 40
0.7999999941179109
  1
100
  7
ROMANS
 72
     1
 11
135.8237929970669
 21
57.58261888771534
 31
0.0
100
AcDbText
 73
     2
  0
TEXT
  5
404C
330
1F
100
AcDbEntity
  8
TEXT1
100
AcDbText
 10
134.62379300589
 20
55.6867476419323
 30
0.0
 40
0.7999999941179109
  1
100
  7
ROMANS
 72
     1
 11
135.8237929970669
 21
56.08674763899125
 31
0.0
100
AcDbText
 73
     2
  0
VIEWPORT
  5
32
330
1B
100
AcDbEntity
 67
     1
  8
0
100
AcDbViewport
 10
8.199860266001827
 20
5.047951764484655
 30
0.0
 40
22.13010763835693
 41
14.1323324394273
 68
     1
 69
     1
1001
ACAD
1000
MVIEW
1002
{
1070
    16
1010
0.0
1020
0.0
1030
0.0
1010
0.0
1020
0.0
1030
1.0
1040
0.0
1040
14.1323324394273
1040
8.199860266001827
1040
5.047951764484655
1040
50.0
1040
0.0
1040
0.0
1070
     0
1070
   100
1070
     1
1070
     0
1070
     0
1070
     0
1070
     0
1070
     0
1040
0.0
1040
0.0
1040
0.0
1040
0.5
1040
0.5
1040
0.5
1040
0.5
1070
     0
1002
{
1002
}
1002
}
  0
LWPOLYLINE
  5
175
330
1B
100
AcDbEntity
 67
     1
  8
VIEWPORT
100
AcDbPolyline
 90
        6
 70
     1
 43
0.0
 10
16.40000099999999
 20
10.25
 10
16.40000099999999
 20
0.9120019999999993
 10
8.002461
 20
0.9120019999999993
 10
8.002461
 20
0.0
 10
0.0
 20
0.0
 10
0.0
 20
10.25
1001
GENIUS_GENOREF_13
1005
0
1005
0
1005
0
1005
0
1005
0
1005
0
1005
0
1005
0
  0
VIEWPORT
  5
177
330
1B
100
AcDbEntity
 67
     1
  8
VIEWPORT
100
AcDbViewport
 10
8.200000499999999
 20
5.125
 30
0.0
 40
16.40000099999999
 41
10.25
 68
     2
 69
     2
1001
ACAD
1000
MVIEW
1002
{
1070
    16
1010
0.0
1020
0.0
1030
0.0
1010
0.0
1020
0.0
1030
1.0
1040
0.0
1040
102.4999999999999
1040
81.96840290545132
1040
51.20706861995315
1040
50.0
1040
0.0
1040
0.0
1070
     0
1070
   100
1070
     1
1070
     2
1070
     0
1070
     0
1070
     0
1070
     0
1040
0.0
1040
0.0
1040
0.0
1040
0.5
1040
0.5
1040
0.5
1040
0.5
1070
     0
1002
{
1002
}
1002
}
1001
GENIUS_GENOREF_13
1005
0
1005
0
1005
0
1005
0
1005
0
1005
0
1005
0
1005
0
1001
GENIUS_GENSCREG_15
1000
PF
1040
0.0
1000
DF
1040
0.0
1000
MIN
1011
0.0
1021
0.0
1031
0.0
1000
MAX
1011
16.40000099999999
1021
10.25
1031
0.0
1000
FLAGS
1070
     2
  0
INSERT
  5
B2C
330
1B
100
AcDbEntity
 67
     1
  8
TITLEBLOCK
100
AcDbBlockReference
 66
     1
  2
TITLE-PAD
 10
0.0
 20
0.0
 30
0.0
  0
ATTRIB
  5
B2D
330
B2C
100
AcDbEntity
 67
     1
  8
TEXT1
 62
     0
100
AcDbText
 10
8.792314539414178
 20
0.6974460884590165
 30
0.0
 40
0.1
  1
DOUBLE THROW SAFETY SWITCHES
  7
ROMANS
 72
     4
 11
10.10183834893798
 21
0.7474460884590166
 31
0.0
100
AcDbAttribute
  2
DESCRIPTION 1
 70
     0
  0
ATTRIB
  5
B2E
330
B2C
100
AcDbEntity
 67
     1
  8
TEXT1
 62
     0
100
AcDbText
 10
9.516124063223703
 20
0.5517231711406716
 30
0.0
 40
0.1
  1
VISIBLE BLADES
  7
ROMANS
 72
     4
 11
10.10183834893798
 21
0.6017231711406717
 31
0.0
100
AcDbAttribute
  2
DESCRIPTION 2
 70
     0
  0
ATTRIB
  5
B2F
330
B2C
100
AcDbEntity
 67
     1
  8
TEXT1
 62
     0
100
AcDbText
 10
9.221838348937987
 20
0.4160002538223267
 30
0.0
 40
0.08
  1
60-100 AMPERE-SERIES F6
  7
ROMANS
 72
     4
 11
10.10183834893798
 21
0.4560002538223267
 31
0.0
100
AcDbAttribute
  2
DESCRIPTION 3
 70
     0
  0
ATTRIB
  5
B30
330
B2C
100
AcDbEntity
 67
     1
  8
TEXT1
 62
     0
100
AcDbText
 10
9.027552634652273
 20
0.2878963841230308
 30
0.0
 40
0.08
  1
ENCLOSURE - TYPE 12, 3R OR 5
  7
ROMANS
 72
     4
 11
10.10183834893798
 21
0.3202773365039833
 31
0.0
100
AcDbAttribute
  2
DESCRIPTION 4
 70
     0
  0
ATTRIB
  5
B31
330
B2C
100
AcDbEntity
 67
     1
  8
TEXT1
 62
     0
100
AcDbText
 10
9.705647872747512
 20
0.1445544191856398
 30
0.0
 40
0.08
  1
NOT FUSIBLE
  7
ROMANS
 72
     4
 11
10.10183834893798
 21
0.1845544191856399
 31
0.0
100
AcDbAttribute
  2
DESCRIPTION 5
 70
     0
  0
ATTRIB
  5
B32
330
B2C
100
AcDbEntity
 67
     1
  8
TEXT1
 62
     0
100
AcDbText
 10
12.74772367103195
 20
0.096540546036505
 30
0.0
 40
0.12
  1
3198
 41
0.9512024731840066
  7
M_STANDARD
 11
12.74772367103195
 21
0.156540546036505
 31
0.0
100
AcDbAttribute
  2
DWGNO
 70
     0
 74
     2
  0
ATTRIB
  5
B33
330
B2C
100
AcDbEntity
 67
     1
  8
TEXT1
 62
     0
100
AcDbText
 10
16.06173121615992
 20
-0.1507193079929352
 30
0.0
 40
0.08
  1
3198
  7
ROMANS
 72
     2
 11
16.35506454949325
 21
-0.1107193079929352
 31
0.0
100
AcDbAttribute
  2
REF
 70
     0
 74
     2
  0
ATTRIB
  5
B34
330
B2C
100
AcDbEntity
 67
     1
  8
TEXT1
 62
     0
100
AcDbText
 10
0.0266402374038712
 20
-0.1507193079929352
 30
0.0
 40
0.08
  1
NOVEMBER 2002
  7
ROMANS
 11
0.0266402374038712
 21
-0.1107193079929352
 31
0.0
100
AcDbAttribute
  2
DATE
 70
     0
 74
     2
  0
SEQEND
  5
B35
330
B2C
100
AcDbEntity
 67
     1
  8
0
  0
ENDSEC
  0
SECTION
  2
OBJECTS
  0
DICTIONARY
  5
C
330
0
100
AcDbDictionary
  3
ACAD_GROUP
350
D
  3
ACAD_LAYOUT
350
1A
  3
ACAD_MLINESTYLE
350
17
  3
ACAD_PLOTSETTINGS
350
19
  3
ACAD_PLOTSTYLENAME
350
E
  3
ACADDIM
350
169E
  3
ACDBHEADERROUNDTRIPXREC
350
43CF
  3
ACDBVARIABLEDICTIONARY
350
374
  3
ACMDICTIONARY
350
383
  3
AMG
350
36B
  3
AMGSNAPSETTINGS
350
399
  3
ASE_INDEX_DICTIONARY
350
2910
  3
DWGPROPS
350
D65
  0
DICTIONARY
  5
73
330
1F
100
AcDbDictionary
280
     1
  3
ACAD_INDEX
360
386C
  3
ACAD_LAYOUTSELFREF
360
43F1
  0
DICTIONARY
  5
75
330
1B
100
AcDbDictionary
280
     1
  3
ACAD_LAYOUTSELFREF
360
43F0
  0
DICTIONARY
  5
D
102
{ACAD_REACTORS
330
C
102
}
330
C
100
AcDbDictionary
  0
DICTIONARY
  5
1A
102
{ACAD_REACTORS
330
C
102
}
330
C
100
AcDbDictionary
  0
DICTIONARY
  5
17
102
{ACAD_REACTORS
330
C
102
}
330
C
100
AcDbDictionary
  3
STANDARD
350
18
  0
DICTIONARY
  5
19
102
{ACAD_REACTORS
330
C
102
}
330
C
100
AcDbDictionary
  3
A_SIZE_PAPER
350
2FF
  3
B_SIZE_PAPER
350
2FD
  3
D_SIZE_PAPER
350
2FE
  0
ACDBDICTIONARYWDFLT
  5
E
102
{ACAD_REACTORS
330
C
102
}
330
C
100
AcDbDictionary
281
     1
  3
Normal
350
F
100
AcDbDictionaryWithDefault
340
F
  0
XRECORD
  5
169E
102
{ACAD_REACTORS
330
C
102
}
330
C
100
AcDbXrecord
 90
   990106
  3

 60
     0
 61
     0
 62
     1
 63
     3
 64
     0
 65
     0
 66
     0
 67
     3
 68
     1
 69
     0
 70
     0
 71
     0
 72
     0
 40
0.0
170
     0
  0
DICTIONARY
  5
43CF
102
{ACAD_REACTORS
330
C
102
}
330
C
100
AcDbDictionary
  3
CEPSNTYPE
350
43D9
  3
DIMSTYLEDATA
350
43DD
  3
FINGERPRINTGUID
350
43DA
  3
HYPERLINKBASE
350
43D2
  3
INSUNITS
350
43D8
  3
LAYOUTDICT
350
43D4
  3
LWETCUNION
350
43D7
  3
PLOTSETDICT
350
43D5
  3
PLOTSTYLNAMDICT
350
43D6
  3
PSVPSCALE
350
43DC
  3
PUCSBASE
350
43E0
  3
PUCSORGBACK
350
43E6
  3
PUCSORGBOTTOM
350
43E2
  3
PUCSORGFRONT
350
43E5
  3
PUCSORGLEFT
350
43E3
  3
PUCSORGRIGHT
350
43E4
  3
PUCSORGTOP
350
43E1
  3
PUCSORTHOREF
350
43DE
  3
PUCSORTHOVIEW
350
43DF
  3
STYLESHEET
350
43D3
  3
TSTACKALIGN
350
43D0
  3
TSTACKSIZE
350
43D1
  3
UCSBASE
350
43E9
  3
UCSORGBACK
350
43EF
  3
UCSORGBOTTOM
350
43EB
  3
UCSORGFRONT
350
43EE
  3
UCSORGLEFT
350
43EC
  3
UCSORGRIGHT
350
43ED
  3
UCSORGTOP
350
43EA
  3
UCSORTHOREF
350
43E7
  3
UCSORTHOVIEW
350
43E8
  3
VERSIONGUID
350
43DB
  0
DICTIONARY
  5
374
102
{ACAD_REACTORS
330
C
102
}
330
C
100
AcDbDictionary
  3
DIMASSOC
350
4319
  3
INDEXCTL
350
375
  3
SORTENTS
350
1F1F
  0
DICTIONARY
  5
383
102
{ACAD_REACTORS
330
C
102
}
330
C
100
AcDbDictionary
  0
DICTIONARY
  5
36B
102
{ACAD_REACTORS
330
C
102
}
330
C
100
AcDbDictionary
  3
ACMGSETTINGS
350
36C
  0
DICTIONARY
  5
399
102
{ACAD_REACTORS
330
C
102
}
330
C
100
AcDbDictionary
  0
DICTIONARY
  5
2910
102
{ACAD_REACTORS
330
C
102
}
330
C
100
AcDbDictionary
  3
ASEBLOCKHIERARCHYINDEXRECORD
350
2911
1001
DCO15
1040
1393574818.421
  0
XRECORD
  5
D65
102
{ACAD_REACTORS
330
C
102
}
330
C
100
AcDbXrecord
  1
DWGPROPS COOKIE
  2

  3

  4

  6

  7

  8
mgp706
  9

300
AmdtFileType=84
301
=
302
=
303
=
304
=
305
=
306
=
307
=
308
=
309
=
 40
0.2110278935185185
 41
2451764.535041909
 42
2451851.599312743
  1

 90
        1
  0
DICTIONARY
  5
386C
102
{ACAD_REACTORS
330
73
102
}
330
73
100
AcDbDictionary
  3
*A1
350
386D
  0
XRECORD
  5
43F1
102
{ACAD_REACTORS
330
73
102
}
330
73
100
AcDbXrecord
340
1F
  0
XRECORD
  5
43F0
102
{ACAD_REACTORS
330
75
102
}
330
75
100
AcDbXrecord
340
1B
  0
MLINESTYLE
  5
18
102
{ACAD_REACTORS
330
17
102
}
330
17
100
AcDbMlineStyle
  2
STANDARD
 70
     0
  3

 62
   256
 51
90.0
 52
90.0
 71
     2
 49
0.5
 62
   256
  6
BYLAYER
 49
-0.5
 62
   256
  6
BYLAYER
  0
PLOTSETTINGS
  5
2FF
102
{ACAD_REACTORS
330
19
102
}
330
19
100
AcDbPlotSettings
  1
A Size Paper
  2
none_device
  4
ANSI_A_(8.50_x_11.00_Inches)
  6

 40
6.349999904632568
 41
19.04999923706054
 42
6.350006103515625
 43
19.04998779296875
 44
215.8999938964843
 45
279.3999938964843
 46
19.04999999999999
 47
-9.651999999999999
 48
0.0
 49
0.0
140
0.0
141
0.0
142
1.0
143
1.6
 70
   740
 72
     0
 73
     1
 74
     1
  7
monochrome.ctb
 75
     0
147
0.625
148
0.0034886547032954
149
0.0199946439100934
  0
PLOTSETTINGS
  5
2FD
102
{ACAD_REACTORS
330
19
102
}
330
19
100
AcDbPlotSettings
  1
B Size Paper
  2
none_device
  4
ANSI_B_(11.00_x_17.00_Inches)
  6

 40
6.349999904632568
 41
19.04999923706054
 42
6.350006103515625
 43
19.04998779296875
 44
279.3999938964843
 45
431.7999877929687
 46
1.27
 47
-11.43
 48
0.0
 49
0.0
140
0.0
141
0.0
142
1.0
143
1.0
 70
   756
 72
     0
 73
     1
 74
     1
  7
monochrome.ctb
 75
    16
147
1.0
148
0.0034886547032954
149
0.0199946439100934
  0
PLOTSETTINGS
  5
2FE
102
{ACAD_REACTORS
330
19
102
}
330
19
100
AcDbPlotSettings
  1
D Size Paper
  2
none_device
  4
ANSI_D_(22.00_x_34.00_Inches)
  6

 40
6.349999904632568
 41
19.04999923706054
 42
6.3499755859375
 43
19.04998779296875
 44
558.7999877929687
 45
863.5999755859375
 46
8.889999999999998
 47
-3.809999999999999
 48
0.0
 49
0.0
140
0.0
141
0.0
142
1.0
143
0.5
 70
   740
 72
     0
 73
     1
 74
     1
  7
monochrome.ctb
 75
     0
147
2.0
148
0.0034886547032954
149
0.0199946439100934
  0
ACDBPLACEHOLDER
  5
F
102
{ACAD_REACTORS
330
E
102
}
330
E
100
AcDbPlaceHolder
280
     0
  0
XRECORD
  5
43D9
102
{ACAD_REACTORS
330
43CF
102
}
330
43CF
100
AcDbXrecord
 90
        0
  0
XRECORD
  5
43DD
102
{ACAD_REACTORS
330
43CF
102
}
330
43CF
100
AcDbXrecord
1000
DSTYLE
1002
{
1070
    79
 70
     1
1070
   148
 40
0.1
1070
   341
340
3000
1070
   342
340
3000
1070
   371
 70
    -1
1070
   372
 70
    -1
1002
}
  0
XRECORD
  5
43DA
102
{ACAD_REACTORS
330
43CF
102
}
330
43CF
100
AcDbXrecord
  1
{4E694E3A-6C64-11D4-81E3-0004AC4461C9}
  0
XRECORD
  5
43D2
102
{ACAD_REACTORS
330
43CF
102
}
330
43CF
100
AcDbXrecord
  1

  0
XRECORD
  5
43D8
102
{ACAD_REACTORS
330
43CF
102
}
330
43CF
100
AcDbXrecord
 90
        1
  0
XRECORD
  5
43D4
102
{ACAD_REACTORS
330
43CF
102
}
330
43CF
100
AcDbXrecord
340
1A
  0
XRECORD
  5
43D7
102
{ACAD_REACTORS
330
43CF
102
}
330
43CF
100
AcDbXrecord
 90
    10269
  0
XRECORD
  5
43D5
102
{ACAD_REACTORS
330
43CF
102
}
330
43CF
100
AcDbXrecord
340
19
  0
XRECORD
  5
43D6
102
{ACAD_REACTORS
330
43CF
102
}
330
43CF
100
AcDbXrecord
340
E
  0
XRECORD
  5
43DC
102
{ACAD_REACTORS
330
43CF
102
}
330
43CF
100
AcDbXrecord
 40
1.0
  0
XRECORD
  5
43E0
102
{ACAD_REACTORS
330
43CF
102
}
330
43CF
100
AcDbXrecord
340
0
  0
XRECORD
  5
43E6
102
{ACAD_REACTORS
330
43CF
102
}
330
43CF
100
AcDbXrecord
 10
0.0
 20
0.0
 30
0.0
  0
XRECORD
  5
43E2
102
{ACAD_REACTORS
330
43CF
102
}
330
43CF
100
AcDbXrecord
 10
0.0
 20
0.0
 30
0.0
  0
XRECORD
  5
43E5
102
{ACAD_REACTORS
330
43CF
102
}
330
43CF
100
AcDbXrecord
 10
0.0
 20
0.0
 30
0.0
  0
XRECORD
  5
43E3
102
{ACAD_REACTORS
330
43CF
102
}
330
43CF
100
AcDbXrecord
 10
0.0
 20
0.0
 30
0.0
  0
XRECORD
  5
43E4
102
{ACAD_REACTORS
330
43CF
102
}
330
43CF
100
AcDbXrecord
 10
0.0
 20
0.0
 30
0.0
  0
XRECORD
  5
43E1
102
{ACAD_REACTORS
330
43CF
102
}
330
43CF
100
AcDbXrecord
 10
0.0
 20
0.0
 30
0.0
  0
XRECORD
  5
43DE
102
{ACAD_REACTORS
330
43CF
102
}
330
43CF
100
AcDbXrecord
340
0
  0
XRECORD
  5
43DF
102
{ACAD_REACTORS
330
43CF
102
}
330
43CF
100
AcDbXrecord
 70
     0
  0
XRECORD
  5
43D3
102
{ACAD_REACTORS
330
43CF
102
}
330
43CF
100
AcDbXrecord
  1
monochrome.ctb
  0
XRECORD
  5
43D0
102
{ACAD_REACTORS
330
43CF
102
}
330
43CF
100
AcDbXrecord
 90
        1
  0
XRECORD
  5
43D1
102
{ACAD_REACTORS
330
43CF
102
}
330
43CF
100
AcDbXrecord
 90
       70
  0
XRECORD
  5
43E9
102
{ACAD_REACTORS
330
43CF
102
}
330
43CF
100
AcDbXrecord
340
0
  0
XRECORD
  5
43EF
102
{ACAD_REACTORS
330
43CF
102
}
330
43CF
100
AcDbXrecord
 10
0.0
 20
0.0
 30
0.0
  0
XRECORD
  5
43EB
102
{ACAD_REACTORS
330
43CF
102
}
330
43CF
100
AcDbXrecord
 10
0.0
 20
0.0
 30
0.0
  0
XRECORD
  5
43EE
102
{ACAD_REACTORS
330
43CF
102
}
330
43CF
100
AcDbXrecord
 10
0.0
 20
0.0
 30
0.0
  0
XRECORD
  5
43EC
102
{ACAD_REACTORS
330
43CF
102
}
330
43CF
100
AcDbXrecord
 10
0.0
 20
0.0
 30
0.0
  0
XRECORD
  5
43ED
102
{ACAD_REACTORS
330
43CF
102
}
330
43CF
100
AcDbXrecord
 10
0.0
 20
0.0
 30
0.0
  0
XRECORD
  5
43EA
102
{ACAD_REACTORS
330
43CF
102
}
330
43CF
100
AcDbXrecord
 10
0.0
 20
0.0
 30
0.0
  0
XRECORD
  5
43E7
102
{ACAD_REACTORS
330
43CF
102
}
330
43CF
100
AcDbXrecord
340
0
  0
XRECORD
  5
43E8
102
{ACAD_REACTORS
330
43CF
102
}
330
43CF
100
AcDbXrecord
 70
     0
  0
XRECORD
  5
43DB
102
{ACAD_REACTORS
330
43CF
102
}
330
43CF
100
AcDbXrecord
  1
{5E4A6712-FBC2-11D6-B162-000347E5A8BF}
  0
DICTIONARYVAR
  5
4319
102
{ACAD_REACTORS
330
374
102
}
330
374
100
DictionaryVariables
280
     0
  1
1
  0
DICTIONARYVAR
  5
375
102
{ACAD_REACTORS
330
374
102
}
330
374
100
DictionaryVariables
280
     0
  1
1
  0
DICTIONARYVAR
  5
1F1F
102
{ACAD_REACTORS
330
374
102
}
330
374
100
DictionaryVariables
280
     0
  1
96
  0
DICTIONARY
  5
36C
102
{ACAD_REACTORS
330
36B
102
}
330
36B
100
AcDbDictionary
  3
DWGSETTINGS
350
D51
  0
XRECORD
  5
2911
102
{ACAD_REACTORS
330
2910
102
}
330
2910
100
AcDbXrecord
330
0
330
0
330
0
330
2AC9
330
2ACB
330
0
330
0
330
0
330
0
330
0
330
0
330
0
330
0
330
B2C
330
B1E
  0
LAYER_INDEX
  5
386D
102
{ACAD_REACTORS
330
386C
102
}
330
386C
100
AcDbIndex
 40
2452598.349403252
100
AcDbLayerIndex
  8
0
360
386E
 90
        0
  8
CENTER1
360
386F
 90
       31
  8
CONTINUOUS1
360
3870
 90
      239
  8
CONTINUOUS2
360
3871
 90
        0
  8
CONTINUOUS3
360
3872
 90
        0
  8
DIM
360
3873
 90
       23
  8
HIDDEN1
360
3874
 90
       12
  8
TEXT1
360
3875
 90
      182
  8
TITLEBLOCK
360
3876
 90
        0
  8
VIEWPORT
360
3877
 90
        2
  8
Defpoints
360
3878
 90
        0
  0
XRECORD
  5
D51
102
{ACAD_REACTORS
330
36C
102
}
330
36C
100
AcDbXrecord
  1
VERSION
140
15.0
  1
PRODUCT
  2
AutoCAD Mechanical 2000
  0
IDBUFFER
  5
386E
330
0
100
AcDbIdBuffer
  0
IDBUFFER
  5
386F
330
0
100
AcDbIdBuffer
330
2AC6
330
2AC8
330
2ACA
330
2ACC
330
2B18
330
2B19
330
2B1A
330
2B28
330
2B29
330
2B31
330
2B32
330
2EE0
330
2EE1
330
2EE3
330
2EE5
330
2EE7
330
2EE8
330
2EEA
330
2EEC
330
2F02
330
2F06
330
2F08
330
2F0A
330
2F0B
330
2F0F
330
2F10
330
2F12
330
2F14
330
2F15
330
2F17
330
2F19
  0
IDBUFFER
  5
3870
330
0
100
AcDbIdBuffer
330
1E71
330
1F5D
330
1FAA
330
1FAB
330
1FAC
330
1FAD
330
1FAE
330
1FAF
330
1FB0
330
1FB1
330
1FB2
330
1FB4
330
1FB5
330
1FB6
330
1FB7
330
1FB8
330
1FB9
330
1FBB
330
1FBC
330
1FBD
330
1FBE
330
1FBF
330
1FC0
330
1FC1
330
1FC2
330
1FC3
330
1FC4
330
1FC5
330
1FC6
330
1FC7
330
1FC8
330
1FC9
330
1FCB
330
1FCC
330
200A
330
200B
330
200C
330
200D
330
200E
330
200F
330
2010
330
2011
330
2012
330
2013
330
2014
330
2015
330
2016
330
2017
330
2018
330
2019
330
201B
330
2082
330
2084
330
208B
330
208C
330
208D
330
208E
330
208F
330
2090
330
2092
330
2093
330
2094
330
2095
330
2096
330
2097
330
2098
330
2099
330
209A
330
209B
330
209C
330
209D
330
209E
330
209F
330
20A0
330
20A1
330
20A2
330
20A3
330
20A4
330
20A5
330
20A6
330
20A7
330
20AB
330
21BE
330
22D5
330
22E9
330
2329
330
232D
330
232E
330
2344
330
2345
330
2348
330
2388
330
238C
330
23A8
330
23AB
330
23AC
330
23DB
330
23DC
330
23DD
330
23E2
330
23E3
330
2404
330
2405
330
2406
330
2412
330
2427
330
2428
330
2429
330
242A
330
242B
330
2432
330
2433
330
2434
330
2435
330
2436
330
2437
330
2438
330
2439
330
243A
330
243F
330
2440
330
2441
330
2442
330
2443
330
247E
330
2481
330
2486
330
2487
330
2488
330
2489
330
248C
330
248D
330
2490
330
24B8
330
24B9
330
24BA
330
24BB
330
269E
330
269F
330
26A0
330
26A1
330
26A2
330
26A3
330
26A4
330
26A5
330
26A6
330
26A7
330
27DB
330
27DC
330
27DD
330
27DE
330
29AF
330
29B0
330
29B9
330
29D3
330
29DA
330
29DB
330
29DC
330
29DD
330
29DE
330
29E1
330
2A63
330
2A64
330
2A65
330
2A66
330
2A67
330
2A68
330
2A69
330
2A6A
330
2A75
330
2A76
330
2A77
330
2A78
330
2A79
330
2A7A
330
2AC7
330
2AF0
330
2AF1
330
2AF2
330
2AFA
330
2AFB
330
2B0C
330
2B0D
330
2B0E
330
2B0F
330
2B14
330
2B3B
330
2B3C
330
2B3D
330
2B3E
330
2B3F
330
2B40
330
2B41
330
2B42
330
2B44
330
2C1E
330
2C22
330
2D45
330
2D46
330
2D7E
330
2E29
330
2E2B
330
2E2E
330
2E2F
330
2E30
330
2E31
330
2E32
330
2EDF
330
2EE6
330
2F01
330
2F03
330
2F04
330
2F05
330
2F0C
330
2F0D
330
2F0E
330
2F1A
330
31BE
330
31C7
330
347C
330
347D
330
347E
330
347F
330
3480
330
3481
330
34E2
330
34E3
330
34E9
330
37AC
330
37AE
330
37D1
330
37D3
330
3DEB
330
3DEC
330
3DEE
330
3DF1
330
3DF3
330
3DF4
330
3DF9
  0
IDBUFFER
  5
3871
330
0
100
AcDbIdBuffer
  0
IDBUFFER
  5
3872
330
0
100
AcDbIdBuffer
  0
IDBUFFER
  5
3873
330
0
100
AcDbIdBuffer
330
29E8
330
2AC9
330
2ACB
330
2B4A
330
2B58
330
2B65
330
2B71
330
2B7F
330
2BA1
330
2BEF
330
2BFF
330
2C0D
330
2CD7
330
2EE2
330
2EE4
330
2EE9
330
2EEB
330
2F07
330
2F09
330
2F11
330
2F13
330
2F16
330
2F18
  0
IDBUFFER
  5
3874
330
0
100
AcDbIdBuffer
330
1FBA
330
1FCA
330
2B1B
330
2B1C
330
2B1D
330
2B1E
330
2B1F
330
2B20
330
2B27
330
2B2A
330
2B30
330
2B33
  0
IDBUFFER
  5
3875
330
0
100
AcDbIdBuffer
330
1D97
330
1D98
330
1D99
330
1D9A
330
1D9B
330
1D9C
330
1D9D
330
1D9F
330
1DA2
330
1E50
330
1EBF
330
1FB3
330
2021
330
2025
330
20B6
330
20BD
330
20BE
330
20C5
330
20C6
330
20CD
330
20CE
330
20D5
330
20D6
330
20DD
330
20DE
330
20E5
330
20E6
330
20ED
330
20EE
330
20F5
330
20F6
330
20FD
330
20FE
330
2105
330
2106
330
210D
330
210E
330
2115
330
2116
330
211D
330
211E
330
2125
330
2126
330
212D
330
212E
330
2135
330
2136
330
2145
330
2146
330
2155
330
2156
330
215D
330
215E
330
2165
330
2166
330
216D
330
216E
330
2178
330
2179
330
217A
330
217B
330
2180
330
2183
330
2189
330
218C
330
2192
330
2195
330
21A0
330
21A3
330
21A6
330
21AA
330
21AB
330
21AC
330
21AD
330
21B4
330
21B5
330
21BC
330
21BD
330
21C9
330
21CA
330
21CC
330
21CD
330
29A3
330
2A04
330
2A05
330
2A06
330
2A07
330
2A08
330
2DD9
330
2DDA
330
2DDC
330
2DDF
330
2DE3
330
2DE4
330
2DE6
330
2DEB
330
2DEC
330
2DED
330
2DF0
330
2DF1
330
2DF2
330
2E15
330
2E17
330
2E1A
330
2E1F
330
2E20
330
34EC
330
34ED
330
3610
330
36F8
330
36FF
330
3705
330
370B
330
375A
330
3764
330
3765
330
376C
330
376D
330
3774
330
3775
330
377C
330
377D
330
3784
330
3785
330
378C
330
378D
330
3794
330
3795
330
379C
330
379D
330
37B6
330
37B7
330
37BE
330
37BF
330
37C6
330
37C7
330
37CE
330
37CF
330
37DA
330
37DB
330
37E2
330
37E3
330
37EA
330
37EB
330
37F2
330
37F3
330
3802
330
3803
330
380B
330
380C
330
3813
330
3814
330
38DC
330
38DD
330
38DE
330
3995
330
3996
330
3DED
330
3DEF
330
3DF0
330
3DF2
330
3DF5
330
3EED
330
3EEE
330
3EEF
330
3EF0
330
4005
330
4006
330
4025
330
4026
330
4041
330
4042
330
4043
330
4044
330
4045
330
4046
330
4047
330
4048
330
4049
330
404A
330
404B
330
404C
  0
IDBUFFER
  5
3876
330
0
100
AcDbIdBuffer
  0
IDBUFFER
  5
3877
330
0
100
AcDbIdBuffer
330
BF7
330
BF8
  0
IDBUFFER
  5
3878
330
0
100
AcDbIdBuffer
  0
ENDSEC
  0
EOF