0
SECTION
  2
HEADER
  9
$ACADVER
  1
AC1018
  9
$ACADMAINTVER
 70
    39
  9
$DWGCODEPAGE
  3
ANSI_1252
  9
$LASTSAVEDBY
  1
benoit
  9
$INSBASE
 10
118.258456
 20
144.026658
 30
0.0
  9
$EXTMIN
 10
-12381.70626353201
 20
2994.013821781078
 30
0.0
  9
$EXTMAX
 10
-11684.68369209815
 20
4253.909517492997
 30
0.0
  9
$LIMMIN
 10
0.0
 20
0.0
  9
$LIMMAX
 10
420.0
 20
297.0
  9
$ORTHOMODE
 70
     1
  9
$REGENMODE
 70
     1
  9
$FILLMODE
 70
     1
  9
$QTEXTMODE
 70
     0
  9
$MIRRTEXT
 70
     1
  9
$LTSCALE
 40
23.1
  9
$ATTMODE
 70
     1
  9
$TEXTSIZE
 40
0.2
  9
$TRACEWID
 40
0.05
  9
$TEXTSTYLE
  7
STANDARD
  9
$CLAYER
  8
AXE
  9
$CELTYPE
  6
ByLayer
  9
$CECOLOR
 62
   256
  9
$CELTSCALE
 40
1.0
  9
$DISPSILH
 70
     0
  9
$DIMSCALE
 40
3.5
  9
$DIMASZ
 40
3.0
  9
$DIMEXO
 40
0.0625
  9
$DIMDLI
 40
0.38
  9
$DIMRND
 40
0.01
  9
$DIMDLE
 40
0.0
  9
$DIMEXE
 40
0.18
  9
$DIMTP
 40
0.0
  9
$DIMTM
 40
0.0
  9
$DIMTXT
 40
2.5
  9
$DIMCEN
 40
0.09
  9
$DIMTSZ
 40
0.0
  9
$DIMTOL
 70
     0
  9
$DIMLIM
 70
     0
  9
$DIMTIH
 70
     0
  9
$DIMTOH
 70
     0
  9
$DIMSE1
 70
     0
  9
$DIMSE2
 70
     0
  9
$DIMTAD
 70
     1
  9
$DIMZIN
 70
     4
  9
$DIMBLK
  1

  9
$DIMASO
 70
     1
  9
$DIMSHO
 70
     1
  9
$DIMPOST
  1

  9
$DIMAPOST
  1

  9
$DIMALT
 70
     0
  9
$DIMALTD
 70
     2
  9
$DIMALTF
 40
25.4
  9
$DIMLFAC
 40
1.0
  9
$DIMTOFL
 70
     1
  9
$DIMTVP
 40
0.0
  9
$DIMTIX
 70
     0
  9
$DIMSOXD
 70
     0
  9
$DIMSAH
 70
     0
  9
$DIMBLK1
  1

  9
$DIMBLK2
  1

  9
$DIMSTYLE
  2
SC_STAND
  9
$DIMCLRD
 70
     0
  9
$DIMCLRE
 70
     0
  9
$DIMCLRT
 70
     0
  9
$DIMTFAC
 40
1.0
  9
$DIMGAP
 40
1.0
  9
$DIMJUST
 70
     0
  9
$DIMSD1
 70
     0
  9
$DIMSD2
 70
     0
  9
$DIMTOLJ
 70
     1
  9
$DIMTZIN
 70
    12
  9
$DIMALTZ
 70
    12
  9
$DIMALTTZ
 70
    12
  9
$DIMUPT
 70
     0
  9
$DIMDEC
 70
     2
  9
$DIMTDEC
 70
     2
  9
$DIMALTU
 70
     2
  9
$DIMALTTD
 70
     2
  9
$DIMTXSTY
  7
STANDARD
  9
$DIMAUNIT
 70
     0
  9
$DIMADEC
 70
     2
  9
$DIMALTRND
 40
0.0
  9
$DIMAZIN
 70
     0
  9
$DIMDSEP
 70
    46
  9
$DIMATFIT
 70
     3
  9
$DIMFRAC
 70
     0
  9
$DIMLDRBLK
  1

  9
$DIMLUNIT
 70
     2
  9
$DIMLWD
 70
    -2
  9
$DIMLWE
 70
    -2
  9
$DIMTMOVE
 70
     2
  9
$LUNITS
 70
     2
  9
$LUPREC
 70
     4
  9
$SKETCHINC
 40
0.1
  9
$FILLETRAD
 40
0.0
  9
$AUNITS
 70
     0
  9
$AUPREC
 70
     0
  9
$MENU
  1
acad
  9
$ELEVATION
 40
0.0
  9
$PELEVATION
 40
0.0
  9
$THICKNESS
 40
0.0
  9
$LIMCHECK
 70
     0
  9
$CHAMFERA
 40
0.0
  9
$CHAMFERB
 40
0.0
  9
$CHAMFERC
 40
0.0
  9
$CHAMFERD
 40
0.0
  9
$SKPOLY
 70
     0
  9
$TDCREATE
 40
2451582.641657998
  9
$TDUCREATE
 40
2451582.558324664
  9
$TDUPDATE
 40
2453910.572001771
  9
$TDUUPDATE
 40
2453910.488668438
  9
$TDINDWG
 40
0.4041327199
  9
$TDUSRTIMER
 40
0.4041323495
  9
$USRTIMER
 70
     1
  9
$ANGBASE
 50
0.0
  9
$ANGDIR
 70
     0
  9
$PDMODE
 70
     0
  9
$PDSIZE
 40
0.0
  9
$PLINEWID
 40
0.0
  9
$SPLFRAME
 70
     0
  9
$SPLINETYPE
 70
     6
  9
$SPLINESEGS
 70
     8
  9
$HANDSEED
  5
742B3
  9
$SURFTAB1
 70
     6
  9
$SURFTAB2
 70
     6
  9
$SURFTYPE
 70
     6
  9
$SURFU
 70
     6
  9
$SURFV
 70
     6
  9
$UCSBASE
  2

  9
$UCSNAME
  2

  9
$UCSORG
 10
0.0
 20
0.0
 30
0.0
  9
$UCSXDIR
 10
1.0
 20
0.0
 30
0.0
  9
$UCSYDIR
 10
0.0
 20
1.0
 30
0.0
  9
$UCSORTHOREF
  2

  9
$UCSORTHOVIEW
 70
     0
  9
$UCSORGTOP
 10
0.0
 20
0.0
 30
0.0
  9
$UCSORGBOTTOM
 10
0.0
 20
0.0
 30
0.0
  9
$UCSORGLEFT
 10
0.0
 20
0.0
 30
0.0
  9
$UCSORGRIGHT
 10
0.0
 20
0.0
 30
0.0
  9
$UCSORGFRONT
 10
0.0
 20
0.0
 30
0.0
  9
$UCSORGBACK
 10
0.0
 20
0.0
 30
0.0
  9
$PUCSBASE
  2

  9
$PUCSNAME
  2

  9
$PUCSORG
 10
0.0
 20
0.0
 30
0.0
  9
$PUCSXDIR
 10
1.0
 20
0.0
 30
0.0
  9
$PUCSYDIR
 10
0.0
 20
1.0
 30
0.0
  9
$PUCSORTHOREF
  2

  9
$PUCSORTHOVIEW
 70
     0
  9
$PUCSORGTOP
 10
0.0
 20
0.0
 30
0.0
  9
$PUCSORGBOTTOM
 10
0.0
 20
0.0
 30
0.0
  9
$PUCSORGLEFT
 10
0.0
 20
0.0
 30
0.0
  9
$PUCSORGRIGHT
 10
0.0
 20
0.0
 30
0.0
  9
$PUCSORGFRONT
 10
0.0
 20
0.0
 30
0.0
  9
$PUCSORGBACK
 10
0.0
 20
0.0
 30
0.0
  9
$USERI1
 70
     0
  9
$USERI2
 70
     0
  9
$USERI3
 70
     0
  9
$USERI4
 70
     0
  9
$USERI5
 70
     0
  9
$USERR1
 40
0.0
  9
$USERR2
 40
0.0
  9
$USERR3
 40
0.0
  9
$USERR4
 40
0.0
  9
$USERR5
 40
0.0
  9
$WORLDVIEW
 70
     1
  9
$SHADEDGE
 70
     3
  9
$SHADEDIF
 70
    70
  9
$TILEMODE
 70
     1
  9
$MAXACTVP
 70
    48
  9
$PINSBASE
 10
0.0
 20
0.0
 30
0.0
  9
$PLIMCHECK
 70
     0
  9
$PEXTMIN
 10
1.000000000000000E+20
 20
1.000000000000000E+20
 30
1.000000000000000E+20
  9
$PEXTMAX
 10
-1.000000000000000E+20
 20
-1.000000000000000E+20
 30
-1.000000000000000E+20
  9
$PLIMMIN
 10
-0.1845832884781004
 20
-0.1429166662411427
  9
$PLIMMAX
 10
11.51041706715981
 20
8.120416271404957
  9
$UNITMODE
 70
     0
  9
$VISRETAIN
 70
     0
  9
$PLINEGEN
 70
     0
  9
$PSLTSCALE
 70
     0
  9
$TREEDEPTH
 70
  3020
  9
$CMLSTYLE
  2
Standard
  9
$CMLJUST
 70
     0
  9
$CMLSCALE
 40
1.0
  9
$PROXYGRAPHICS
 70
     1
  9
$MEASUREMENT
 70
     0
  9
$CELWEIGHT
370
    -1
  9
$ENDCAPS
280
     0
  9
$JOINSTYLE
280
     0
  9
$LWDISPLAY
290
     0
  9
$INSUNITS
 70
     0
  9
$HYPERLINKBASE
  1

  9
$STYLESHEET
  1

  9
$XEDIT
290
     1
  9
$CEPSNTYPE
380
     0
  9
$PSTYLEMODE
290
     1
  9
$FINGERPRINTGUID
  2
{4AF3B633-6BA2-4BB7-BF66-DA897AB64B0E}
  9
$VERSIONGUID
  2
{1892F276-F6EC-4DEF-B3F4-9F32D27A4AC2}
  9
$EXTNAMES
290
     1
  9
$PSVPSCALE
 40
0.0
  9
$OLESTARTUP
290
     0
  9
$SORTENTS
280
   127
  9
$INDEXCTL
280
     0
  9
$HIDETEXT
280
     0
  9
$XCLIPFRAME
290
     0
  9
$HALOGAP
280
     0
  9
$OBSCOLOR
 70
   257
  9
$OBSLTYPE
280
     0
  9
$INTERSECTIONDISPLAY
280
     0
  9
$INTERSECTIONCOLOR
 70
   257
  9
$DIMASSOC
280
     1
  9
$PROJECTNAME
  1

  0
ENDSEC
  0
SECTION
  2
CLASSES
  0
CLASS
  1
ACDBDICTIONARYWDFLT
  2
AcDbDictionaryWithDefault
  3
ObjectDBX Classes
 90
        0
 91
        1
280
     0
281
     0
  0
CLASS
  1
TABLESTYLE
  2
AcDbTableStyle
  3
ObjectDBX Classes
 90
     2047
 91
        1
280
     0
281
     0
  0
CLASS
  1
AMGSETTINGSOBJ
  2
AmgSettingsObj
  3
"AcadM|Product Description: AutoCAD Mechanical 2000|Company: Autodesk"
 90
        0
 91
        2
280
     0
281
     0
  0
CLASS
  1
ACME_DOCUMENT
  2
AcMeDbDoc
  3
AcMeServices
 90
        0
 91
        2
280
     0
281
     0
  0
CLASS
  1
ACMESCOPE
  2
AcMeScope
  3
AcMeServices
 90
        0
 91
        1
280
     0
281
     0
  0
CLASS
  1
ACMECOMMANDHISTORY
  2
AcMeCommandHistory
  3
AcMeServices
 90
        0
 91
        1
280
     0
281
     0
  0
CLASS
  1
ACIMSYSVARMAN
  2
AcImSysVarManager
  3
AcMeServices
 90
        0
 91
        5
280
     0
281
     0
  0
CLASS
  1
ACIMINTSYSVAR
  2
AcImIntSysVar
  3
AcMeServices
 90
        0
 91
       27
280
     0
281
     0
  0
CLASS
  1
ACMEDRAWINGMAN
  2
AcMeDrawingMan
  3
AcMeServices
 90
        0
 91
        1
280
     0
281
     0
  0
CLASS
  1
ACMEVIEW
  2
AcMeView
  3
AcMeServices
 90
        0
 91
        1
280
     0
281
     0
  0
CLASS
  1
ACDBENTITYCACHE
  2
AcMeEntityCache
  3
AcMeServices
 90
        0
 91
        1
280
     0
281
     0
  0
CLASS
  1
GSMANAGER
  2
AcMeGSManager
  3
AcMeServices
 90
        0
 91
        1
280
     0
281
     0
  0
CLASS
  1
AMDTINTERNALREACTOR
  2
AmdtInternalReactor
  3
AcMeServices
 90
        0
 91
        2
280
     0
281
     0
  0
CLASS
  1
ACMESTATEMGR
  2
AcMeStateMgr
  3
AcMeServices
 90
        0
 91
        1
280
     0
281
     0
  0
CLASS
  1
ACGREFMASTER
  2
AcGrefMaster
  3
AcAttribServices
 90
        0
 91
        1
280
     0
281
     0
  0
CLASS
  1
AM_DRAWING_MGR
  2
AcDmDwgMgr
  3
AcMechDwgViewMgmt
 90
        0
 91
        1
280
     0
281
     0
  0
CLASS
  1
AM_DWG_DOCUMENT
  2
AcDmDwgDocument
  3
AcMechDwgViewMgmt
 90
        0
 91
        1
280
     0
281
     0
  0
CLASS
  1
AM_DWG_SHEET
  2
AcDmSheet
  3
AcMechDwgViewMgmt
 90
        0
 91
        1
280
     0
281
     0
  0
CLASS
  1
AM_VIEWDIMPARMAP
  2
AcDmViewDimParMap
  3
AcMechDwgViewMgmt
 90
        0
 91
        1
280
     0
281
     0
  0
CLASS
  1
ACIMREALSYSVAR
  2
AcImRealSysVar
  3
AcMeServices
 90
        0
 91
        1
280
     0
281
     0
  0
CLASS
  1
AM_DWGMGR_NAME
  2
AcDmDwgMgrName
  3
AcMechDwgViewMgmt
 90
        0
 91
        1
280
     0
281
     0
  0
CLASS
  1
ACME_DATABASE
  2
AcMeDbDatabase
  3
AcMeServices
 90
        0
 91
        1
280
     0
281
     0
  0
CLASS
  1
ACRFINSADJUSTERMGR
  2
AcRfInsAdjusterMgr
  3
AcMeServices
 90
        0
 91
        1
280
     0
281
     0
  0
CLASS
  1
ACGREFACADMASTER
  2
AcGrefacadMaster
  3
AcGrefServices
 90
        0
 91
        1
280
     0
281
     0
  0
CLASS
  1
AMDTMENUSTATEMGR
  2
AmdtMenuStateMgr
  3
McadcomServices
 90
        0
 91
        1
280
     0
281
     0
  0
CLASS
  1
AMDTMCOMMENUSTATE
  2
AmdtMcomMenuState
  3
McadcomServices
 90
        0
 91
        1
280
     0
281
     0
  0
CLASS
  1
AMIMASTER
  2
AmiMaster
  3
AmiServices
 90
        0
 91
        1
280
     0
281
     0
  0
CLASS
  1
MAPIAMMOUDLE
  2
MApiAmModule
  3
MApiAmServices
 90
        0
 91
        1
280
     0
281
     0
  0
CLASS
  1
AMDTADMENUSTATE
  2
AmdtAdMenuState
  3
DesignerServices
 90
        0
 91
        1
280
     0
281
     0
  0
CLASS
  1
ADAPPL
  2
AcAdAppl
  3
DesignerServices
 90
        0
 91
        1
280
     0
281
     0
  0
CLASS
  1
DEPMGR
  2
AcAdDepMgr
  3
DesignerServices
 90
        0
 91
        1
280
     0
281
     0
  0
CLASS
  1
PARAMMGR
  2
AcAdParamMgr
  3
DesignerServices
 90
        0
 91
        1
280
     0
281
     0
  0
CLASS
  1
PARAMSCOPE
  2
AcAdParamScope
  3
DesignerServices
 90
        0
 91
        1
280
     0
281
     0
  0
CLASS
  1
NAMEDAPPL
  2
AcAdNamedAppl
  3
DesignerServices
 90
        0
 91
        1
280
     0
281
     0
  0
CLASS
  1
AMDTDMMENUSTATE
  2
AmdtDmMenuState
  3
AcMechDwgViewMgmt
 90
        0
 91
        1
280
     0
281
     0
  0
CLASS
  1
AMDTAMMENUSTATE
  2
AmdtAmMenuState
  3
DesignerAssemblies
 90
        0
 91
        1
280
     0
281
     0
  0
CLASS
  1
ACIMSTRSYSVAR
  2
AcImStrSysVar
  3
AcMeServices
 90
        0
 91
        5
280
     0
281
     0
  0
CLASS
  1
ACAMPROJECT
  2
AcAmProject
  3
DesignerAssemblies
 90
        0
 91
        1
280
     0
281
     0
  0
CLASS
  1
ACAMGRCOMPDEF
  2
AcAmGrCompDef
  3
DesignerAssemblies
 90
        0
 91
        1
280
     0
281
     0
  0
CLASS
  1
ACCMCONTEXT
  2
AcCmContext
  3
DesignerAssemblies
 90
        0
 91
        1
280
     0
281
     0
  0
CLASS
  1
ACAMCOMPDEF
  2
AcAmCompDef
  3
DesignerAssemblies
 90
        0
 91
        1
280
     0
281
     0
  0
CLASS
  1
ACAMCOMPDEFMGR
  2
AcAmCompDefMgr
  3
DesignerAssemblies
 90
        0
 91
        1
280
     0
281
     0
  0
CLASS
  1
AMCONTEXTMGR
  2
AcAmContextMgr
  3
DesignerAssemblies
 90
        0
 91
        1
280
     0
281
     0
  0
CLASS
  1
ACAMCONTEXTMODELER
  2
AcAmContextModeler
  3
DesignerAssemblies
 90
        0
 91
        1
280
     0
281
     0
  0
CLASS
  1
ACMDATADICTIONARY
  2
AcmDataDictionary
  3
"AcmSymBB|Product Description: AutoCAD Mechanical 2004 DX|Company: Autodesk"
 90
        0
 91
        1
280
     0
281
     0
  0
CLASS
  1
CATALOGSTATE
  2
AcAmCatalogState
  3
DesignerAssemblies
 90
        0
 91
        1
280
     0
281
     0
  0
CLASS
  1
ACAMGRCOMPDEFSET
  2
AcAmGrCompDefSet
  3
DesignerAssemblies
 90
        0
 91
        1
280
     0
281
     0
  0
CLASS
  1
AMDTBROWSERDBTAB
  2
AmdtBrowserDbTab
  3
McadcomServices
 90
        0
 91
        1
280
     0
281
     0
  0
CLASS
  1
CBROWSERAPPOBJECT
  2
CBrowserAppObject
  3
McadcomServices
 90
        0
 91
        3
280
     0
281
     0
  0
CLASS
  1
DM_PLACEHOLDER
  2
AcDmSelsetPlaceholder
  3
AcMechDwgViewMgmt
 90
        0
 91
        1
280
     0
281
     0
  0
CLASS
  1
ACMSTANDARDANSI
  2
AcmStandardANSI
  3
"Amdt_StdImp|Product Description: AutoCAD Mechanical 2004 DX|Company: Autodesk"
 90
        0
 91
        1
280
     0
281
     0
  0
CLASS
  1
AMGOBJPROPCFG
  2
AmgObjPropCfg
  3
"AmgLay|Product Description: AutoCAD Mechanical 2000|Company: Autodesk"
 90
        1
 91
        1
280
     0
281
     0
  0
CLASS
  1
ACMSURFSTANDARDANSI
  2
AcmSurfTextStdANSI
  3
"Amdt_StdImp|Product Description: AutoCAD Mechanical 2004 DX|Company: Autodesk"
 90
        0
 91
        1
280
     0
281
     0
  0
CLASS
  1
ACMFCFSTANDARDANSI
  2
AcmFCFStdANSI
  3
"Amdt_StdImp|Product Description: AutoCAD Mechanical 2004 DX|Company: Autodesk"
 90
        0
 91
        1
280
     0
281
     0
  0
CLASS
  1
ACMWELDSTANDARDANSI
  2
AcmWeldingStdANSI
  3
"Amdt_StdImp|Product Description: AutoCAD Mechanical 2004 DX|Company: Autodesk"
 90
        0
 91
        1
280
     0
281
     0
  0
CLASS
  1
ACMIDSTANDARDANSI
  2
AcmIdStdANSI
  3
"Amdt_StdImp|Product Description: AutoCAD Mechanical 2004 DX|Company: Autodesk"
 90
        0
 91
        1
280
     0
281
     0
  0
CLASS
  1
ACMDATUMSTANDARDANSI
  2
AcmDatumStdANSI
  3
"Amdt_StdImp|Product Description: AutoCAD Mechanical 2004 DX|Company: Autodesk"
 90
        0
 91
        1
280
     0
281
     0
  0
CLASS
  1
ACMBOMSTANDARDANSI
  2
AcmBOMStdANSI
  3
"Amdt_StdImp|Product Description: AutoCAD Mechanical 2004 DX|Company: Autodesk"
 90
        0
 91
        1
280
     0
281
     0
  0
CLASS
  1
ACMDETAILSTANDARDANSI
  2
AmdtDetailSymStdANSI
  3
"Amdt_StdImp|Product Description: AutoCAD Mechanical 2004 DX|Company: Autodesk"
 90
        0
 91
        1
280
     0
281
     0
  0
CLASS
  1
ACMSECTIONSTANDARDANSI
  2
AmdtSectionSymStdANSI
  3
"Amdt_StdImp|Product Description: AutoCAD Mechanical 2004 DX|Company: Autodesk"
 90
        0
 91
        1
280
     0
281
     0
  0
CLASS
  1
ACMCENTERLINESTANDARDANSI
  2
AmdtCenterLineStdANSI
  3
"Amdt_StdImp|Product Description: AutoCAD Mechanical 2004 DX|Company: Autodesk"
 90
        0
 91
        1
280
     0
281
     0
  0
CLASS
  1
ACMTHREADLINESTANDARDANSI
  2
AmdtThreadLineStdANSI
  3
"Amdt_StdImp|Product Description: AutoCAD Mechanical 2004 DX|Company: Autodesk"
 90
        0
 91
        1
280
     0
281
     0
  0
CLASS
  1
ACMNOTESTANDARDANSI
  2
AmdtNoteStdANSI
  3
"Amdt_StdImp|Product Description: AutoCAD Mechanical 2004 DX|Company: Autodesk"
 90
        0
 91
        1
280
     0
281
     0
  0
CLASS
  1
AMDTNOTETEMPLATEDB
  2
AmdtNoteTemplateDB
  3
AMDT_STDIMP_MODULE_NAME
 90
        0
 91
        9
280
     0
281
     0
  0
CLASS
  1
ACAMGLAYSTD
  2
AcAmgLayStd
  3
"AcAmgLayStd|Product Description: AutoCAD Mechanical 2000|Company: Autodesk"
 90
        0
 91
        2
280
     0
281
     0
  0
CLASS
  1
ACAMGDIMSTD
  2
AcAmgDimStd
  3
"AcAmgDimStd|Product Description: AutoCAD Mechanical 2000|Company: Autodesk"
 90
        0
 91
        2
280
     0
281
     0
  0
CLASS
  1
ACAMGHOLECHARTSTDANSI
  2
AcAmgHoleChartStdANSI
  3
ACMSYMBB_MODULE_NAME
 90
        0
 91
        1
280
     0
281
     0
  0
CLASS
  1
ACAMGTITLESTD
  2
AcAmgTitleStd
  3
"TITLEAPP"
 90
        0
 91
        2
280
     0
281
     0
  0
CLASS
  1
ACAMGFILTERDAT
  2
AcAmgFilterDat
  3
"AcadM|Product Description: AutoCAD Mechanical 2000|Company: Autodesk"
 90
        0
 91
        6
280
     0
281
     0
  0
CLASS
  1
DICTIONARYVAR
  2
AcDbDictionaryVar
  3
ObjectDBX Classes
 90
        0
 91
        2
280
     0
281
     0
  0
CLASS
  1
ACMSTANDARDISO
  2
AcmStandardISO
  3
"Amdt_StdImp|Product Description: AutoCAD Mechanical 2004 DX|Company: Autodesk"
 90
        0
 91
        1
280
     0
281
     0
  0
CLASS
  1
AMDTEDGESTANDARDISO
  2
AmdtEdgeStdISO
  3
"Amdt_StdImp|Product Description: AutoCAD Mechanical 2004 DX|Company: Autodesk"
 90
        0
 91
        1
280
     0
281
     0
  0
CLASS
  1
ACMSURFSTANDARDISO
  2
AcmSurfTextStdISO
  3
"Amdt_StdImp|Product Description: AutoCAD Mechanical 2004 DX|Company: Autodesk"
 90
        0
 91
        1
280
     0
281
     0
  0
CLASS
  1
ACMFCFSTANDARDISO
  2
AcmFCFStdISO
  3
"Amdt_StdImp|Product Description: AutoCAD Mechanical 2004 DX|Company: Autodesk"
 90
        0
 91
        1
280
     0
281
     0
  0
CLASS
  1
ACMWELDSTANDARDISO
  2
AcmWeldingStdISO
  3
"Amdt_StdImp|Product Description: AutoCAD Mechanical 2004 DX|Company: Autodesk"
 90
        0
 91
        1
280
     0
281
     0
  0
CLASS
  1
ACMIDSTANDARDISO
  2
AcmIdStdISO
  3
"Amdt_StdImp|Product Description: AutoCAD Mechanical 2004 DX|Company: Autodesk"
 90
        0
 91
        1
280
     0
281
     0
  0
CLASS
  1
ACMDATUMSTANDARDISO
  2
AcmDatumStdISO
  3
"Amdt_StdImp|Product Description: AutoCAD Mechanical 2004 DX|Company: Autodesk"
 90
        0
 91
        1
280
     0
281
     0
  0
CLASS
  1
ACMBOMSTANDARDISO
  2
AcmBOMStdISO
  3
"Amdt_StdImp|Product Description: AutoCAD Mechanical 2004 DX|Company: Autodesk"
 90
        0
 91
        1
280
     0
281
     0
  0
CLASS
  1
ACMDETAILSTANDARDISO
  2
AmdtDetailSymStdISO
  3
"Amdt_StdImp|Product Description: AutoCAD Mechanical 2004 DX|Company: Autodesk"
 90
        0
 91
        1
280
     0
281
     0
  0
CLASS
  1
ACMSECTIONSTANDARDISO
  2
AmdtSectionSymStdISO
  3
"Amdt_StdImp|Product Description: AutoCAD Mechanical 2004 DX|Company: Autodesk"
 90
        0
 91
        1
280
     0
281
     0
  0
CLASS
  1
ACMCENTERLINESTANDARDISO
  2
AmdtCenterLineStdISO
  3
"Amdt_StdImp|Product Description: AutoCAD Mechanical 2004 DX|Company: Autodesk"
 90
        0
 91
        1
280
     0
281
     0
  0
CLASS
  1
ACMNOTESTANDARDISO
  2
AmdtNoteStdISO
  3
"Amdt_StdImp|Product Description: AutoCAD Mechanical 2004 DX|Company: Autodesk"
 90
        0
 91
        1
280
     0
281
     0
  0
CLASS
  1
ACAMGHOLECHARTSTDISO
  2
AcAmgHoleChartStdISO
  3
ACMSYMBB_MODULE_NAME
 90
        0
 91
        1
280
     0
281
     0
  0
CLASS
  1
ACMTHREADLINESTANDARDISO
  2
AmdtThreadLineStdISO
  3
"Amdt_StdImp|Product Description: AutoCAD Mechanical 2004 DX|Company: Autodesk"
 90
        0
 91
        1
280
     0
281
     0
  0
ENDSEC
  0
SECTION
  2
TABLES
  0
TABLE
  2
VPORT
  5
9B6
330
0
100
AcDbSymbolTable
 70
     3
  0
VPORT
  5
742B2
330
9B6
100
AcDbSymbolTableRecord
100
AcDbViewportTableRecord
  2
*Active
 70
     0
 10
0.0
 20
0.0
 11
1.0
 21
1.0
 12
-12032.92928560865
 22
3623.930299067657
 13
0.0
 23
0.0
 14
1.0
 24
1.0
 15
0.0
 25
0.0
 16
0.0
 26
0.0
 36
1.0
 17
0.0
 27
0.0
 37
0.0
 40
1271.165824605994
 41
1.68169014084507
 42
50.0
 43
0.0
 44
0.0
 50
0.0
 51
0.0
 71
     0
 72
   100
 73
     1
 74
     0
 75
     0
 76
     0
 77
     0
 78
     0
281
     0
 65
     0
110
0.0
120
0.0
130
0.0
111
1.0
121
0.0
131
0.0
112
0.0
122
1.0
132
0.0
 79
     0
146
0.0
  0
ENDTAB
  0
TABLE
  2
LTYPE
  5
9B3
330
0
100
AcDbSymbolTable
 70
    14
  0
LTYPE
  5
9C1
330
9B3
100
AcDbSymbolTableRecord
100
AcDbLinetypeTableRecord
  2
ByBlock
 70
     0
  3

 72
    65
 73
     0
 40
0.0
  0
LTYPE
  5
9C2
330
9B3
100
AcDbSymbolTableRecord
100
AcDbLinetypeTableRecord
  2
ByLayer
 70
     0
  3

 72
    65
 73
     0
 40
0.0
  0
LTYPE
  5
9C3
330
9B3
100
AcDbSymbolTableRecord
100
AcDbLinetypeTableRecord
  2
CONTINUOUS
 70
     0
  3
Solid line
 72
    65
 73
     0
 40
0.0
  0
LTYPE
  5
A49
330
9B3
100
AcDbSymbolTableRecord
100
AcDbLinetypeTableRecord
  2
HIDDEN
 70
     0
  3
Caché __ __ __ __ __ __ __ __ __ __ __ __ __ __
 72
    65
 73
     2
 40
0.375
 49
0.25
 74
     0
 49
-0.125
 74
     0
  0
LTYPE
  5
A4A
330
9B3
100
AcDbSymbolTableRecord
100
AcDbLinetypeTableRecord
  2
PHANTOM2
 70
     0
  3
Fantôme (.5x) ___ _ _ ___ _ _ ___ _ _ ___ _ _
 72
    65
 73
     6
 40
1.25
 49
0.625
 74
     0
 49
-0.125
 74
     0
 49
0.125
 74
     0
 49
-0.125
 74
     0
 49
0.125
 74
     0
 49
-0.125
 74
     0
  0
LTYPE
  5
A4B
330
9B3
100
AcDbSymbolTableRecord
100
AcDbLinetypeTableRecord
  2
CENTER
 70
     0
  3
Centre ____ _ ____ _ ____ _ ____ _ ____ _ ____
 72
    65
 73
     4
 40
2.0
 49
1.25
 74
     0
 49
-0.25
 74
     0
 49
0.25
 74
     0
 49
-0.25
 74
     0
  0
LTYPE
  5
A82
330
9B3
100
AcDbSymbolTableRecord
100
AcDbLinetypeTableRecord
  2
Amconstr
 70
     0
  3
_______________________
 72
    65
 73
     2
 40
9999.0
 49
9999.0
 74
     0
 49
0.0
 74
     0
  0
LTYPE
  5
A88
330
9B3
100
AcDbSymbolTableRecord
100
AcDbLinetypeTableRecord
  2
CENTER2
 70
     0
  3
Center (.5x) ___ _ ___ _ ___ _ ___ _ ___ _ ___
 72
    65
 73
     4
 40
1.125
 49
0.75
 74
     0
 49
-0.125
 74
     0
 49
0.125
 74
     0
 49
-0.125
 74
     0
  0
LTYPE
  5
A89
330
9B3
100
AcDbSymbolTableRecord
100
AcDbLinetypeTableRecord
  2
HIDDEN2
 70
     0
  3
Hidden (.5x) _ _ _ _ _ _ _ _ _ _ _ _ _ _ _ _ _
 72
    65
 73
     2
 40
0.1875
 49
0.125
 74
     0
 49
-0.0625
 74
     0
  0
LTYPE
  5
A8A
330
9B3
100
AcDbSymbolTableRecord
100
AcDbLinetypeTableRecord
  2
Amzigzag2
 70
     0
  3
/\/-/\/-/\/-/\/-/\/-/\/
 72
    65
 73
     2
 40
0.4401
 49
0.0001
 74
     4
 75
   135
340
A86
 46
0.0016
 50
0.0
 44
0.0
 45
0.0
 49
-0.4400000000000001
 74
     0
  0
LTYPE
  5
A98
330
9B3
100
AcDbSymbolTableRecord
100
AcDbLinetypeTableRecord
  2
ACANSTGB
 70
     0
  3
__ . . __ . .
 72
    65
 73
     6
 40
0.35433070866
 49
0.15748031496
 74
     0
 49
-0.03937007874
 74
     0
 49
0.03937007874
 74
     0
 49
-0.03937007874
 74
     0
 49
0.03937007874
 74
     0
 49
-0.03937007874
 74
     0
  0
LTYPE
  5
A99
330
9B3
100
AcDbSymbolTableRecord
100
AcDbLinetypeTableRecord
  2
ACANSTGL
 70
     0
  3
_ _ _ _ _
 72
    65
 73
     2
 40
0.11811023622
 49
0.07874015748
 74
     0
 49
-0.03937007874
 74
     0
  0
LTYPE
  5
107A7
330
9B3
100
AcDbSymbolTableRecord
100
AcDbLinetypeTableRecord
  2
ACISOWELD
 70
     0
  3
_ _ _ _ _
 72
    65
 73
     2
 40
2.0
 49
2.0
 74
     0
 49
-1.0
 74
     0
  0
LTYPE
  5
107A8
330
9B3
100
AcDbSymbolTableRecord
100
AcDbLinetypeTableRecord
  2
ACISOTGB
 70
     0
  3
__ . . __ . .
 72
    65
 73
     6
 40
9.0
 49
4.0
 74
     0
 49
-1.0
 74
     0
 49
1.0
 74
     0
 49
-1.0
 74
     0
 49
1.0
 74
     0
 49
-1.0
 74
     0
  0
LTYPE
  5
107A9
330
9B3
100
AcDbSymbolTableRecord
100
AcDbLinetypeTableRecord
  2
ACISOTGL
 70
     0
  3
_ _ _ _ _
 72
    65
 73
     2
 40
3.0
 49
2.0
 74
     0
 49
-1.0
 74
     0
  0
LTYPE
  5
74241
330
9B3
100
AcDbSymbolTableRecord
100
AcDbLinetypeTableRecord
  2
AXES2
 70
     0
  3
___ _ ___ _ ___ _ ___ _ ___ _ ___ _ ___ _ ___ _
 72
    65
 73
     4
 40
1.125
 49
0.75
 74
     0
 49
-0.125
 74
     0
 49
0.125
 74
     0
 49
-0.125
 74
     0
  0
ENDTAB
  0
TABLE
  2
LAYER
  5
9B0
102
{ACAD_XDICTIONARY
360
8862
102
}
330
0
100
AcDbSymbolTable
 70
     7
  0
LAYER
  5
9BE
330
9B0
100
AcDbSymbolTableRecord
100
AcDbLayerTableRecord
  2
0
 70
     0
 62
     7
  6
CONTINUOUS
370
    -3
390
9BD
  0
LAYER
  5
9D4
330
9B0
100
AcDbSymbolTableRecord
100
AcDbLayerTableRecord
  2
COTATION1
 70
     0
 62
     2
  6
CONTINUOUS
370
    -3
390
9BD
  0
LAYER
  5
9ED
330
9B0
100
AcDbSymbolTableRecord
100
AcDbLayerTableRecord
  2
DEFPOINTS
 70
     0
 62
     7
  6
CONTINUOUS
290
     0
370
    -3
390
9BD
  0
LAYER
  5
9FB
330
9B0
100
AcDbSymbolTableRecord
100
AcDbLayerTableRecord
  2
ASHADE
 70
     0
 62
     7
  6
CONTINUOUS
370
    -3
390
9BD
  0
LAYER
  5
49563
330
9B0
100
AcDbSymbolTableRecord
100
AcDbLayerTableRecord
  2
ALPHA
 70
     0
 62
   254
  6
CONTINUOUS
370
    -3
390
9BD
  0
LAYER
  5
74242
330
9B0
100
AcDbSymbolTableRecord
100
AcDbLayerTableRecord
  2
AXE
 70
     0
 62
    80
  6
AXES2
370
    -3
390
9BD
  0
LAYER
  5
74252
330
9B0
100
AcDbSymbolTableRecord
100
AcDbLayerTableRecord
  2
AM_0
 70
     0
 62
     7
  6
CONTINUOUS
370
    30
390
9BD
  0
ENDTAB
  0
TABLE
  2
STYLE
  5
9B1
330
0
100
AcDbSymbolTable
 70
     6
  0
STYLE
  5
9BF
330
9B1
100
AcDbSymbolTableRecord
100
AcDbTextStyleTableRecord
  2
STANDARD
 70
     0
 40
0.0
 41
1.0
 50
0.0
 71
     0
 42
0.2
  3
txt
  4

  0
STYLE
  5
A86
330
9B1
100
AcDbSymbolTableRecord
100
AcDbTextStyleTableRecord
  2

 70
     1
 40
0.0
 41
1.0
 50
0.0
 71
     0
 42
0.2
  3
ltypeshp.shx
  4

  0
STYLE
  5
A8B
330
9B1
100
AcDbSymbolTableRecord
100
AcDbTextStyleTableRecord
  2
ACANSTS
 70
     0
 40
1.0
 41
1.0
 50
0.0
 71
     0
 42
0.2
  3
romans.shx
  4

  0
STYLE
  5
A97
330
9B1
100
AcDbSymbolTableRecord
100
AcDbTextStyleTableRecord
  2
ACANSGDT
 70
     0
 40
0.0
 41
1.0
 50
0.0
 71
     0
 42
0.2
  3
amgdtans.shx
  4

  0
STYLE
  5
107AD
330
9B1
100
AcDbSymbolTableRecord
100
AcDbTextStyleTableRecord
  2
ACISOTS
 70
     0
 40
1.0
 41
1.0
 50
0.0
 71
     0
 42
2.5
  3
isocp.shx
  4
bigfont.shx
  0
STYLE
  5
107AE
330
9B1
100
AcDbSymbolTableRecord
100
AcDbTextStyleTableRecord
  2
ACISOGDT
 70
     0
 40
0.0
 41
1.0
 50
0.0
 71
     0
 42
2.5
  3
amgdt.shx
  4
bigfont.shx
  0
ENDTAB
  0
TABLE
  2
VIEW
  5
9B4
330
0
100
AcDbSymbolTable
 70
     0
  0
ENDTAB
  0
TABLE
  2
UCS
  5
9B5
330
0
100
AcDbSymbolTable
 70
     0
  0
ENDTAB
  0
TABLE
  2
APPID
  5
9B7
330
0
100
AcDbSymbolTable
 70
    14
  0
APPID
  5
9C0
330
9B7
100
AcDbSymbolTableRecord
100
AcDbRegAppTableRecord
  2
ACAD
 70
     0
  0
APPID
  5
A02
330
9B7
100
AcDbSymbolTableRecord
100
AcDbRegAppTableRecord
  2
AVE_RENDER
 70
     0
  0
APPID
  5
A03
330
9B7
100
AcDbSymbolTableRecord
100
AcDbRegAppTableRecord
  2
AVE_MATERIAL
 70
     0
  0
APPID
  5
A1C
330
9B7
100
AcDbSymbolTableRecord
100
AcDbRegAppTableRecord
  2
MCAD_NO_VIS
 70
     0
  0
APPID
  5
A1D
330
9B7
100
AcDbSymbolTableRecord
100
AcDbRegAppTableRecord
  2
ACAD_TEMP_GRAPHIC
 70
     0
  0
APPID
  5
A4D
330
9B7
100
AcDbSymbolTableRecord
100
AcDbRegAppTableRecord
  2
AD_DRAW
 70
     0
  0
APPID
  5
A50
330
9B7
100
AcDbSymbolTableRecord
100
AcDbRegAppTableRecord
  2
ACATTRIBSERVICES
 70
     0
  0
APPID
  5
A6E
330
9B7
100
AcDbSymbolTableRecord
100
AcDbRegAppTableRecord
  2
DESIGNERASSEMBLIES
 70
     0
  0
APPID
  5
A74
330
9B7
100
AcDbSymbolTableRecord
100
AcDbRegAppTableRecord
  2
ACADM_DIM_EDIT
 70
     0
  0
APPID
  5
A75
330
9B7
100
AcDbSymbolTableRecord
100
AcDbRegAppTableRecord
  2
AMDT_DM_ADJ
 70
     0
  0
APPID
  5
10662
330
9B7
100
AcDbSymbolTableRecord
100
AcDbRegAppTableRecord
  2
ACAD_DSTYLE_DIMTEXT_FILL
 70
     0
  0
APPID
  5
106CD
330
9B7
100
AcDbSymbolTableRecord
100
AcDbRegAppTableRecord
  2
GENIUS_GENDTOL_13
 70
     0
  0
APPID
  5
107B8
330
9B7
100
AcDbSymbolTableRecord
100
AcDbRegAppTableRecord
  2
AcAecLayerStandard
 70
     0
  0
APPID
  5
107B9
330
9B7
100
AcDbSymbolTableRecord
100
AcDbRegAppTableRecord
  2
ACAD_PSEXT
 70
     0
  0
ENDTAB
  0
TABLE
  2
DIMSTYLE
  5
9B8
330
0
100
AcDbSymbolTable
 70
    15
100
AcDbDimStyleTable
 71
     1
340
A04
  0
DIMSTYLE
105
A04
102
{ACAD_REACTORS
330
740DC
330
740DB
330
740DA
330
740D9
330
740D8
102
}
330
9B8
100
AcDbSymbolTableRecord
100
AcDbDimStyleTableRecord
  2
SC_STAND
 70
     0
 40
3.5
 41
3.0
 45
0.01
 73
     0
 74
     0
 77
     1
 78
     4
140
2.5
147
1.0
172
     1
179
     2
271
     2
272
     2
279
     2
284
    12
285
    12
286
    12
340
9BF
  0
DIMSTYLE
105
A05
330
9B8
100
AcDbSymbolTableRecord
100
AcDbDimStyleTableRecord
  2
STANDARD
 70
     0
279
     2
284
    12
285
    12
286
    12
340
9BF
  0
DIMSTYLE
105
AA2
330
9B8
100
AcDbSymbolTableRecord
100
AcDbDimStyleTableRecord
  2
AM_ANSI
 70
     0
  4
mm
 41
0.1
 42
0.05
 43
0.5
 44
0.1
 47
0.1
 48
0.1
 78
     7
 79
     2
140
0.12
141
0.0
146
0.71
147
0.06
176
   256
177
   256
178
     2
274
     4
284
     7
340
9BF
371
    -1
372
    -1
  0
DIMSTYLE
105
AA3
330
9B8
100
AcDbSymbolTableRecord
100
AcDbDimStyleTableRecord
  2
AM_ANSI$3
 70
     0
  4
mm
 41
0.1
 42
0.05
 43
0.5
 44
0.1
 47
0.1
 48
0.1
 78
     7
 79
     2
140
0.12
141
0.0
146
0.71
147
0.06
176
   256
177
   256
178
     2
274
     4
284
     7
288
     1
289
     0
340
9BF
371
    -1
372
    -1
  0
DIMSTYLE
105
AA4
330
9B8
100
AcDbSymbolTableRecord
100
AcDbDimStyleTableRecord
  2
AM_ANSI$4
 70
     0
  4
mm
 41
0.1
 42
0.05
 43
0.5
 44
0.1
 47
0.1
 48
0.1
 78
     7
 79
     2
140
0.12
141
0.0
146
0.71
147
0.06
176
   256
177
   256
178
     2
274
     4
284
     7
288
     1
289
     0
340
9BF
371
    -1
372
    -1
  0
DIMSTYLE
105
AA5
330
9B8
100
AcDbSymbolTableRecord
100
AcDbDimStyleTableRecord
  2
AM_ANSI$7
 70
     0
  4
mm
 41
0.1
 42
0.05
 43
0.5
 44
0.1
 47
0.1
 48
0.1
 78
     7
 79
     2
140
0.24
141
0.0
146
0.71
147
0.06
176
   256
177
   256
178
     2
274
     4
284
     7
340
9BF
371
    -1
372
    -1
  0
DIMSTYLE
105
AA6
330
9B8
100
AcDbSymbolTableRecord
100
AcDbDimStyleTableRecord
  2
AM_ANSI$SF
 70
     0
  4
mm
 41
0.1
 42
0.05
 43
0.5
 44
0.1
 47
0.1
 48
0.1
 75
     1
 76
     1
 78
     7
 79
     2
140
0.12
141
0.0
146
0.71
147
0.06
176
   256
177
   256
178
     2
274
     4
284
     7
340
9BF
371
    -1
372
    -1
  0
DIMSTYLE
105
AAB
330
9B8
100
AcDbSymbolTableRecord
100
AcDbDimStyleTableRecord
  2
AM_ANSI$SH
 70
     0
  4
mm
 41
0.1
 42
0.05
 43
0.5
 44
0.1
 47
0.1
 48
0.1
 75
     1
 76
     1
 78
     7
 79
     2
140
0.12
141
0.0
146
0.71
147
0.06
173
     1
176
   256
177
   256
178
     2
274
     4
284
     7
340
9BF
343
AA7
371
    -1
372
    -1
  0
DIMSTYLE
105
107B0
330
9B8
100
AcDbSymbolTableRecord
100
AcDbDimStyleTableRecord
  2
AM_ISO
 70
     0
  4
"
 41
2.5
 42
1.0
 43
10.0
 44
1.0
 47
0.1
 48
0.1
 73
     0
 74
     0
 77
     1
 78
     8
 79
     2
140
3.5
141
0.0
143
0.0393701
146
0.71
147
1.5
172
     1
176
   256
177
   256
178
     2
271
     2
272
     3
274
     4
283
     0
284
     8
340
9BF
371
    -1
372
    -1
  0
DIMSTYLE
105
107B1
330
9B8
100
AcDbSymbolTableRecord
100
AcDbDimStyleTableRecord
  2
AM_ISO$3
 70
     0
  4
"
 41
2.5
 42
1.0
 43
10.0
 44
1.0
 47
0.1
 48
0.1
 73
     0
 77
     1
 78
     8
 79
     2
140
3.5
141
0.0
143
0.0393701
146
0.71
147
1.5
176
   256
177
   256
178
     2
271
     2
272
     3
274
     4
283
     0
284
     8
288
     1
289
     0
340
9BF
371
    -1
372
    -1
  0
DIMSTYLE
105
107B2
330
9B8
100
AcDbSymbolTableRecord
100
AcDbDimStyleTableRecord
  2
AM_ISO$4
 70
     0
  4
"
 41
2.5
 42
1.0
 43
10.0
 44
1.0
 47
0.1
 48
0.1
 73
     0
 77
     1
 78
     8
 79
     2
140
3.5
141
0.0
143
0.0393701
146
0.71
147
1.5
176
   256
177
   256
178
     2
271
     2
272
     3
274
     4
283
     0
284
     8
288
     1
289
     0
340
9BF
371
    -1
372
    -1
  0
DIMSTYLE
105
107B3
330
9B8
100
AcDbSymbolTableRecord
100
AcDbDimStyleTableRecord
  2
AM_ISO$6
 70
     0
  4
"
 41
2.5
 42
1.0
 43
10.0
 44
1.0
 47
0.1
 48
0.1
 73
     0
 74
     0
 78
     8
 79
     2
140
3.5
141
0.0
143
0.0393701
146
0.71
147
1.5
172
     1
176
   256
177
   256
178
     2
271
     2
272
     3
274
     4
283
     0
284
     8
340
9BF
371
    -1
372
    -1
  0
DIMSTYLE
105
107B4
330
9B8
100
AcDbSymbolTableRecord
100
AcDbDimStyleTableRecord
  2
AM_ISO$7
 70
     0
  4
"
 41
2.5
 42
1.0
 43
10.0
 44
1.0
 47
0.1
 48
0.1
 73
     0
 74
     0
 77
     1
 78
     8
 79
     2
140
5.0
141
0.0
143
0.0393701
146
0.71
147
1.5
172
     1
176
   256
177
   256
178
     2
271
     2
272
     3
274
     4
283
     0
284
     8
340
9BF
371
    -1
372
    -1
  0
DIMSTYLE
105
107B5
330
9B8
100
AcDbSymbolTableRecord
100
AcDbDimStyleTableRecord
  2
AM_ISO$SF
 70
     0
  4
"
 41
2.5
 42
1.0
 43
10.0
 44
1.0
 47
0.1
 48
0.1
 73
     0
 74
     0
 75
     1
 76
     1
 77
     1
 78
     8
 79
     2
140
3.5
141
0.0
143
0.0393701
146
0.71
147
1.5
172
     1
176
   256
177
   256
178
     2
271
     2
272
     3
274
     4
283
     0
284
     8
340
9BF
371
    -1
372
    -1
  0
DIMSTYLE
105
107B6
330
9B8
100
AcDbSymbolTableRecord
100
AcDbDimStyleTableRecord
  2
AM_ISO$SH
 70
     0
  4
"
 41
2.5
 42
1.0
 43
10.0
 44
1.0
 47
0.1
 48
0.1
 73
     0
 74
     0
 75
     1
 76
     1
 77
     1
 78
     8
 79
     2
140
3.5
141
0.0
143
0.0393701
144
2.0
146
0.71
147
1.5
172
     1
173
     1
176
   256
177
   256
178
     2
271
     2
272
     3
274
     4
283
     0
284
     8
340
9BF
343
AA7
371
    -1
372
    -1
  0
ENDTAB
  0
TABLE
  2
BLOCK_RECORD
  5
9AF
330
0
100
AcDbSymbolTable
 70
    10
  0
BLOCK_RECORD
  5
9D0
330
9AF
100
AcDbSymbolTableRecord
100
AcDbBlockTableRecord
  2
*Model_Space
340
9D3
  0
BLOCK_RECORD
  5
9CC
330
9AF
100
AcDbSymbolTableRecord
100
AcDbBlockTableRecord
  2
*Paper_Space
340
9CF
  0
BLOCK_RECORD
  5
A0C
330
9AF
100
AcDbSymbolTableRecord
100
AcDbBlockTableRecord
  2
AVE_RENDER
340
0
102
{BLKREFS
331
465
331
466
331
467
331
468
331
469
331
46A
331
46B
331
46C
102
}
  0
BLOCK_RECORD
  5
A0E
330
9AF
100
AcDbSymbolTableRecord
100
AcDbBlockTableRecord
  2
AVE_GLOBAL
340
0
102
{BLKREFS
331
46D
102
}
  0
BLOCK_RECORD
  5
A10
330
9AF
100
AcDbSymbolTableRecord
100
AcDbBlockTableRecord
  2
SCH_ISO
340
0
102
{BLKREFS
331
470
102
}
  0
BLOCK_RECORD
  5
AA7
330
9AF
100
AcDbSymbolTableRecord
100
AcDbBlockTableRecord
  2
GENAXEH
340
0
  0
BLOCK_RECORD
  5
740DD
330
9AF
100
AcDbSymbolTableRecord
100
AcDbBlockTableRecord
  2
*D5
340
0
  0
BLOCK_RECORD
  5
740EA
330
9AF
100
AcDbSymbolTableRecord
100
AcDbBlockTableRecord
  2
*D6
340
0
  0
BLOCK_RECORD
  5
740F7
330
9AF
100
AcDbSymbolTableRecord
100
AcDbBlockTableRecord
  2
*D7
340
0
  0
BLOCK_RECORD
  5
74104
330
9AF
100
AcDbSymbolTableRecord
100
AcDbBlockTableRecord
  2
*D8
340
0
  0
BLOCK_RECORD
  5
74111
330
9AF
100
AcDbSymbolTableRecord
100
AcDbBlockTableRecord
  2
*D9
340
0
  0
ENDTAB
  0
ENDSEC
  0
SECTION
  2
BLOCKS
  0
BLOCK
  5
9D1
330
9D0
100
AcDbEntity
  8
0
100
AcDbBlockBegin
  2
*Model_Space
 70
     0
 10
0.0
 20
0.0
 30
0.0
  3
*Model_Space
  1

  0
ENDBLK
  5
9D2
330
9D0
100
AcDbEntity
  8
0
100
AcDbBlockEnd
  0
BLOCK
  5
9CD
330
9CC
100
AcDbEntity
 67
     1
  8
0
100
AcDbBlockBegin
  2
*Paper_Space
 70
     0
 10
0.0
 20
0.0
 30
0.0
  3
*Paper_Space
  1

  0
ENDBLK
  5
9CE
330
9CC
100
AcDbEntity
 67
     1
  8
0
100
AcDbBlockEnd
  0
BLOCK
  5
A0D
330
A0C
100
AcDbEntity
  8
0
100
AcDbBlockBegin
  2
AVE_RENDER
 70
     0
 10
0.0
 20
0.0
 30
0.0
  3
AVE_RENDER
  1
AVE_RENDER
  0
ENDBLK
  5
434
330
A0C
100
AcDbEntity
  8
0
100
AcDbBlockEnd
  0
BLOCK
  5
A0F
330
A0E
100
AcDbEntity
  8
0
100
AcDbBlockBegin
  2
AVE_GLOBAL
 70
     0
 10
0.0
 20
0.0
 30
0.0
  3
AVE_GLOBAL
  1
AVE_GLOBAL
  0
ENDBLK
  5
437
330
A0E
100
AcDbEntity
  8
0
100
AcDbBlockEnd
  0
BLOCK
  5
A11
330
A10
100
AcDbEntity
  8
0
100
AcDbBlockBegin
  2
SCH_ISO
 70
     0
 10
0.0
 20
0.0
 30
0.0
  3
SCH_ISO
  1

  0
INSERT
  5
465
330
A10
100
AcDbEntity
  8
ASHADE
 62
     1
100
AcDbBlockReference
  2
AVE_RENDER
 10
0.0
 20
0.0
 30
0.0
1001
AVE_RENDER
1002
{
1070
     6
1000
Pref
1070
    50
1070
    20
1070
     1
1070
     0
1000

1070
    10
1070
     1
1070
    30
1040
25.4
1070
     1
1040
0.3
1040
0.7
1040
0.0
1040
10.0
1010
-1.0
1020
-1.0
1030
-1.0
1040
0.3
1070
    49
1070
     0
1070
     0
1010
1.0
1020
1.0
1030
1.0
1040
45.0
1070
     1
1070
     0
1000
WCS
1040
0.0
1002
}
  0
INSERT
  5
466
330
A10
100
AcDbEntity
  8
ASHADE
 62
     3
100
AcDbBlockReference
  2
AVE_RENDER
 10
0.0
 20
0.0
 30
0.0
1001
AVE_RENDER
1002
{
1070
     0
1000
Full Opt
1070
     0
1070
     1
1070
     1
1070
     1
1070
     0
1070
     0
1070
     0
1070
     1
1070
     1
1040
0.0001
1040
0.0001
1002
}
  0
INSERT
  5
467
330
A10
100
AcDbEntity
  8
ASHADE
 62
     4
100
AcDbBlockReference
  2
AVE_RENDER
 10
0.0
 20
0.0
 30
0.0
1001
AVE_RENDER
1002
{
1070
     0
1000
Quick Opt
1070
     0
1070
     1
1070
     1
1070
     1
1070
     0
1070
     0
1070
     1
1002
}
  0
INSERT
  5
468
330
A10
100
AcDbEntity
  8
ASHADE
 62
     5
100
AcDbBlockReference
  2
AVE_RENDER
 10
0.0
 20
0.0
 30
0.0
1001
AVE_RENDER
1002
{
1070
     1
1000
Scanl Opt
1070
     2
1070
     0
1070
     2
1040
2.0
1040
4.0
1070
     0
1070
     1
1070
     0
1040
0.03
1002
}
  0
INSERT
  5
469
330
A10
100
AcDbEntity
  8
ASHADE
 62
     6
100
AcDbBlockReference
  2
AVE_RENDER
 10
0.0
 20
0.0
 30
0.0
1001
AVE_RENDER
1002
{
1070
     2
1000
Raytr Opt
1070
     2
1070
     0
1070
     2
1040
2.0
1040
4.0
1070
     0
1070
     1
1070
     1
1040
0.03
1070
     3
1040
0.03
1002
}
  0
INSERT
  5
46A
330
A10
100
AcDbEntity
  8
ASHADE
 62
     7
100
AcDbBlockReference
  2
AVE_RENDER
 10
0.0
 20
0.0
 30
0.0
1001
AVE_RENDER
1002
{
1070
     0
1000
RFile Opt
1070
     5
1070
   640
1070
   480
1070
 10000
1070
     3
1070
    32
1070
    24
1070
     0
1070
     0
1070
     0
1070
     1
1070
     0
1070
     0
1070
     0
1002
}
  0
INSERT
  5
46B
330
A10
100
AcDbEntity
  8
ASHADE
 62
     8
100
AcDbBlockReference
  2
AVE_RENDER
 10
0.0
 20
0.0
 30
0.0
1001
AVE_RENDER
1002
{
1070
     0
1000
Fog Opt
1070
     0
1070
     0
1040
0.0
1040
1.0
1040
0.0
1040
1.0
1010
0.5
1020
0.5
1030
0.5
1002
}
  0
INSERT
  5
46C
330
A10
100
AcDbEntity
  8
ASHADE
 62
     9
100
AcDbBlockReference
  2
AVE_RENDER
 10
0.0
 20
0.0
 30
0.0
1001
AVE_RENDER
1002
{
1070
     0
1000
BG Opt
1070
     0
1070
     1
1010
0.0
1020
0.0
1030
0.0
1010
1.0
1020
0.0
1030
0.0
1010
0.0
1020
1.0
1030
0.0
1010
0.0
1020
0.0
1030
1.0
1040
0.5
1040
0.33
1040
0.0
1000

1070
     1
1000

1070
     1
1070
     1
1040
1.0
1040
1.0
1040
0.0
1040
0.0
1070
     0
1002
}
  0
INSERT
  5
46D
330
A10
100
AcDbEntity
  8
ASHADE
 62
     1
100
AcDbBlockReference
  2
AVE_GLOBAL
 10
0.0
 20
0.0
 30
0.0
1001
AVE_MATERIAL
1002
{
1000
*GLOBAL*
1000
1
1000
Finition globale.
1002
{
1002
}
1002
{
1070
    63
1002
{
1002
{
1010
-1.0
1020
-1.0
1030
-1.0
1002
}
1040
0.1
1000

1040
0.0
1002
{
1002
}
1040
0.0
1002
{
1002
}
1040
0.0
1002
}
1002
{
1002
{
1010
-1.0
1020
-1.0
1030
-1.0
1002
}
1040
0.7
1000

1040
0.0
1002
{
1002
}
1040
0.0
1002
{
1002
}
1040
0.0
1002
}
1002
{
1002
{
1010
-1.0
1020
-1.0
1030
-1.0
1002
}
1040
0.2
1000

1040
0.0
1002
{
1002
}
1040
0.0
1002
{
1002
}
1040
0.0
1002
}
1002
{
1070
     0
1002
{
1070
     1
1002
{
1040
1.0
1040
1.0
1000

1040
0.0
1002
{
1002
}
1040
0.0
1002
{
1002
}
1040
0.0
1002
}
1002
}
1040
1.0
1040
0.0
1040
0.0
1002
}
1002
{
1040
1.0
1040
1.0
1000

1040
0.0
1002
{
1002
}
1040
0.0
1002
{
1002
}
1040
0.0
1002
}
1002
{
1040
0.5
1040
1.0
1000

1040
0.0
1002
{
1002
}
1040
0.0
1002
{
1002
}
1040
0.0
1002
}
1002
{
1070
     0
1040
0.0
1002
{
1002
}
1040
1.0
1002
{
1002
}
1040
0.0
1002
}
1002
{
1040
0.0
1002
{
1002
{
1010
0.0
1020
0.0
1030
0.0
1002
}
1040
1.0
1000

1040
0.0
1002
{
1002
}
1040
0.0
1002
{
1002
}
1040
0.0
1002
}
1002
}
1002
{
1002
{
1070
     1
1002
{
1040
0.0
1040
1.0
1000

1040
0.0
1002
{
1002
}
1040
0.0
1002
{
1002
}
1040
0.0
1002
}
1002
}
1040
0.0
1002
{
1002
}
1010
1.0
1020
0.0
1030
0.0
1010
0.0
1020
1.0
1030
0.0
1010
0.0
1020
0.0
1030
1.0
1070
     0
1002
}
1002
{
1002
{
1040
1.0
1040
1.0
1002
{
1070
     1
1002
{
1040
1.0
1040
1.0
1000

1040
0.0
1002
{
1002
}
1040
0.0
1002
{
1002
}
1040
0.0
1002
}
1002
}
1002
}
1070
     0
1040
0.0
1002
{
1002
}
1002
}
1002
{
1002
}
1002
}
1002
{
1071
        3
1070
     3
1070
     0
1002
{
1070
     2
1070
     0
1070
     0
1040
0.0
1002
}
1070
     0
1070
     2
1002
{
1002
}
1002
}
1002
{
1040
8030.0
1040
190.300003
1040
0.305
1040
228.0
1040
545.0
1040
14.0
1040
17.4
1040
0.4560000000000001
1002
}
1002
}
  0
ENDBLK
  5
46F
330
A10
100
AcDbEntity
  8
0
100
AcDbBlockEnd
  0
BLOCK
  5
AA9
330
AA7
100
AcDbEntity
  8
0
100
AcDbBlockBegin
  2
GENAXEH
 70
     0
 10
0.0
 20
0.0
 30
0.0
  3
GENAXEH
  1

  0
LINE
  5
AA8
330
AA7
100
AcDbEntity
  8
0
100
AcDbLine
 10
-1.0
 20
0.0
 30
0.0
 11
1.0
 21
0.0
 31
0.0
  0
ENDBLK
  5
AAA
330
AA7
100
AcDbEntity
  8
0
100
AcDbBlockEnd
  0
BLOCK
  5
740E8
330
740DD
100
AcDbEntity
  8
0
100
AcDbBlockBegin
  2
*D5
 70
     1
 10
0.0
 20
0.0
 30
0.0
  3
*D5
  1

  0
LINE
  5
74264
330
740DD
100
AcDbEntity
  8
COTATION1
 62
     0
370
    -2
100
AcDbLine
 10
-12320.86271591782
 20
3046.655112796018
 30
0.0
 11
-12361.83761446322
 21
3046.655112796018
 31
0.0
  0
LINE
  5
74265
330
740DD
100
AcDbEntity
  8
COTATION1
 62
     0
370
    -2
100
AcDbLine
 10
-12298.36271591782
 20
3061.655112796018
 30
0.0
 11
-12361.83761446322
 21
3061.655112796018
 31
0.0
  0
LINE
  5
74266
330
740DD
100
AcDbEntity
  8
COTATION1
 62
     0
370
    -2
100
AcDbLine
 10
-12361.20761446322
 20
3036.155112796018
 30
0.0
 11
-12361.20761446322
 21
3025.655112796018
 31
0.0
  0
LINE
  5
74267
330
740DD
100
AcDbEntity
  8
COTATION1
 62
     0
370
    -2
100
AcDbLine
 10
-12361.20761446322
 20
3072.155112796018
 30
0.0
 11
-12361.20761446322
 21
3082.655112796018
 31
0.0
  0
MTEXT
  5
74268
330
740DD
100
AcDbEntity
  8
COTATION1
 62
     0
100
AcDbMText
 10
-12371.70761446322
 20
3054.155112796016
 30
0.0
 40
8.75
 41
0.0
 71
     5
 72
     1
  1
\A1;15.00
 11
0.0000000000000001
 21
1.0
 31
0.0
 73
     1
 44
1.0
  0
LINE
  5
74269
330
740DD
100
AcDbEntity
  8
COTATION1
 62
     0
370
    -2
100
AcDbLine
 10
-12361.20761446322
 20
3046.655112796018
 30
0.0
 11
-12361.20761446322
 21
3061.655112796018
 31
0.0
  0
SOLID
  5
7426A
330
740DD
100
AcDbEntity
  8
COTATION1
 62
     0
100
AcDbTrace
 10
-12362.95761446322
 20
3036.155112796018
 30
0.0
 11
-12359.45761446322
 21
3036.155112796018
 31
0.0
 12
-12361.20761446322
 22
3046.655112796018
 32
0.0
 13
-12361.20761446322
 23
3046.655112796018
 33
0.0
  0
SOLID
  5
7426B
330
740DD
100
AcDbEntity
  8
COTATION1
 62
     0
100
AcDbTrace
 10
-12362.95761446322
 20
3072.155112796018
 30
0.0
 11
-12359.45761446322
 21
3072.155112796018
 31
0.0
 12
-12361.20761446322
 22
3061.655112796018
 32
0.0
 13
-12361.20761446322
 23
3061.655112796018
 33
0.0
  0
POINT
  5
7426C
330
740DD
100
AcDbEntity
  8
DEFPOINTS
 62
     0
100
AcDbPoint
 10
-12320.64396591782
 20
3046.655112796018
 30
0.0
  0
POINT
  5
7426D
330
740DD
100
AcDbEntity
  8
DEFPOINTS
 62
     0
100
AcDbPoint
 10
-12298.14396591782
 20
3061.655112796018
 30
0.0
  0
POINT
  5
7426E
330
740DD
100
AcDbEntity
  8
DEFPOINTS
 62
     0
100
AcDbPoint
 10
-12361.20761446322
 20
3061.655112796018
 30
0.0
  0
ENDBLK
  5
740E9
330
740DD
100
AcDbEntity
  8
0
100
AcDbBlockEnd
  0
BLOCK
  5
740F5
330
740EA
100
AcDbEntity
  8
0
100
AcDbBlockBegin
  2
*D6
 70
     1
 10
0.0
 20
0.0
 30
0.0
  3
*D6
  1

  0
LINE
  5
7426F
330
740EA
100
AcDbEntity
  8
COTATION1
 62
     0
370
    -2
100
AcDbLine
 10
-12298.36271591782
 20
3061.655112796018
 30
0.0
 11
-12361.83761446322
 21
3061.655112796018
 31
0.0
  0
LINE
  5
74270
330
740EA
100
AcDbEntity
  8
COTATION1
 62
     0
370
    -2
100
AcDbLine
 10
-12298.36271591782
 20
3981.655112796018
 30
0.0
 11
-12361.83761446322
 21
3981.655112796018
 31
0.0
  0
LINE
  5
74271
330
740EA
100
AcDbEntity
  8
COTATION1
 62
     0
370
    -2
100
AcDbLine
 10
-12361.20761446322
 20
3072.155112796018
 30
0.0
 11
-12361.20761446322
 21
3971.155112796018
 31
0.0
  0
SOLID
  5
74272
330
740EA
100
AcDbEntity
  8
COTATION1
 62
     0
100
AcDbTrace
 10
-12362.95761446322
 20
3072.155112796018
 30
0.0
 11
-12359.45761446322
 21
3072.155112796018
 31
0.0
 12
-12361.20761446322
 22
3061.655112796018
 32
0.0
 13
-12361.20761446322
 23
3061.655112796018
 33
0.0
  0
SOLID
  5
74273
330
740EA
100
AcDbEntity
  8
COTATION1
 62
     0
100
AcDbTrace
 10
-12362.95761446322
 20
3971.155112796018
 30
0.0
 11
-12359.45761446322
 21
3971.155112796018
 31
0.0
 12
-12361.20761446322
 22
3981.655112796018
 32
0.0
 13
-12361.20761446322
 23
3981.655112796018
 33
0.0
  0
MTEXT
  5
74274
330
740EA
100
AcDbEntity
  8
COTATION1
 62
     0
100
AcDbMText
 10
-12369.08261446322
 20
3521.655112796016
 30
0.0
 40
8.75
 41
0.0
 71
     5
 72
     1
  1
\A1;920.00
 11
0.0000000000000001
 21
1.0
 31
0.0
 73
     1
 44
1.0
  0
POINT
  5
74275
330
740EA
100
AcDbEntity
  8
DEFPOINTS
 62
     0
100
AcDbPoint
 10
-12298.14396591782
 20
3061.655112796018
 30
0.0
  0
POINT
  5
74276
330
740EA
100
AcDbEntity
  8
DEFPOINTS
 62
     0
100
AcDbPoint
 10
-12298.14396591782
 20
3981.655112796018
 30
0.0
  0
POINT
  5
74277
330
740EA
100
AcDbEntity
  8
DEFPOINTS
 62
     0
100
AcDbPoint
 10
-12361.20761446322
 20
3981.655112796018
 30
0.0
  0
ENDBLK
  5
740F6
330
740EA
100
AcDbEntity
  8
0
100
AcDbBlockEnd
  0
BLOCK
  5
74102
330
740F7
100
AcDbEntity
  8
0
100
AcDbBlockBegin
  2
*D7
 70
     1
 10
0.0
 20
0.0
 30
0.0
  3
*D7
  1

  0
LINE
  5
74278
330
740F7
100
AcDbEntity
  8
COTATION1
 62
     0
370
    -2
100
AcDbLine
 10
-12298.36271591782
 20
3981.655112796018
 30
0.0
 11
-12361.83761446322
 21
3981.655112796018
 31
0.0
  0
LINE
  5
74279
330
740F7
100
AcDbEntity
  8
COTATION1
 62
     0
370
    -2
100
AcDbLine
 10
-12298.36271591782
 20
4056.655112796017
 30
0.0
 11
-12361.83761446322
 21
4056.655112796017
 31
0.0
  0
LINE
  5
7427A
330
740F7
100
AcDbEntity
  8
COTATION1
 62
     0
370
    -2
100
AcDbLine
 10
-12361.20761446322
 20
3992.155112796018
 30
0.0
 11
-12361.20761446322
 21
4046.155112796017
 31
0.0
  0
SOLID
  5
7427B
330
740F7
100
AcDbEntity
  8
COTATION1
 62
     0
100
AcDbTrace
 10
-12362.95761446322
 20
3992.155112796018
 30
0.0
 11
-12359.45761446322
 21
3992.155112796018
 31
0.0
 12
-12361.20761446322
 22
3981.655112796018
 32
0.0
 13
-12361.20761446322
 23
3981.655112796018
 33
0.0
  0
SOLID
  5
7427C
330
740F7
100
AcDbEntity
  8
COTATION1
 62
     0
100
AcDbTrace
 10
-12362.95761446322
 20
4046.155112796017
 30
0.0
 11
-12359.45761446322
 21
4046.155112796017
 31
0.0
 12
-12361.20761446322
 22
4056.655112796017
 32
0.0
 13
-12361.20761446322
 23
4056.655112796017
 33
0.0
  0
MTEXT
  5
7427D
330
740F7
100
AcDbEntity
  8
COTATION1
 62
     0
100
AcDbMText
 10
-12369.08261446322
 20
4019.155112796016
 30
0.0
 40
8.75
 41
0.0
 71
     5
 72
     1
  1
\A1;75.00
 11
0.0000000000000001
 21
1.0
 31
0.0
 73
     1
 44
1.0
  0
POINT
  5
7427E
330
740F7
100
AcDbEntity
  8
DEFPOINTS
 62
     0
100
AcDbPoint
 10
-12298.14396591782
 20
3981.655112796018
 30
0.0
  0
POINT
  5
7427F
330
740F7
100
AcDbEntity
  8
DEFPOINTS
 62
     0
100
AcDbPoint
 10
-12298.14396591782
 20
4056.655112796017
 30
0.0
  0
POINT
  5
74280
330
740F7
100
AcDbEntity
  8
DEFPOINTS
 62
     0
100
AcDbPoint
 10
-12361.20761446322
 20
4056.655112796017
 30
0.0
  0
ENDBLK
  5
74103
330
740F7
100
AcDbEntity
  8
0
100
AcDbBlockEnd
  0
BLOCK
  5
7410F
330
74104
100
AcDbEntity
  8
0
100
AcDbBlockBegin
  2
*D8
 70
     1
 10
0.0
 20
0.0
 30
0.0
  3
*D8
  1

  0
LINE
  5
74281
330
74104
100
AcDbEntity
  8
COTATION1
 62
     0
370
    -2
100
AcDbLine
 10
-12298.36271591782
 20
4056.655112796017
 30
0.0
 11
-12361.83761446322
 21
4056.655112796017
 31
0.0
  0
LINE
  5
74282
330
74104
100
AcDbEntity
  8
COTATION1
 62
     0
370
    -2
100
AcDbLine
 10
-12298.36271591782
 20
4206.655112796017
 30
0.0
 11
-12361.83761446322
 21
4206.655112796017
 31
0.0
  0
LINE
  5
74283
330
74104
100
AcDbEntity
  8
COTATION1
 62
     0
370
    -2
100
AcDbLine
 10
-12361.20761446322
 20
4067.155112796018
 30
0.0
 11
-12361.20761446322
 21
4196.155112796017
 31
0.0
  0
SOLID
  5
74284
330
74104
100
AcDbEntity
  8
COTATION1
 62
     0
100
AcDbTrace
 10
-12362.95761446322
 20
4067.155112796018
 30
0.0
 11
-12359.45761446322
 21
4067.155112796018
 31
0.0
 12
-12361.20761446322
 22
4056.655112796017
 32
0.0
 13
-12361.20761446322
 23
4056.655112796017
 33
0.0
  0
SOLID
  5
74285
330
74104
100
AcDbEntity
  8
COTATION1
 62
     0
100
AcDbTrace
 10
-12362.95761446322
 20
4196.155112796017
 30
0.0
 11
-12359.45761446322
 21
4196.155112796017
 31
0.0
 12
-12361.20761446322
 22
4206.655112796017
 32
0.0
 13
-12361.20761446322
 23
4206.655112796017
 33
0.0
  0
MTEXT
  5
74286
330
74104
100
AcDbEntity
  8
COTATION1
 62
     0
100
AcDbMText
 10
-12369.08261446322
 20
4131.655112796016
 30
0.0
 40
8.75
 41
0.0
 71
     5
 72
     1
  1
\A1;150.00
 11
0.0000000000000001
 21
1.0
 31
0.0
 73
     1
 44
1.0
  0
POINT
  5
74287
330
74104
100
AcDbEntity
  8
DEFPOINTS
 62
     0
100
AcDbPoint
 10
-12298.14396591782
 20
4056.655112796017
 30
0.0
  0
POINT
  5
74288
330
74104
100
AcDbEntity
  8
DEFPOINTS
 62
     0
100
AcDbPoint
 10
-12298.14396591782
 20
4206.655112796017
 30
0.0
  0
POINT
  5
74289
330
74104
100
AcDbEntity
  8
DEFPOINTS
 62
     0
100
AcDbPoint
 10
-12361.20761446322
 20
4206.655112796017
 30
0.0
  0
ENDBLK
  5
74110
330
74104
100
AcDbEntity
  8
0
100
AcDbBlockEnd
  0
BLOCK
  5
7411A
330
74111
100
AcDbEntity
  8
0
100
AcDbBlockBegin
  2
*D9
 70
     1
 10
0.0
 20
0.0
 30
0.0
  3
*D9
  1

  0
LINE
  5
7428A
330
74111
100
AcDbEntity
  8
COTATION1
 62
     0
370
    -2
100
AcDbLine
 10
-12287.62580177112
 20
4069.368028393307
 30
0.0
 11
-12280.93242458686
 21
4077.45806559157
 31
0.0
  0
MTEXT
  5
7428B
330
74111
100
AcDbEntity
  8
COTATION1
 62
     0
100
AcDbMText
 10
-12271.71274748837
 20
4088.601547966693
 30
0.0
 40
8.75
 41
0.0
 71
     5
 72
     1
  1
\A1;%%c12.00
 11
0.6374644937387696
 21
0.7704797331678324
 31
0.0
 73
     1
 44
1.0
  0
LINE
  5
7428C
330
74111
100
AcDbEntity
  8
COTATION1
 62
     0
370
    -2
100
AcDbLine
 10
-12298.14396591782
 20
4056.655112796017
 30
0.0
 11
-12294.31917895537
 21
4061.277991195045
 31
0.0
  0
SOLID
  5
7428D
330
74111
100
AcDbEntity
  8
COTATION1
 62
     0
100
AcDbTrace
 10
-12288.97414130416
 20
4070.48359125735
 30
0.0
 11
-12286.27746223807
 21
4068.252465529264
 31
0.0
 12
-12294.31917895537
 22
4061.277991195045
 32
0.0
 13
-12294.31917895537
 23
4061.277991195045
 33
0.0
  0
POINT
  5
7428E
330
74111
100
AcDbEntity
  8
DEFPOINTS
 62
     0
100
AcDbPoint
 10
-12294.31917895537
 20
4061.277991195045
 30
0.0
  0
POINT
  5
7428F
330
74111
100
AcDbEntity
  8
DEFPOINTS
 62
     0
100
AcDbPoint
 10
-12298.14396591782
 20
4056.655112796017
 30
0.0
  0
ENDBLK
  5
7411B
330
74111
100
AcDbEntity
  8
0
100
AcDbBlockEnd
  0
ENDSEC
  0
SECTION
  2
ENTITIES
  0
INSERT
  5
470
330
9D0
100
AcDbEntity
  8
COTATION1
100
AcDbBlockReference
  2
SCH_ISO
 10
0.0
 20
0.0
 30
0.0
  0
LINE
  5
73F55
330
9D0
100
AcDbEntity
  8
ALPHA
100
AcDbLine
 10
-11779.14396591812
 20
4240.880395962318
 30
0.0
 11
-11779.14396591812
 21
4238.555112796017
 31
0.0
  0
LINE
  5
73F56
330
9D0
100
AcDbEntity
  8
ALPHA
100
AcDbLine
 10
-11767.14396591812
 20
4238.555112796017
 30
0.0
 11
-11767.14396591812
 21
4240.880395962318
 31
0.0
  0
ARC
  5
73F57
330
9D0
100
AcDbEntity
  8
ALPHA
100
AcDbCircle
 10
-11778.60396591812
 20
4240.880395962318
 30
0.0
 40
0.5400000000000773
100
AcDbArc
 50
125.2515315421325
 51
180.0
  0
ARC
  5
73F58
330
9D0
100
AcDbEntity
  8
ALPHA
100
AcDbCircle
 10
-11767.68396591812
 20
4240.880395962318
 30
0.0
 40
0.5400000000000639
100
AcDbArc
 50
0.0
 51
54.7484684581129
  0
ARC
  5
73F59
330
9D0
100
AcDbEntity
  8
ALPHA
100
AcDbCircle
 10
-11773.14396591812
 20
4233.155112796017
 30
0.0
 40
10.00000000000008
100
AcDbArc
 50
108.0819426133882
 51
125.2515315421325
  0
ARC
  5
73F5A
330
9D0
100
AcDbEntity
  8
ALPHA
100
AcDbCircle
 10
-11773.14396591812
 20
4233.155112796017
 30
0.0
 40
10.00000000000007
100
AcDbArc
 50
54.7484684581129
 51
71.9180573867189
  0
LINE
  5
73F5B
330
9D0
100
AcDbEntity
  8
ALPHA
100
AcDbLine
 10
-12289.14396591812
 20
4240.880395962318
 30
0.0
 11
-12289.14396591812
 21
4238.555112796017
 31
0.0
  0
LINE
  5
73F5C
330
9D0
100
AcDbEntity
  8
ALPHA
100
AcDbLine
 10
-12277.14396591812
 20
4238.555112796017
 30
0.0
 11
-12277.14396591812
 21
4240.880395962318
 31
0.0
  0
ARC
  5
73F5D
330
9D0
100
AcDbEntity
  8
ALPHA
100
AcDbCircle
 10
-12288.60396591812
 20
4240.880395962318
 30
0.0
 40
0.5400000000000063
100
AcDbArc
 50
125.2515315421325
 51
180.0
  0
ARC
  5
73F5E
330
9D0
100
AcDbEntity
  8
ALPHA
100
AcDbCircle
 10
-12277.68396591812
 20
4240.880395962318
 30
0.0
 40
0.5400000000000228
100
AcDbArc
 50
0.0
 51
54.7484684581129
  0
ARC
  5
73F5F
330
9D0
100
AcDbEntity
  8
ALPHA
100
AcDbCircle
 10
-12283.14396591812
 20
4233.155112796017
 30
0.0
 40
10.00000000000007
100
AcDbArc
 50
108.0819426133882
 51
125.2515315421325
  0
ARC
  5
73F60
330
9D0
100
AcDbEntity
  8
ALPHA
100
AcDbCircle
 10
-12283.14396591812
 20
4233.155112796017
 30
0.0
 40
10.00000000000009
100
AcDbArc
 50
54.7484684581129
 51
71.9180573867189
  0
LINE
  5
73F61
330
9D0
100
AcDbEntity
  8
ALPHA
100
AcDbLine
 10
-12289.14396591812
 20
4237.255112796018
 30
0.0
 11
-12289.14396591812
 21
4235.655112796017
 31
0.0
  0
LINE
  5
73F62
330
9D0
100
AcDbEntity
  8
ALPHA
100
AcDbLine
 10
-12277.14396591812
 20
4235.655112796017
 30
0.0
 11
-12277.14396591812
 21
4237.255112796018
 31
0.0
  0
LINE
  5
73F63
330
9D0
100
AcDbEntity
  8
ALPHA
100
AcDbLine
 10
-11779.14396591812
 20
4237.255112796018
 30
0.0
 11
-11779.14396591812
 21
4235.655112796017
 31
0.0
  0
LINE
  5
73F64
330
9D0
100
AcDbEntity
  8
ALPHA
100
AcDbLine
 10
-11767.14396591812
 20
4235.655112796017
 30
0.0
 11
-11767.14396591812
 21
4237.255112796018
 31
0.0
  0
LINE
  5
73F65
330
9D0
100
AcDbEntity
  8
ALPHA
100
AcDbLine
 10
-11727.59396591782
 20
4021.805112796018
 30
0.0
 11
-11727.64396591782
 21
4021.805112796018
 31
0.0
  0
LINE
  5
73F66
330
9D0
100
AcDbEntity
  8
ALPHA
100
AcDbLine
 10
-11727.64396591782
 20
4010.505112796018
 30
0.0
 11
-11727.59396591782
 21
4010.505112796018
 31
0.0
  0
LINE
  5
73F67
330
9D0
100
AcDbEntity
  8
ALPHA
100
AcDbLine
 10
-11727.59396591782
 20
4221.805112796018
 30
0.0
 11
-11727.64396591782
 21
4221.805112796018
 31
0.0
  0
LINE
  5
73F68
330
9D0
100
AcDbEntity
  8
ALPHA
100
AcDbLine
 10
-11727.64396591782
 20
4210.505112796018
 30
0.0
 11
-11727.59396591782
 21
4210.505112796018
 31
0.0
  0
LINE
  5
73F69
330
9D0
100
AcDbEntity
  8
ALPHA
100
AcDbLine
 10
-12322.64396591542
 20
3971.155112796218
 30
0.0
 11
-12320.64396591782
 21
3971.155112796218
 31
0.0
  0
LINE
  5
73F6A
330
9D0
100
AcDbEntity
  8
ALPHA
100
AcDbLine
 10
-11735.64396591782
 20
3971.155112796218
 30
0.0
 11
-11733.64396591542
 21
3971.155112796218
 31
0.0
  0
LINE
  5
73F6B
330
9D0
100
AcDbEntity
  8
ALPHA
100
AcDbLine
 10
-12289.04396591812
 20
4238.555112796017
 30
0.0
 11
-12289.04396591812
 21
4237.255112796018
 31
0.0
  0
LINE
  5
73F6C
330
9D0
100
AcDbEntity
  8
ALPHA
100
AcDbLine
 10
-12277.24396591812
 20
4237.255112796018
 30
0.0
 11
-12277.24396591812
 21
4238.555112796017
 31
0.0
  0
LINE
  5
73F6D
330
9D0
100
AcDbEntity
  8
ALPHA
100
AcDbLine
 10
-11779.04396591812
 20
4238.555112796017
 30
0.0
 11
-11779.04396591812
 21
4237.255112796018
 31
0.0
  0
LINE
  5
73F6E
330
9D0
100
AcDbEntity
  8
ALPHA
100
AcDbLine
 10
-11767.24396591812
 20
4237.255112796018
 30
0.0
 11
-11767.24396591812
 21
4238.555112796017
 31
0.0
  0
ARC
  5
73F6F
330
9D0
100
AcDbEntity
  8
ALPHA
100
AcDbCircle
 10
-11760.14396591782
 20
3316.155112796018
 30
0.0
 40
2.999999999999995
100
AcDbArc
 50
55.49171622959672
 51
76.5833058390395
  0
LINE
  5
73F70
330
9D0
100
AcDbEntity
  8
ALPHA
100
AcDbLine
 10
-11751.35441290102
 20
3513.155112796018
 30
0.0
 11
-11754.93351893462
 21
3513.155112796018
 31
0.0
  0
LINE
  5
73F71
330
9D0
100
AcDbEntity
  8
ALPHA
100
AcDbLine
 10
-11891.35441290102
 20
3513.155112796018
 30
0.0
 11
-11894.93351893462
 21
3513.155112796018
 31
0.0
  0
LINE
  5
73F72
330
9D0
100
AcDbEntity
  8
ALPHA
100
AcDbLine
 10
-12026.35441290102
 20
3513.155112796018
 30
0.0
 11
-12029.93351893462
 21
3513.155112796018
 31
0.0
  0
LINE
  5
73F73
330
9D0
100
AcDbEntity
  8
ALPHA
100
AcDbLine
 10
-12161.35441290102
 20
3513.155112796018
 30
0.0
 11
-12164.93351893462
 21
3513.155112796018
 31
0.0
  0
LINE
  5
73F74
330
9D0
100
AcDbEntity
  8
ALPHA
100
AcDbLine
 10
-12301.35441290102
 20
3513.155112796018
 30
0.0
 11
-12304.93351893462
 21
3513.155112796018
 31
0.0
  0
LINE
  5
73F75
330
9D0
100
AcDbEntity
  8
ALPHA
100
AcDbLine
 10
-11751.74664705652
 20
3515.655112796018
 30
0.0
 11
-11754.54128477902
 21
3515.655112796018
 31
0.0
  0
LINE
  5
73F76
330
9D0
100
AcDbEntity
  8
ALPHA
100
AcDbLine
 10
-11891.74664705652
 20
3515.655112796018
 30
0.0
 11
-11894.54128477902
 21
3515.655112796018
 31
0.0
  0
LINE
  5
73F77
330
9D0
100
AcDbEntity
  8
ALPHA
100
AcDbLine
 10
-12026.74664705652
 20
3515.655112796018
 30
0.0
 11
-12029.54128477902
 21
3515.655112796018
 31
0.0
  0
LINE
  5
73F78
330
9D0
100
AcDbEntity
  8
ALPHA
100
AcDbLine
 10
-12161.74664705652
 20
3515.655112796018
 30
0.0
 11
-12164.54128477902
 21
3515.655112796018
 31
0.0
  0
LINE
  5
73F79
330
9D0
100
AcDbEntity
  8
ALPHA
100
AcDbLine
 10
-12301.74664705652
 20
3515.655112796018
 30
0.0
 11
-12304.54128477902
 21
3515.655112796018
 31
0.0
  0
LINE
  5
73F7A
330
9D0
100
AcDbEntity
  8
ALPHA
100
AcDbLine
 10
-12308.35842287122
 20
3958.555112796018
 30
0.0
 11
-12307.90842287122
 21
3958.555112796018
 31
0.0
  0
LINE
  5
73F7B
330
9D0
100
AcDbEntity
  8
ALPHA
100
AcDbLine
 10
-12308.35842287122
 20
3958.357107624017
 30
0.0
 11
-12308.35842287122
 21
3958.555112796018
 31
0.0
  0
LINE
  5
73F7C
330
9D0
100
AcDbEntity
  8
ALPHA
100
AcDbLine
 10
-12307.90842287122
 20
3957.679771915118
 30
0.0
 11
-12307.90842287122
 21
3958.555112796018
 31
0.0
  0
LINE
  5
73F7D
330
9D0
100
AcDbEntity
  8
ALPHA
100
AcDbLine
 10
-12308.62144175882
 20
3958.805112796018
 30
0.0
 11
-12308.60842287122
 21
3958.805112796018
 31
0.0
  0
LINE
  5
73F7E
330
9D0
100
AcDbEntity
  8
ALPHA
100
AcDbLine
 10
-12308.86030857752
 20
3959.255112796018
 30
0.0
 11
-12308.60842287122
 21
3959.255112796018
 31
0.0
  0
LINE
  5
73F7F
330
9D0
100
AcDbEntity
  8
ALPHA
100
AcDbLine
 10
-12308.60842287122
 20
3958.805112796018
 30
0.0
 11
-12308.60842287122
 21
3959.255112796018
 31
0.0
  0
ARC
  5
73F80
330
9D0
100
AcDbEntity
  8
ALPHA
100
AcDbCircle
 10
-12308.60842287122
 20
3958.555112796018
 30
0.0
 40
0.7000000000000455
100
AcDbArc
 50
0.0
 51
90.0
  0
ARC
  5
73F81
330
9D0
100
AcDbEntity
  8
ALPHA
100
AcDbCircle
 10
-12308.60842287122
 20
3958.555112796018
 30
0.0
 40
0.2500000000000568
100
AcDbArc
 50
0.0
 51
90.0
  0
LINE
  5
73F82
330
9D0
100
AcDbEntity
  8
ALPHA
100
AcDbLine
 10
-12307.90842287122
 20
3959.255112796018
 30
0.0
 11
-12308.35842287122
 21
3959.255112796018
 31
0.0
  0
LINE
  5
73F83
330
9D0
100
AcDbEntity
  8
ALPHA
100
AcDbLine
 10
-12308.35842287122
 20
3959.255112796018
 30
0.0
 11
-12308.35842287122
 21
3959.208947637518
 31
0.0
  0
LINE
  5
73F84
330
9D0
100
AcDbEntity
  8
ALPHA
100
AcDbLine
 10
-12307.90842287122
 20
3959.255112796018
 30
0.0
 11
-12307.90842287122
 21
3958.555112796018
 31
0.0
  0
LINE
  5
73F85
330
9D0
100
AcDbEntity
  8
ALPHA
100
AcDbLine
 10
-11747.92950896442
 20
3958.555112796018
 30
0.0
 11
-11747.92950896442
 21
3958.357107624017
 31
0.0
  0
LINE
  5
73F86
330
9D0
100
AcDbEntity
  8
ALPHA
100
AcDbLine
 10
-11748.37950896442
 20
3958.555112796018
 30
0.0
 11
-11748.37950896442
 21
3957.679771915118
 31
0.0
  0
LINE
  5
73F87
330
9D0
100
AcDbEntity
  8
ALPHA
100
AcDbLine
 10
-11747.92950896442
 20
3958.555112796018
 30
0.0
 11
-11748.37950896442
 21
3958.555112796018
 31
0.0
  0
LINE
  5
73F88
330
9D0
100
AcDbEntity
  8
ALPHA
100
AcDbLine
 10
-11747.67950896442
 20
3959.255112796018
 30
0.0
 11
-11747.42762325812
 21
3959.255112796018
 31
0.0
  0
LINE
  5
73F89
330
9D0
100
AcDbEntity
  8
ALPHA
100
AcDbLine
 10
-11747.67950896442
 20
3958.805112796018
 30
0.0
 11
-11747.66649007672
 21
3958.805112796018
 31
0.0
  0
LINE
  5
73F8A
330
9D0
100
AcDbEntity
  8
ALPHA
100
AcDbLine
 10
-11747.67950896442
 20
3958.805112796018
 30
0.0
 11
-11747.67950896442
 21
3959.255112796018
 31
0.0
  0
ARC
  5
73F8B
330
9D0
100
AcDbEntity
  8
ALPHA
100
AcDbCircle
 10
-11747.67950896442
 20
3958.555112796018
 30
0.0
 40
0.25
100
AcDbArc
 50
90.0
 51
180.0
  0
ARC
  5
73F8C
330
9D0
100
AcDbEntity
  8
ALPHA
100
AcDbCircle
 10
-11747.67950896442
 20
3958.555112796018
 30
0.0
 40
0.7000000000000455
100
AcDbArc
 50
90.0
 51
180.0
  0
LINE
  5
73F8D
330
9D0
100
AcDbEntity
  8
ALPHA
100
AcDbLine
 10
-11748.37950896442
 20
3959.255112796018
 30
0.0
 11
-11747.92950896442
 21
3959.255112796018
 31
0.0
  0
LINE
  5
73F8E
330
9D0
100
AcDbEntity
  8
ALPHA
100
AcDbLine
 10
-11748.37950896442
 20
3958.555112796018
 30
0.0
 11
-11748.37950896442
 21
3959.255112796018
 31
0.0
  0
LINE
  5
73F8F
330
9D0
100
AcDbEntity
  8
ALPHA
100
AcDbLine
 10
-11747.92950896442
 20
3959.208947637518
 30
0.0
 11
-11747.92950896442
 21
3959.255112796018
 31
0.0
  0
LINE
  5
73F90
330
9D0
100
AcDbEntity
  8
ALPHA
100
AcDbLine
 10
-11748.39717157302
 20
3971.655112796018
 30
0.0
 11
-11767.89076026262
 21
3971.655112796018
 31
0.0
  0
LINE
  5
73F91
330
9D0
100
AcDbEntity
  8
ALPHA
100
AcDbLine
 10
-12288.39717157302
 20
3971.655112796018
 30
0.0
 11
-12307.89076026262
 21
3971.655112796018
 31
0.0
  0
CIRCLE
  5
73F92
330
9D0
100
AcDbEntity
  8
ALPHA
100
AcDbCircle
 10
-12028.14396591782
 20
3320.655112796018
 30
0.0
 40
2.049999999999981
  0
CIRCLE
  5
73F93
330
9D0
100
AcDbEntity
  8
ALPHA
100
AcDbCircle
 10
-12118.14396591782
 20
3320.655112796018
 30
0.0
 40
2.049999999999981
  0
CIRCLE
  5
73F94
330
9D0
100
AcDbEntity
  8
ALPHA
100
AcDbCircle
 10
-12208.14396591782
 20
3320.655112796018
 30
0.0
 40
2.05000000000001
  0
CIRCLE
  5
73F95
330
9D0
100
AcDbEntity
  8
ALPHA
100
AcDbCircle
 10
-12298.14396591782
 20
3320.655112796018
 30
0.0
 40
2.050000000000038
  0
CIRCLE
  5
73F96
330
9D0
100
AcDbEntity
  8
ALPHA
100
AcDbCircle
 10
-11758.14396591782
 20
3320.655112796018
 30
0.0
 40
2.05000000000001
  0
CIRCLE
  5
73F97
330
9D0
100
AcDbEntity
  8
ALPHA
100
AcDbCircle
 10
-11848.14396591782
 20
3320.655112796018
 30
0.0
 40
2.05000000000001
  0
CIRCLE
  5
73F98
330
9D0
100
AcDbEntity
  8
ALPHA
100
AcDbCircle
 10
-11938.14396591782
 20
3320.655112796018
 30
0.0
 40
2.05000000000001
  0
CIRCLE
  5
73F99
330
9D0
100
AcDbEntity
  8
ALPHA
100
AcDbCircle
 10
-11787.64396591782
 20
3054.155112796018
 30
0.0
 40
2.049999999999954
  0
CIRCLE
  5
73F9A
330
9D0
100
AcDbEntity
  8
ALPHA
100
AcDbCircle
 10
-11787.64396591782
 20
3082.155112796018
 30
0.0
 40
2.049999999999954
  0
CIRCLE
  5
73F9B
330
9D0
100
AcDbEntity
  8
ALPHA
100
AcDbCircle
 10
-12045.64396591782
 20
3054.155112796018
 30
0.0
 40
2.049999999999981
  0
CIRCLE
  5
73F9C
330
9D0
100
AcDbEntity
  8
ALPHA
100
AcDbCircle
 10
-12010.64396591782
 20
3054.155112796018
 30
0.0
 40
2.05000000000001
  0
CIRCLE
  5
73F9D
330
9D0
100
AcDbEntity
  8
ALPHA
100
AcDbCircle
 10
-12028.14396591782
 20
3082.155112796018
 30
0.0
 40
2.049999999999981
  0
CIRCLE
  5
73F9E
330
9D0
100
AcDbEntity
  8
ALPHA
100
AcDbCircle
 10
-12268.64396591782
 20
3954.155112796018
 30
0.0
 40
2.049999999999995
  0
CIRCLE
  5
73F9F
330
9D0
100
AcDbEntity
  8
ALPHA
100
AcDbCircle
 10
-12268.64396591782
 20
3989.155112796018
 30
0.0
 40
2.049999999999995
  0
CIRCLE
  5
73FA0
330
9D0
100
AcDbEntity
  8
ALPHA
100
AcDbCircle
 10
-12268.64396591782
 20
3054.155112796018
 30
0.0
 40
2.04999999999999
  0
CIRCLE
  5
73FA1
330
9D0
100
AcDbEntity
  8
ALPHA
100
AcDbCircle
 10
-12268.64396591782
 20
3082.155112796018
 30
0.0
 40
2.04999999999999
  0
CIRCLE
  5
73FA2
330
9D0
100
AcDbEntity
  8
ALPHA
100
AcDbCircle
 10
-11787.64396591782
 20
3954.155112796018
 30
0.0
 40
2.05000000000001
  0
CIRCLE
  5
73FA3
330
9D0
100
AcDbEntity
  8
ALPHA
100
AcDbCircle
 10
-11787.64396591782
 20
3989.155112796018
 30
0.0
 40
2.05000000000001
  0
LINE
  5
73FA4
330
9D0
100
AcDbEntity
  8
ALPHA
100
AcDbLine
 10
-11779.14396591812
 20
4238.555112796017
 30
0.0
 11
-11767.14396591812
 21
4238.555112796017
 31
0.0
  0
ARC
  5
73FA5
330
9D0
100
AcDbEntity
  8
ALPHA
100
AcDbCircle
 10
-11773.14396591812
 20
4233.155112796017
 30
0.0
 40
9.974763155083447
100
AcDbArc
 50
71.93951083591435
 51
82.29333992473588
  0
LINE
  5
73FA6
330
9D0
100
AcDbEntity
  8
ALPHA
100
AcDbLine
 10
-11770.04019742952
 20
4242.661248770718
 30
0.0
 11
-11770.05158101012
 21
4242.638416839517
 31
0.0
  0
LINE
  5
73FA7
330
9D0
100
AcDbEntity
  8
ALPHA
100
AcDbLine
 10
-11776.23635082612
 20
4242.638416839418
 30
0.0
 11
-11776.24773440672
 21
4242.661248770718
 31
0.0
  0
ARC
  5
73FA8
330
9D0
100
AcDbEntity
  8
ALPHA
100
AcDbCircle
 10
-11773.14396591812
 20
4233.155112796017
 30
0.0
 40
9.974763155082968
100
AcDbArc
 50
97.70666007537087
 51
108.0604891642999
  0
LINE
  5
73FA9
330
9D0
100
AcDbEntity
  8
ALPHA
100
AcDbLine
 10
-11774.48159538892
 20
4243.039780084219
 30
0.0
 11
-11773.85396591812
 21
4243.039780084219
 31
0.0
  0
LINE
  5
73FAA
330
9D0
100
AcDbEntity
  8
ALPHA
100
AcDbLine
 10
-11773.85396591812
 20
4243.039780084219
 30
0.0
 11
-11773.85396591812
 21
4242.638416839517
 31
0.0
  0
ARC
  5
73FAB
330
9D0
100
AcDbEntity
  8
ALPHA
100
AcDbCircle
 10
-11773.14396591812
 20
4231.609995970818
 30
0.0
 40
11.05125182306938
100
AcDbArc
 50
86.31643174067701
 51
93.68356825984637
  0
LINE
  5
73FAC
330
9D0
100
AcDbEntity
  8
ALPHA
100
AcDbLine
 10
-11772.43396591812
 20
4242.638416839517
 30
0.0
 11
-11772.43396591812
 21
4243.039780084219
 31
0.0
  0
LINE
  5
73FAD
330
9D0
100
AcDbEntity
  8
ALPHA
100
AcDbLine
 10
-11772.43396591812
 20
4243.039780084219
 30
0.0
 11
-11771.80633644732
 21
4243.039780084219
 31
0.0
  0
LINE
  5
73FAE
330
9D0
100
AcDbEntity
  8
ALPHA
100
AcDbLine
 10
-12289.14396591812
 20
4238.555112796017
 30
0.0
 11
-12277.14396591812
 21
4238.555112796017
 31
0.0
  0
ARC
  5
73FAF
330
9D0
100
AcDbEntity
  8
ALPHA
100
AcDbCircle
 10
-12283.14396591812
 20
4233.155112796017
 30
0.0
 40
9.974763155083456
100
AcDbArc
 50
71.93951083591435
 51
82.29333992473588
  0
LINE
  5
73FB0
330
9D0
100
AcDbEntity
  8
ALPHA
100
AcDbLine
 10
-12280.04019742952
 20
4242.661248770718
 30
0.0
 11
-12280.05158101012
 21
4242.638416839517
 31
0.0
  0
LINE
  5
73FB1
330
9D0
100
AcDbEntity
  8
ALPHA
100
AcDbLine
 10
-12286.23635082612
 20
4242.638416839418
 30
0.0
 11
-12286.24773440672
 21
4242.661248770718
 31
0.0
  0
ARC
  5
73FB2
330
9D0
100
AcDbEntity
  8
ALPHA
100
AcDbCircle
 10
-12283.14396591812
 20
4233.155112796017
 30
0.0
 40
9.974763155082968
100
AcDbArc
 50
97.70666007537087
 51
108.0604891642999
  0
LINE
  5
73FB3
330
9D0
100
AcDbEntity
  8
ALPHA
100
AcDbLine
 10
-12284.48159538892
 20
4243.039780084219
 30
0.0
 11
-12283.85396591812
 21
4243.039780084219
 31
0.0
  0
LINE
  5
73FB4
330
9D0
100
AcDbEntity
  8
ALPHA
100
AcDbLine
 10
-12283.85396591812
 20
4243.039780084219
 30
0.0
 11
-12283.85396591812
 21
4242.638416839517
 31
0.0
  0
ARC
  5
73FB5
330
9D0
100
AcDbEntity
  8
ALPHA
100
AcDbCircle
 10
-12283.14396591812
 20
4231.609995969418
 30
0.0
 40
11.0512518244728
100
AcDbArc
 50
86.31643174109468
 51
93.68356825921898
  0
LINE
  5
73FB6
330
9D0
100
AcDbEntity
  8
ALPHA
100
AcDbLine
 10
-12282.43396591812
 20
4242.638416839517
 30
0.0
 11
-12282.43396591812
 21
4243.039780084219
 31
0.0
  0
LINE
  5
73FB7
330
9D0
100
AcDbEntity
  8
ALPHA
100
AcDbLine
 10
-12282.43396591812
 20
4243.039780084219
 30
0.0
 11
-12281.80633644732
 21
4243.039780084219
 31
0.0
  0
CIRCLE
  5
73FB8
330
9D0
100
AcDbEntity
  8
ALPHA
100
AcDbCircle
 10
-12163.14396591782
 20
3514.155112796018
 30
0.0
 40
2.049999999999995
  0
CIRCLE
  5
73FB9
330
9D0
100
AcDbEntity
  8
ALPHA
100
AcDbCircle
 10
-11753.14396591782
 20
3514.155112796018
 30
0.0
 40
2.050000000000018
  0
CIRCLE
  5
73FBA
330
9D0
100
AcDbEntity
  8
ALPHA
100
AcDbCircle
 10
-11893.14396591782
 20
3514.155112796018
 30
0.0
 40
2.04999999999999
  0
CIRCLE
  5
73FBB
330
9D0
100
AcDbEntity
  8
ALPHA
100
AcDbCircle
 10
-12028.14396591782
 20
3514.155112796018
 30
0.0
 40
2.049999999999995
  0
CIRCLE
  5
73FBC
330
9D0
100
AcDbEntity
  8
ALPHA
100
AcDbCircle
 10
-12303.14396591782
 20
3514.155112796018
 30
0.0
 40
2.050000000000026
  0
CIRCLE
  5
73FBD
330
9D0
100
AcDbEntity
  8
ALPHA
100
AcDbCircle
 10
-11753.14396591782
 20
3861.155112796018
 30
0.0
 40
2.05000000000001
  0
CIRCLE
  5
73FBE
330
9D0
100
AcDbEntity
  8
ALPHA
100
AcDbCircle
 10
-11863.14396591782
 20
3861.155112796018
 30
0.0
 40
2.049999999999954
  0
CIRCLE
  5
73FBF
330
9D0
100
AcDbEntity
  8
ALPHA
100
AcDbCircle
 10
-12193.14396591782
 20
3861.155112796018
 30
0.0
 40
2.049999999999995
  0
CIRCLE
  5
73FC0
330
9D0
100
AcDbEntity
  8
ALPHA
100
AcDbCircle
 10
-12303.14396591782
 20
3861.155112796018
 30
0.0
 40
2.049999999999995
  0
CIRCLE
  5
73FC1
330
9D0
100
AcDbEntity
  8
ALPHA
100
AcDbCircle
 10
-12083.14396591782
 20
3861.155112796018
 30
0.0
 40
2.05000000000001
  0
CIRCLE
  5
73FC2
330
9D0
100
AcDbEntity
  8
ALPHA
100
AcDbCircle
 10
-11973.14396591782
 20
3861.155112796018
 30
0.0
 40
2.049999999999981
  0
CIRCLE
  5
73FC3
330
9D0
100
AcDbEntity
  8
ALPHA
100
AcDbCircle
 10
-11753.14396591782
 20
3626.155112796018
 30
0.0
 40
2.05000000000001
  0
CIRCLE
  5
73FC4
330
9D0
100
AcDbEntity
  8
ALPHA
100
AcDbCircle
 10
-11863.14396591782
 20
3626.155112796018
 30
0.0
 40
2.049999999999954
  0
CIRCLE
  5
73FC5
330
9D0
100
AcDbEntity
  8
ALPHA
100
AcDbCircle
 10
-12193.14396591782
 20
3626.155112796018
 30
0.0
 40
2.049999999999995
  0
CIRCLE
  5
73FC6
330
9D0
100
AcDbEntity
  8
ALPHA
100
AcDbCircle
 10
-12303.14396591782
 20
3626.155112796018
 30
0.0
 40
2.049999999999995
  0
CIRCLE
  5
73FC7
330
9D0
100
AcDbEntity
  8
ALPHA
100
AcDbCircle
 10
-12083.14396591782
 20
3626.155112796018
 30
0.0
 40
2.05000000000001
  0
CIRCLE
  5
73FC8
330
9D0
100
AcDbEntity
  8
ALPHA
100
AcDbCircle
 10
-11973.14396591782
 20
3626.155112796018
 30
0.0
 40
2.049999999999981
  0
CIRCLE
  5
73FC9
330
9D0
100
AcDbEntity
  8
ALPHA
100
AcDbCircle
 10
-11753.14396591782
 20
3940.155112796018
 30
0.0
 40
2.05000000000001
  0
CIRCLE
  5
73FCA
330
9D0
100
AcDbEntity
  8
ALPHA
100
AcDbCircle
 10
-12163.14396591782
 20
3940.155112796018
 30
0.0
 40
2.05000000000001
  0
CIRCLE
  5
73FCB
330
9D0
100
AcDbEntity
  8
ALPHA
100
AcDbCircle
 10
-12303.14396591782
 20
3940.155112796018
 30
0.0
 40
2.05000000000001
  0
CIRCLE
  5
73FCC
330
9D0
100
AcDbEntity
  8
ALPHA
100
AcDbCircle
 10
-12028.14396591782
 20
3940.155112796018
 30
0.0
 40
2.05000000000001
  0
CIRCLE
  5
73FCD
330
9D0
100
AcDbEntity
  8
ALPHA
100
AcDbCircle
 10
-11893.14396591782
 20
3940.155112796018
 30
0.0
 40
2.05000000000001
  0
CIRCLE
  5
73FCE
330
9D0
100
AcDbEntity
  8
ALPHA
100
AcDbCircle
 10
-12028.14396591782
 20
3106.655112796019
 30
0.0
 40
4.0
  0
CIRCLE
  5
73FCF
330
9D0
100
AcDbEntity
  8
ALPHA
100
AcDbCircle
 10
-11772.14396591782
 20
3101.655112796018
 30
0.0
 40
3.0
  0
CIRCLE
  5
73FD0
330
9D0
100
AcDbEntity
  8
ALPHA
100
AcDbCircle
 10
-12284.14396591782
 20
3101.655112796018
 30
0.0
 40
3.0
  0
ARC
  5
73FD1
330
9D0
100
AcDbEntity
  8
ALPHA
100
AcDbCircle
 10
-11763.14396591782
 20
3316.155112796018
 30
0.0
 40
4.999999999999992
100
AcDbArc
 50
33.55730975821661
 51
52.91877327450111
  0
LINE
  5
73FD2
330
9D0
100
AcDbEntity
  8
ALPHA
100
AcDbLine
 10
-11758.95908819632
 20
3318.906691959018
 30
0.0
 11
-11760.13328375682
 21
3320.940458327718
 31
0.0
  0
ARC
  5
73FD3
330
9D0
100
AcDbEntity
  8
ALPHA
100
AcDbCircle
 10
-12293.14396591782
 20
3316.155112796018
 30
0.0
 40
5.0
100
AcDbArc
 50
127.0812267249935
 51
149.9999999999897
  0
LINE
  5
73FD4
330
9D0
100
AcDbEntity
  8
ALPHA
100
AcDbLine
 10
-12296.13894332102
 20
3320.967659766119
 30
0.0
 11
-12297.47409293672
 21
3318.655112796018
 31
0.0
  0
LINE
  5
73FD5
330
9D0
100
AcDbEntity
  8
ALPHA
100
AcDbLine
 10
-12292.39396591782
 20
3046.655112796018
 30
0.0
 11
-12292.39396591782
 21
3061.655112796018
 31
0.0
  0
ARC
  5
73FD6
330
9D0
100
AcDbEntity
  8
ALPHA
100
AcDbCircle
 10
-12298.14396591782
 20
3061.655112796018
 30
0.0
 40
5.750000000000142
100
AcDbArc
 50
0.0
 51
180.0
  0
LINE
  5
73FD7
330
9D0
100
AcDbEntity
  8
ALPHA
100
AcDbLine
 10
-12303.89396591782
 20
3061.655112796018
 30
0.0
 11
-12303.89396591782
 21
3046.655112796018
 31
0.0
  0
LINE
  5
73FD8
330
9D0
100
AcDbEntity
  8
ALPHA
100
AcDbLine
 10
-12303.89396591782
 20
3046.655112796018
 30
0.0
 11
-12317.64396591782
 21
3046.655112796018
 31
0.0
  0
LINE
  5
73FD9
330
9D0
100
AcDbEntity
  8
ALPHA
100
AcDbLine
 10
-12317.64396591782
 20
3996.655112796018
 30
0.0
 11
-12317.64396591782
 21
3046.655112796018
 31
0.0
  0
LINE
  5
73FDA
330
9D0
100
AcDbEntity
  8
ALPHA
100
AcDbLine
 10
-12317.64396591782
 20
3996.655112796018
 30
0.0
 11
-11738.64396591782
 21
3996.655112796018
 31
0.0
  0
LINE
  5
73FDB
330
9D0
100
AcDbEntity
  8
ALPHA
100
AcDbLine
 10
-11738.64396591782
 20
3046.655112796018
 30
0.0
 11
-11738.64396591782
 21
3996.655112796018
 31
0.0
  0
LINE
  5
73FDC
330
9D0
100
AcDbEntity
  8
ALPHA
100
AcDbLine
 10
-11738.64396591782
 20
3046.655112796018
 30
0.0
 11
-11752.39396591782
 21
3046.655112796018
 31
0.0
  0
LINE
  5
73FDD
330
9D0
100
AcDbEntity
  8
ALPHA
100
AcDbLine
 10
-11752.39396591782
 20
3046.655112796018
 30
0.0
 11
-11752.39396591782
 21
3061.655112796018
 31
0.0
  0
ARC
  5
73FDE
330
9D0
100
AcDbEntity
  8
ALPHA
100
AcDbCircle
 10
-11758.14396591782
 20
3061.655112796018
 30
0.0
 40
5.750000000000056
100
AcDbArc
 50
0.0
 51
180.0
  0
LINE
  5
73FDF
330
9D0
100
AcDbEntity
  8
ALPHA
100
AcDbLine
 10
-11763.89396591782
 20
3061.655112796018
 30
0.0
 11
-11763.89396591782
 21
3046.655112796018
 31
0.0
  0
LINE
  5
73FE0
330
9D0
100
AcDbEntity
  8
ALPHA
100
AcDbLine
 10
-11763.89396591782
 20
3046.655112796018
 30
0.0
 11
-12292.39396591782
 21
3046.655112796018
 31
0.0
  0
CIRCLE
  5
73FE1
330
9D0
100
AcDbEntity
  8
ALPHA
100
AcDbCircle
 10
-11772.14396591782
 20
3101.655112796018
 30
0.0
 40
3.0
  0
CIRCLE
  5
73FE2
330
9D0
100
AcDbEntity
  8
ALPHA
100
AcDbCircle
 10
-12028.14396591782
 20
3106.655112796019
 30
0.0
 40
4.0
  0
ARC
  5
73FE3
330
9D0
100
AcDbEntity
  8
ALPHA
100
AcDbCircle
 10
-12298.14396591782
 20
3981.655112796018
 30
0.0
 40
5.750000000000042
100
AcDbArc
 50
0.0
 51
180.0
  0
LINE
  5
73FE4
330
9D0
100
AcDbEntity
  8
ALPHA
100
AcDbLine
 10
-12303.89396591782
 20
3981.655112796018
 30
0.0
 11
-12303.89396591782
 21
3975.187800012518
 31
0.0
  0
ARC
  5
73FE5
330
9D0
100
AcDbEntity
  8
ALPHA
100
AcDbCircle
 10
-12298.14396591782
 20
3964.655112796018
 30
0.0
 40
12.00000000000006
100
AcDbArc
 50
118.6309898368915
 51
61.36901016310845
  0
LINE
  5
73FE6
330
9D0
100
AcDbEntity
  8
ALPHA
100
AcDbLine
 10
-12292.39396591782
 20
3975.187800012518
 30
0.0
 11
-12292.39396591782
 21
3981.655112796018
 31
0.0
  0
ARC
  5
73FE7
330
9D0
100
AcDbEntity
  8
ALPHA
100
AcDbCircle
 10
-11758.14396591782
 20
3964.655112796018
 30
0.0
 40
12.00000000000001
100
AcDbArc
 50
118.6309898368915
 51
61.36901016310845
  0
LINE
  5
73FE8
330
9D0
100
AcDbEntity
  8
ALPHA
100
AcDbLine
 10
-11752.39396591782
 20
3975.187800012518
 30
0.0
 11
-11752.39396591782
 21
3981.655112796018
 31
0.0
  0
ARC
  5
73FE9
330
9D0
100
AcDbEntity
  8
ALPHA
100
AcDbCircle
 10
-11758.14396591782
 20
3981.655112796018
 30
0.0
 40
5.750000000000056
100
AcDbArc
 50
0.0
 51
180.0
  0
LINE
  5
73FEA
330
9D0
100
AcDbEntity
  8
ALPHA
100
AcDbLine
 10
-11763.89396591782
 20
3981.655112796018
 30
0.0
 11
-11763.89396591782
 21
3975.187800012518
 31
0.0
  0
CIRCLE
  5
73FEB
330
9D0
100
AcDbEntity
  8
ALPHA
100
AcDbCircle
 10
-12284.14396591782
 20
3101.655112796018
 30
0.0
 40
3.0
  0
CIRCLE
  5
73FEC
330
9D0
100
AcDbEntity
  8
ALPHA
100
AcDbCircle
 10
-12303.14396591782
 20
3861.155112796018
 30
0.0
 40
4.099999999999993
  0
CIRCLE
  5
73FED
330
9D0
100
AcDbEntity
  8
ALPHA
100
AcDbCircle
 10
-12303.14396591782
 20
3940.155112796018
 30
0.0
 40
4.099999999999993
  0
CIRCLE
  5
73FEE
330
9D0
100
AcDbEntity
  8
ALPHA
100
AcDbCircle
 10
-12268.64396591782
 20
3954.155112796018
 30
0.0
 40
4.099999999999993
  0
CIRCLE
  5
73FEF
330
9D0
100
AcDbEntity
  8
ALPHA
100
AcDbCircle
 10
-12268.64396591782
 20
3989.155112796018
 30
0.0
 40
4.099999999999993
  0
CIRCLE
  5
73FF0
330
9D0
100
AcDbEntity
  8
ALPHA
100
AcDbCircle
 10
-12163.14396591782
 20
3940.155112796018
 30
0.0
 40
4.099999999999993
  0
CIRCLE
  5
73FF1
330
9D0
100
AcDbEntity
  8
ALPHA
100
AcDbCircle
 10
-12028.14396591782
 20
3940.155112796018
 30
0.0
 40
4.100000000000051
  0
CIRCLE
  5
73FF2
330
9D0
100
AcDbEntity
  8
ALPHA
100
AcDbCircle
 10
-11893.14396591782
 20
3940.155112796018
 30
0.0
 40
4.099999999999965
  0
CIRCLE
  5
73FF3
330
9D0
100
AcDbEntity
  8
ALPHA
100
AcDbCircle
 10
-11753.14396591782
 20
3940.155112796018
 30
0.0
 40
4.099999999999965
  0
CIRCLE
  5
73FF4
330
9D0
100
AcDbEntity
  8
ALPHA
100
AcDbCircle
 10
-11787.64396591782
 20
3954.155112796018
 30
0.0
 40
4.099999999999965
  0
CIRCLE
  5
73FF5
330
9D0
100
AcDbEntity
  8
ALPHA
100
AcDbCircle
 10
-11787.64396591782
 20
3989.155112796018
 30
0.0
 40
4.099999999999965
  0
CIRCLE
  5
73FF6
330
9D0
100
AcDbEntity
  8
ALPHA
100
AcDbCircle
 10
-11753.14396591782
 20
3861.155112796018
 30
0.0
 40
4.100000000000023
  0
CIRCLE
  5
73FF7
330
9D0
100
AcDbEntity
  8
ALPHA
100
AcDbCircle
 10
-11863.14396591782
 20
3861.155112796018
 30
0.0
 40
4.100000000000023
  0
CIRCLE
  5
73FF8
330
9D0
100
AcDbEntity
  8
ALPHA
100
AcDbCircle
 10
-11973.14396591782
 20
3861.155112796018
 30
0.0
 40
4.099999999999993
  0
CIRCLE
  5
73FF9
330
9D0
100
AcDbEntity
  8
ALPHA
100
AcDbCircle
 10
-12083.14396591782
 20
3861.155112796018
 30
0.0
 40
4.100000000000008
  0
CIRCLE
  5
73FFA
330
9D0
100
AcDbEntity
  8
ALPHA
100
AcDbCircle
 10
-12193.14396591782
 20
3861.155112796018
 30
0.0
 40
4.099999999999993
  0
CIRCLE
  5
73FFB
330
9D0
100
AcDbEntity
  8
ALPHA
100
AcDbCircle
 10
-12303.14396591782
 20
3626.155112796018
 30
0.0
 40
4.099999999999993
  0
CIRCLE
  5
73FFC
330
9D0
100
AcDbEntity
  8
ALPHA
100
AcDbCircle
 10
-12193.14396591782
 20
3626.155112796018
 30
0.0
 40
4.099999999999993
  0
CIRCLE
  5
73FFD
330
9D0
100
AcDbEntity
  8
ALPHA
100
AcDbCircle
 10
-12083.14396591782
 20
3626.155112796018
 30
0.0
 40
4.100000000000008
  0
CIRCLE
  5
73FFE
330
9D0
100
AcDbEntity
  8
ALPHA
100
AcDbCircle
 10
-11973.14396591782
 20
3626.155112796018
 30
0.0
 40
4.099999999999993
  0
CIRCLE
  5
73FFF
330
9D0
100
AcDbEntity
  8
ALPHA
100
AcDbCircle
 10
-11863.14396591782
 20
3626.155112796018
 30
0.0
 40
4.100000000000023
  0
CIRCLE
  5
74000
330
9D0
100
AcDbEntity
  8
ALPHA
100
AcDbCircle
 10
-11753.14396591782
 20
3626.155112796018
 30
0.0
 40
4.100000000000023
  0
CIRCLE
  5
74001
330
9D0
100
AcDbEntity
  8
ALPHA
100
AcDbCircle
 10
-11753.14396591782
 20
3514.155112796018
 30
0.0
 40
4.099999999999965
  0
CIRCLE
  5
74002
330
9D0
100
AcDbEntity
  8
ALPHA
100
AcDbCircle
 10
-11893.14396591782
 20
3514.155112796018
 30
0.0
 40
4.100000000000023
  0
CIRCLE
  5
74003
330
9D0
100
AcDbEntity
  8
ALPHA
100
AcDbCircle
 10
-12028.14396591782
 20
3514.155112796018
 30
0.0
 40
4.100000000000051
  0
CIRCLE
  5
74004
330
9D0
100
AcDbEntity
  8
ALPHA
100
AcDbCircle
 10
-12163.14396591782
 20
3514.155112796018
 30
0.0
 40
4.099999999999993
  0
CIRCLE
  5
74005
330
9D0
100
AcDbEntity
  8
ALPHA
100
AcDbCircle
 10
-12303.14396591782
 20
3514.155112796018
 30
0.0
 40
4.099999999999993
  0
CIRCLE
  5
74006
330
9D0
100
AcDbEntity
  8
ALPHA
100
AcDbCircle
 10
-12298.14396591782
 20
3320.655112796018
 30
0.0
 40
4.099999999999993
  0
CIRCLE
  5
74007
330
9D0
100
AcDbEntity
  8
ALPHA
100
AcDbCircle
 10
-12208.14396591782
 20
3320.655112796018
 30
0.0
 40
4.099999999999993
  0
CIRCLE
  5
74008
330
9D0
100
AcDbEntity
  8
ALPHA
100
AcDbCircle
 10
-12118.14396591782
 20
3320.655112796018
 30
0.0
 40
4.100000000000023
  0
CIRCLE
  5
74009
330
9D0
100
AcDbEntity
  8
ALPHA
100
AcDbCircle
 10
-12028.14396591782
 20
3320.655112796018
 30
0.0
 40
4.100000000000023
  0
CIRCLE
  5
7400A
330
9D0
100
AcDbEntity
  8
ALPHA
100
AcDbCircle
 10
-11938.14396591782
 20
3320.655112796018
 30
0.0
 40
4.100000000000078
  0
CIRCLE
  5
7400B
330
9D0
100
AcDbEntity
  8
ALPHA
100
AcDbCircle
 10
-11848.14396591782
 20
3320.655112796018
 30
0.0
 40
4.099999999999965
  0
CIRCLE
  5
7400C
330
9D0
100
AcDbEntity
  8
ALPHA
100
AcDbCircle
 10
-11758.14396591782
 20
3320.655112796018
 30
0.0
 40
4.099999999999965
  0
CIRCLE
  5
7400D
330
9D0
100
AcDbEntity
  8
ALPHA
100
AcDbCircle
 10
-11787.64396591782
 20
3082.155112796018
 30
0.0
 40
4.099999999999965
  0
CIRCLE
  5
7400E
330
9D0
100
AcDbEntity
  8
ALPHA
100
AcDbCircle
 10
-11787.64396591782
 20
3054.155112796018
 30
0.0
 40
4.099999999999965
  0
CIRCLE
  5
7400F
330
9D0
100
AcDbEntity
  8
ALPHA
100
AcDbCircle
 10
-12010.64396591782
 20
3054.155112796018
 30
0.0
 40
4.099999999999993
  0
CIRCLE
  5
74010
330
9D0
100
AcDbEntity
  8
ALPHA
100
AcDbCircle
 10
-12045.64396591782
 20
3054.155112796018
 30
0.0
 40
4.099999999999993
  0
CIRCLE
  5
74011
330
9D0
100
AcDbEntity
  8
ALPHA
100
AcDbCircle
 10
-12028.14396591782
 20
3082.155112796018
 30
0.0
 40
4.099999999999993
  0
CIRCLE
  5
74012
330
9D0
100
AcDbEntity
  8
ALPHA
100
AcDbCircle
 10
-12268.64396591782
 20
3054.155112796018
 30
0.0
 40
4.099999999999993
  0
CIRCLE
  5
74013
330
9D0
100
AcDbEntity
  8
ALPHA
100
AcDbCircle
 10
-12268.64396591782
 20
3082.155112796018
 30
0.0
 40
4.099999999999993
  0
LINE
  5
74014
330
9D0
100
AcDbEntity
  8
ALPHA
100
AcDbLine
 10
-12317.64396591782
 20
3046.655112796018
 30
0.0
 11
-12320.64396591782
 21
3046.655112796018
 31
0.0
  0
LINE
  5
74015
330
9D0
100
AcDbEntity
  8
ALPHA
100
AcDbLine
 10
-12320.64396591782
 20
3996.655112796018
 30
0.0
 11
-12320.64396591782
 21
3046.655112796018
 31
0.0
  0
LINE
  5
74016
330
9D0
100
AcDbEntity
  8
ALPHA
100
AcDbLine
 10
-12320.64396591782
 20
3996.655112796018
 30
0.0
 11
-12317.64396591782
 21
3996.655112796018
 31
0.0
  0
CIRCLE
  5
74017
330
9D0
100
AcDbEntity
  8
ALPHA
100
AcDbCircle
 10
-11848.14396591782
 20
3320.655112796018
 30
0.0
 40
2.25
  0
CIRCLE
  5
74018
330
9D0
100
AcDbEntity
  8
ALPHA
100
AcDbCircle
 10
-11758.14396591782
 20
3320.655112796018
 30
0.0
 40
2.249999999999943
  0
CIRCLE
  5
74019
330
9D0
100
AcDbEntity
  8
ALPHA
100
AcDbCircle
 10
-12010.64396591782
 20
3054.155112796018
 30
0.0
 40
2.24999999999997
  0
CIRCLE
  5
7401A
330
9D0
100
AcDbEntity
  8
ALPHA
100
AcDbCircle
 10
-12303.14396591782
 20
3514.155112796018
 30
0.0
 40
2.24999999999997
  0
CIRCLE
  5
7401B
330
9D0
100
AcDbEntity
  8
ALPHA
100
AcDbCircle
 10
-11787.64396591782
 20
3082.155112796018
 30
0.0
 40
2.25
  0
CIRCLE
  5
7401C
330
9D0
100
AcDbEntity
  8
ALPHA
100
AcDbCircle
 10
-11753.14396591782
 20
3514.155112796018
 30
0.0
 40
2.249999999999943
  0
CIRCLE
  5
7401D
330
9D0
100
AcDbEntity
  8
ALPHA
100
AcDbCircle
 10
-11753.14396591782
 20
3626.155112796018
 30
0.0
 40
2.25
  0
CIRCLE
  5
7401E
330
9D0
100
AcDbEntity
  8
ALPHA
100
AcDbCircle
 10
-11863.14396591782
 20
3626.155112796018
 30
0.0
 40
2.25
  0
CIRCLE
  5
7401F
330
9D0
100
AcDbEntity
  8
ALPHA
100
AcDbCircle
 10
-12028.14396591782
 20
3320.655112796018
 30
0.0
 40
2.250000000000028
  0
CIRCLE
  5
74020
330
9D0
100
AcDbEntity
  8
ALPHA
100
AcDbCircle
 10
-12083.14396591782
 20
3626.155112796018
 30
0.0
 40
2.249999999999984
  0
CIRCLE
  5
74021
330
9D0
100
AcDbEntity
  8
ALPHA
100
AcDbCircle
 10
-12193.14396591782
 20
3626.155112796018
 30
0.0
 40
2.25
  0
CIRCLE
  5
74022
330
9D0
100
AcDbEntity
  8
ALPHA
100
AcDbCircle
 10
-12303.14396591782
 20
3626.155112796018
 30
0.0
 40
2.24999999999997
  0
CIRCLE
  5
74023
330
9D0
100
AcDbEntity
  8
ALPHA
100
AcDbCircle
 10
-12193.14396591782
 20
3861.155112796018
 30
0.0
 40
2.250000000000003
  0
CIRCLE
  5
74024
330
9D0
100
AcDbEntity
  8
ALPHA
100
AcDbCircle
 10
-12083.14396591782
 20
3861.155112796018
 30
0.0
 40
2.249999999999984
  0
CIRCLE
  5
74025
330
9D0
100
AcDbEntity
  8
ALPHA
100
AcDbCircle
 10
-12028.14396591782
 20
3514.155112796018
 30
0.0
 40
2.250000000000028
  0
CIRCLE
  5
74026
330
9D0
100
AcDbEntity
  8
ALPHA
100
AcDbCircle
 10
-11863.14396591782
 20
3861.155112796018
 30
0.0
 40
2.250000000000055
  0
CIRCLE
  5
74027
330
9D0
100
AcDbEntity
  8
ALPHA
100
AcDbCircle
 10
-11753.14396591782
 20
3861.155112796018
 30
0.0
 40
2.25
  0
CIRCLE
  5
74028
330
9D0
100
AcDbEntity
  8
ALPHA
100
AcDbCircle
 10
-11787.64396591782
 20
3989.155112796018
 30
0.0
 40
2.250000000000055
  0
CIRCLE
  5
74029
330
9D0
100
AcDbEntity
  8
ALPHA
100
AcDbCircle
 10
-11938.14396591782
 20
3320.655112796018
 30
0.0
 40
2.250000000000055
  0
CIRCLE
  5
7402A
330
9D0
100
AcDbEntity
  8
ALPHA
100
AcDbCircle
 10
-11893.14396591782
 20
3940.155112796018
 30
0.0
 40
2.249999999999943
  0
CIRCLE
  5
7402B
330
9D0
100
AcDbEntity
  8
ALPHA
100
AcDbCircle
 10
-12028.14396591782
 20
3940.155112796018
 30
0.0
 40
2.250000000000028
  0
CIRCLE
  5
7402C
330
9D0
100
AcDbEntity
  8
ALPHA
100
AcDbCircle
 10
-12163.14396591782
 20
3514.155112796018
 30
0.0
 40
2.25
  0
CIRCLE
  5
7402D
330
9D0
100
AcDbEntity
  8
ALPHA
100
AcDbCircle
 10
-12303.14396591782
 20
3940.155112796018
 30
0.0
 40
2.249999999999984
  0
CIRCLE
  5
7402E
330
9D0
100
AcDbEntity
  8
ALPHA
100
AcDbCircle
 10
-11893.14396591782
 20
3514.155112796018
 30
0.0
 40
2.250000000000055
  0
CIRCLE
  5
7402F
330
9D0
100
AcDbEntity
  8
ALPHA
100
AcDbCircle
 10
-12303.14396591782
 20
3861.155112796018
 30
0.0
 40
2.24999999999997
  0
CIRCLE
  5
74030
330
9D0
100
AcDbEntity
  8
ALPHA
100
AcDbCircle
 10
-12268.64396591782
 20
3082.155112796018
 30
0.0
 40
2.250000000000005
  0
CIRCLE
  5
74031
330
9D0
100
AcDbEntity
  8
ALPHA
100
AcDbCircle
 10
-12045.64396591782
 20
3054.155112796018
 30
0.0
 40
2.24999999999997
  0
CIRCLE
  5
74032
330
9D0
100
AcDbEntity
  8
ALPHA
100
AcDbCircle
 10
-11787.64396591782
 20
3054.155112796018
 30
0.0
 40
2.25
  0
LINE
  5
74033
330
9D0
100
AcDbEntity
  8
ALPHA
100
AcDbLine
 10
-11735.64396591782
 20
3046.655112796018
 30
0.0
 11
-11735.64396591782
 21
3996.655112796018
 31
0.0
  0
LINE
  5
74034
330
9D0
100
AcDbEntity
  8
ALPHA
100
AcDbLine
 10
-11735.64396591782
 20
3046.655112796018
 30
0.0
 11
-11738.64396591782
 21
3046.655112796018
 31
0.0
  0
LINE
  5
74035
330
9D0
100
AcDbEntity
  8
ALPHA
100
AcDbLine
 10
-11738.64396591782
 20
3996.655112796018
 30
0.0
 11
-11735.64396591782
 21
3996.655112796018
 31
0.0
  0
CIRCLE
  5
74036
330
9D0
100
AcDbEntity
  8
ALPHA
100
AcDbCircle
 10
-12118.14396591782
 20
3320.655112796018
 30
0.0
 40
2.25
  0
CIRCLE
  5
74037
330
9D0
100
AcDbEntity
  8
ALPHA
100
AcDbCircle
 10
-12208.14396591782
 20
3320.655112796018
 30
0.0
 40
2.250000000000002
  0
CIRCLE
  5
74038
330
9D0
100
AcDbEntity
  8
ALPHA
100
AcDbCircle
 10
-12298.14396591782
 20
3320.655112796018
 30
0.0
 40
2.249999999999984
  0
CIRCLE
  5
74039
330
9D0
100
AcDbEntity
  8
ALPHA
100
AcDbCircle
 10
-11973.14396591782
 20
3861.155112796018
 30
0.0
 40
2.24999999999997
  0
CIRCLE
  5
7403A
330
9D0
100
AcDbEntity
  8
ALPHA
100
AcDbCircle
 10
-12268.64396591782
 20
3989.155112796018
 30
0.0
 40
2.250000000000005
  0
CIRCLE
  5
7403B
330
9D0
100
AcDbEntity
  8
ALPHA
100
AcDbCircle
 10
-12163.14396591782
 20
3940.155112796018
 30
0.0
 40
2.25
  0
CIRCLE
  5
7403C
330
9D0
100
AcDbEntity
  8
ALPHA
100
AcDbCircle
 10
-11973.14396591782
 20
3626.155112796018
 30
0.0
 40
2.24999999999997
  0
CIRCLE
  5
7403D
330
9D0
100
AcDbEntity
  8
ALPHA
100
AcDbCircle
 10
-12268.64396591782
 20
3054.155112796018
 30
0.0
 40
2.250000000000005
  0
CIRCLE
  5
7403E
330
9D0
100
AcDbEntity
  8
ALPHA
100
AcDbCircle
 10
-12028.14396591782
 20
3082.155112796018
 30
0.0
 40
2.24999999999997
  0
CIRCLE
  5
7403F
330
9D0
100
AcDbEntity
  8
ALPHA
100
AcDbCircle
 10
-11787.64396591782
 20
3954.155112796018
 30
0.0
 40
2.25
  0
CIRCLE
  5
74040
330
9D0
100
AcDbEntity
  8
ALPHA
100
AcDbCircle
 10
-11753.14396591782
 20
3940.155112796018
 30
0.0
 40
2.249999999999943
  0
CIRCLE
  5
74041
330
9D0
100
AcDbEntity
  8
ALPHA
100
AcDbCircle
 10
-12268.64396591782
 20
3954.155112796018
 30
0.0
 40
2.25
  0
LINE
  5
74042
330
9D0
100
AcDbEntity
  8
ALPHA
100
AcDbLine
 10
-12191.39396591782
 20
3625.087404970818
 30
0.0
 11
-12191.39396591782
 21
3627.222820621219
 31
0.0
  0
LINE
  5
74043
330
9D0
100
AcDbEntity
  8
ALPHA
100
AcDbLine
 10
-12191.39396591782
 20
3860.087404970818
 30
0.0
 11
-12191.39396591782
 21
3862.222820621218
 31
0.0
  0
LINE
  5
74044
330
9D0
100
AcDbEntity
  8
ALPHA
100
AcDbLine
 10
-12303.39396591782
 20
3624.120413801119
 30
0.0
 11
-12303.39396591782
 21
3628.189811791018
 31
0.0
  0
LINE
  5
74045
330
9D0
100
AcDbEntity
  8
ALPHA
100
AcDbLine
 10
-12303.39396591782
 20
3859.120413801118
 30
0.0
 11
-12303.39396591782
 21
3863.189811791018
 31
0.0
  0
LINE
  5
74046
330
9D0
100
AcDbEntity
  8
ALPHA
100
AcDbLine
 10
-11864.89396591782
 20
3625.087404970818
 30
0.0
 11
-11864.89396591782
 21
3627.222820621219
 31
0.0
  0
LINE
  5
74047
330
9D0
100
AcDbEntity
  8
ALPHA
100
AcDbLine
 10
-11864.89396591782
 20
3860.087404970818
 30
0.0
 11
-11864.89396591782
 21
3862.222820621218
 31
0.0
  0
LINE
  5
74048
330
9D0
100
AcDbEntity
  8
ALPHA
100
AcDbLine
 10
-11752.89396591782
 20
3624.120413801119
 30
0.0
 11
-11752.89396591782
 21
3628.189811791018
 31
0.0
  0
LINE
  5
74049
330
9D0
100
AcDbEntity
  8
ALPHA
100
AcDbLine
 10
-11752.89396591782
 20
3859.120413801118
 30
0.0
 11
-11752.89396591782
 21
3863.189811791018
 31
0.0
  0
LINE
  5
7404A
330
9D0
100
AcDbEntity
  8
ALPHA
100
AcDbLine
 10
-11974.89396591782
 20
3625.087404970818
 30
0.0
 11
-11974.89396591782
 21
3627.222820621219
 31
0.0
  0
LINE
  5
7404B
330
9D0
100
AcDbEntity
  8
ALPHA
100
AcDbLine
 10
-11974.89396591782
 20
3860.087404970818
 30
0.0
 11
-11974.89396591782
 21
3862.222820621218
 31
0.0
  0
LINE
  5
7404C
330
9D0
100
AcDbEntity
  8
ALPHA
100
AcDbLine
 10
-12081.39396591782
 20
3625.087404970818
 30
0.0
 11
-12081.39396591782
 21
3627.222820621219
 31
0.0
  0
LINE
  5
7404D
330
9D0
100
AcDbEntity
  8
ALPHA
100
AcDbLine
 10
-12081.39396591782
 20
3860.087404970818
 30
0.0
 11
-12081.39396591782
 21
3862.222820621218
 31
0.0
  0
LINE
  5
7404E
330
9D0
100
AcDbEntity
  8
ALPHA
100
AcDbLine
 10
-12289.14396591812
 20
4237.255112796018
 30
0.0
 11
-12277.14396591812
 21
4237.255112796018
 31
0.0
  0
LINE
  5
7404F
330
9D0
100
AcDbEntity
  8
ALPHA
100
AcDbLine
 10
-11779.14396591812
 20
4237.255112796018
 30
0.0
 11
-11767.14396591812
 21
4237.255112796018
 31
0.0
  0
LINE
  5
74050
330
9D0
100
AcDbEntity
  8
ALPHA
100
AcDbLine
 10
-11727.59396591782
 20
4021.805112796018
 30
0.0
 11
-11727.59396591782
 21
4010.505112796018
 31
0.0
  0
LINE
  5
74051
330
9D0
100
AcDbEntity
  8
ALPHA
100
AcDbLine
 10
-11727.59396591782
 20
4221.805112796018
 30
0.0
 11
-11727.59396591782
 21
4210.505112796018
 31
0.0
  0
LINE
  5
74052
330
9D0
100
AcDbEntity
  8
ALPHA
100
AcDbLine
 10
-11727.64396591782
 20
4229.155112796017
 30
0.0
 11
-11729.64396591782
 21
4229.155112796017
 31
0.0
  0
LINE
  5
74053
330
9D0
100
AcDbEntity
  8
ALPHA
100
AcDbLine
 10
-11727.64396591782
 20
4229.155112796017
 30
0.0
 11
-11727.64396591782
 21
3999.155112796018
 31
0.0
  0
LINE
  5
74054
330
9D0
100
AcDbEntity
  8
ALPHA
100
AcDbLine
 10
-11727.64396591782
 20
3999.155112796018
 30
0.0
 11
-11729.64396591782
 21
3999.155112796018
 31
0.0
  0
LINE
  5
74055
330
9D0
100
AcDbEntity
  8
ALPHA
100
AcDbLine
 10
-11729.64396591782
 20
4229.155112796017
 30
0.0
 11
-11729.64396591782
 21
3999.155112796018
 31
0.0
  0
LINE
  5
74056
330
9D0
100
AcDbEntity
  8
ALPHA
100
AcDbLine
 10
-11767.14396591782
 20
4235.655112795718
 30
0.0
 11
-11767.14396591782
 21
4233.655112795719
 31
0.0
  0
LINE
  5
74057
330
9D0
100
AcDbEntity
  8
ALPHA
100
AcDbLine
 10
-12289.14396591782
 20
4235.655112795718
 30
0.0
 11
-11767.14396591782
 21
4235.655112795718
 31
0.0
  0
LINE
  5
74058
330
9D0
100
AcDbEntity
  8
ALPHA
100
AcDbLine
 10
-12289.14396591782
 20
4235.655112795718
 30
0.0
 11
-12289.14396591782
 21
4233.655112795719
 31
0.0
  0
LINE
  5
74059
330
9D0
100
AcDbEntity
  8
ALPHA
100
AcDbLine
 10
-11730.64396591782
 20
4229.155112796017
 30
0.0
 11
-11729.64396591782
 21
4229.155112796017
 31
0.0
  0
LINE
  5
7405A
330
9D0
100
AcDbEntity
  8
ALPHA
100
AcDbLine
 10
-11730.64396591782
 20
3999.155112796018
 30
0.0
 11
-11729.64396591782
 21
3999.155112796018
 31
0.0
  0
LINE
  5
7405B
330
9D0
100
AcDbEntity
  8
ALPHA
100
AcDbLine
 10
-11729.64396591782
 20
3999.155112796018
 30
0.0
 11
-11729.64396591782
 21
4229.155112796017
 31
0.0
  0
LINE
  5
7405C
330
9D0
100
AcDbEntity
  8
ALPHA
100
AcDbLine
 10
-12323.14396591582
 20
4230.655112796017
 30
0.0
 11
-12323.14396591582
 21
4231.521138200918
 31
0.0
  0
LINE
  5
7405D
330
9D0
100
AcDbEntity
  8
ALPHA
100
AcDbLine
 10
-12323.14396591582
 20
4233.613152687918
 30
0.0
 11
-12323.14396591582
 21
4236.655112795817
 31
0.0
  0
LINE
  5
7405E
330
9D0
100
AcDbEntity
  8
ALPHA
100
AcDbLine
 10
-12323.14396591582
 20
4236.655112795817
 30
0.0
 11
-12289.14396591812
 21
4236.655112795817
 31
0.0
  0
LINE
  5
7405F
330
9D0
100
AcDbEntity
  8
ALPHA
100
AcDbLine
 10
-12277.14396591812
 20
4236.655112795817
 30
0.0
 11
-11779.14396591812
 21
4236.655112795817
 31
0.0
  0
LINE
  5
74060
330
9D0
100
AcDbEntity
  8
ALPHA
100
AcDbLine
 10
-11767.14396591812
 20
4236.655112795817
 30
0.0
 11
-11733.14396591582
 21
4236.655112795817
 31
0.0
  0
LINE
  5
74061
330
9D0
100
AcDbEntity
  8
ALPHA
100
AcDbLine
 10
-11733.14396591582
 20
4236.655112795817
 30
0.0
 11
-11733.14396591582
 21
4233.613152687317
 31
0.0
  0
LINE
  5
74062
330
9D0
100
AcDbEntity
  8
ALPHA
100
AcDbLine
 10
-11733.14396591582
 20
4231.521138198718
 30
0.0
 11
-11733.14396591582
 21
4230.655112796017
 31
0.0
  0
LINE
  5
74063
330
9D0
100
AcDbEntity
  8
ALPHA
100
AcDbLine
 10
-12322.64396591542
 20
3972.655112796018
 30
0.0
 11
-12322.64396591542
 21
3971.490049286818
 31
0.0
  0
LINE
  5
74064
330
9D0
100
AcDbEntity
  8
ALPHA
100
AcDbLine
 10
-11733.64396591542
 20
3971.490049286818
 30
0.0
 11
-11733.64396591542
 21
3972.655112796018
 31
0.0
  0
LINE
  5
74065
330
9D0
100
AcDbEntity
  8
ALPHA
100
AcDbLine
 10
-12322.64396591542
 20
3971.155112796218
 30
0.0
 11
-12322.64396591542
 21
3971.490049286818
 31
0.0
  0
LINE
  5
74066
330
9D0
100
AcDbEntity
  8
ALPHA
100
AcDbLine
 10
-11733.64396591542
 20
3971.490049286818
 30
0.0
 11
-11733.64396591542
 21
3971.155112796218
 31
0.0
  0
ELLIPSE
  5
74067
330
9D0
100
AcDbEntity
  8
ALPHA
100
AcDbEllipse
 10
-11734.14396591452
 20
4234.155112795117
 30
0.0
 11
3.0
 21
0.0
 31
0.0
210
0.0
220
0.0
230
1.0
 40
0.1178511302
 41
5.052225889367933
 42
6.283185307179584
  0
LINE
  5
74068
330
9D0
100
AcDbEntity
  8
ALPHA
100
AcDbLine
 10
-11731.14396591452
 20
4234.155112795117
 30
0.0
 11
-11731.14396591452
 21
4232.313425186317
 31
0.0
  0
LINE
  5
74069
330
9D0
100
AcDbEntity
  8
ALPHA
100
AcDbLine
 10
-11731.14396591452
 20
3974.996800405818
 30
0.0
 11
-11731.14396591462
 21
3973.655112795118
 31
0.0
  0
LINE
  5
7406A
330
9D0
100
AcDbEntity
  8
ALPHA
100
AcDbLine
 10
-11732.64396591782
 20
3973.655112795118
 30
0.0
 11
-11731.14396591462
 21
3973.655112795118
 31
0.0
  0
LINE
  5
7406B
330
9D0
100
AcDbEntity
  8
ALPHA
100
AcDbLine
 10
-11734.14396591452
 20
4237.155112795117
 30
0.0
 11
-11734.14396591452
 21
4236.655112795817
 31
0.0
  0
ELLIPSE
  5
7406C
330
9D0
100
AcDbEntity
  8
ALPHA
100
AcDbEllipse
 10
-11734.14396591452
 20
4234.155112795117
 30
0.0
 11
0.0
 21
2.999999999999886
 31
0.0
210
0.0
220
0.0
230
1.0
 40
0.1178511302
 41
0.0
 42
6.283185307179585
  0
LINE
  5
7406D
330
9D0
100
AcDbEntity
  8
ALPHA
100
AcDbLine
 10
-12322.14396591452
 20
4237.155112795117
 30
0.0
 11
-12322.14396591452
 21
4236.655112795817
 31
0.0
  0
ELLIPSE
  5
7406E
330
9D0
100
AcDbEntity
  8
ALPHA
100
AcDbEllipse
 10
-12322.14396591452
 20
4234.155112795117
 30
0.0
 11
0.0
 21
2.999999999999886
 31
0.0
210
0.0
220
0.0
230
1.0
 40
0.1178511302
 41
5.697499764154912
 42
6.283185307179584
  0
LINE
  5
7406F
330
9D0
100
AcDbEntity
  8
ALPHA
100
AcDbLine
 10
-12325.14396591452
 20
3973.655112795118
 30
0.0
 11
-12325.14396591452
 21
3974.996800395918
 31
0.0
  0
LINE
  5
74070
330
9D0
100
AcDbEntity
  8
ALPHA
100
AcDbLine
 10
-12325.14396591452
 20
4232.313425196118
 30
0.0
 11
-12325.14396591452
 21
4234.155112795117
 31
0.0
  0
ELLIPSE
  5
74071
330
9D0
100
AcDbEntity
  8
ALPHA
100
AcDbEllipse
 10
-12322.14396591452
 20
4234.155112795117
 30
0.0
 11
3.0
 21
0.0
 31
0.0
210
0.0
220
0.0
230
1.0
 40
0.1178511302
 41
3.141592653589792
 42
4.372552070460022
  0
LINE
  5
74072
330
9D0
100
AcDbEntity
  8
ALPHA
100
AcDbLine
 10
-12325.14396591452
 20
3973.655112795118
 30
0.0
 11
-12323.64396591782
 21
3973.655112795118
 31
0.0
  0
LINE
  5
74073
330
9D0
100
AcDbEntity
  8
ALPHA
100
AcDbLine
 10
-12325.14396591452
 20
4234.155112795117
 30
0.0
 11
-12323.14396591452
 21
4234.155112795117
 31
0.0
  0
LINE
  5
74074
330
9D0
100
AcDbEntity
  8
ALPHA
100
AcDbLine
 10
-12322.14396591452
 20
4237.155112795117
 30
0.0
 11
-12289.14396591812
 21
4237.155112795117
 31
0.0
  0
LINE
  5
74075
330
9D0
100
AcDbEntity
  8
ALPHA
100
AcDbLine
 10
-12277.14396591812
 20
4237.155112795117
 30
0.0
 11
-11779.14396591812
 21
4237.155112795117
 31
0.0
  0
LINE
  5
74076
330
9D0
100
AcDbEntity
  8
ALPHA
100
AcDbLine
 10
-11767.14396591812
 20
4237.155112795117
 30
0.0
 11
-11734.14396591452
 21
4237.155112795117
 31
0.0
  0
LINE
  5
74077
330
9D0
100
AcDbEntity
  8
ALPHA
100
AcDbLine
 10
-11731.14396591452
 20
4234.155112795117
 30
0.0
 11
-11733.14396591452
 21
4234.155112795117
 31
0.0
  0
LINE
  5
74078
330
9D0
100
AcDbEntity
  8
ALPHA
100
AcDbLine
 10
-11731.14396591462
 20
3967.655112795118
 30
0.0
 11
-11731.14396591462
 21
3973.655112795118
 31
0.0
  0
LINE
  5
74079
330
9D0
100
AcDbEntity
  8
ALPHA
100
AcDbLine
 10
-11731.14396591462
 20
3967.655112795118
 30
0.0
 11
-11733.14396591452
 21
3967.655112795118
 31
0.0
  0
LINE
  5
7407A
330
9D0
100
AcDbEntity
  8
ALPHA
100
AcDbLine
 10
-11733.14396591452
 20
3967.655112795118
 30
0.0
 11
-11733.14396591452
 21
3972.655112796018
 31
0.0
  0
LINE
  5
7407B
330
9D0
100
AcDbEntity
  8
ALPHA
100
AcDbLine
 10
-12323.14396591452
 20
3967.655112795118
 30
0.0
 11
-12323.14396591452
 21
3972.655112796018
 31
0.0
  0
LINE
  5
7407C
330
9D0
100
AcDbEntity
  8
ALPHA
100
AcDbLine
 10
-12323.14396591452
 20
3967.655112795118
 30
0.0
 11
-12325.14396591452
 21
3967.655112795118
 31
0.0
  0
LINE
  5
7407D
330
9D0
100
AcDbEntity
  8
ALPHA
100
AcDbLine
 10
-12325.14396591452
 20
3967.655112795118
 30
0.0
 11
-12325.14396591452
 21
3973.655112795118
 31
0.0
  0
ARC
  5
7407E
330
9D0
100
AcDbEntity
  8
ALPHA
100
AcDbCircle
 10
-12322.14396591452
 20
4234.155112795117
 30
0.0
 40
3.000000000000113
100
AcDbArc
 50
90.0
 51
180.0
  0
ARC
  5
7407F
330
9D0
100
AcDbEntity
  8
ALPHA
100
AcDbCircle
 10
-11734.14396591452
 20
4234.155112795117
 30
0.0
 40
3.0
100
AcDbArc
 50
0.0
 51
90.0
  0
LINE
  5
74080
330
9D0
100
AcDbEntity
  8
ALPHA
100
AcDbLine
 10
-11732.64396591782
 20
3997.655112796018
 30
0.0
 11
-12323.64396591782
 21
3997.655112796018
 31
0.0
  0
LINE
  5
74081
330
9D0
100
AcDbEntity
  8
ALPHA
100
AcDbLine
 10
-12323.64396591782
 20
3997.655112796018
 30
0.0
 11
-12323.64396591782
 21
3998.655112796018
 31
0.0
  0
LINE
  5
74082
330
9D0
100
AcDbEntity
  8
ALPHA
100
AcDbLine
 10
-11732.64396591782
 20
3997.655112796018
 30
0.0
 11
-11732.64396591782
 21
3998.655112796018
 31
0.0
  0
LINE
  5
74083
330
9D0
100
AcDbEntity
  8
ALPHA
100
AcDbLine
 10
-11732.64396591782
 20
3998.655112796018
 30
0.0
 11
-12323.64396591782
 21
3998.655112796018
 31
0.0
  0
LINE
  5
74084
330
9D0
100
AcDbEntity
  8
ALPHA
100
AcDbLine
 10
-12320.64396591782
 20
3972.655112796018
 30
0.0
 11
-12323.64396591782
 21
3972.655112796018
 31
0.0
  0
LINE
  5
74085
330
9D0
100
AcDbEntity
  8
ALPHA
100
AcDbLine
 10
-12308.64396591782
 20
3997.655112796018
 30
0.0
 11
-12308.64396591782
 21
3996.655112796018
 31
0.0
  0
LINE
  5
74086
330
9D0
100
AcDbEntity
  8
ALPHA
100
AcDbLine
 10
-12323.64396591782
 20
3972.655112796018
 30
0.0
 11
-12323.64396591782
 21
3976.655112796018
 31
0.0
  0
LINE
  5
74087
330
9D0
100
AcDbEntity
  8
ALPHA
100
AcDbLine
 10
-11732.64396591782
 20
3972.655112796018
 30
0.0
 11
-11735.64396591782
 21
3972.655112796018
 31
0.0
  0
LINE
  5
74088
330
9D0
100
AcDbEntity
  8
ALPHA
100
AcDbLine
 10
-11747.64396591782
 20
3996.655112796018
 30
0.0
 11
-11747.64396591782
 21
3997.655112796018
 31
0.0
  0
LINE
  5
74089
330
9D0
100
AcDbEntity
  8
ALPHA
100
AcDbLine
 10
-11732.64396591782
 20
3972.655112796018
 30
0.0
 11
-11732.64396591782
 21
3976.655112796018
 31
0.0
  0
LINE
  5
7408A
330
9D0
100
AcDbEntity
  8
ALPHA
100
AcDbLine
 10
-11749.19969400782
 20
3972.655112796018
 30
0.0
 11
-11767.08823782782
 21
3972.655112796018
 31
0.0
  0
LINE
  5
7408B
330
9D0
100
AcDbEntity
  8
ALPHA
100
AcDbLine
 10
-12289.19969400782
 20
3972.655112796018
 30
0.0
 11
-12307.08823782782
 21
3972.655112796018
 31
0.0
  0
ARC
  5
7408C
330
9D0
100
AcDbEntity
  8
ALPHA
100
AcDbCircle
 10
-11748.14396591812
 20
3993.655112795218
 30
0.0
 40
5.000000000000079
100
AcDbArc
 50
126.8698976311646
 51
143.1301023431086
  0
LINE
  5
7408D
330
9D0
100
AcDbEntity
  8
ALPHA
100
AcDbLine
 10
-11751.21576268652
 20
3997.655112796018
 30
0.0
 11
-11752.94781349412
 21
3996.655112796018
 31
0.0
  0
ARC
  5
7408E
330
9D0
100
AcDbEntity
  8
ALPHA
100
AcDbCircle
 10
-12308.14396591812
 20
3993.655112796018
 30
0.0
 40
5.000000000000031
100
AcDbArc
 50
36.86989764571896
 51
53.13010235399964
  0
LINE
  5
7408F
330
9D0
100
AcDbEntity
  8
ALPHA
100
AcDbLine
 10
-12303.34011834082
 20
3996.655112796018
 30
0.0
 11
-12305.07216914842
 21
3997.655112796018
 31
0.0
  0
LINE
  5
74090
330
9D0
100
AcDbEntity
  8
ALPHA
100
AcDbLine
 10
-11750.20671198352
 20
3973.655112795018
 30
0.0
 11
-11766.08121985212
 21
3973.655112795018
 31
0.0
  0
LINE
  5
74091
330
9D0
100
AcDbEntity
  8
ALPHA
100
AcDbLine
 10
-12290.20671198352
 20
3973.655112795018
 30
0.0
 11
-12306.08121985212
 21
3973.655112795018
 31
0.0
  0
LINE
  5
74092
330
9D0
100
AcDbEntity
  8
ALPHA
100
AcDbLine
 10
-11752.39396591782
 20
3975.655112795018
 30
0.0
 11
-11763.89396591782
 21
3975.655112795018
 31
0.0
  0
LINE
  5
74093
330
9D0
100
AcDbEntity
  8
ALPHA
100
AcDbLine
 10
-12292.39396591782
 20
3975.655112795018
 30
0.0
 11
-12303.89396591782
 21
3975.655112795018
 31
0.0
  0
ARC
  5
74094
330
9D0
100
AcDbEntity
  8
ALPHA
100
AcDbCircle
 10
-12320.64396591782
 20
4001.655112796018
 30
0.0
 40
3.000000000000013
100
AcDbArc
 50
180.0
 51
228.1896851042406
  0
ARC
  5
74095
330
9D0
100
AcDbEntity
  8
ALPHA
100
AcDbCircle
 10
-12321.61837820172
 20
4000.676272957117
 30
0.0
 40
2.049012338122075
100
AcDbArc
 50
188.6719397716945
 51
239.9650723562237
  0
ARC
  5
74096
330
9D0
100
AcDbEntity
  8
ALPHA
100
AcDbCircle
 10
-11735.64396591782
 20
4001.655112796018
 30
0.0
 40
3.000000000000001
100
AcDbArc
 50
311.8103148957594
 51
0.0
  0
ARC
  5
74097
330
9D0
100
AcDbEntity
  8
ALPHA
100
AcDbCircle
 10
-11734.56316001832
 20
4000.604316835917
 30
0.0
 40
1.934278934934198
100
AcDbArc
 50
298.3732060443077
 51
352.8397035900013
  0
LINE
  5
74098
330
9D0
100
AcDbEntity
  8
ALPHA
100
AcDbLine
 10
-12322.64396591782
 20
4001.655112796018
 30
0.0
 11
-12325.64396591782
 21
4001.655112796018
 31
0.0
  0
LINE
  5
74099
330
9D0
100
AcDbEntity
  8
ALPHA
100
AcDbLine
 10
-12325.64396591782
 20
4230.655112796017
 30
0.0
 11
-12325.64396591782
 21
4001.655112796018
 31
0.0
  0
LINE
  5
7409A
330
9D0
100
AcDbEntity
  8
ALPHA
100
AcDbLine
 10
-12325.64396591782
 20
4230.655112796017
 30
0.0
 11
-12322.64396591782
 21
4230.655112796017
 31
0.0
  0
LINE
  5
7409B
330
9D0
100
AcDbEntity
  8
ALPHA
100
AcDbLine
 10
-12322.64396591782
 20
4230.655112796017
 30
0.0
 11
-12322.64396591782
 21
4001.655112796018
 31
0.0
  0
LINE
  5
7409C
330
9D0
100
AcDbEntity
  8
ALPHA
100
AcDbLine
 10
-12322.64396591782
 20
4230.655112796017
 30
0.0
 11
-12322.46718922252
 21
4233.655112796017
 31
0.0
  0
LINE
  5
7409D
330
9D0
100
AcDbEntity
  8
ALPHA
100
AcDbLine
 10
-11733.64396591782
 20
4001.655112796018
 30
0.0
 11
-12322.64396591782
 21
4001.655112796018
 31
0.0
  0
LINE
  5
7409E
330
9D0
100
AcDbEntity
  8
ALPHA
100
AcDbLine
 10
-11733.64396591782
 20
4230.655112796017
 30
0.0
 11
-12322.64396591782
 21
4230.655112796017
 31
0.0
  0
LINE
  5
7409F
330
9D0
100
AcDbEntity
  8
ALPHA
100
AcDbLine
 10
-11733.64396591782
 20
4001.655112796018
 30
0.0
 11
-11733.64396591782
 21
4230.655112796017
 31
0.0
  0
ARC
  5
740A0
330
9D0
100
AcDbEntity
  8
ALPHA
100
AcDbCircle
 10
-12298.14396591782
 20
4189.655112796017
 30
0.0
 40
11.9999999999999
100
AcDbArc
 50
119.9999999999973
 51
60.00000000000272
  0
LINE
  5
740A1
330
9D0
100
AcDbEntity
  8
ALPHA
100
AcDbLine
 10
-12292.14396591782
 20
4200.047417641518
 30
0.0
 11
-12292.14396591782
 21
4206.655112796017
 31
0.0
  0
ARC
  5
740A2
330
9D0
100
AcDbEntity
  8
ALPHA
100
AcDbCircle
 10
-12298.14396591782
 20
4206.655112796017
 30
0.0
 40
6.0
100
AcDbArc
 50
0.0
 51
180.0
  0
LINE
  5
740A3
330
9D0
100
AcDbEntity
  8
ALPHA
100
AcDbLine
 10
-12304.14396591782
 20
4206.655112796017
 30
0.0
 11
-12304.14396591782
 21
4200.047417641518
 31
0.0
  0
ARC
  5
740A4
330
9D0
100
AcDbEntity
  8
ALPHA
100
AcDbCircle
 10
-11758.14396591782
 20
4206.655112796017
 30
0.0
 40
6.000000000000056
100
AcDbArc
 50
0.0
 51
180.0
  0
LINE
  5
740A5
330
9D0
100
AcDbEntity
  8
ALPHA
100
AcDbLine
 10
-11764.14396591782
 20
4206.655112796017
 30
0.0
 11
-11764.14396591782
 21
4200.047417641518
 31
0.0
  0
ARC
  5
740A6
330
9D0
100
AcDbEntity
  8
ALPHA
100
AcDbCircle
 10
-11758.14396591782
 20
4189.655112796017
 30
0.0
 40
11.99999999999993
100
AcDbArc
 50
119.9999999999973
 51
60.00000000000272
  0
LINE
  5
740A7
330
9D0
100
AcDbEntity
  8
ALPHA
100
AcDbLine
 10
-11752.14396591782
 20
4200.047417641518
 30
0.0
 11
-11752.14396591782
 21
4206.655112796017
 31
0.0
  0
ARC
  5
740A8
330
9D0
100
AcDbEntity
  8
ALPHA
100
AcDbCircle
 10
-12298.14396591782
 20
4039.655112796018
 30
0.0
 40
12.0
100
AcDbArc
 50
119.9999999999973
 51
60.00000000000272
  0
LINE
  5
740A9
330
9D0
100
AcDbEntity
  8
ALPHA
100
AcDbLine
 10
-12292.14396591782
 20
4050.047417641517
 30
0.0
 11
-12292.14396591782
 21
4056.655112796017
 31
0.0
  0
ARC
  5
740AA
330
9D0
100
AcDbEntity
  8
ALPHA
100
AcDbCircle
 10
-12298.14396591782
 20
4056.655112796017
 30
0.0
 40
6.0
100
AcDbArc
 50
0.0
 51
180.0
  0
LINE
  5
740AB
330
9D0
100
AcDbEntity
  8
ALPHA
100
AcDbLine
 10
-12304.14396591782
 20
4056.655112796017
 30
0.0
 11
-12304.14396591782
 21
4050.047417641517
 31
0.0
  0
ARC
  5
740AC
330
9D0
100
AcDbEntity
  8
ALPHA
100
AcDbCircle
 10
-11758.14396591782
 20
4056.655112796017
 30
0.0
 40
6.0
100
AcDbArc
 50
0.0
 51
180.0
  0
LINE
  5
740AD
330
9D0
100
AcDbEntity
  8
ALPHA
100
AcDbLine
 10
-11764.14396591782
 20
4056.655112796017
 30
0.0
 11
-11764.14396591782
 21
4050.047417641517
 31
0.0
  0
ARC
  5
740AE
330
9D0
100
AcDbEntity
  8
ALPHA
100
AcDbCircle
 10
-11758.14396591782
 20
4039.655112796018
 30
0.0
 40
12.0
100
AcDbArc
 50
119.9999999999973
 51
60.00000000000272
  0
LINE
  5
740AF
330
9D0
100
AcDbEntity
  8
ALPHA
100
AcDbLine
 10
-11752.14396591782
 20
4050.047417641517
 30
0.0
 11
-11752.14396591782
 21
4056.655112796017
 31
0.0
  0
LINE
  5
740B0
330
9D0
100
AcDbEntity
  8
ALPHA
100
AcDbLine
 10
-11733.82074261312
 20
4233.655112796017
 30
0.0
 11
-12322.46718922252
 21
4233.655112796017
 31
0.0
  0
LINE
  5
740B1
330
9D0
100
AcDbEntity
  8
ALPHA
100
AcDbLine
 10
-11733.82074261312
 20
4233.655112796017
 30
0.0
 11
-11733.64396591782
 21
4230.655112796017
 31
0.0
  0
LINE
  5
740B2
330
9D0
100
AcDbEntity
  8
ALPHA
100
AcDbLine
 10
-11730.64396591782
 20
4001.655112796018
 30
0.0
 11
-11730.64396591782
 21
4230.655112796017
 31
0.0
  0
LINE
  5
740B3
330
9D0
100
AcDbEntity
  8
ALPHA
100
AcDbLine
 10
-11733.64396591782
 20
4230.655112796017
 30
0.0
 11
-11730.64396591782
 21
4230.655112796017
 31
0.0
  0
LINE
  5
740B4
330
9D0
100
AcDbEntity
  8
ALPHA
100
AcDbLine
 10
-11730.64396591782
 20
4001.655112796018
 30
0.0
 11
-11733.64396591782
 21
4001.655112796018
 31
0.0
  0
LINE
  5
740B5
330
9D0
100
AcDbEntity
  8
ALPHA
100
AcDbLine
 10
-12322.64396591782
 20
3998.655112796018
 30
0.0
 11
-12322.64396591782
 21
4001.655112796018
 31
0.0
  0
LINE
  5
740B6
330
9D0
100
AcDbEntity
  8
ALPHA
100
AcDbLine
 10
-11733.64396591782
 20
4001.655112796018
 30
0.0
 11
-11733.64396591782
 21
3998.655112796018
 31
0.0
  0
LINE
  5
740B7
330
9D0
100
AcDbEntity
  8
ALPHA
100
AcDbLine
 10
-11732.64396591782
 20
4001.655112796018
 30
0.0
 11
-11732.64396591782
 21
3998.655112796018
 31
0.0
  0
LINE
  5
740B8
330
9D0
100
AcDbEntity
  8
ALPHA
100
AcDbLine
 10
-11732.64396591782
 20
3997.655112796018
 30
0.0
 11
-11732.64396591782
 21
3976.655112796018
 31
0.0
  0
LINE
  5
740B9
330
9D0
100
AcDbEntity
  8
ALPHA
100
AcDbLine
 10
-11732.64396591782
 20
3976.655112796018
 30
0.0
 11
-11730.64396591782
 21
3976.655112796018
 31
0.0
  0
LINE
  5
740BA
330
9D0
100
AcDbEntity
  8
ALPHA
100
AcDbLine
 10
-11730.64396591782
 20
4001.655112796018
 30
0.0
 11
-11730.64396591782
 21
3976.655112796018
 31
0.0
  0
LINE
  5
740BB
330
9D0
100
AcDbEntity
  8
ALPHA
100
AcDbLine
 10
-11733.64396591782
 20
4233.655112796017
 30
0.0
 11
-11733.64396591782
 21
4231.655112796017
 31
0.0
  0
ARC
  5
740BC
330
9D0
100
AcDbEntity
  8
ALPHA
100
AcDbCircle
 10
-11733.64396591782
 20
4230.655112796017
 30
0.0
 40
3.000000000000113
100
AcDbArc
 50
0.0
 51
90.00000000010421
  0
ARC
  5
740BD
330
9D0
100
AcDbEntity
  8
ALPHA
100
AcDbCircle
 10
-11733.64396591782
 20
4230.655112796017
 30
0.0
 40
0.9999999999998864
100
AcDbArc
 50
0.0
 51
90.00000000010421
  0
LINE
  5
740BE
330
9D0
100
AcDbEntity
  8
ALPHA
100
AcDbLine
 10
-12325.64396591782
 20
3976.655112796018
 30
0.0
 11
-12325.64396591782
 21
4001.655112796018
 31
0.0
  0
LINE
  5
740BF
330
9D0
100
AcDbEntity
  8
ALPHA
100
AcDbLine
 10
-12323.64396591782
 20
3976.655112796018
 30
0.0
 11
-12325.64396591782
 21
3976.655112796018
 31
0.0
  0
LINE
  5
740C0
330
9D0
100
AcDbEntity
  8
ALPHA
100
AcDbLine
 10
-12323.64396591782
 20
3976.655112796018
 30
0.0
 11
-12323.64396591782
 21
3997.655112796018
 31
0.0
  0
LINE
  5
740C1
330
9D0
100
AcDbEntity
  8
ALPHA
100
AcDbLine
 10
-12323.64396591782
 20
3998.655112796018
 30
0.0
 11
-12323.64396591782
 21
4001.655112796018
 31
0.0
  0
ARC
  5
740C2
330
9D0
100
AcDbEntity
  8
ALPHA
100
AcDbCircle
 10
-12322.64396591782
 20
4230.655112796017
 30
0.0
 40
1.0
100
AcDbArc
 50
89.99999999989578
 51
180.0
  0
ARC
  5
740C3
330
9D0
100
AcDbEntity
  8
ALPHA
100
AcDbCircle
 10
-12322.64396591782
 20
4230.655112796017
 30
0.0
 40
3.000000000000013
100
AcDbArc
 50
89.99999999989578
 51
180.0
  0
LINE
  5
740C4
330
9D0
100
AcDbEntity
  8
ALPHA
100
AcDbLine
 10
-12322.64396591782
 20
4233.655112796017
 30
0.0
 11
-12322.64396591782
 21
4231.655112796017
 31
0.0
  0
LINE
  5
740C5
330
9D0
100
AcDbEntity
  8
ALPHA
100
AcDbLine
 10
-11733.64396591782
 20
4231.655112796017
 30
0.0
 11
-11733.70289148292
 21
4231.655112796017
 31
0.0
  0
LINE
  5
740C6
330
9D0
100
AcDbEntity
  8
ALPHA
100
AcDbLine
 10
-11733.64396591782
 20
4233.655112796017
 30
0.0
 11
-11733.82074261312
 21
4233.655112796017
 31
0.0
  0
LINE
  5
740C7
330
9D0
100
AcDbEntity
  8
ALPHA
100
AcDbLine
 10
-12322.46718922252
 20
4233.655112796017
 30
0.0
 11
-12322.64396591782
 21
4233.655112796017
 31
0.0
  0
LINE
  5
740C8
330
9D0
100
AcDbEntity
  8
ALPHA
100
AcDbLine
 10
-12322.58504035272
 20
4231.655112796017
 30
0.0
 11
-12322.64396591782
 21
4231.655112796017
 31
0.0
  0
ARC
  5
740C9
330
9D0
100
AcDbEntity
  8
ALPHA
100
AcDbCircle
 10
-11733.64396591782
 20
3976.655112796018
 30
0.0
 40
3.0
100
AcDbArc
 50
289.4712206345204
 51
0.0
  0
ARC
  5
740CA
330
9D0
100
AcDbEntity
  8
ALPHA
100
AcDbCircle
 10
-12322.64396591782
 20
3976.655112796018
 30
0.0
 40
3.0
100
AcDbArc
 50
180.0
 51
250.5287793654796
  0
LINE
  5
740CB
330
9D0
100
AcDbEntity
  8
ALPHA
100
AcDbLine
 10
-11746.40727132352
 20
3967.155112796018
 30
0.0
 11
-11769.88066051212
 21
3967.155112796018
 31
0.0
  0
LINE
  5
740CC
330
9D0
100
AcDbEntity
  8
ALPHA
100
AcDbLine
 10
-12286.40727132352
 20
3967.155112796018
 30
0.0
 11
-12309.88066051212
 21
3967.155112796018
 31
0.0
  0
ARC
  5
740CD
330
9D0
100
AcDbEntity
  8
ALPHA
100
AcDbCircle
 10
-11793.14396591782
 20
3094.655112796018
 30
0.0
 40
13.30000000000009
100
AcDbArc
 50
285.1589738150547
 51
302.3400151706246
  0
LINE
  5
740CE
330
9D0
100
AcDbEntity
  8
ALPHA
100
AcDbLine
 10
-11779.14396591812
 20
4240.880395962318
 30
0.0
 11
-11767.14396591812
 21
4240.880395962318
 31
0.0
  0
LINE
  5
740CF
330
9D0
100
AcDbEntity
  8
ALPHA
100
AcDbLine
 10
-11778.91563610842
 20
4241.321374071218
 30
0.0
 11
-11767.37229572782
 21
4241.321374071218
 31
0.0
  0
LINE
  5
740D0
330
9D0
100
AcDbEntity
  8
ALPHA
100
AcDbLine
 10
-12289.14396591812
 20
4240.880395962318
 30
0.0
 11
-12277.14396591812
 21
4240.880395962318
 31
0.0
  0
LINE
  5
740D1
330
9D0
100
AcDbEntity
  8
ALPHA
100
AcDbLine
 10
-12288.91563610842
 20
4241.321374071218
 30
0.0
 11
-12277.37229572782
 21
4241.321374071218
 31
0.0
  0
LINE
  5
740D2
330
9D0
100
AcDbEntity
  8
ALPHA
100
AcDbLine
 10
-11733.64396591542
 20
3971.490049286818
 30
0.0
 11
-11735.64396591782
 21
3971.490049286818
 31
0.0
  0
LINE
  5
740D3
330
9D0
100
AcDbEntity
  8
ALPHA
100
AcDbLine
 10
-12320.64396591782
 20
3971.490049286818
 30
0.0
 11
-12322.64396591542
 21
3971.490049286818
 31
0.0
  0
LINE
  5
740D4
330
9D0
100
AcDbEntity
  8
ALPHA
100
AcDbLine
 10
-11752.39396591782
 20
3976.655112795018
 30
0.0
 11
-11763.89396591782
 21
3976.655112795018
 31
0.0
  0
LINE
  5
740D5
330
9D0
100
AcDbEntity
  8
ALPHA
100
AcDbLine
 10
-12292.39396591782
 20
3976.655112795018
 30
0.0
 11
-12303.89396591782
 21
3976.655112795018
 31
0.0
  0
LINE
  5
740D6
330
9D0
100
AcDbEntity
  8
ALPHA
100
AcDbLine
 10
-12323.40574378682
 20
4000.483539920817
 30
0.0
 11
-12323.64396591782
 21
4000.483539920817
 31
0.0
  0
LINE
  5
740D7
330
9D0
100
AcDbEntity
  8
ALPHA
100
AcDbLine
 10
-11732.88218804872
 20
4000.483539920817
 30
0.0
 11
-11732.64396591782
 21
4000.483539920817
 31
0.0
  0
DIMENSION
  5
740D8
330
9D0
100
AcDbEntity
  8
COTATION1
100
AcDbDimension
  2
*D5
 10
-12361.20761446322
 20
3061.655112796018
 30
0.0
 11
-12371.70761446322
 21
3054.155112796016
 31
0.0
 70
    32
 71
     5
 42
15.0
  3
SC_STAND
100
AcDbAlignedDimension
 13
-12320.64396591782
 23
3046.655112796018
 33
0.0
 14
-12298.14396591782
 24
3061.655112796018
 34
0.0
 50
90.0
100
AcDbRotatedDimension
  0
DIMENSION
  5
740D9
330
9D0
100
AcDbEntity
  8
COTATION1
100
AcDbDimension
  2
*D6
 10
-12361.20761446322
 20
3981.655112796018
 30
0.0
 11
-12369.08261446322
 21
3521.655112796016
 31
0.0
 70
    32
 71
     5
 42
920.0
  3
SC_STAND
100
AcDbAlignedDimension
 13
-12298.14396591782
 23
3061.655112796018
 33
0.0
 14
-12298.14396591782
 24
3981.655112796018
 34
0.0
 50
90.0
100
AcDbRotatedDimension
  0
DIMENSION
  5
740DA
330
9D0
100
AcDbEntity
  8
COTATION1
100
AcDbDimension
  2
*D7
 10
-12361.20761446322
 20
4056.655112796017
 30
0.0
 11
-12369.08261446322
 21
4019.155112796016
 31
0.0
 70
    32
 71
     5
 42
75.0
  3
SC_STAND
100
AcDbAlignedDimension
 13
-12298.14396591782
 23
3981.655112796018
 33
0.0
 14
-12298.14396591782
 24
4056.655112796017
 34
0.0
 50
90.0
100
AcDbRotatedDimension
  0
DIMENSION
  5
740DB
330
9D0
100
AcDbEntity
  8
COTATION1
100
AcDbDimension
  2
*D8
 10
-12361.20761446322
 20
4206.655112796017
 30
0.0
 11
-12369.08261446322
 21
4131.655112796016
 31
0.0
 70
    32
 71
     5
 42
149.9999999999995
  3
SC_STAND
100
AcDbAlignedDimension
 13
-12298.14396591782
 23
4056.655112796017
 33
0.0
 14
-12298.14396591782
 24
4206.655112796017
 34
0.0
 50
90.0
100
AcDbRotatedDimension
  0
DIMENSION
  5
740DC
330
9D0
100
AcDbEntity
  8
COTATION1
100
AcDbDimension
  2
*D9
 10
-12298.14396591782
 20
4056.655112796017
 30
0.0
 11
-12271.71274748837
 21
4088.601547966693
 31
0.0
 70
   164
  1
%%c12.00
 71
     5
 42
6.000000000027284
  3
SC_STAND
100
AcDbRadialDimension
 15
-12294.31917895537
 25
4061.277991195045
 35
0.0
 40
0.0
  0
LINE
  5
7425F
330
9D0
100
AcDbEntity
  8
AXE
100
AcDbLine
 10
-12381.70626353201
 20
3627.220060137479
 30
0.0
 11
-11712.36942322144
 21
3627.220060750106
 31
0.0
  0
MTEXT
  5
74260
330
9D0
100
AcDbEntity
  8
AXE
100
AcDbMText
 10
-11694.68369209815
 20
3635.213186363058
 30
0.0
 40
15.0
 41
124.1120678686775
 71
     1
 72
     5
  1
X
 73
     1
 44
1.0
  0
MTEXT
  5
74261
330
9D0
100
AcDbEntity
  8
AXE
100
AcDbMText
 10
-12051.3330141383
 20
3612.220060432431
 30
0.0
 40
15.0
 41
124.1120678686775
 71
     1
 72
     5
  1
Z
 73
     1
 44
1.0
  0
MTEXT
  5
74262
330
9D0
100
AcDbEntity
  8
AXE
100
AcDbMText
 10
-12035.03008426639
 20
3009.013821781077
 30
0.0
 40
15.0
 41
124.1120678686775
 71
     1
 72
     5
  1
Y
 73
     1
 44
1.0
  0
LINE
  5
74263
330
9D0
100
AcDbEntity
  8
AXE
100
AcDbLine
 10
-12030.63528999374
 20
4253.909517492997
 30
0.0
 11
-12030.63528999374
 21
3024.290057832093
 31
0.0
  0
VIEWPORT
  5
1F2E5
330
9CC
100
AcDbEntity
 67
     1
  8
0
100
AcDbViewport
 10
5.662916889340858
 20
3.988749802581907
 30
0.0
 40
14.70235473260184
 41
8.742606248029574
 68
     1
 69
     1
 12
5.662916889340858
 22
3.988749802581907
 13
0.0
 23
0.0
 14
10.0
 24
10.0
 15
10.0
 25
10.0
 16
0.0
 26
0.0
 36
1.0
 17
0.0
 27
0.0
 37
0.0
 42
50.0
 43
0.0
 44
0.0
 45
8.742606248029574
 50
0.0
 51
0.0
 72
   100
 90
    32800
  1

281
     0
 71
     1
 74
     0
110
0.0
120
0.0
130
0.0
111
1.0
121
0.0
131
0.0
112
0.0
122
1.0
132
0.0
 79
     0
146
0.0
170
     0
  0
ENDSEC
  0
SECTION
  2
OBJECTS
  0
DICTIONARY
  5
9BA
330
0
100
AcDbDictionary
281
     1
  3
ACAD_BGPLOT_KEY
350
509C1
  3
ACAD_COLOR
350
9C9
  3
ACAD_GROUP
350
9BB
  3
ACAD_LAYOUT
350
9C7
  3
ACAD_MATERIAL
350
9C8
  3
ACAD_MLINESTYLE
350
9C4
  3
ACAD_PLOTSETTINGS
350
9C6
  3
ACAD_PLOTSTYLENAME
350
9BC
  3
ACAD_TABLESTYLE
350
9CA
  3
AcDbVariableDictionary
350
106F6
  3
AcmDictionary
350
A6F
  3
AMG
350
A17
  3
AMGSNAPSETTINGS
350
AB2
  0
DICTIONARY
  5
8862
330
9B0
100
AcDbDictionary
280
     1
281
     1
  3
ACAD_LAYERSTATES
360
107BA
  3
AMLAYER_GROUPCOLORS
360
8863
  0
DICTIONARY
  5
509C1
102
{ACAD_REACTORS
330
9BA
102
}
330
9BA
100
AcDbDictionary
280
     1
281
     1
  0
DICTIONARY
  5
9C9
102
{ACAD_REACTORS
330
9BA
102
}
330
9BA
100
AcDbDictionary
281
     1
  0
DICTIONARY
  5
9BB
102
{ACAD_REACTORS
330
9BA
102
}
330
9BA
100
AcDbDictionary
281
     1
  0
DICTIONARY
  5
9C7
102
{ACAD_REACTORS
330
9BA
102
}
330
9BA
100
AcDbDictionary
281
     1
  3
Model
350
9D3
  3
Présentation1
350
9CF
  0
DICTIONARY
  5
9C8
102
{ACAD_REACTORS
330
9BA
102
}
330
9BA
100
AcDbDictionary
281
     1
  0
DICTIONARY
  5
9C4
102
{ACAD_REACTORS
330
9BA
102
}
330
9BA
100
AcDbDictionary
281
     1
  3
Standard
350
9C5
  0
DICTIONARY
  5
9C6
102
{ACAD_REACTORS
330
9BA
102
}
330
9BA
100
AcDbDictionary
281
     1
  0
ACDBDICTIONARYWDFLT
  5
9BC
102
{ACAD_REACTORS
330
9BA
102
}
330
9BA
100
AcDbDictionary
281
     1
  3
Normal
350
9BD
100
AcDbDictionaryWithDefault
340
9BD
  0
DICTIONARY
  5
9CA
102
{ACAD_REACTORS
330
9BA
102
}
330
9BA
100
AcDbDictionary
281
     1
  3
Standard
350
9CB
  0
DICTIONARY
  5
106F6
102
{ACAD_REACTORS
330
9BA
102
}
330
9BA
100
AcDbDictionary
281
     1
  3
CTABLESTYLE
350
106F7
  3
FIELDEVAL
350
509C2
  0
DICTIONARY
  5
A6F
102
{ACAD_REACTORS
330
9BA
102
}
330
9BA
100
AcDbDictionary
281
     1
  3
AcmStdDictionary
350
A7C
  3
AMDTSECTSYM_ARROWCOLOR
350
A9A
  0
DICTIONARY
  5
A17
102
{ACAD_REACTORS
330
9BA
102
}
330
9BA
100
AcDbDictionary
281
     1
  0
DICTIONARY
  5
AB2
102
{ACAD_REACTORS
330
9BA
102
}
330
9BA
100
AcDbDictionary
281
     1
  0
DICTIONARY
  5
107BA
102
{ACAD_REACTORS
330
8862
102
}
330
8862
100
AcDbDictionary
281
     1
  0
DICTIONARY
  5
8863
102
{ACAD_REACTORS
330
8862
102
}
330
8862
100
AcDbDictionary
280
     1
281
     1
  0
LAYOUT
  5
9D3
102
{ACAD_REACTORS
330
9C7
102
}
330
9C7
100
AcDbPlotSettings
  1

  2
Fiery X12 Color PS
  4

  6

 40
0.0
 41
0.0
 42
0.0
 43
0.0
 44
0.0
 45
0.0
 46
0.0
 47
0.0
 48
0.0
 49
0.0
140
0.0
141
0.0
142
1.0
143
1.0
 70
  1712
 72
     0
 73
     0
 74
     0
  7

 75
     0
147
1.0
 76
     0
 77
     2
 78
   300
148
0.0
149
0.0
100
AcDbLayout
  1
Model
 70
     1
 71
     0
 10
0.0
 20
0.0
 11
12.0
 21
9.0
 12
0.0
 22
0.0
 32
0.0
 14
0.0
 24
0.0
 34
0.0
 15
0.0
 25
0.0
 35
0.0
146
0.0
 13
0.0
 23
0.0
 33
0.0
 16
1.0
 26
0.0
 36
0.0
 17
0.0
 27
1.0
 37
0.0
 76
     0
330
9D0
  0
LAYOUT
  5
9CF
102
{ACAD_XDICTIONARY
360
1F2EA
102
}
102
{ACAD_REACTORS
330
9C7
102
}
330
9C7
100
AcDbPlotSettings
  1

  2
Fiery X12 Color PS
  4
A4
  6

 40
3.630083322525024
 41
4.688445091247558
 42
4.646072387695312
 43
4.68841552734375
 44
209.8886566162109
 45
297.0530090332031
 46
0.0
 47
0.0
 48
0.0
 49
0.0
140
0.0
141
0.0
142
1.0
143
1.0
 70
   688
 72
     0
 73
     1
 74
     5
  7

 75
    16
147
1.0
 76
     0
 77
     2
 78
   300
148
0.0
149
0.0
100
AcDbLayout
  1
Présentation1
 70
     0
 71
     1
 10
-0.1845832884781004
 20
-0.1429166662411427
 11
11.51041706715981
 21
8.120416271404957
 12
0.0
 22
0.0
 32
0.0
 14
1.000000000000000E+20
 24
1.000000000000000E+20
 34
1.000000000000000E+20
 15
-1.000000000000000E+20
 25
-1.000000000000000E+20
 35
-1.000000000000000E+20
146
0.0
 13
0.0
 23
0.0
 33
0.0
 16
1.0
 26
0.0
 36
0.0
 17
0.0
 27
1.0
 37
0.0
 76
     0
330
9CC
331
1F2E5
1001
ACAD_PSEXT
1000
Fiery X12 Color PS
1000
Fiery X12 Color Server PS
1000
IP_192.168.0.240
1000

1070
     0
  0
MLINESTYLE
  5
9C5
102
{ACAD_REACTORS
330
9C4
102
}
330
9C4
100
AcDbMlineStyle
  2
STANDARD
 70
     0
  3

 62
   256
 51
90.0
 52
90.0
 71
     2
 49
0.5
 62
   256
  6
BYLAYER
 49
-0.5
 62
   256
  6
BYLAYER
  0
ACDBPLACEHOLDER
  5
9BD
102
{ACAD_REACTORS
330
9BC
102
}
330
9BC
  0
TABLESTYLE
  5
9CB
102
{ACAD_REACTORS
330
9CA
102
}
330
9CA
100
AcDbTableStyle
  3
Standard
 70
     0
 71
     0
 40
0.06
 41
0.06
280
     0
281
     0
  7
STANDARD
140
0.18
170
     2
 62
     0
 63
     7
283
     0
274
    -2
284
     1
 64
     0
275
    -2
285
     1
 65
     0
276
    -2
286
     1
 66
     0
277
    -2
287
     1
 67
     0
278
    -2
288
     1
 68
     0
279
    -2
289
     1
 69
     0
  7
STANDARD
140
0.25
170
     5
 62
     0
 63
     7
283
     0
274
    -2
284
     1
 64
     0
275
    -2
285
     1
 65
     0
276
    -2
286
     1
 66
     0
277
    -2
287
     1
 67
     0
278
    -2
288
     1
 68
     0
279
    -2
289
     1
 69
     0
  7
STANDARD
140
0.18
170
     5
 62
     0
 63
     7
283
     0
274
    -2
284
     1
 64
     0
275
    -2
285
     1
 65
     0
276
    -2
286
     1
 66
     0
277
    -2
287
     1
 67
     0
278
    -2
288
     1
 68
     0
279
    -2
289
     1
 69
     0
  0
DICTIONARYVAR
  5
106F7
102
{ACAD_REACTORS
330
106F6
102
}
330
106F6
100
DictionaryVariables
280
     0
  1
STANDARD
  0
DICTIONARYVAR
  5
509C2
102
{ACAD_REACTORS
330
106F6
102
}
330
106F6
100
DictionaryVariables
280
     0
  1
4
  0
DICTIONARY
  5
A7C
102
{ACAD_REACTORS
330
A6F
102
}
330
A6F
100
AcDbDictionary
281
     1
  0
XRECORD
  5
A9A
102
{ACAD_REACTORS
330
A6F
102
}
330
A6F
100
AcDbXrecord
280
     1
 90
-1023410169
  0
DICTIONARY
  5
1F2EA
330
9CF
100
AcDbDictionary
280
     1
281
     1
  3
ADSK_XREC_LAYOUTTHUMBNAIL
360
1F2EB
  0
XRECORD
  5
1F2EB
102
{ACAD_REACTORS
330
1F2EA
102
}
330
1F2EA
100
AcDbXrecord
280
     1
310
28000000B40000007F00000001000800000000004C590000000000000000000000010000000000000000000000000000FFFFFF000000000000000000000000000000000000000000000000000000000000000000330000006600000099000000CC000000FF00000000330000333300006633000099330000CC330000FF3300
310
0000660000336600006666000099660000CC660000FF66000000990000339900006699000099990000CC990000FF99000000CC000033CC000066CC000099CC0000CCCC0000FFCC000000FF000033FF000066FF000099FF0000CCFF0000FFFF000000003300330033006600330099003300CC003300FF003300003333003333
310
33006633330099333300CC333300FF33330000663300336633006666330099663300CC663300FF66330000993300339933006699330099993300CC993300FF99330000CC330033CC330066CC330099CC3300CCCC3300FFCC330000FF330033FF330066FF330099FF3300CCFF3300FFFF330000006600330066006600660099
310
006600CC006600FF00660000336600333366006633660099336600CC336600FF33660000666600336666006666660099666600CC666600FF66660000996600339966006699660099996600CC996600FF99660000CC660033CC660066CC660099CC6600CCCC6600FFCC660000FF660033FF660066FF660099FF6600CCFF6600
310
FFFF660000009900330099006600990099009900CC009900FF00990000339900333399006633990099339900CC339900FF33990000669900336699006666990099669900CC669900FF66990000999900339999006699990099999900CC999900FF99990000CC990033CC990066CC990099CC9900CCCC9900FFCC990000FF99
310
0033FF990066FF990099FF9900CCFF9900FFFF99000000CC003300CC006600CC009900CC00CC00CC00FF00CC000033CC003333CC006633CC009933CC00CC33CC00FF33CC000066CC003366CC006666CC009966CC00CC66CC00FF66CC000099CC003399CC006699CC009999CC00CC99CC00FF99CC0000CCCC0033CCCC0066CC
310
CC0099CCCC00CCCCCC00FFCCCC0000FFCC0033FFCC0066FFCC0099FFCC00CCFFCC00FFFFCC000000FF003300FF006600FF009900FF00CC00FF00FF00FF000033FF003333FF006633FF009933FF00CC33FF00FF33FF000066FF003366FF006666FF009966FF00CC66FF00FF66FF000099FF003399FF006699FF009999FF00CC
310
99FF00FF99FF0000CCFF0033CCFF0066CCFF0099CCFF00CCCCFF00FFCCFF0000FFFF0033FFFF0066FFFF0099FFFF00CCFFFF00FFFFFF00000000000D0D0D001A1A1A00282828003535350043434300505050005D5D5D006B6B6B00787878008686860093939300A1A1A100AEAEAE00BBBBBB00C9C9C900D6D6D600E4E4E400
310
F1F1F100FFFFFF0000000000000000000000000000000000000000000000000000000000000000000000000000000000F5F5F5F5F5F5F5F5F5F5F5F5F5F5F5F5F5F5F5F5F5F5F5F5F5F5F5F5F5F5F5F5F5F5F5F5F5F5F5F5F5F5F5F5F5F5F5F5F5F5F5F5F5F5F5F5F5F5F5F5F5F5F5F5F5F5F5F5F5F5F5F5F5F5F5F5F5F5F5
310
F5F5F5F5F5F5F5F5F5F5F5F5F5F5F5F5F5F5F5F5F5F5F5F5F5F5F5F5F5F5F5F5F5F5F5F5F5F5F5F5F5F5F5F5F5F5F5F5F5F5F5F5F5F5F5F5F5F5F5F5F5F5F5F5F5F5F5F5F5F5F5F5F5F5F5F5F5F5F5F5F5F5F5F5F5F5F5F5F5F5F5F5F5F5F5F5F5F5F5F5F5F5E2E2E2E2E2E2E2E2E2E2E2E2E2E2E2E2E2E2E2E2E2E2E2E2E2
310
E2E2E2E2E2E2E2E2E2E2E2E2E2E2E2E2E2E2E2E2E2E2E2E2E2E2E2E2E2E2E2E2E2E2E2E2E2E2E2E2E2E2E2E2E2E2E2E2E2E2E2E2E2E2E2E2E2E2E2E2E2E2E2E2E2E2E2E2E2E2E2E2E2E2E2E2E2E2E2E2E2E2E2E2E2E2E2E2E2E2E2E2E2E2E2E2E2E2E2E2E2E2E2E2E2E2E2E2E2E2E2E2E2E2E2E2E2E2E2E2E2E2E2E2E2E2E2
310
E2E2E2E2E2E2E2E2E2E2E2E2E2E2E2E2E2E2E2E2E2E2E2E2E2F5F5F5E2E2F5F5F5F5F5F5F5F5E2E2E2E2E2E2E2E2E2F5F5F5F5F5F5F5F5F5F5F5F5F5F5F5F5E2E2E2E2E2E2E2E2E2F5F5F5F5F5F5F5F5F5F5F5F5F5F5F5F5E2E2E2E2E2E2E2E2F5F5F5F5F5F5F5F5F5F5F5F5F5F5F5F5E2E2E2E2E2E2E2E2E2F5F5F5F5F5F5
310
F5F5F5F5F5F5F5F5F5F5E2E2E2E2E2E2E2E2F5F5F5F5F5F5F5F5F5F5F5F5F5F5F5F5E2E2E2E2E2E2E2E2E2F5F5F5F5F5F5F5F5F5F5F5F5F5F5F5F5E2E2E2E2E2E2E2E2E2F5F5F5F5F5F5F5F5E2E2F5F5F5E2E2F5E2E2E2E2E2E2E2E2E2E2E2E2E2E2E2E2E2E2E2E2E2E2E2E2E2E2E2E2E2E2E2E2E2E2E2E2E2E2E2E2E2E2E2
310
E2E2E2E2E2E2E2E2E2E2E2E2E2E2E2E2E2E2E2E2E2E2E2E2E2E2E2E2E2E2E2E2E2E2E2E2E2E2E2E2E2E2E2E2E2E2E2E2E2E2E2E2E2E2E2E2E2E2E2E2E2E2E2E2E2E2E2E2E2E2E2E2E2E2E2E2E2E2E2E2E2E2E2E2E2E2E2E2E2E2E2E2E2E2E2E2E2E2E2E2E2E2E2E2E2E2E2E2E2E2E2E2E2E2E2E2E2E2E2E2E2E2E2E2E2E2E2
310
E2F5E2E2F5F5F5E2E2F5E2E2E2E2E2E2E2E2E2E2E2E2E2E2E2E2E2E2E2E2E2E2E2E2E2E2E2E2E2E2E2E2E2E2E2E2E2E2E2E2E2E2E2E2E2E2E2E2E2E2E2E2E2E2E2E2E2E2E2E2E2E2E2E2E2E2E2E2E2E2E2E2E2E2E2E2E2E2E2E2E2E2E2E2E2E2E2E2E2E2E2E2E2E2E2E2E2E2E2E2E2E2E2E2E2E2E2E2E2E2E2E2E2E2E2E2E2
310
E2E2E2E2E2E2E2E2E2E2E2E2E2E2E2E2E2E2E2E2E2E2E2E2E2E2E2E2E2E2E2E2E2E2E2E2E2E2E2E2E2E2E2E2E2E2E2E2E2E2E2E2E2E2F5E2E2F5F5F5E2E2F5E2E2E2E2E2E2E2E2E2E2E2E2E2E2E2E2E2E2E2E2E2E2E2E2E2E2E2E2E2E2E2E2E2E2E2E2E2E2E2E2E2E2E2E2E2E2E2E2E2E2E2E2E2E2E2E2E2E2E2E2E2E2E2E2
310
E2E2E2E2E2E2E2E2E2E2E2E2E2E2E2E2E2E2E2E2E2E2E2E2E2E2E2E2E2E2E2E2E2E2E2E2E2E2E2E2E2E2E2E2E2E2E2E2E2E2E2E2E2E2E2E2E2E2E2E2E2E2E2E2E2E2E2E2E2E2E2E2E2E2E2E2E2E2E2E2E2E2E2E2E2E2E2E2E2E2E2E2E2E2E2E2E2E2E2E2E2E2E2E2E2E2E2F5E2E2F5F5F5E2E2F5E2E2E2E2E2E2E2E2E2E2E2
310
E2E2E2E2E2E2E2E2E2E2E2E2E2E2E2E2E2E2E2E2E2E2E2E2E2E2E2E2E2E2E2E2E2E2E2E2E2E2E2E2E2E2E2E2E2E2E2E2E2E2E2E2E2E2E2E2E2E2E2E2E2E2E2E2E2E2E2E2E2E2E2E2E2E2E2E2E2E2E2E2E2E2E2E2E2E2E2E2E2E2E2E2E2E2E2E2E2E2E2E2E2E2E2E2E2E2E2E2E2E2E2E2E2E2E2E2E2E2E2E2E2E2E2E2E2E2E2
310
E2E2E2E2E2E2E2E2E2E2E2E2E2E2E2E2E2E2E2E2E2E2E2E2E2E2E2E2E2E2E2E2E2F5E2E2F5F5F5E2E2F5E2E2E2E2E2E2E2E2E2E2E2E2E2E2E2E2E2E2E2E2E2E2E2E2E2E2E2E2E2E2E2E2E2E2E2E2E2E2E2E2E2E2E2E2E2E2E2E2E2E2E2E2E2E2E2E2E2E2E2E2E2E2E2E2E2E2E2E2E2E2E2E2E2E2E2E2E2E2E2E2E2E2E2E2E2
310
E2E2E2E2E2E2E2E2E2E2E2E2E2E2E2E2E2E2E2E2E2E2E2E2E2E2E2E2E2E2E2E2E2E2E2E2E2E2E2E2E2E2E2E2E2E2E2E2E2E2E2E2E2E2E2E2E2E2E2E2E2E2E2E2E2E2E2E2E2E2E2E2E2E2E2E2E2E2E2E2E2E2E2E2E2E2F5E2E2F5F5F5E2E2F5E2E2E2E2E2E2E2E2E2E2E2E2E2E2E2E2E2E2E2E2E2E2E2E2E2E2E2E2E2E2E2E2
310
E2E2E2E2E2E2E2E2E2E2E2E2E2E2E2E2E2E2E2E2E2E2E2E2E2E2E2E2E2E2E2E2E2E2E2E2E2E2E2E2E2E2E2E2E2E2E2E2E2E2E2E2E2E2E2E2E2E2E2E2E2E2E2E2E2E2E2E2E2E2E2E2E2E2E2E2E2E2E2E2E2E2E2E2E2E2E2E2E2E2E2E2E2E2E2E2E2E2E2E2E2E2E2E2E2E2E2E2E2E2E2E2E2E2E2E2E2E2E2E2E2E2E2E2E2E2E2
310
E2E2E2E2E2E2E2E2E2E2E2E2F5E2E2F5F5F5E2E2F5E2E2E2E2E2E2E2E2E2E2E2E2E2E2E2E2E2E2E2E2E2E2E2E2E2E2E2E2E2E2E2E2E2E2E2E2E2E2E2E2E2E2E2E2E2E2E2E2E2E2E2E2E2E2E2E2E2E2E2E2E2E2E2E2E2E2E2E2E2E2E2E2E2E2E2E2E2E2E2E2E2E2E2E2E2E2E2E2E2E2E2E2E2E2E2E2E2E2E2E2E2E2E2E2E2E2
310
E2E2E2E2E2E2E2E2E2E2E2E2E2E2E2E2E2E2E2E2E2E2E2E2E2E2E2E2E2E2E2E2E2E2E2E2E2E2E2E2E2E2E2E2E2E2E2E2E2E2E2E2E2E2E2E2E2E2E2E2E2E2E2E2E2F5E2E2F5F5F5E2E2E2E2E2E2E2E2E2E2E2E2E2E2E2E2E2E2E2E2E2E2E2E2E2E2E2E2E2E2E2E2E2E2E2E2E2E2E2E2E2E2E2E2E2E2E2E2E2E2E2E2E2E2E2E2
310
E2E2E2E2E2E2E2E2E2E2E2E2E2E2E2E2E2E2E2E2E2E2E2E2E2E2E2E2E2E2E2E2E2E2E2E2E2E2E2E2E2E2E2E2E2E2E2E2E2E2E2E2E2E2E2E2E2E2E2E2E2E2E2E2E2E2E2E2E2E2E2E2E2E2E2E2E2E2E2E2E2E2E2E2E2E2E2E2E2E2E2E2E2E2E2E2E2E2E2E2E2E2E2E2E2E2E2E2E2E2E2E2E2E2E2E2E2E2E2E2E2F5F5F5E2E2E2
310
E2E2E2E2E2E2E2E2E2E2E2E2E2E2E2E2E2E2E2E2E2E2E2E2E2E2E2E2E2E2E2E2E2E2E2E2E2E2E2E2E2E2E2E2E2E2E2E2E2E2E2E2E2E2E2E2E2E2E2E2E2E2E2E2E2E2E2E2E2E2E2E2E2E2E2E2E2E2E2E2E2E2E2E2E2E2E2E2E2E2E2E2E2E2E2E2E2E2E2E2E2E2E2E2E2E2E2E2E2E2E2E2E2E2E2E2E2E2E2E2E2E2E2E2E2E2E2
310
E2E2E2E2E2E2E2E2E2E2E2E2E2E2E2E2E2E2E2E2E2E2E2E2E2E2E2E2E2E2E2E2E2E2E2E2E2E2E2E2E2E2E2E2E2E2E2F5F5F5E2E2E2E2E2E2E2E2E2E2E2E2E2E2E2E2E2E2E2E2E2E2E2E2E2E2E2E2E2E2E2E2E2E2E2E2E2E2E2E2E2E2E2E2E2E2E2E2E2E2E2E2E2E2E2E2E2E2E2E2E2E2E2E2E2E2E2E2E2E2E2E2E2E2E2E2E2
310
E2E2E2E2E2E2E2E2E2E2E2E2E2E2E2E2E2E2E2E2E2E2E2E2E2E2E2E2E2E2E2E2E2E2E2E2E2E2E2E2E2E2E2E2E2E2E2E2E2E2E2E2E2E2E2E2E2E2E2E2E2E2E2E2E2E2E2E2E2E2E2E2E2E2E2E2E2E2E2E2E2E2E2E2E2E2E2E2E2E2E2E2E2E2E2E2E2E2E2E2F5F5F5E2E2E2E2E2E2E2E2E2E2E2E2E2E2E2E2E2E2E2E2E2E2E2E2
310
E2E2E2E2E2E2E2E2E2E2E2E2E2E2E2E2E2E2E2E2E2E2E2E2E2E2E2E2E2E2E2E2E2E2E2E2E2E2E2E2E2E2E2E2E2E2E2E2E2E2E2E2E2E2E2E2E2E2E2E2E2E2E2E2E2E2E2E2E2E2E2E2E2E2E2E2E2E2E2E2E2E2E2E2E2E2E2E2E2E2E2E2E2E2E2E2E2E2E2E2E2E2E2E2E2E2E2E2E2E2E2E2E2E2E2E2E2E2E2E2E2E2E2E2E2E2E2
310
E2E2E2E2E2E2E2E2E2E2E2E2E2E2E2E2E2E2E2E2E2E2E2E2E2E2F5F5F5E2E2E2E2E2E2E2E2E2E2E2E2E2E2E2E2E2E2E2E2E2E2E2E2E2E2E2E2E2E2E2E2E2E2E2E2E2E2E2E2E2E2E2E2E2E2E2E2E2E2E2E2E2E2E2E2E2E2E2E2E2E2E2E2E2E2E2E2E2E2E2E2E2E2E2E2E2E2E2E2E2E2E2E2E2E2E2E2E2E2E2E2E2E2E2E2E2E2
310
E2E2E2E2E2E2E2E2E2E2E2E2E2E2E2E2E2E2E2E2E2E2E2E2E2E2E2E2E2E2E2E2E2E2E2E2E2E2E2E2E2E2E2E2E2E2E2E2E2E2E2E2E2E2E2E2E2E2E2E2E2E2E2E2E2E2E2E2E2E2E2E2E2E2E2E2E2E2E2F5F5F5E2E2E2E2E2E2E2E2E2E2E2E2E2E2E2E2E2E2E2E2E2E2E2E2E2E2E2E2E2E2E2E2E2E2E2E2E2E2E2E2E2E2E2E2E2
310
E2E2E2E2E2E2E2E2E2E2E2E2E2E2E2E2E2E2E2E2E2E2E2E2E2E2E2E2E2E2E2E2E2E2E2E2E2E2E2E2E2E2E2E2E2E2E2E2E2E2E2E2E2E2E2E2E2E2E2E2E2E2E2E2E2E2E2E2E2E2E2E2E2E2E2E2E2E2E2E2E2E2E2E2E2E2E2E2E2E2E2E2E2E2E2E2E2E2E2E2E2E2E2E2E2E2E2E2E2E2E2E2E2E2E2E2E2E2E2E2E2E2E2E2E2E2E2
310
E2E2E2E2E2F5F5F5E2E2E2E2E2E2E2E2E2E2E2E2E2E2E2E2E2E2E2E2E2E2E2E2E2E2E2E2E2E2E2E2E2E2E2E2E2E2E2E2E2E2E2E2E2E2E2E2E2E2E2E2E2E2E2E2E2E2E2E2E2E2E2E2E2E2E2E2E2E2E2E2E2E2E2E2E2E2E2E2E2E2E2E2E2E2E2E2E2E2E2E2E2E2E2E2E2E2E2E2E2E2E2E2E2E2E2E2E2E2E2E2E2E2E2E2E2E2E2
310
E2E2E2E2E2E2E2E2E2E2E2E2E2E2E2E2E2E2E2E2E2E2E2E2E2E2E2E2E2E2E2E2E2E2E2E2E2E2E2E2E2E2E2E2E2E2E2E2E2E2E2E2E2E2E2E2E2E2F5F5F5E2E2E2E2E2E2E2E2E2E2E2E2E2E2E2E2E2E2E2E2E2E2E2E2E2E2E2E2E2E2E2E2E2E2E2E2E2E2E2E2E2E2E2E2E2E2E2E2E2E2E2E2E2E2E2E2E2E2E2E2E2E2E2E2E2E2
310
E2E2E2E2E2E2E2E2E2E2E2E2E2E2E2E2E2E2E2E2E2E2E2E2E2E2E2E2E2E2E2E2E2E2E2E2E2E2E2E2E2E2E2E2E2E2E2E2E2E2E2E2E2E2E2E2E2E2E2E2E2E2E2E2E2E2E2E2E2E2E2E2E2E2E2E2E2E2E2E2E2E2E2E2E2E2E2E2E2E2E2E2E2E2E2E2E2E2E2E2E2E2E2E2E2E2E2E2E2E2E2F5F5F5E2E2E2E2E2E2E2E2E2E2E2E2E2
310
E2E2E2E2E2E2E2E2E2E2E2E2E2E2E2E2E2E2E2E2E2E2E2E2E2E2E2E2E2E2E2E2E2E2E2E2E2E2E2E2E2E2E2E2E2E2E2E2E2E2E2E2E2E2E2E2E2E2E2E2E2E2E2E2E2E2E2E2E2E2E2E2E2E2E2E2E2E2E2E2E2E2E2E2E2E2E2E2E2E2E2E2E2E2E2E2E2E2E2E2E2E2E2E2E2E2E2E2E2E2E2E2E2E2E2E2E2E2E2E2E2E2E2E2E2E2E2
310
E2E2E2E2E2E2E2E2E2E2E2E2E2E2E2E2E2E2E2E2E2E2E2E2E2E2E2E2E2E2E2E2E2E2E2E2E2F5F5F5E2E2F5E2E2E2E2E2E2E2E2E2E2E2E2E2E2E2E2E2E2E2E2E2E2E2E2E2E2E2E2E2E2E2E2E2E2E2E2E2E2E2E2E2E2E2E2E2E2E2E2E2E2E2E2E2E2E2E2E2E2E2E2E2E2E2E2E2E2E2E2E2E2E2E2E2E2E2E2E2E2E2E2E2E2E2E2
310
E2E2E2E2E2E2E2E2E2E2E2E2E2E2E2E2E2E2E2E2E2E2E2E2E2E2E2E2E2E2E2E2E2E2E2E2E2E2E2E2E2E2E2E2E2E2E2E2E2E2E2E2E2E2E2E2E2E2E2E2E2E2E2E2E2E2E2E2E2E2E2E2E2E2E2E2E2E2E2E2E2E2E2E2E2E2E2F5E2E2F5F5F5E2E2F5E2E2E2E2E2E2E2E2E2E2E2E2E2E2E2E2E2E2E2E2E2E2E2E2E2E2E2E2E2E2E2
310
E2E2E2E2E2E2E2E2E2E2E2E2E2E2E2E2E2E2E2E2E2E2E2E2E2E2E2E2E2E2E2E2E2E2E2E2E2E2E2E2E2E2E2E2E2E2E2E2E2E2E2E2E2E2E2E2E2E2E2E2E2E2E2E2E2E2E2E2E2E2E2E2E2E2E2E2E2E2E2E2E2E2E2E2E2E2E2E2E2E2E2E2E2E2E2E2E2E2E2E2E2E2E2E2E2E2E2E2E2E2E2E2E2E2E2E2E2E2E2E2E2E2E2E2E2E2E2
310
E2E2E2E2E2E2E2E2E2E2E2E2E2F5E2E2F5F5F5E2E2F5E2E2E2E2E2E2E2E2E2E2E2E2E2E2E2E2E2E2E2E2E2E2E2E2E2E2E2E2E2E2E2E2E2E2E2E2E2E2E2E2E2E2E2E2E2E2E2E2E2E2E2E2E2E2E2E2E2E2E2E2E2E2E2E2E2E2E2E2E2E2E2E2E2E2E2E2E2E2E2E2E2E2E2E2E2E2E2E2E2E2E2E2E2E2E2E2E2E2E2E2E2E2E2E2E2
310
E2E2E2E2E2E2E2E2E2E2E2E2E2E2E2E2E2E2E2E2E2E2E2E2E2E2E2E2E2E2E2E2E2E2E2E2E2E2E2E2E2E2E2E2E2E2E2E2E2E2E2E2E2E2E2E2E2E2E2E2E2E2E2E2E2E2F5E2E2F5F5F5E2E2F5E2E2E2E2E2E2E2E2E2E2E2E2E2E2E2E2E2E2E2E2E2E2E2E2E2E2E2E2E2E2E2E2E2E2E2E2E2E2E2E2E2E2E2E2E2E2E2E2E2E2E2E2
310
E2E2E2E2E2E2E2E2E2E2E2E2E2E2E2E2E2E2E2E2E2E2E2E2E2E2E2E2E2E2E2E2E2E2E2E2E2E2E2E2E2E2E2E2E2E2E2E2E2E2E2E2E2E2E2E2E2E2E2E2E2E2E2E2E2E2E2E2E2E2E2E2E2E2E2E2E2E2E2E2E2E2E2E2E2E2E2E2E2E2E2E2E2E2E2E2E2E2E2E2E2E2E2E2E2E2E2E2E2E2E2E2E2E2E2E2E2E2E2F5E2E2F5F5F5E2E2
310
F5E2E2E2E2E2E2E2E2E2E2E2E2E2E2E2E2E2E2E2E2E2E2E2E2E2E2E2E2E2E2E2E2E2E2E2E2E2E2E2E2E2E2E2E2E2E2E2E2E2E2E2E2E2E2E2E2E2E2E2E2E2E2E2E2E2E2E2E2E2E2E2E2E2E2E2E2E2E2E2E2E2E2E2E2E2E2E2E2E2E2E2E2E2E2E2E2E2E2E2E2E2E2E2E2E2E2E2E2E2E2E2E2E2E2E2E2E2E2E2E2E2E2E2E2E2E2
310
E2E2E2E2E2E2E2E2E2E2E2E2E2E2E2E2E2E2E2E2E2E2E2E2E2E2E2E2E2E2E2E2E2E2E2E2E2E2E2E2E2E2E2E2E2F5E2E2F5F5F5E2E2F5E2E2E2E2E2E2E2E2E2E2E2E2E2E2E2E2E2E2E2E2E2E2E2E2E2E2E2E2E2E2E2E2E2E2E2E2E2E2E2E2E2E2E2E2E2E2E2E2E2E2E2E2E2E2E2E2E2E2E2E2E2E2E2E2E2E2E2E2E2E2E2E2E2
310
E2E2E2E2E2E2E2E2E2E2E2E2E2E2E2E2E2E2E2E2E2E2E2E2E2E2E2E2E2E2E2E2E2E2E2E2E2E2E2E2E2E2E2E2E2E2E2E2E2E2E2E2E2E2E2E2E2E2E2E2E2E2E2E2E2E2E2E2E2E2E2E2E2E2E2E2E2E2E2E2E2E2E2E2E2E2E2E2E2E2E2E2E2E2E2E2E2E2F5E2E2F5F5F5E2E2F5E2E2E2E2E2E2E2E2E2E2E2E2E2E2E2E2E2E2E2E2
310
E2E2E2E2E2E2E2E2E2E2E2E2E2E2E2E2E2E2E2E2E2E2E2E2E2E2E2E2E2E2E2E2E2E2E2E2E2E2E2E2E2E2E2E2E2E2E2E2E2E2E2E2E2E2E2E2E2E2E2E2E2E2E2E2E2E2E2E2E2E2E2E2E2E2E2E2E2E2E2E2E2E2E2E2E2E2E2E2E2E2E2E2E2E2E2E2E2E2E2E2E2E2E2E2E2E2E2E2E2E2E2E2E2E2E2E2E2E2E2E2E2E2E2E2E2E2E2
310
E2E2E2E2E2E2E2E2E2E2E2E2E2E2E2E2E2E2E2E2E2E2E2E2F5E2E2F5F5F5E2E2F5E2E2E2E2E2E2E2E2E2E2E2E2E2E2E2E2E2E2E2E2E2E2E2E2E2E2E2E2E2E2E2E2E2E2E2E2E2E2E2E2E2E2E2E2E2E2E2E2E2E2E2E2E2E2E2E2E2E2E2E2E2E2E2E2E2E2E2E2E2E2E2E2E2E2E2E2E2E2E2E2E2E2E2E2E2E2E2E2E2E2E2E2E2E2
310
E2E2E2E2E2E2E2E2E2E2E2E2E2E2E2E2E2E2E2E2E2E2E2E2E2E2E2E2E2E2E2E2E2E2E2E2E2E2E2E2E2E2E2E2E2E2E2E2E2E2E2E2E2E2E2E2E2E2E2E2E2E2E2E2E2E2E2E2E2E2E2E2E2E2E2E2E2F5E2E2F5F5F5E2E2F5E2E2E2E2E2E2E2E2E2E2E2E2E2E2E2E2E2E2E2E2E2E2E2E2E2E2E2E2E2E2E2E2E2E2E2E2E2E2E2E2E2
310
E2E2E2E2E2E2E2E2E2E2E2E2E2E2E2E2E2E2E2E2E2E2E2E2E2E2E2E2E2E2E2E2E2E2E2E2E2E2E2E2E2E2E2E2E2E2E2E2E2E2E2E2E2E2E2E2E2E2E2E2E2E2E2E2E2E2E2E2E2E2E2E2E2E2E2E2E2E2E2E2E2E2E2E2E2E2E2E2E2E2E2E2E2E2E2E2E2E2E2E2E2E2E2E2E2E2E2E2E2E2E2E2E2E2E2E2E2E2E2E2E2E2E2E2E2E2E2
310
E2E2E2F5E2E2F5F5F5E2E2F5E2E2E2E2E2E2E2E2E2E2E2E2E2E2E2E2E2E2E2E2E2E2E2E2E2E2E2E2E2E2E2E2E2E2E2E2E2E2E2E2E2E2E2E2E2E2E2E2E2E2E2E2E2E2E2E2E2E2E2E2E2E2E2E2E2E2E2E2E2E2E2E2E2E2E2E2E2E2E2E2E2E2E2E2E2E2E2E2E2E2E2E2E2E2E2E2E2E2E2E2E2E2E2E2E2E2E2E2E2E2E2E2E2E2E2
310
E2E2E2E2E2E2E2E2E2E2E2E2E2E2E2E2E2E2E2E2E2E2E2E2E2E2E2E2E2E2E2E2E2E2E2E2E2E2E2E2E2E2E2E2E2E2E2E2E2E2E2E2E2E2E2E2F5E2E2F5F5F5E2E2F5E2E2E2E2E2E2E2E2E2E2E2E2E2E2E2E2E2E2E2E2E2E2E2E2E2E2E2E2E2E2E2E2E2E2E2E2E2E2E2E2E2E2E2E2E2E2E2E2E2E2E2E2E2E2E2E2E2E2E2E2E2E2
310
E2E2E2E2E2E2E2E2E2E2E2E2E2E2E2E2E2E2E2E2E2E2E2E2E2E2E2E2E2E2E2E2E2E2E2E2E2E2E2E2E2E2E2E2E2E2E2E2E2E2E2E2E2E2E2E2E2E2E2E2E2E2E2E2E2E2E2E2E2E2E2E2E2E2E2E2E2E2E2E2E2E2E2E2E2E2E2E2E2E2E2E2E2E2E2E2E2E2E2E2E2E2E2E2E2E2E2E2E2F5E2E2F5F5F5E2E2F5E2E2E2E2E2E2E2E2E2
310
E2E2E2E2E2E2E2E2E2E2E2E2E2E2E2E2E2E2E2E2E2E2E2E2E2E2E2E2E2E2E2E2E2E2E2E2E2E2E2E2E2E2E2E2E2E2E2E2E2E2E2E2E2E2E2E2E2E2E2E2E2E2E2E2E2E2E2E2E2E2E2E2E2E2E2E2E2E2E2E2E2E2E2E2E2E2E2E2E2E2E2E2E2E2E2E2E2E2E2E2E2E2E2E2E2E2E2E2E2E2E2E2E2E2E2E2E2E2E2E2E2E2E2E2E2E2E2
310
E2E2E2E2E2E2E2E2E2E2E2E2E2E2E2E2E2E2E2E2E2E2E2E2E2E2E2E2E2E2E2E2E2E2E2F5E2E2F5F5F5E2E2F5E2E2E2E2E2E2E2E2E2E2E2E2E2E2E2E2E2E2E2E2E2E2E2E2E2E2E2E2E2E2E2E2E2E2E2E2E2E2E2E2E2E2E2E2E2E2E2E2E2E2E2E2E2E2E2E2E2E2E2E2E2E2E2E2E2E2E2E2E2E2E2E2E2E2E2E2E2E2E2E2E2E2E2
310
E2E2E2E2E2E2E2E2E2E2E2E2E2E2E2E2E2E2E2E2E2E2E2E2E2E2E2E2E2E2E2E2E2E2E2E2E2E2E2E2E2E2E2E2E2E2E2E2E2E2E2E2E2E2E2E2E2E2E2E2E2E2E2E2E2E2E2E2E2E2E2E2E2E2E2E2E2E2E2E2E2E2E2E2E2E2E2E2F5E2E2F5F5F5E2E2F5E2E2E2E2E2E2E2E2E2E2E2E2E2E2E2E2E2E2E2E2E2E2E2E2E2E2E2E2E2E2
310
E2E2E2E2E2E2E2E2E2E2E2E2E2E2E2E2E2E2E2E2E2E2E2E2E2E2E2E2E2E2E2E2E2E2E2E2E2E2E2E2E2E2E2E2E2E2E2E2E2E2E2E2E2E2E2E2E2E2E2E2E2E2E2E2E2E2E2E2E2E2E2E2E2E2E2E2E2E2E2E2E2E2E2E2E2E2E2E2E2E2E2E2E2E2E2E2E2E2E2E2E2E2E2E2E2E2E2E2E2E2E2E2E2E2E2E2E2E2E2E2E2E2E2E2E2E2E2
310
E2E2E2E2E2E2E2E2E2E2E2E2E2E2F5E2E2F5F5F5E2E2F5E2E2E2E2E2E2E2E2E2E2E2E2E2E2E2E2E2E2E2E2E2E2E2E2E2E2E2E2E2E2E2E2E2E2E2E2E2E2E2E2E2E2E2E2E2E2E2E2E2E2E2E2E2E2E2E2E2E2E2E2E2E2E2E2E2E2E2E2E2E2E2E2E2E2E2E2E2E2E2E2E2E2E2E2E2E2E2E2E2E2E2E2E2E2E2E2E2E2E2E2E2E2E2E2
310
E2E2E2E2E2E2E2E2E2E2E2E2E2E2E2E2E2E2E2E2E2E2E2E2E2E2E2E2E2E2E2E2E2E2E2E2E2E2E2E2E2E2E2E2E2E2E2E2E2E2E2E2E2E2E2E2E2E2E2E2E2E2E2E2E2E2E2F5E2E2F5F5F5E2E2E2E2E2E2E2E2E2E2E2E2E2E2E2E2E2E2E2E2E2E2E2E2E2E2E2E2E2E2E2E2E2E2E2E2E2E2E2E2E2E2E2E2E2E2E2E2E2E2E2E2E2E2
310
E2E2E2E2E2E2E2E2E2E2E2E2E2E2E2E2E2E2E2E2E2E2E2E2E2E2E2E2E2E2E2E2E2E2E2E2E2E2E2E2E2E2E2E2E2E2E2E2E2E2E2E2E2E2E2E2E2E2E2E2E2E2E2E2E2E2E2E2E2E2E2E2E2E2E2E2E2E2E2E2E2E2E2E2E2E2E2E2E2E2E2E2E2E2E2E2E2E2E2E2E2E2E2E2E2E2E2E2E2E2E2E2E2E2E2E2E2E2E2E2E2E2E2F5F5F5E2
310
E2E2E2E2E2E2E2E2E2E2E2E2E2E2E2E2E2E2E2E2E2E2E2E2E2E2E2E2E2E2E2E2E2E2E2E2E2E2E2E2E2E2E2E2E2E2E2E2E2E2E2E2E2E2E2E2E2E2E2E2E2E2E2E2E2E2E2E2E2E2E2E2E2E2E2E2E2E2E2E2E2E2E2E2E2E2E2E2E2E2E2E2E2E2E2E2E2E2E2E2E2E2E2E2E2E2E2E2E2E2E2E2E2E2E2E2E2E2E2E2E2E2E2E2E2E2E2
310
E2E2E2E2E2E2E2E2E2E2E2E2E2E2E2E2E2E2E2E2E2E2E2E2E2E2E2E2E2E2E2E2E2E2E2E2E2E2E2E2E2E2E2E2E2E2E2E2E2F5F5F5E2E2E2E2E2E2E2E2E2E2E2E2E2E2E2E2E2E2E2E2E2E2E2E2E2E2E2E2E2E2E2E2E2E2E2E2E2E2E2E2E2E2E2E2E2E2E2E2E2E2E2E2E2E2E2E2E2E2E2E2E2E2E2E2E2E2E2E2E2E2E2E2E2E2E2
310
E2E2E2E2E2E2E2E2E2E2E2E2E2E2E2E2E2E2E2E2E2E2E2E2E2E2E2E2E2E2E2E2E2E2E2E2E2E2E2E2E2E2E2E2E2E2E2E2E2E2E2E2E2E2E2E2E2E2E2E2E2E2E2E2E2E2E2E2E2E2E2E2E2E2E2E2E2E2E2E2E2E2E2E2E2E2E2E2E2E2E2E2E2E2E2E2E2E2E2E2E2E2F5F5F5E2E2E2E2E2E2E2E2E2E2E2E2E2E2E2E2E2E2E2E2E2E2
310
E2E2E2E2E2E2E2E2E2E2E2E2E2E2E2E2E2E2E2E2E2E2E2E2E2E2E2E2E2E2E2E2E2E2E2E2E2E2E2E2E2E2E2E2E2E2E2E2E2E2E2E2E2E2E2E2E2E2E2E2E2E2E2E2E2E2E2E2E2E2E2E2E2E2E2E2E2E2E2E2E2E2E2E2E2E2E2E2E2E2E2E2E2E2E2E2E2E2E2E2E2E2E2E2E2E2E2E2E2E2E2E2E2E2E2E2E2E2E2E2E2E2E2E2E2E2E2
310
E2E2E2E2E2E2E2E2E2E2E2E2E2E2E2E2E2E2E2E2E2E2E2E2E2E2E2E2F5F5F5E2E2E2E2E2E2E2E2E2E2E2E2E2E2E2E2E2E2E2E2E2E2E2E2E2E2E2E2E2E2E2E2E2E2E2E2E2E2E2E2E2E2E2E2E2E2E2E2E2E2E2E2E2E2E2E2E2E2E2E2E2E2E2E2E2E2E2E2E2E2E2E2E2E2E2E2E2E2E2E2E2E2E2E2E2E2E2E2E2E2E2E2E2E2E2E2
310
E2E2E2E2E2E2E2E2E2E2E2E2E2E2E2E2E2E2E2E2E2E2E2E2E2E2E2E2E2E2E2E2E2E2E2E2E2E2E2E2E2E2E2E2E2E2E2E2E2E2E2E2E2E2E2E2E2E2E2E2E2E2E2E2E2E2E2E2E2E2E2E2E2E2E2E2E2E2E2E2E2F5F5F5E2E2E2E2E2E2E2E2E2E2E2E2E2E2E2E2E2E2E2E2E2E2E2E2E2E2E2E2E2E2E2E2E2E2E2E2E2E2E2E2E2E2E2
310
E2E2E2E2E2E2E2E2E2E2E2E2E2E2E2E2E2E2E2E2E2E2E2E2E2E2E2E2E2E2E2E2E2E2E2E2E2E2E2E2E2E2E2E2E2E2E2E2E2E2E2E2E2E2E2E2E2E2E2E2E2E2E2E2E2E2E2E2E2E2E2E2E2E2E2E2E2E2E2E2E2E2E2E2E2E2E2E2E2E2E2E2E2E2E2E2E2E2E2E2E2E2E2E2E2E2E2E2E2E2E2E2E2E2E2E2E2E2E2E2E2E2E2E2E2E2E2
310
E2E2E2E2E2E2E2F5F5F5E2E2E2E2E2E2E2E2E2E2E2E2E2E2E2E2E2E2E2E2E2E2E2E2E2E2E2E2E2E2E2E2E2E2E2E2E2E2E2E2E2E2E2E2E2E2E2E2E2E2E2E2E2E2E2E2E2E2E2E2E2E2E2E2E2E2E2E2E2E2E2E2E2E2E2E2E2E2E2E2E2E2E2E2E2E2E2E2E2E2E2E2E2E2E2E2E2E2E2E2E2E2E2E2E2E2E2E2E2E2E2E2E2E2E2E2E2
310
E2E2E2E2E2E2E2E2E2E2E2E2E2E2E2E2E2E2E2E2E2E2E2E2E2E2E2E2E2E2E2E2E2E2E2E2E2E2E2E2E2E2E2E2E2E2E2E2E2E2E2E2E2E2E2E2E2E2E2E2F5F5F5E2E2E2E2E2E2E2E2E2E2E2E2E2E2E2E2E2E2E2E2E2E2E2E2E2E2E2E2E2E2E2E2E2E2E2E2E2E2E2E2E2E2E2E2E2E2E2E2E2E2E2E2E2E2E2E2E2E2E2E2E2E2E2E2
310
E2E2E2E2E2E2E2E2E2E2E2E2E2E2E2E2E2E2E2E2E2E2E2E2E2E2E2E2E2E2E2E2E2E2E2E2E2E2E2E2E2E2E2E2E2E2E2E2E2E2E2E2E2E2E2E2E2E2E2E2E2E2E2E2E2E2E2E2E2E2E2E2E2E2E2E2E2E2E2E2E2E2E2E2E2E2E2E2E2E2E2E2E2E2E2E2E2E2E2E2E2E2E2E2E2E2E2E2E2E2E2E2E2F5F5F5E2E2E2E2E2E2E2E2E2E2E2
310
E2E2E2E2E2E2E2E2E2E2E2E2E2E2E2E2E2E2E2E2E2E2E2E2E2E2E2E2E2E2E2E2E2E2E2E2E2E2E2E2E2E2E2E2E2E2E2E2E2E2E2E2E2E2E2E2E2E2E2E2E2E2E2E2E2E2E2E2E2E2E2E2E2E2E2E2E2E2E2E2E2E2E2E2E2E2E2E2E2E2E2E2E2E2E2E2E2E2E2E2E2E2E2E2E2E2E2E2E2E2E2E2E2E2E2E2E2E2E2E2E2E2E2E2E2E2E2
310
E2E2E2E2E2E2E2E2E2E2E2E2E2E2E2E2E2E2E2E2E2E2E2E2E2E2E2E2E2E2E2E2E2E2E2E2E2E2E2F5F5F5E2E2F5E2E2E2E2E2E2E2E2E2E2E2E2E2E2E2E2E2E2E2E2E2E2E2E2E2E2E2E2E2E2E2E2E2E2E2E2E2E2E2E2E2E2E2E2E2E2E2E2E2E2E2E2E2E2E2E2E2E2E2E2E2E2E2E2E2E2E2E2E2E2E2E2E2E2E2E2E2E2E2E2E2E2
310
E2E2E2E2E2E2E2E2E2E2E2E2E2E2E2E2E2E2E2E2E2E2E2E2E2E2E2E2E2E2E2E2E2E2E2E2E2E2E2E2E2E2E2E2E2E2E2E2E2E2E2E2E2E2E2E2E2E2E2E2E2E2E2E2E2E2E2E2E2E2E2E2E2E2E2E2E2E2E2E2E2E2E2E2E2E2E2E2E2F5E2E2F5F5F5E2E2F5E2E2E2E2E2E2E2E2E2E2E2E2E2E2E2E2E2E2E2E2E2E2E2E2E2E2E2E2E2
310
E2E2E2E2E2E2E2E2E2E2E2E2E2E2E2E2E2E2E2E2E2E2E2E2E2E2E2E2E2E2E2E2E2E2E2E2E2E2E2E2E2E2E2E2E2E2E2E2E2E2E2E2E2E2E2E2E2E2E2E2E2E2E2E2E2E2E2E2E2E2E2E2E2E2E2E2E2E2E2E2E2E2E2E2E2E2E2E2E2E2E2E2E2E2E2E2E2E2E2E2E2E2E2E2E2E2E2E2E2E2E2E2E2E2E2E2E2E2E2E2E2E2E2E2E2E2E2
310
E2E2E2E2E2E2E2E2E2E2E2E2E2E2E2F5E2E2F5F5F5E2E2F5E2E2E2E2E2E2E2E2E2E2E2E2E2E2E2E2E2E2E2E2E2E2E2E2E2E2E2E2E2E2E2E2E2E2E2E2E2E2E2E2E2E2E2E2E2E2E2E2E2E2E2E2E2E2E2E2E2E2E2E2E2E2E2E2E2E2E2E2E2E2E2E2E2E2E2E2E2E2E2E2E2E2E2E2E2E2E2E2E2E2E2E2E2E2E2E2E2E2E2E2E2E2E2
310
E2E2E2E2E2E2E2E2E2E2E2E2E2E2E2E2E2E2E2E2E2E2E2E2E2E2E2E2E2E2E2E2E2E2E2E2E2E2E2E2E2E2E2E2E2E2E2E2E2E2E2E2E2E2E2E2E2E2E2E2E2E2E2E2E2E2E2E2F5E2E2F5F5F5E2E2F5E2E2E2E2E2E2E2E2E2E2E2E2E2E2E2E2E2E2E2E2E2E2E2E2E2E2E2E2E2E2E2E2E2E2E2E2E2E2E2E2E2E2E2E2E2E2E2E2E2E2
310
E2E2E2E2E2E2E2E2E2E2E2E2E2E2E2E2E2E2E2E2E2E2E2E2E2E2E2E2E2E2E2E2E2E2E2E2E2E2E2E2E2E2E2E2E2E2E2E2E2E2E2E2E2E2E2E2E2E2E2E2E2E2E2E2E2E2E2E2E2E2E2E2E2E2E2E2E2E2E2E2E2E2E2E2E2E2E2E2E2E2E2E2E2E2E2E2E2E2E2E2E2E2E2E2E2E2E2E2E2E2E2E2E2E2E2E2E2E2E2E2E2F5E2E2F5F5F5
310
E2E2F5E2E2E2E2E2E2E2E2E2E2E2E2E2E2E2E2E2E2E2E2E2E2E2E2E2E2E2E2E2E2E2E2E2E2E2E2E2E2E2E2E2E2E2E2E2E2E2E2E2E2E2E2E2E2E2E2E2E2E2E2E2E2E2E2E2E2E2E2E2E2E2E2E2E2E2E2E2E2E2E2E2E2E2E2E2E2E2E2E2E2E2E2E2E2E2E2E2E2E2E2E2E2E2E2E2E2E2E2E2E2E2E2E2E2E2E2E2E2E2E2E2E2E2E2
310
E2E2E2E2E2E2E2E2E2E2E2E2E2E2E2E2E2E2E2E2E2E2E2E2E2E2E2E2E2E2E2E2E2E2E2E2E2E2E2E2E2E2E2E2E2E2E2F5E2E2F5F5F5E2E2F5E2E2E2E2E2E2E2E2E2E2E2E2E2E2E2E2E2E2E2E2E2E2E2E2E2E2E2E2E2E2E2E2E2E2E2E2E2E2E2E2E2E2E2E2E2E2E2E2E2E2E2E2E2E2E2E2E2E2E2E2E2E2E2E2E2E2E2E2E2E2E2
310
E2E2E2E2E2E2E2E2E2E2E2E2E2E2E2E2E2E2E2E2E2E2E2E2E2E2E2E2E2E2E2E2E2E2E2E2E2E2E2E2E2E2E2E2E2E2E2E2E2E2E2E2E2E2E2E2E2E2E2E2E2E2E2E2E2E2E2E2E2E2E2E2E2E2E2E2E2E2E2E2E2E2E2E2E2E2E2E2E2E2E2E2E2E2E2E2E2E2E2E2F5E2E2F5F5F5E2E2F5E2E2E2E2E2E2E2E2E2E2E2E2E2E2E2E2E2E2
310
E2E2E2E2E2E2E2E2E2E2E2E2E2E2E2E2E2E2E2E2E2E2E2E2E2E2E2E2E2E2E2E2E2E2E2E2E2E2E2E2E2E2E2E2E2E2E2E2E2E2E2E2E2E2E2E2E2E2E2E2E2E2E2E2E2E2E2E2E2E2E2E2E2E2E2E2E2E2E2E2E2E2E2E2E2E2E2E2E2E2E2E2E2E2E2E2E2E2E2E2E2E2E2E2E2E2E2E2E2E2E2E2E2E2E2E2E2E2E2E2E2E2E2E2E2E2E2
310
E2E2E2E2E2E2E2E2E2E2E2E2E2E2E2E2E2E2E2E2E2E2E2E2E2E2F5E2E2F5F5F5E2E2F5E2E2E2E2E2E2E2E2E2E2E2E2E2E2E2E2E2E2E2E2E2E2E2E2E2E2E2E2E2E2E2E2E2E2E2E2E2E2E2E2E2E2E2E2E2E2E2E2E2E2E2E2E2E2E2E2E2E2E2E2E2E2E2E2E2E2E2E2E2E2E2E2E2E2E2E2E2E2E2E2E2E2E2E2E2E2E2E2E2E2E2E2
310
E2E2E2E2E2E2E2E2E2E2E2E2E2E2E2E2E2E2E2E2E2E2E2E2E2E2E2E2E2E2E2E2E2E2E2E2E2E2E2E2E2E2E2E2E2E2E2E2E2E2E2E2E2E2E2E2E2E2E2E2E2E2E2E2E2E2E2E2E2E2E2E2E2E2E2E2E2E2E2F5E2E2F5F5F5E2E2F5E2E2E2E2E2E2E2E2E2E2E2E2E2E2E2E2E2E2E2E2E2E2E2E2E2E2E2E2E2E2E2E2E2E2E2E2E2E2E2
310
E2E2E2E2E2E2E2E2E2E2E2E2E2E2E2E2E2E2E2E2E2E2E2E2E2E2E2E2E2E2E2E2E2E2E2E2E2E2E2E2E2E2E2E2E2E2E2E2E2E2E2E2E2E2E2E2E2E2E2E2E2E2E2E2E2E2E2E2E2E2E2E2E2E2E2E2E2E2E2E2E2E2E2E2E2E2E2E2E2E2E2E2E2E2E2E2E2E2E2E2E2E2E2E2E2E2E2E2E2E2E2E2E2E2E2E2E2E2E2E2E2E2E2E2E2E2E2
310
E2E2E2E2E2F5E2E2F5F5F5E2E2F5E2E2E2E2E2E2E2E2E2E2E2E2E2E2E2E2E2E2E2E2E2E2E2E2E2E2E2E2E2E2E2E2E2E2E2E2E2E2E2E2E2E2E2E2E2E2E2E2E2E2E2E2E2E2E2E2E2E2E2E2E2E2E2E2E2E2E2E2E2E2E2E2E2E2E2E2E2E2E2E2E2E2E2E2E2E2E2E2E2E2E2E2E2E2E2E2E2E2E2E2E2E2E2E2E2E2E2E2E2E2E2E2E2
310
E2E2E2E2E2E2E2E2E2E2E2E2E2E2E2E2E2E2E2E2E2E2E2E2E2E2E2E2E2E2E2E2E2E2E2E2E2E2E2E2E2E2E2E2E2E2E2E2E2E2E2E2E2E2E2E2E2E2F5E2E2F5F5F5E2E2F5E2E2E2E2E2E2E2E2E2E2E2E2E2E2E2E2E2E2E2E2E2E2E2E2E2E2E2E2E2E2E2E2E2E2E2E2E2E2E2E2E2E2E2E2E2E2E2E2E2E2E2E2E2E2E2E2E2E2E2E2
310
E2E2E2E2E2E2E2E2E2E2E2E2E2E2E2E2E2E2E2E2E2E2E2E2E2E2E2E2E2E2E2E2E2E2E2E2E2E2E2E2E2E2E2E2E2E2E2E2E2E2E2E2E2E2E2E2E2E2E2E2E2E2E2E2E2E2E2E2E2E2E2E2E2E2E2E2E2E2E2E2E2E2E2E2E2E2E2E2E2E2E2E2E2E2E2E2E2E2E2E2E2E2E2E2E2E2E2E2E2E2E2F5E2E2F5F5F5E2E2F5E2E2E2E2E2E2E2
310
E2E2E2E2E2E2E2E2E2E2E2E2E2E2E2E2E2E2E2E2E2E2E2E2E2E2E2E2E2E2E2E2E2E2E2E2E2E2E2E2E2E2E2E2E2E2E2E2E2E2E2E2E2E2E2E2E2E2E2E2E2E2E2E2E2E2E2E2E2E2E2E2E2E2E2E2E2E2E2E2E2E2E2E2E2E2E2E2E2E2E2E2E2E2E2E2E2E2E2E2E2E2E2E2E2E2E2E2E2E2E2E2E2E2E2E2E2E2E2E2E2E2E2E2E2E2E2
310
E2E2E2E2E2E2E2E2E2E2E2E2E2E2E2E2E2E2E2E2E2E2E2E2E2E2E2E2E2E2E2E2E2E2E2E2E2F5E2E2F5F5F5E2E2F5E2E2E2E2E2E2E2E2E2E2E2E2E2E2E2E2E2E2E2E2E2E2E2E2E2E2E2E2E2E2E2E2E2E2E2E2E2E2E2E2E2E2E2E2E2E2E2E2E2E2E2E2E2E2E2E2E2E2E2E2E2E2E2E2E2E2E2E2E2E2E2E2E2E2E2E2E2E2E2E2E2
310
E2E2E2E2E2E2E2E2E2E2E2E2E2E2E2E2E2E2E2E2E2E2E2E2E2E2E2E2E2E2E2E2E2E2E2E2E2E2E2E2E2E2E2E2E2E2E2E2E2E2E2E2E2E2E2E2E2E2E2E2E2E2E2E2E2E2E2E2E2E2E2E2E2E2E2E2E2E2E2E2E2E2E2E2E2E2E2E2E2E2F5E2E2F5F5F5E2E2F5E2E2E2E2E2E2E2E2E2E2E2E2E2E2E2E2E2E2E2E2E2E2E2E2E2E2E2E2
310
E2E2E2E2E2E2E2E2E2E2E2E2E2E2E2E2E2E2E2E2E2E2E2E2E2E2E2E2E2E2E2E2E2E2E2E2E2E2E2E2E2E2E2E2E2E2E2E2E2E2E2E2E2E2E2E2E2E2E2E2E2E2E2E2E2E2E2E2E2E2E2E2E2E2E2E2E2E2E2E2E2E2E2E2E2E2E2E2E2E2E2E2E2E2E2E2E2E2E2E2E2E2E2E2E2E2E2E2E2E2E2E2E2E2E2E2E2E2E2E2E2E2E2E2E2E2E2
310
E2E2E2E2E2E2E2E2E2E2E2E2E2E2E2E2F5E2E2F5F5F5E2E2F5E2E2E2E2E2E2E2E2E2E2E2E2E2E2E2E2E2E2E2E2E2E2E2E2E2E2E2E2E2E2E2E2E2E2E2E2E2E2E2E2E2E2E2E2E2E2E2E2E2E2E2E2E2E2E2E2E2E2E2E2E2E2E2E2E2E2E2E2E2E2E2E2E2E2E2E2E2E2E2E2E2E2E2E2E2E2E2E2E2E2E2E2E2E2E2E2E2E2E2E2E2E2
310
E2E2E2E2E2E2E2E2E2E2E2E2E2E2E2E2E2E2E2E2E2E2E2E2E2E2E2E2E2E2E2E2E2E2E2E2E2E2E2E2E2E2E2E2E2E2E2E2E2E2E2E2E2E2E2E2E2E2E2E2E2E2E2E2E2E2E2E2E2F5E2E2F5F5F5E2E2F5E2E2E2E2E2E2E2E2E2E2E2E2E2E2E2E2E2E2E2E2E2E2E2E2E2E2E2E2E2E2E2E2E2E2E2E2E2E2E2E2E2E2E2E2E2E2E2E2E2
310
E2E2E2E2E2E2E2E2E2E2E2E2E2E2E2E2E2E2E2E2E2E2E2E2E2E2E2E2E2E2E2E2E2E2E2E2E2E2E2E2E2E2E2E2E2E2E2E2E2E2E2E2E2E2E2E2E2E2E2E2E2E2E2E2E2E2E2E2E2E2E2E2E2E2E2E2E2E2E2E2E2E2E2E2E2E2E2E2E2E2E2E2E2E2E2E2E2E2E2E2E2E2E2E2E2E2E2E2E2E2E2E2E2E2E2E2E2E2E2E2E2E2F5E2E2F5F5
310
F5E2E2E2E2E2E2E2E2E2E2E2E2E2E2E2E2E2E2E2E2E2E2E2E2E2E2E2E2E2E2E2E2E2E2E2E2E2E2E2E2E2E2E2E2E2E2E2E2E2E2E2E2E2E2E2E2E2E2E2E2E2E2E2E2E2E2E2E2E2E2E2E2E2E2E2E2E2E2E2E2E2E2E2E2E2E2E2E2E2E2E2E2E2E2E2E2E2E2E2E2E2E2E2E2E2E2E2E2E2E2E2E2E2E2E2E2E2E2E2E2E2E2E2E2E2E2
310
E2E2E2E2E2E2E2E2E2E2E2E2E2E2E2E2E2E2E2E2E2E2E2E2E2E2E2E2E2E2E2E2E2E2E2E2E2E2E2E2E2E2E2E2E2E2E2E2E2E2E2F5F5F5E2E2E2E2E2E2E2E2E2E2E2E2E2E2E2E2E2E2E2E2E2E2E2E2E2E2E2E2E2E2E2E2E2E2E2E2E2E2E2E2E2E2E2E2E2E2E2E2E2E2E2E2E2E2E2E2E2E2E2E2E2E2E2E2E2E2E2E2E2E2E2E2E2
310
E2E2E2E2E2E2E2E2E2E2E2E2E2E2E2E2E2E2E2E2E2E2E2E2E2E2E2E2E2E2E2E2E2E2E2E2E2E2E2E2E2E2E2E2E2E2E2E2E2E2E2E2E2E2E2E2E2E2E2E2E2E2E2E2E2E2E2E2E2E2E2E2E2E2E2E2E2E2E2E2E2E2E2E2E2E2E2E2E2E2E2E2E2E2E2E2E2E2E2E2E2E2E2E2F5F5F5E2E2E2E2E2E2E2E2E2E2E2E2E2E2E2E2E2E2E2E2
310
E2E2E2E2E2E2E2E2E2E2E2E2E2E2E2E2E2E2E2E2E2E2E2E2E2E2E2E2E2E2E2E2E2E2E2E2E2E2E2E2E2E2E2E2E2E2E2E2E2E2E2E2E2E2E2E2E2E2E2E2E2E2E2E2E2E2E2E2E2E2E2E2E2E2E2E2E2E2E2E2E2E2E2E2E2E2E2E2E2E2E2E2E2E2E2E2E2E2E2E2E2E2E2E2E2E2E2E2E2E2E2E2E2E2E2E2E2E2E2E2E2E2E2E2E2E2E2
310
E2E2E2E2E2E2E2E2E2E2E2E2E2E2E2E2E2E2E2E2E2E2E2E2E2E2E2E2E2E2F5F5F5E2E2E2E2E2E2E2E2E2E2E2E2E2E2E2E2E2E2E2E2E2E2E2E2E2E2E2E2E2E2E2E2E2E2E2E2E2E2E2E2E2E2E2E2E2E2E2E2E2E2E2E2E2E2E2E2E2E2E2E2E2E2E2E2E2E2E2E2E2E2E2E2E2E2E2E2E2E2E2E2E2E2E2E2E2E2E2E2E2E2E2E2E2E2
310
E2E2E2E2E2E2E2E2E2E2E2E2E2E2E2E2E2E2E2E2E2E2E2E2E2E2E2E2E2E2E2E2E2E2E2E2E2E2E2E2E2E2E2E2E2E2E2E2E2E2E2E2E2E2E2E2E2E2E2E2E2E2E2E2E2E2E2E2E2E2E2E2E2E2E2E2E2E2E2E2E2E2E2F5F5F5E2E2E2E2E2E2E2E2E2E2E2E2E2E2E2E2E2E2E2E2E2E2E2E2E2E2E2E2E2E2E2E2E2E2E2E2E2E2E2E2E2
310
E2E2E2E2E2E2E2E2E2E2E2E2E2E2E2E2E2E2E2E2E2E2E2E2E2E2E2E2E2E2E2E2E2E2E2E2E2E2E2E2E2E2E2E2E2E2E2E2E2E2E2E2E2E2E2E2E2E2E2E2E2E2E2E2E2E2E2E2E2E2E2E2E2E2E2E2E2E2E2E2E2E2E2E2E2E2E2E2E2E2E2E2E2E2E2E2E2E2E2E2E2E2E2E2E2E2E2E2E2E2E2E2E2E2E2E2E2E2E2E2E2E2E2E2E2E2E2
310
E2E2E2E2E2E2E2E2E2F5F5F5E2E2E2E2E2E2E2E2E2E2E2E2E2E2E2E2E2E2E2E2E2E2E2E2E2E2E2E2E2E2E2E2E2E2E2E2E2E2E2E2E2E2E2E2E2E2E2E2E2E2E2E2E2E2E2E2E2E2E2E2E2E2E2E2E2E2E2E2E2E2E2E2E2E2E2E2E2E2E2E2E2E2E2E2E2E2E2E2E2E2E2E2E2E2E2E2E2E2E2E2E2E2E2E2E2E2E2E2E2E2E2E2E2E2E2
310
E2E2E2E2E2E2E2E2E2E2E2E2E2E2E2E2E2E2E2E2E2E2E2E2E2E2E2E2E2E2E2E2E2E2E2E2E2E2E2E2E2E2E2E2E2E2E2E2E2E2E2E2E2E2E2E2E2E2E2E2E2E2F5F5F5E2E2E2E2E2E2E2E2E2E2E2E2E2E2E2E2E2E2E2E2E2E2E2E2E2E2E2E2E2E2E2E2E2E2E2E2E2E2E2E2E2E2E2E2E2E2E2E2E2E2E2E2E2E2E2E2E2E2E2E2E2E2
310
E2E2E2E2E2E2E2E2E2E2E2E2E2E2E2E2E2E2E2E2E2E2E2E2E2E2E2E2E2E2E2E2E2E2E2E2E2E2E2E2E2E2E2E2E2E2E2E2E2E2E2E2E2E2E2E2E2E2E2E2E2E2E2E2E2E2E2E2E2E2E2E2E2E2E2E2E2E2E2E2E2E2E2E2E2E2E2E2E2E2E2E2E2E2E2E2E2E2E2E2E2E2E2E2E2E2E2E2E2E2E2E2E2E2E2F5F5F5E2E2E2E2E2E2E2E2E2
310
E2E2E2E2E2E2E2E2E2E2E2E2E2E2E2E2E2E2E2E2E2E2E2E2E2E2E2E2E2E2E2E2E2E2E2E2E2E2E2E2E2E2E2E2E2E2E2E2E2E2E2E2E2E2E2E2E2E2E2E2E2E2E2E2E2E2E2E2E2E2E2E2E2E2E2E2E2E2E2E2E2E2E2E2E2E2E2E2E2E2E2E2E2E2E2E2E2E2E2E2E2E2E2E2E2E2E2E2E2E2E2E2E2E2E2E2E2E2E2E2E2E2E2E2E2E2E2
310
E2E2E2E2E2E2E2E2E2E2E2E2E2E2E2E2E2E2E2E2E2E2E2E2E2E2E2E2E2E2E2E2E2E2E2E2E2E2E2E2E2F5F5F5E2E2F5E2E2E2E2E2E2E2E2E2E2E2E2E2E2E2E2E2E2E2E2E2E2E2E2E2E2E2E2E2E2E2E2E2E2E2E2E2E2E2E2E2E2E2E2E2E2E2E2E2E2E2E2E2E2E2E2E2E2E2E2E2E2E2E2E2E2E2E2E2E2E2E2E2E2E2E2E2E2E2E2
310
E2E2E2E2E2E2E2E2E2E2E2E2E2E2E2E2E2E2E2E2E2E2E2E2E2E2E2E2E2E2E2E2E2E2E2E2E2E2E2E2E2E2E2E2E2E2E2E2E2E2E2E2E2E2E2E2E2E2E2E2E2E2E2E2E2E2E2E2E2E2E2E2E2E2E2E2E2E2E2E2E2E2E2E2E2E2E2E2E2E2E2F5E2E2F5F5F5E2E2F5E2E2E2E2E2E2E2E2E2E2E2E2E2E2E2E2E2E2E2E2E2E2E2E2E2E2E2
310
E2E2E2E2E2E2E2E2E2E2E2E2E2E2E2E2E2E2E2E2E2E2E2E2E2E2E2E2E2E2E2E2E2E2E2E2E2E2E2E2E2E2E2E2E2E2E2E2E2E2E2E2E2E2E2E2E2E2E2E2E2E2E2E2E2E2E2E2E2E2E2E2E2E2E2E2E2E2E2E2E2E2E2E2E2E2E2E2E2E2E2E2E2E2E2E2E2E2E2E2E2E2E2E2E2E2E2E2E2E2E2E2E2E2E2E2E2E2E2E2E2E2E2E2E2E2E2
310
E2E2E2E2E2E2E2E2E2E2E2E2E2E2E2E2E2F5E2E2F5F5F5E2E2F5E2E2E2E2E2E2E2E2E2E2E2E2E2E2E2E2E2E2E2E2E2E2E2E2E2E2E2E2E2E2E2E2E2E2E2E2E2E2E2E2E2E2E2E2E2E2E2E2E2E2E2E2E2E2E2E2E2E2E2E2E2E2E2E2E2E2E2E2E2E2E2E2E2E2E2E2E2E2E2E2E2E2E2E2E2E2E2E2E2E2E2E2E2E2E2E2E2E2E2E2E2
310
E2E2E2E2E2E2E2E2E2E2E2E2E2E2E2E2E2E2E2E2E2E2E2E2E2E2E2E2E2E2E2E2E2E2E2E2E2E2E2E2E2E2E2E2E2E2E2E2E2E2E2E2E2E2E2E2E2E2E2E2E2E2E2E2E2E2E2E2E2E2F5E2E2F5F5F5E2E2F5E2E2E2E2E2E2E2E2E2E2E2E2E2E2E2E2E2E2E2E2E2E2E2E2E2E2E2E2E2E2E2E2E2E2E2E2E2E2E2E2E2E2E2E2E2E2E2E2
310
E2E2E2E2E2E2E2E2E2E2E2E2E2E2E2E2E2E2E2E2E2E2E2E2E2E2E2E2E2E2E2E2E2E2E2E2E2E2E2E2E2E2E2E2E2E2E2E2E2E2E2E2E2E2E2E2E2E2E2E2E2E2E2E2E2E2E2E2E2E2E2E2E2E2E2E2E2E2E2E2E2E2E2E2E2E2E2E2E2E2E2E2E2E2E2E2E2E2E2E2E2E2E2E2E2E2E2E2E2E2E2E2E2E2E2E2E2E2E2E2E2E2E2F5E2E2F5
310
F5F5E2E2F5E2E2E2E2E2E2E2E2E2E2E2E2E2E2E2E2E2E2E2E2E2E2E2E2E2E2E2E2E2E2E2E2E2E2E2E2E2E2E2E2E2E2E2E2E2E2E2E2E2E2E2E2E2E2E2E2E2E2E2E2E2E2E2E2E2E2E2E2E2E2E2E2E2E2E2E2E2E2E2E2E2E2E2E2E2E2E2E2E2E2E2E2E2E2E2E2E2E2E2E2E2E2E2E2E2E2E2E2E2E2E2E2E2E2E2E2E2E2E2E2E2E2
310
E2E2E2E2E2E2E2E2E2E2E2E2E2E2E2E2E2E2E2E2E2E2E2E2E2E2E2E2E2E2E2E2E2E2E2E2E2E2E2E2E2E2E2E2E2E2E2E2E2F5E2E2F5F5F5E2E2F5E2E2E2E2E2E2E2E2E2E2E2E2E2E2E2E2E2E2E2E2E2E2E2E2E2E2E2E2E2E2E2E2E2E2E2E2E2E2E2E2E2E2E2E2E2E2E2E2E2E2E2E2E2E2E2E2E2E2E2E2E2E2E2E2E2E2E2E2E2
310
E2E2E2E2E2E2E2E2E2E2E2E2E2E2E2E2E2E2E2E2E2E2E2E2E2E2E2E2E2E2E2E2E2E2E2E2E2E2E2E2E2E2E2E2E2E2E2E2E2E2E2E2E2E2E2E2E2E2E2E2E2E2E2E2E2E2E2E2E2E2E2E2E2E2E2E2E2E2E2E2E2E2E2E2E2E2E2E2E2E2E2E2E2E2E2E2E2E2E2E2E2E2F5E2E2F5F5F5E2E2F5E2E2E2E2E2E2E2E2E2E2E2E2E2E2E2E2
310
E2E2E2E2E2E2E2E2E2E2E2E2E2E2E2E2E2E2E2E2E2E2E2E2E2E2E2E2E2E2E2E2E2E2E2E2E2E2E2E2E2E2E2E2E2E2E2E2E2E2E2E2E2E2E2E2E2E2E2E2E2E2E2E2E2E2E2E2E2E2E2E2E2E2E2E2E2E2E2E2E2E2E2E2E2E2E2E2E2E2E2E2E2E2E2E2E2E2E2E2E2E2E2E2E2E2E2E2E2E2E2E2E2E2E2E2E2E2E2E2E2E2E2E2E2E2E2
310
E2E2E2E2E2E2E2E2E2E2E2E2E2E2E2E2E2E2E2E2E2E2E2E2E2E2E2E2F5E2E2F5F5F5E2E2F5E2E2E2E2E2E2E2E2E2E2E2E2E2E2E2E2E2E2E2E2E2E2E2E2E2E2E2E2E2E2E2E2E2E2E2E2E2E2E2E2E2E2E2E2E2E2E2E2E2E2E2E2E2E2E2E2E2E2E2E2E2E2E2E2E2E2E2E2E2E2E2E2E2E2E2E2E2E2E2E2E2E2E2E2E2E2E2E2E2E2
310
E2E2E2E2E2E2E2E2E2E2E2E2E2E2E2E2E2E2E2E2E2E2E2E2E2E2E2E2E2E2E2E2E2E2E2E2E2E2E2E2E2E2E2E2E2E2E2E2E2E2E2E2E2E2E2E2E2E2E2E2E2E2E2E2E2E2E2E2E2E2E2E2E2E2E2E2E2E2E2E2E2F5E2E2F5F5F5E2E2F5E2E2E2E2E2E2E2E2E2E2E2E2E2E2E2E2E2E2E2E2E2E2E2E2E2E2E2E2E2E2E2E2E2E2E2E2E2
310
E2E2E2E2E2E2E2E2E2E2E2E2E2E2E2E2E2E2E2E2E2E2E2E2E2E2E2E2E2E2E2E2E2E2E2E2E2E2E2E2E2E2E2E2E2E2E2E2E2E2E2E2E2E2E2E2E2E2E2E2E2E2E2E2E2E2E2E2E2E2E2E2E2E2E2E2E2E2E2E2E2E2E2E2E2E2E2E2E2E2E2E2E2E2E2E2E2E2E2E2E2E2E2E2E2E2E2E2E2E2E2E2E2E2E2E2E2E2E2E2E2E2E2E2E2E2E2
310
E2E2E2E2E2E2E2F5E2E2F5F5F5E2E2F5E2E2E2E2E2E2E2E2E2E2E2E2E2E2E2E2E2E2E2E2E2E2E2E2E2E2E2E2E2E2E2E2E2E2E2E2E2E2E2E2E2E2E2E2E2E2E2E2E2E2E2E2E2E2E2E2E2E2E2E2E2E2E2E2E2E2E2E2E2E2E2E2E2E2E2E2E2E2E2E2E2E2E2E2E2E2E2E2E2E2E2E2E2E2E2E2E2E2E2E2E2E2E2E2E2E2E2E2E2E2E2
310
E2E2E2E2E2E2E2E2E2E2E2E2E2E2E2E2E2E2E2E2E2E2E2E2E2E2E2E2E2E2E2E2E2E2E2E2E2E2E2E2E2E2E2E2E2E2E2E2E2E2E2E2E2E2E2E2E2E2E2E2F5E2E2F5F5F5E2E2F5E2E2E2E2E2E2E2E2E2E2E2E2E2E2E2E2E2E2E2E2E2E2E2E2E2E2E2E2E2E2E2E2E2E2E2E2E2E2E2E2E2E2E2E2E2E2E2E2E2E2E2E2E2E2E2E2E2E2
310
E2E2E2E2E2E2E2E2E2E2E2E2E2E2E2E2E2E2E2E2E2E2E2E2E2E2E2E2E2E2E2E2E2E2E2E2E2E2E2E2E2E2E2E2E2E2E2E2E2E2E2E2E2E2E2E2E2E2E2E2E2E2E2E2E2E2E2E2E2E2E2E2E2E2E2E2E2E2E2E2E2E2E2E2E2E2E2E2E2E2E2E2E2E2E2E2E2E2E2E2E2E2E2E2E2E2E2E2E2E2E2E2E2F5E2E2F5F5F5E2E2F5E2E2E2E2E2
310
E2E2E2E2E2E2E2E2E2E2E2E2E2E2E2E2E2E2E2E2E2E2E2E2E2E2E2E2E2E2E2E2E2E2E2E2E2E2E2E2E2E2E2E2E2E2E2E2E2E2E2E2E2E2E2E2E2E2E2E2E2E2E2E2E2E2E2E2E2E2E2E2E2E2E2E2E2E2E2E2E2E2E2E2E2E2E2E2E2E2E2E2E2E2E2E2E2E2E2E2E2E2E2E2E2E2E2E2E2E2E2E2E2E2E2E2E2E2E2E2E2E2E2E2E2E2E2
310
E2E2E2E2E2E2E2E2E2E2E2E2E2E2E2E2E2E2E2E2E2E2E2E2E2E2E2E2E2E2E2E2E2E2E2E2E2E2E2F5E2E2F5F5F5E2E2F5E2E2E2E2E2E2E2E2E2E2E2E2E2E2E2E2E2E2E2E2E2E2E2E2E2E2E2E2E2E2E2E2E2E2E2E2E2E2E2E2E2E2E2E2E2E2E2E2E2E2E2E2E2E2E2E2E2E2E2E2E2E2E2E2E2E2E2E2E2E2E2E2E2E2E2E2E2E2E2
310
E2E2E2E2E2E2E2E2E2E2E2E2E2E2E2E2E2E2E2E2E2E2E2E2E2E2E2E2E2E2E2E2E2E2E2E2E2E2E2E2E2E2E2E2E2E2E2E2E2E2E2E2E2E2E2E2E2E2E2E2E2E2E2E2E2E2E2E2E2E2E2E2E2E2E2E2E2E2E2E2E2E2E2E2E2E2E2E2E2E2E2E2F5E2E2F5F5F5E2E2F5E2E2E2E2E2E2E2E2E2E2E2E2E2E2E2E2E2E2E2E2E2E2E2E2E2E2
310
E2E2E2E2E2E2E2E2E2E2E2E2E2E2E2E2E2E2E2E2E2E2E2E2E2E2E2E2E2E2E2E2E2E2E2E2E2E2E2E2E2E2E2E2E2E2E2E2E2E2E2E2E2E2E2E2E2E2E2E2E2E2E2E2E2E2E2E2E2E2E2E2E2E2E2E2E2E2E2E2E2E2E2E2E2E2E2E2E2E2E2E2E2E2E2E2E2E2E2E2E2E2E2E2E2E2E2E2E2E2E2E2E2E2E2E2E2E2E2E2E2E2E2E2E2E2E2
310
E2E2E2E2E2E2E2E2E2E2E2E2E2E2E2E2E2E2F5E2E2F5F5F5E2E2F5E2E2E2E2E2E2E2E2E2E2E2E2E2E2E2E2E2E2E2E2E2E2E2E2E2E2E2E2E2E2E2E2E2E2E2E2E2E2E2E2E2E2E2E2E2E2E2E2E2E2E2E2E2E2E2E2E2E2E2E2E2E2E2E2E2E2E2E2E2E2E2E2E2E2E2E2E2E2E2E2E2E2E2E2E2E2E2E2E2E2E2E2E2E2E2E2E2E2E2E2
310
E2E2E2E2E2E2E2E2E2E2E2E2E2E2E2E2E2E2E2E2E2E2E2E2E2E2E2E2E2E2E2E2E2E2E2E2E2E2E2E2E2E2E2E2E2E2E2E2E2E2E2E2E2E2E2E2E2E2E2E2E2E2E2E2E2E2E2E2E2E2E2F5E2E2F5F5F5E2E2F5E2E2E2E2E2E2E2E2E2E2E2E2E2E2E2E2E2E2E2E2E2E2E2E2E2E2E2E2E2E2E2E2E2E2E2E2E2E2E2E2E2E2E2E2E2E2E2
310
E2E2E2E2E2E2E2E2E2E2E2E2E2E2E2E2E2E2E2E2E2E2E2E2E2E2E2E2E2E2E2E2E2E2E2E2E2E2E2E2E2E2E2E2E2E2E2E2E2E2E2E2E2E2E2E2E2E2E2E2E2E2E2E2E2E2E2E2E2E2E2E2E2E2E2E2E2E2E2E2E2E2E2E2E2E2E2E2E2E2E2E2E2E2E2E2E2E2E2E2E2E2E2E2E2E2E2E2E2E2E2E2E2E2E2E2E2E2E2E2E2E2E2E2F5E2E2
310
F5F5F5E2E2E2E2E2E2E2E2E2E2E2E2E2E2E2E2E2E2E2E2E2E2E2E2E2E2E2E2E2E2E2E2E2E2E2E2E2E2E2E2E2E2E2E2E2E2E2E2E2E2E2E2E2E2E2E2E2E2E2E2E2E2E2E2E2E2E2E2E2E2E2E2E2E2E2E2E2E2E2E2E2E2E2E2E2E2E2E2E2E2E2E2E2E2E2E2E2E2E2E2E2E2E2E2E2E2E2E2E2E2E2E2E2E2E2E2E2E2E2E2E2E2E2E2
310
E2E2E2E2E2E2E2E2E2E2E2E2E2E2E2E2E2E2E2E2E2E2E2E2E2E2E2E2E2E2E2E2E2E2E2E2E2E2E2E2E2E2E2E2E2E2E2E2E2E2E2E2E2F5F5F5E2E2E2E2E2E2E2E2E2E2E2E2E2E2E2E2E2E2E2E2E2E2E2E2E2E2E2E2E2E2E2E2E2E2E2E2E2E2E2E2E2E2E2E2E2E2E2E2E2E2E2E2E2E2E2E2E2E2E2E2E2E2E2E2E2E2E2E2E2E2E2
310
E2E2E2E2E2E2E2E2E2E2E2E2E2E2E2E2E2E2E2E2E2E2E2E2E2E2E2E2E2E2E2E2E2E2E2E2E2E2E2E2E2E2E2E2E2E2E2E2E2E2E2E2E2E2E2E2E2E2E2E2E2E2E2E2E2E2E2E2E2E2E2E2E2E2E2E2E2E2E2E2E2E2E2E2E2E2E2E2E2E2E2E2E2E2E2E2E2E2E2E2E2E2E2E2E2E2F5F5F5E2E2E2E2E2E2E2E2E2E2E2E2E2E2E2E2E2E2
310
E2E2E2E2E2E2E2E2E2E2E2E2E2E2E2E2E2E2E2E2E2E2E2E2E2E2E2E2E2E2E2E2E2E2E2E2E2E2E2E2E2E2E2E2E2E2E2E2E2E2E2E2E2E2E2E2E2E2E2E2E2E2E2E2E2E2E2E2E2E2E2E2E2E2E2E2E2E2E2E2E2E2E2E2E2E2E2E2E2E2E2E2E2E2E2E2E2E2E2E2E2E2E2E2E2E2E2E2E2E2E2E2E2E2E2E2E2E2E2E2E2E2E2E2E2E2E2
310
E2E2E2E2E2E2E2E2E2E2E2E2E2E2E2E2E2E2E2E2E2E2E2E2E2E2E2E2E2E2E2E2F5F5F5E2E2E2E2E2E2E2E2E2E2E2E2E2E2E2E2E2E2E2E2E2E2E2E2E2E2E2E2E2E2E2E2E2E2E2E2E2E2E2E2E2E2E2E2E2E2E2E2E2E2E2E2E2E2E2E2E2E2E2E2E2E2E2E2E2E2E2E2E2E2E2E2E2E2E2E2E2E2E2E2E2E2E2E2E2E2E2E2E2E2E2E2
310
E2E2E2E2E2E2E2E2E2E2E2E2E2E2E2E2E2E2E2E2E2E2E2E2E2E2E2E2E2E2E2E2E2E2E2E2E2E2E2E2E2E2E2E2E2E2E2E2E2E2E2E2E2E2E2E2E2E2E2E2E2E2E2E2E2E2E2E2E2E2E2E2E2E2E2E2E2E2E2E2E2E2E2E2E2F5F5F5E2E2E2E2E2E2E2E2E2E2E2E2E2E2E2E2E2E2E2E2E2E2E2E2E2E2E2E2E2E2E2E2E2E2E2E2E2E2E2
310
E2E2E2E2E2E2E2E2E2E2E2E2E2E2E2E2E2E2E2E2E2E2E2E2E2E2E2E2E2E2E2E2E2E2E2E2E2E2E2E2E2E2E2E2E2E2E2E2E2E2E2E2E2E2E2E2E2E2E2E2E2E2E2E2E2E2E2E2E2E2E2E2E2E2E2E2E2E2E2E2E2E2E2E2E2E2E2E2E2E2E2E2E2E2E2E2E2E2E2E2E2E2E2E2E2E2E2E2E2E2E2E2E2E2E2E2E2E2E2E2E2E2E2E2E2E2E2
310
E2E2E2E2E2E2E2E2E2E2E2F5F5F5E2E2E2E2E2E2E2E2E2E2E2E2E2E2E2E2E2E2E2E2E2E2E2E2E2E2E2E2E2E2E2E2E2E2E2E2E2E2E2E2E2E2E2E2E2E2E2E2E2E2E2E2E2E2E2E2E2E2E2E2E2E2E2E2E2E2E2E2E2E2E2E2E2E2E2E2E2E2E2E2E2E2E2E2E2E2E2E2E2E2E2E2E2E2E2E2E2E2E2E2E2E2E2E2E2E2E2E2E2E2E2E2E2
310
E2E2E2E2E2E2E2E2E2E2E2E2E2E2E2E2E2E2E2E2E2E2E2E2E2E2E2E2E2E2E2E2E2E2E2E2E2E2E2E2E2E2E2E2E2E2E2E2E2E2E2E2E2E2E2E2E2E2E2E2E2E2E2E2F5F5F5E2E2E2E2E2E2E2E2E2E2E2E2E2E2E2E2E2E2E2E2E2E2E2E2E2E2E2E2E2E2E2E2E2E2E2E2E2E2E2E2E2E2E2E2E2E2E2E2E2E2E2E2E2E2E2E2E2E2E2E2
310
E2E2E2E2E2E2E2E2E2E2E2E2E2E2E2E2E2E2E2E2E2E2E2E2E2E2E2E2E2E2E2E2E2E2E2E2E2E2E2E2E2E2E2E2E2E2E2E2E2E2E2E2E2E2E2E2E2E2E2E2E2E2E2E2E2E2E2E2E2E2E2E2E2E2E2E2E2E2E2E2E2E2E2E2E2E2E2E2E2E2E2E2E2E2E2E2E2E2E2E2E2E2E2E2E2E2E2E2E2E2E2E2E2E2E2E2E2F5F5F5E2E2E2E2E2E2E2
310
E2E2E2E2E2E2E2E2E2E2E2E2E2E2E2E2E2E2E2E2E2E2E2E2E2E2E2E2E2E2E2E2E2E2E2E2E2E2E2E2E2E2E2E2E2E2E2E2E2E2E2E2E2E2E2E2E2E2E2E2E2E2E2E2E2E2E2E2E2E2E2E2E2E2E2E2E2E2E2E2E2E2E2E2E2E2E2E2E2E2E2E2E2E2E2E2E2E2E2E2E2E2E2E2E2E2E2E2E2E2E2E2E2E2E2E2E2E2E2E2E2E2E2E2E2E2E2
310
E2E2E2E2E2E2E2E2E2E2E2E2E2E2E2E2E2E2E2E2E2E2E2E2E2E2E2E2E2E2E2E2E2E2E2E2E2E2E2E2E2E2E2F5F5F5E2E2E2E2E2E2E2E2E2E2E2E2E2E2E2E2E2E2E2E2E2E2E2E2E2E2E2E2E2E2E2E2E2E2E2E2E2E2E2E2E2E2E2E2E2E2E2E2E2E2E2E2E2E2E2E2E2E2E2E2E2E2E2E2E2E2E2E2E2E2E2E2E2E2E2E2E2E2E2E2E2
310
E2E2E2E2E2E2E2E2E2E2E2E2E2E2E2E2E2E2E2E2E2E2E2E2E2E2E2E2E2E2E2E2E2E2E2E2E2E2E2E2E2E2E2E2E2E2E2E2E2E2E2E2E2E2E2E2E2E2E2E2E2E2E2E2E2E2E2E2E2E2E2E2E2E2E2E2E2E2E2E2E2E2E2E2E2E2E2E2E2E2E2E2E2E2E2E2F5F5F5E2E2F5E2E2E2E2E2E2E2E2E2E2E2E2E2E2E2E2E2E2E2E2E2E2E2E2E2
310
E2E2E2E2E2E2E2E2E2E2E2E2E2E2E2E2E2E2E2E2E2E2E2E2E2E2E2E2E2E2E2E2E2E2E2E2E2E2E2E2E2E2E2E2E2E2E2E2E2E2E2E2E2E2E2E2E2E2E2E2E2E2E2E2E2E2E2E2E2E2E2E2E2E2E2E2E2E2E2E2E2E2E2E2E2E2E2E2E2E2E2E2E2E2E2E2E2E2E2E2E2E2E2E2E2E2E2E2E2E2E2E2E2E2E2E2E2E2E2E2E2E2E2E2E2E2E2
310
E2E2E2E2E2E2E2E2E2E2E2E2E2E2E2E2E2E2E2F5E2E2F5F5F5E2E2F5E2E2E2E2E2E2E2E2E2E2E2E2E2E2E2E2E2E2E2E2E2E2E2E2E2E2E2E2E2E2E2E2E2E2E2E2E2E2E2E2E2E2E2E2E2E2E2E2E2E2E2E2E2E2E2E2E2E2E2E2E2E2E2E2E2E2E2E2E2E2E2E2E2E2E2E2E2E2E2E2E2E2E2E2E2E2E2E2E2E2E2E2E2E2E2E2E2E2E2
310
E2E2E2E2E2E2E2E2E2E2E2E2E2E2E2E2E2E2E2E2E2E2E2E2E2E2E2E2E2E2E2E2E2E2E2E2E2E2E2E2E2E2E2E2E2E2E2E2E2E2E2E2E2E2E2E2E2E2E2E2E2E2E2E2E2E2E2E2E2E2E2E2F5E2E2F5F5F5E2E2F5E2E2E2E2E2E2E2E2E2E2E2E2E2E2E2E2E2E2E2E2E2E2E2E2E2E2E2E2E2E2E2E2E2E2E2E2E2E2E2E2E2E2E2E2E2E2
310
E2E2E2E2E2E2E2E2E2E2E2E2E2E2E2E2E2E2E2E2E2E2E2E2E2E2E2E2E2E2E2E2E2E2E2E2E2E2E2E2E2E2E2E2E2E2E2E2E2E2E2E2E2E2E2E2E2E2E2E2E2E2E2E2E2E2E2E2E2E2E2E2E2E2E2E2E2E2E2E2E2E2E2E2E2E2E2E2E2E2E2E2E2E2E2E2E2E2E2E2E2E2E2E2E2E2E2E2E2E2E2E2E2E2E2E2E2E2E2E2E2E2E2E2E2F5E2
310
E2F5F5F5E2E2F5E2E2E2E2E2E2E2E2E2E2E2E2E2E2E2E2E2E2E2E2E2E2E2E2E2E2E2E2E2E2E2E2E2E2E2E2E2E2E2E2E2E2E2E2E2E2E2E2E2E2E2E2E2E2E2E2E2E2E2E2E2E2E2E2E2E2E2E2E2E2E2E2E2E2E2E2E2E2E2E2E2E2E2E2E2E2E2E2E2E2E2E2E2E2E2E2E2E2E2E2E2E2E2E2E2E2E2E2E2E2E2E2E2E2E2E2E2E2E2E2
310
E2E2E2E2E2E2E2E2E2E2E2E2E2E2E2E2E2E2E2E2E2E2E2E2E2E2E2E2E2E2E2E2E2E2E2E2E2E2E2E2E2E2E2E2E2E2E2E2E2E2E2F5E2E2F5F5F5E2E2F5E2E2E2E2E2E2E2E2E2E2E2E2E2E2E2E2E2E2E2E2E2E2E2E2E2E2E2E2E2E2E2E2E2E2E2E2E2E2E2E2E2E2E2E2E2E2E2E2E2E2E2E2E2E2E2E2E2E2E2E2E2E2E2E2E2E2E2
310
E2E2E2E2E2E2E2E2E2E2E2E2E2E2E2E2E2E2E2E2E2E2E2E2E2E2E2E2E2E2E2E2E2E2E2E2E2E2E2E2E2E2E2E2E2E2E2E2E2E2E2E2E2E2E2E2E2E2E2E2E2E2E2E2E2E2E2E2E2E2E2E2E2E2E2E2E2E2E2E2E2E2E2E2E2E2E2E2E2E2E2E2E2E2E2E2E2E2E2E2E2E2E2E2F5E2E2F5F5F5E2E2F5E2E2E2E2E2E2E2E2E2E2E2E2E2E2
310
E2E2E2E2E2E2E2E2E2E2E2E2E2E2E2E2E2E2E2E2E2E2E2E2E2E2E2E2E2E2E2E2E2E2E2E2E2E2E2E2E2E2E2E2E2E2E2E2E2E2E2E2E2E2E2E2E2E2E2E2E2E2E2E2E2E2E2E2E2E2E2E2E2E2E2E2E2E2E2E2E2E2E2E2E2E2E2E2E2E2E2E2E2E2E2E2E2E2E2E2E2E2E2E2E2E2E2E2E2E2E2E2E2E2E2E2E2E2E2E2E2E2E2E2E2E2E2
310
E2E2E2E2E2E2E2E2E2E2E2E2E2E2E2E2E2E2E2E2E2E2E2E2E2E2E2E2E2E2F5E2E2F5F5F5E2E2F5E2E2E2E2E2E2E2E2E2E2E2E2E2E2E2E2E2E2E2E2E2E2E2E2E2E2E2E2E2E2E2E2E2E2E2E2E2E2E2E2E2E2E2E2E2E2E2E2E2E2E2E2E2E2E2E2E2E2E2E2E2E2E2E2E2E2E2E2E2E2E2E2E2E2E2E2E2E2E2E2E2E2E2E2E2E2E2E2
310
E2E2E2E2E2E2E2E2E2E2E2E2E2E2E2E2E2E2E2E2E2E2E2E2E2E2E2E2E2E2E2E2E2E2E2E2E2E2E2E2E2E2E2E2E2E2E2E2E2E2E2E2E2E2E2E2E2E2E2E2E2E2E2E2E2E2E2E2E2E2E2E2E2E2E2E2E2E2E2E2E2E2E2F5E2E2F5F5F5E2E2F5E2E2E2E2E2E2E2E2E2E2E2E2E2E2E2E2E2E2E2E2E2E2E2E2E2E2E2E2E2E2E2E2E2E2E2
310
E2E2E2E2E2E2E2E2E2E2E2E2E2E2E2E2E2E2E2E2E2E2E2E2E2E2E2E2E2E2E2E2E2E2E2E2E2E2E2E2E2E2E2E2E2E2E2E2E2E2E2E2E2E2E2E2E2E2E2E2E2E2E2E2E2E2E2E2E2E2E2E2E2E2E2E2E2E2E2E2E2E2E2E2E2E2E2E2E2E2E2E2E2E2E2E2E2E2E2E2E2E2E2E2E2E2E2E2E2E2E2E2E2E2E2E2E2E2E2E2E2E2E2E2E2E2E2
310
E2E2E2E2E2E2E2E2E2F5E2E2F5F5F5E2E2F5E2E2E2E2E2E2E2E2E2E2E2E2E2E2E2E2E2E2E2E2E2E2E2E2E2E2E2E2E2E2E2E2E2E2E2E2E2E2E2E2E2E2E2E2E2E2E2E2E2E2E2E2E2E2E2E2E2E2E2E2E2E2E2E2E2E2E2E2E2E2E2E2E2E2E2E2E2E2E2E2E2E2E2E2E2E2E2E2E2E2E2E2E2E2E2E2E2E2E2E2E2E2E2E2E2E2E2E2E2
310
E2E2E2E2E2E2E2E2E2E2E2E2E2E2E2E2E2E2E2E2E2E2E2E2E2E2E2E2E2E2E2E2E2E2E2E2E2E2E2E2E2E2E2E2E2E2E2E2E2E2E2E2E2E2E2E2E2E2E2E2E2E2F5E2E2F5F5F5E2E2F5E2E2E2E2E2E2E2E2E2E2E2E2E2E2E2E2E2E2E2E2E2E2E2E2E2E2E2E2E2E2E2E2E2E2E2E2E2E2E2E2E2E2E2E2E2E2E2E2E2E2E2E2E2E2E2E2
310
E2E2E2E2E2E2E2E2E2E2E2E2E2E2E2E2E2E2E2E2E2E2E2E2E2E2E2E2E2E2E2E2E2E2E2E2E2E2E2E2E2E2E2E2E2E2E2E2E2E2E2E2E2E2E2E2E2E2E2E2E2E2E2E2E2E2E2E2E2E2E2E2E2E2E2E2E2E2E2E2E2E2E2E2E2E2E2E2E2E2E2E2E2E2E2E2E2E2E2E2E2E2E2E2E2E2E2E2E2E2E2E2E2E2E2F5E2E2F5F5F5E2E2F5E2E2E2
310
E2E2E2E2E2E2E2E2E2E2E2E2E2E2E2E2E2E2E2E2E2E2E2E2E2E2E2E2E2E2E2E2E2E2E2E2E2E2E2E2E2E2E2E2E2E2E2E2E2E2E2E2E2E2E2E2E2E2E2E2E2E2E2E2E2E2E2E2E2E2E2E2E2E2E2E2E2E2E2E2E2E2E2E2E2E2E2E2E2E2E2E2E2E2E2E2E2E2E2E2E2E2E2E2E2E2E2E2E2E2E2E2E2E2E2E2E2E2E2E2E2E2E2E2E2E2E2
310
E2E2E2E2E2E2E2E2E2E2E2E2E2E2E2E2E2E2E2E2E2E2E2E2E2E2E2E2E2E2E2E2E2E2E2E2E2E2E2E2E2F5E2E2F5F5F5E2E2F5E2E2E2E2E2E2E2E2E2E2E2E2E2E2E2E2E2E2E2E2E2E2E2E2E2E2E2E2E2E2E2E2E2E2E2E2E2E2E2E2E2E2E2E2E2E2E2E2E2E2E2E2E2E2E2E2E2E2E2E2E2E2E2E2E2E2E2E2E2E2E2E2E2E2E2E2E2
310
E2E2E2E2E2E2E2E2E2E2E2E2E2E2E2E2E2E2E2E2E2E2E2E2E2E2E2E2E2E2E2E2E2E2E2E2E2E2E2E2E2E2E2E2E2E2E2E2E2E2E2E2E2E2E2E2E2E2E2E2E2E2E2E2E2E2E2E2E2E2E2E2E2E2E2E2E2E2E2E2E2E2E2E2E2E2E2E2E2E2E2E2E2E2F5E2E2F5F5F5E2E2F5E2E2E2E2E2E2E2E2E2E2E2E2E2E2E2E2E2E2E2E2E2E2E2E2
310
E2E2E2E2E2E2E2E2E2E2E2E2E2E2E2E2E2E2E2E2E2E2E2E2E2E2E2E2E2E2E2E2E2E2E2E2E2E2E2E2E2E2E2E2E2E2E2E2E2E2E2E2E2E2E2E2E2E2E2E2E2E2E2E2E2E2E2E2E2E2E2E2E2E2E2E2E2E2E2E2E2E2E2E2E2E2E2E2E2E2E2E2E2E2E2E2E2E2E2E2E2E2E2E2E2E2E2E2E2E2E2E2E2E2E2E2E2E2E2E2E2E2E2E2E2E2E2
310
E2E2E2E2E2E2E2E2E2E2E2E2E2E2E2E2E2E2E2E2F5E2E2F5F5F5E2E2F5E2E2E2E2E2E2E2E2E2E2E2E2E2E2E2E2E2E2E2E2E2E2E2E2E2E2E2E2E2E2E2E2E2E2E2E2E2E2E2E2E2E2E2E2E2E2E2E2E2E2E2E2E2E2E2E2E2E2E2E2E2E2E2E2E2E2E2E2E2E2E2E2E2E2E2E2E2E2E2E2E2E2E2E2E2E2E2E2E2E2E2E2E2E2E2E2E2E2
310
E2E2E2E2E2E2E2E2E2E2E2E2E2E2E2E2E2E2E2E2E2E2E2E2E2E2E2E2E2E2E2E2E2E2E2E2E2E2E2E2E2E2E2E2E2E2E2E2E2E2E2E2E2E2E2E2E2E2E2E2E2E2E2E2E2E2E2E2E2E2E2E2E2F5E2E2F5F5F5E2E2F5E2E2E2E2E2E2E2E2E2E2E2E2E2E2E2E2E2E2E2E2E2E2E2E2E2E2E2E2E2E2E2E2E2E2E2E2E2E2E2E2E2E2E2E2E2
310
E2E2E2E2E2E2E2E2E2E2E2E2E2E2E2E2E2E2E2E2E2E2E2E2E2E2E2E2E2E2E2E2E2E2E2E2E2E2E2E2E2E2E2E2E2E2E2E2E2E2E2E2E2E2E2E2E2E2E2E2E2E2E2E2E2E2E2E2E2E2E2E2E2E2E2E2E2E2E2E2E2E2E2E2E2E2E2E2E2E2E2E2E2E2E2E2E2E2E2E2E2E2E2E2E2E2E2E2E2E2E2E2E2E2E2E2E2E2E2E2E2E2E2E2E2E2F5
310
E2E2F5F5F5E2E2E2E2E2E2E2E2E2E2E2E2E2E2E2E2E2E2E2E2E2E2E2E2E2E2E2E2E2E2E2E2E2E2E2E2E2E2E2E2E2E2E2E2E2E2E2E2E2E2E2E2E2E2E2E2E2E2E2E2E2E2E2E2E2E2E2E2E2E2E2E2E2E2E2E2E2E2E2E2E2E2E2E2E2E2E2E2E2E2E2E2E2E2E2E2E2E2E2E2E2E2E2E2E2E2E2E2E2E2E2E2E2E2E2E2E2E2E2E2E2E2
310
E2E2E2E2E2E2E2E2E2E2E2E2E2E2E2E2E2E2E2E2E2E2E2E2E2E2E2E2E2E2E2E2E2E2E2E2E2E2E2E2E2E2E2E2E2E2E2E2E2E2E2E2E2E2E2F5F5F5E2E2E2E2E2E2E2E2E2E2E2E2E2E2E2E2E2E2E2E2E2E2E2E2E2E2E2E2E2E2E2E2E2E2E2E2E2E2E2E2E2E2E2E2E2E2E2E2E2E2E2E2E2E2E2E2E2E2E2E2E2E2E2E2E2E2E2E2E2
310
E2E2E2E2E2E2E2E2E2E2E2E2E2E2E2E2E2E2E2E2E2E2E2E2E2E2E2E2E2E2E2E2E2E2E2E2E2E2E2E2E2E2E2E2E2E2E2E2E2E2E2E2E2E2E2E2E2E2E2E2E2E2E2E2E2E2E2E2E2E2E2E2E2E2E2E2E2E2E2E2E2E2E2E2E2E2E2E2E2E2E2E2E2E2E2E2E2E2E2E2E2E2E2E2E2E2E2E2F5F5F5E2E2E2E2E2E2E2E2E2E2E2E2E2E2E2E2
310
E2E2E2E2E2E2E2E2E2E2E2E2E2E2E2E2E2E2E2E2E2E2E2E2E2E2E2E2E2E2E2E2E2E2E2E2E2E2E2E2E2E2E2E2E2E2E2E2E2E2E2E2E2E2E2E2E2E2E2E2E2E2E2E2E2E2E2E2E2E2E2E2E2E2E2E2E2E2E2E2E2E2E2E2E2E2E2E2E2E2E2E2E2E2E2E2E2E2E2E2E2E2E2E2E2E2E2E2E2E2E2E2E2E2E2E2E2E2E2E2E2E2E2E2E2E2E2
310
E2E2E2E2E2E2E2E2E2E2E2E2E2E2E2E2E2E2E2E2E2E2E2E2E2E2E2E2E2E2E2E2E2E2F5F5F5E2E2E2E2E2E2E2E2E2E2E2E2E2E2E2E2E2E2E2E2E2E2E2E2E2E2E2E2E2E2E2E2E2E2E2E2E2E2E2E2E2E2E2E2E2E2E2E2E2E2E2E2E2E2E2E2E2E2E2E2E2E2E2E2E2E2E2E2E2E2E2E2E2E2E2E2E2E2E2E2E2E2E2E2E2E2E2E2E2E2
310
E2E2E2E2E2E2E2E2E2E2E2E2E2E2E2E2E2E2E2E2E2E2E2E2E2E2E2E2E2E2E2E2E2E2E2E2E2E2E2E2E2E2E2E2E2E2E2E2E2E2E2E2E2E2E2E2E2E2E2E2E2E2E2E2E2E2E2E2E2E2E2E2E2E2E2E2E2E2E2E2E2E2E2E2E2E2E2F5F5F5E2E2E2E2E2E2E2E2E2E2E2E2E2E2E2E2E2E2E2E2E2E2E2E2E2E2E2E2E2E2E2E2E2E2E2E2E2
310
E2E2E2E2E2E2E2E2E2E2E2E2E2E2E2E2E2E2E2E2E2E2E2E2E2E2E2E2E2E2E2E2E2E2E2E2E2E2E2E2E2E2E2E2E2E2E2E2E2E2E2E2E2E2E2E2E2E2E2E2E2E2E2E2E2E2E2E2E2E2E2E2E2E2E2E2E2E2E2E2E2E2E2E2E2E2E2E2E2E2E2E2E2E2E2E2E2E2E2E2E2E2E2E2E2E2E2E2E2E2E2E2E2E2E2E2E2E2E2E2E2E2E2E2E2E2E2
310
E2E2E2E2E2E2E2E2E2E2E2E2E2F5F5F5E2E2E2E2E2E2E2E2E2E2E2E2E2E2E2E2E2E2E2E2E2E2E2E2E2E2E2E2E2E2E2E2E2E2E2E2E2E2E2E2E2E2E2E2E2E2E2E2E2E2E2E2E2E2E2E2E2E2E2E2E2E2E2E2E2E2E2E2E2E2E2E2E2E2E2E2E2E2E2E2E2E2E2E2E2E2E2E2E2E2E2E2E2E2E2E2E2E2E2E2E2E2E2E2E2E2E2E2E2E2E2
310
E2E2E2E2E2E2E2E2E2E2E2E2E2E2E2E2E2E2E2E2E2E2E2E2E2E2E2E2E2E2E2E2E2E2E2E2E2E2E2E2E2E2E2E2E2E2E2E2E2E2E2E2E2E2E2E2E2E2E2E2E2E2E2E2E2E2F5F5F5E2E2E2E2E2E2E2E2E2E2E2E2E2E2E2E2E2E2E2E2E2E2E2E2E2E2E2E2E2E2E2E2E2E2E2E2E2E2E2E2E2E2E2E2E2E2E2E2E2E2E2E2E2E2E2E2E2E2
310
E2E2E2E2E2E2E2E2E2E2E2E2E2E2E2E2E2E2E2E2E2E2E2E2E2E2E2E2E2E2E2E2E2E2E2E2E2E2E2E2E2E2E2E2E2E2E2E2E2E2E2E2E2E2E2E2E2E2E2E2E2E2E2E2E2E2E2E2E2E2E2E2E2E2E2E2E2E2E2E2E2E2E2E2E2E2E2E2E2E2E2E2E2E2E2E2E2E2E2E2E2E2E2E2E2E2E2E2E2E2E2E2E2E2E2E2E2E2E2F5F5F5E2E2E2E2E2
310
E2E2E2E2E2E2E2E2E2E2E2E2E2E2E2E2E2E2E2E2E2E2E2E2E2E2E2E2E2E2E2E2E2E2E2E2E2E2E2E2E2E2E2E2E2E2E2E2E2E2E2E2E2E2E2E2E2E2E2E2E2E2E2E2E2E2E2E2E2E2E2E2E2E2E2E2E2E2E2E2E2E2E2E2E2E2E2E2E2E2E2E2E2E2E2E2E2E2E2E2E2E2E2E2E2E2E2E2E2E2E2E2E2E2E2E2E2E2E2E2E2E2E2E2E2E2E2
310
E2E2E2E2E2E2E2E2E2E2E2E2E2E2E2E2E2E2E2E2E2E2E2E2E2E2E2E2E2E2E2E2E2E2E2E2E2E2E2E2E2E2E2E2E2F5F5F5E2E2E2E2E2E2E2E2E2E2E2E2E2E2E2E2E2E2E2E2E2E2E2E2E2E2E2E2E2E2E2E2E2E2E2E2E2E2E2E2E2E2E2E2E2E2E2E2E2E2E2E2E2E2E2E2E2E2E2E2E2E2E2E2E2E2E2E2E2E2E2E2E2E2E2E2E2E2E2
310
E2E2E2E2E2E2E2E2E2E2E2E2E2E2E2E2E2E2E2E2E2E2E2E2E2E2E2E2E2E2E2E2E2E2E2E2E2E2E2E2E2E2E2E2E2E2E2E2E2E2E2E2E2E2E2E2E2E2E2E2E2E2E2E2E2E2E2E2E2E2E2E2E2E2E2E2E2E2E2E2E2E2E2E2E2E2E2E2E2E2E2E2E2E2E2E2E2E2F5F5F5E2E2F5E2E2E2E2E2E2E2E2E2E2E2E2E2E2E2E2E2E2E2E2E2E2E2
310
E2E2E2E2E2E2E2E2E2E2E2E2E2E2E2E2E2E2E2E2E2E2E2E2E2E2E2E2E2E2E2E2E2E2E2E2E2E2E2E2E2E2E2E2E2E2E2E2E2E2E2E2E2E2E2E2E2E2E2E2E2E2E2E2E2E2E2E2E2E2E2E2E2E2E2E2E2E2E2E2E2E2E2E2E2E2E2E2E2E2E2E2E2E2E2E2E2E2E2E2E2E2E2E2E2E2E2E2E2E2E2E2E2E2E2E2E2E2E2E2E2E2E2E2E2E2E2
310
E2E2E2E2E2E2E2E2E2E2E2E2E2E2E2E2E2E2E2E2E2F5E2E2F5F5F5E2E2F5E2E2E2E2E2E2E2E2E2E2E2E2E2E2E2E2E2E2E2E2E2E2E2E2E2E2E2E2E2E2E2E2E2E2E2E2E2E2E2E2E2E2E2E2E2E2E2E2E2E2E2E2E2E2E2E2E2E2E2E2E2E2E2E2E2E2E2E2E2E2E2E2E2E2E2E2E2E2E2E2E2E2E2E2E2E2E2E2E2E2E2E2E2E2E2E2E2
310
E2E2E2E2E2E2E2E2E2E2E2E2E2E2E2E2E2E2E2E2E2E2E2E2E2E2E2E2E2E2E2E2E2E2E2E2E2E2E2E2E2E2E2E2E2E2E2E2E2E2E2E2E2E2E2E2E2E2E2E2E2E2E2E2E2E2E2E2E2E2E2E2E2E2F5E2E2F5F5F5E2E2F5E2E2E2E2E2E2E2E2E2E2E2E2E2E2E2E2E2E2E2E2E2E2E2E2E2E2E2E2E2E2E2E2E2E2E2E2E2E2E2E2E2E2E2E2
310
E2E2E2E2E2E2E2E2E2E2E2E2E2E2E2E2E2E2E2E2E2E2E2E2E2E2E2E2E2E2E2E2E2E2E2E2E2E2E2E2E2E2E2E2E2E2E2E2E2E2E2E2E2E2E2E2E2E2E2E2E2E2E2E2E2E2E2E2E2E2E2E2E2E2E2E2E2E2E2E2E2E2E2E2E2E2E2E2E2E2E2E2E2E2E2E2E2E2E2E2E2E2E2E2E2E2E2E2E2E2E2E2E2E2E2E2E2E2E2E2E2E2E2E2E2E2E2
310
F5E2E2F5F5F5E2E2F5E2E2E2E2E2E2E2E2E2E2E2E2E2E2E2E2E2E2E2E2E2E2E2E2E2E2E2E2E2E2E2E2E2E2E2E2E2E2E2E2E2E2E2E2E2E2E2E2E2E2E2E2E2E2E2E2E2E2E2E2E2E2E2E2E2E2E2E2E2E2E2E2E2E2E2E2E2E2E2E2E2E2E2E2E2E2E2E2E2E2E2E2E2E2E2E2E2E2E2E2E2E2E2E2E2E2E2E2E2E2E2E2E2E2E2E2E2E2
310
E2E2E2E2E2E2E2E2E2E2E2E2E2E2E2E2E2E2E2E2E2E2E2E2E2E2E2E2E2E2E2E2E2E2E2E2E2E2E2E2E2E2E2E2E2E2E2E2E2E2E2E2E2F5E2E2F5F5F5E2E2F5E2E2E2E2E2E2E2E2E2E2E2E2E2E2E2E2E2E2E2E2E2E2E2E2E2E2E2E2E2E2E2E2E2E2E2E2E2E2E2E2E2E2E2E2E2E2E2E2E2E2E2E2E2E2E2E2E2E2E2E2E2E2E2E2E2
310
E2E2E2E2E2E2E2E2E2E2E2E2E2E2E2E2E2E2E2E2E2E2E2E2E2E2E2E2E2E2E2E2E2E2E2E2E2E2E2E2E2E2E2E2E2E2E2E2E2E2E2E2E2E2E2E2E2E2E2E2E2E2E2E2E2E2E2E2E2E2E2E2E2E2E2E2E2E2E2E2E2E2E2E2E2E2E2E2E2E2E2E2E2E2E2E2E2E2E2E2E2E2E2E2E2E2F5E2E2F5F5F5E2E2F5E2E2E2E2E2E2E2E2E2E2E2E2
310
E2E2E2E2E2E2E2E2E2E2E2E2E2E2E2E2E2E2E2E2E2E2E2E2E2E2E2E2E2E2E2E2E2E2E2E2E2E2E2E2E2E2E2E2E2E2E2E2E2E2E2E2E2E2E2E2E2E2E2E2E2E2E2E2E2E2E2E2E2E2E2E2E2E2E2E2E2E2E2E2E2E2E2E2E2E2E2E2E2E2E2E2E2E2E2E2E2E2E2E2E2E2E2E2E2E2E2E2E2E2E2E2E2E2E2E2E2E2E2E2E2E2E2E2E2E2E2
310
E2E2E2E2E2E2E2E2E2E2E2E2E2E2E2E2E2E2E2E2E2E2E2E2E2E2E2E2E2E2E2E2F5E2E2F5F5F5E2E2F5E2E2E2E2E2E2E2E2E2E2E2E2E2E2E2E2E2E2E2E2E2E2E2E2E2E2E2E2E2E2E2E2E2E2E2E2E2E2E2E2E2E2E2E2E2E2E2E2E2E2E2E2E2E2E2E2E2E2E2E2E2E2E2E2E2E2E2E2E2E2E2E2E2E2E2E2E2E2E2E2E2E2E2E2E2E2
310
E2E2E2E2E2E2E2E2E2E2E2E2E2E2E2E2E2E2E2E2E2E2E2E2E2E2E2E2E2E2E2E2E2E2E2E2E2E2E2E2E2E2E2E2E2E2E2E2E2E2E2E2E2E2E2E2E2E2E2E2E2E2E2E2E2E2E2E2E2E2E2E2E2E2E2E2E2E2E2E2E2E2E2E2E2F5E2E2F5F5F5E2E2F5F5F5F5F5F5F5F5E2E2E2E2E2E2E2E2E2F5F5F5F5F5F5F5F5F5F5F5F5F5F5F5F5E2
310
E2E2E2E2E2E2E2E2F5F5F5F5F5F5F5F5F5F5F5F5F5F5F5F5E2E2E2E2E2E2E2E2F5F5F5F5F5F5F5F5F5F5F5F5F5F5F5F5E2E2E2E2E2E2E2E2E2F5F5F5F5F5F5F5F5F5F5F5F5F5F5F5F5E2E2E2E2E2E2E2E2F5F5F5F5F5F5F5F5F5F5F5F5F5F5F5F5E2E2E2E2E2E2E2E2E2F5F5F5F5F5F5F5F5F5F5F5F5F5F5F5F5E2E2E2E2E2
310
E2E2E2E2F5F5F5F5F5F5F5F5E2E2F5F5F5E2E2E2E2E2E2E2E2E2E2E2E2E2E2E2E2E2E2E2E2E2E2E2E2E2E2E2E2E2E2E2E2E2E2E2E2E2E2E2E2E2E2E2E2E2E2E2E2E2E2E2E2E2E2E2E2E2E2E2E2E2E2E2E2E2E2E2E2E2E2E2E2E2E2E2E2E2E2E2E2E2E2E2E2E2E2E2E2E2E2E2E2E2E2E2E2E2E2E2E2E2E2E2E2E2E2E2E2E2E2
310
E2E2E2E2E2E2E2E2E2E2E2E2E2E2E2E2E2E2E2E2E2E2E2E2E2E2E2E2E2E2E2E2E2E2E2E2E2E2E2E2E2E2E2E2E2E2E2E2E2E2E2E2E2E2E2E2E2E2E2E2E2E2E2E2E2E2E2F5F5F5E2E2E2E2E2E2E2E2E2E2E2E2E2E2E2E2E2E2E2E2E2E2E2E2E2E2E2E2E2E2E2E2E2E2E2E2E2E2E2E2E2E2E2E2E2E2E2E2E2E2E2E2E2E2E2E2E2
310
E2E2E2E2E2E2E2E2E2E2E2E2E2E2E2E2E2E2E2E2E2E2E2E2E2E2E2E2E2E2E2E2E2E2E2E2E2E2E2E2E2E2E2E2E2E2E2E2E2E2E2E2E2E2E2E2E2E2E2E2E2E2E2E2E2E2E2E2E2E2E2E2E2E2E2E2E2E2E2E2E2E2E2E2E2E2E2E2E2E2E2E2E2E2E2E2E2E2E2E2E2E2E2E2E2E2E2E2E2E2E2E2E2E2E2E2E2E2E2E2F5EFF5F5F5F5F5
310
F5F5F5F5F5F5F5F5F5F5F5F5F5F5F5F5F5F5F5F5F5F5F5F5F5F5F5F5F5F5F5F5F5F5F5F5F5F5F5F5F5F5F5F5F5F5F5F5F5F5F5F5F5F5F5F5F5F5F5F5F5F5F5F5F5F5F5F5F5F5F5F5F5F5F5F5F5F5F5F5F5F5F5F5F5F5F5F5F5F5F5F5F5F5F5F5F5F5F5F5F5F5F5F5F5F5F5F5F5F5F5F5F5F5F5F5F5F5F5F5F5F5F5F5F5F5F5
310
F5F5F5F5F5F5F5F5F5F5F5F5F5F5F5F5F5F5F5F5F5F5F5F5F5F5F5F5F5F5F5F5F5F5F5F5F5F5F5F5F5F5F5F5F5F5F5EF
  0
ENDSEC
  0
EOF