0
SECTION
  2
HEADER
  9
$ACADVER
  1
AC1014
  9
$ACADMAINTVER
 70
     0
  9
$DWGCODEPAGE
  3
ANSI_1252
  9
$INSBASE
 10
93.894301
 20
236.06014
 30
0.0
  9
$EXTMIN
 10
5.040436
 20
102.796189
 30
-0.001526
  9
$EXTMAX
 10
53.394013
 20
224.386002
 30
0.0
  9
$LIMMIN
 10
0.0
 20
0.0
  9
$LIMMAX
 10
210.0
 20
297.0
  9
$ORTHOMODE
 70
     0
  9
$REGENMODE
 70
     1
  9
$FILLMODE
 70
     1
  9
$QTEXTMODE
 70
     0
  9
$MIRRTEXT
 70
     0
  9
$DRAGMODE
 70
     1
  9
$LTSCALE
 40
7.0
  9
$OSMODE
 70
  4095
  9
$ATTMODE
 70
     1
  9
$TEXTSIZE
 40
2.5
  9
$TRACEWID
 40
0.05
  9
$TEXTSTYLE
  7
STANDARD
  9
$CLAYER
  8
COTATION1
  9
$CELTYPE
  6
BYLAYER
  9
$CECOLOR
 62
   256
  9
$CELTSCALE
 40
1.0
  9
$DELOBJ
 70
     1
  9
$DISPSILH
 70
     0
  9
$DIMSCALE
 40
1.0
  9
$DIMASZ
 40
3.0
  9
$DIMEXO
 40
0.0625
  9
$DIMDLI
 40
0.38
  9
$DIMRND
 40
0.01
  9
$DIMDLE
 40
0.0
  9
$DIMEXE
 40
0.18
  9
$DIMTP
 40
0.0
  9
$DIMTM
 40
0.0
  9
$DIMTXT
 40
2.5
  9
$DIMCEN
 40
0.09
  9
$DIMTSZ
 40
0.0
  9
$DIMTOL
 70
     0
  9
$DIMLIM
 70
     0
  9
$DIMTIH
 70
     0
  9
$DIMTOH
 70
     0
  9
$DIMSE1
 70
     0
  9
$DIMSE2
 70
     0
  9
$DIMTAD
 70
     1
  9
$DIMZIN
 70
    12
  9
$DIMBLK
  1

  9
$DIMASO
 70
     1
  9
$DIMSHO
 70
     0
  9
$DIMPOST
  1

  9
$DIMAPOST
  1

  9
$DIMALT
 70
     0
  9
$DIMALTD
 70
     2
  9
$DIMALTF
 40
25.4
  9
$DIMLFAC
 40
1.0
  9
$DIMTOFL
 70
     1
  9
$DIMTVP
 40
0.0
  9
$DIMTIX
 70
     0
  9
$DIMSOXD
 70
     0
  9
$DIMSAH
 70
     0
  9
$DIMBLK1
  1

  9
$DIMBLK2
  1

  9
$DIMSTYLE
  2
SC_STAND
  9
$DIMCLRD
 70
     0
  9
$DIMCLRE
 70
     0
  9
$DIMCLRT
 70
     0
  9
$DIMTFAC
 40
1.0
  9
$DIMGAP
 40
1.0
  9
$DIMJUST
 70
     0
  9
$DIMSD1
 70
     0
  9
$DIMSD2
 70
     0
  9
$DIMTOLJ
 70
     1
  9
$DIMTZIN
 70
    12
  9
$DIMALTZ
 70
    12
  9
$DIMALTTZ
 70
    12
  9
$DIMFIT
 70
     5
  9
$DIMUPT
 70
     0
  9
$DIMUNIT
 70
     2
  9
$DIMDEC
 70
     3
  9
$DIMTDEC
 70
     3
  9
$DIMALTU
 70
     2
  9
$DIMALTTD
 70
     2
  9
$DIMTXSTY
  7
STANDARD
  9
$DIMAUNIT
 70
     0
  9
$LUNITS
 70
     2
  9
$LUPREC
 70
     3
  9
$SKETCHINC
 40
0.1
  9
$FILLETRAD
 40
0.0625
  9
$AUNITS
 70
     0
  9
$AUPREC
 70
     0
  9
$MENU
  1
ACAD
  9
$ELEVATION
 40
0.0
  9
$PELEVATION
 40
0.0
  9
$THICKNESS
 40
0.0
  9
$LIMCHECK
 70
     0
  9
$BLIPMODE
 70
     1
  9
$CHAMFERA
 40
0.0
  9
$CHAMFERB
 40
0.0
  9
$CHAMFERC
 40
0.0
  9
$CHAMFERD
 40
0.0
  9
$SKPOLY
 70
     0
  9
$TDCREATE
 40
2450953.590960648
  9
$TDUPDATE
 40
2453109.690833507
  9
$TDINDWG
 40
0.0036314352
  9
$TDUSRTIMER
 40
0.0036314352
  9
$USRTIMER
 70
     1
  9
$ANGBASE
 50
0.0
  9
$ANGDIR
 70
     0
  9
$PDMODE
 70
     0
  9
$PDSIZE
 40
0.0
  9
$PLINEWID
 40
0.0
  9
$COORDS
 70
     0
  9
$SPLFRAME
 70
     0
  9
$SPLINETYPE
 70
     6
  9
$SPLINESEGS
 70
     8
  9
$ATTDIA
 70
     0
  9
$ATTREQ
 70
     1
  9
$HANDLING
 70
     1
  9
$HANDSEED
  5
7F8
  9
$SURFTAB1
 70
     6
  9
$SURFTAB2
 70
     6
  9
$SURFTYPE
 70
     6
  9
$SURFU
 70
     6
  9
$SURFV
 70
     6
  9
$UCSNAME
  2

  9
$UCSORG
 10
0.0
 20
0.0
 30
0.0
  9
$UCSXDIR
 10
1.0
 20
0.0
 30
0.0
  9
$UCSYDIR
 10
0.0
 20
1.0
 30
0.0
  9
$PUCSNAME
  2

  9
$PUCSORG
 10
0.0
 20
0.0
 30
0.0
  9
$PUCSXDIR
 10
1.0
 20
0.0
 30
0.0
  9
$PUCSYDIR
 10
0.0
 20
1.0
 30
0.0
  9
$USERI1
 70
     0
  9
$USERI2
 70
     0
  9
$USERI3
 70
     0
  9
$USERI4
 70
     0
  9
$USERI5
 70
     0
  9
$USERR1
 40
0.0
  9
$USERR2
 40
0.0
  9
$USERR3
 40
0.0
  9
$USERR4
 40
0.0
  9
$USERR5
 40
0.0
  9
$WORLDVIEW
 70
     1
  9
$SHADEDGE
 70
     3
  9
$SHADEDIF
 70
    70
  9
$TILEMODE
 70
     1
  9
$MAXACTVP
 70
    32
  9
$PINSBASE
 10
0.0
 20
0.0
 30
0.0
  9
$PLIMCHECK
 70
     0
  9
$PEXTMIN
 10
-3.174999
 20
-3.175
 30
0.0
  9
$PEXTMAX
 10
203.812116
 20
370.276807
 30
0.0
  9
$PLIMMIN
 10
-3.175
 20
-3.175
  9
$PLIMMAX
 10
203.812115
 20
370.276807
  9
$UNITMODE
 70
     0
  9
$VISRETAIN
 70
     0
  9
$PLINEGEN
 70
     0
  9
$PSLTSCALE
 70
     1
  9
$TREEDEPTH
 70
  3020
  9
$PICKSTYLE
 70
     1
  9
$CMLSTYLE
  2
STANDARD
  9
$CMLJUST
 70
     0
  9
$CMLSCALE
 40
1.0
  9
$PROXYGRAPHICS
 70
     1
  9
$MEASUREMENT
 70
     0
  0
ENDSEC
  0
SECTION
  2
CLASSES
  0
CLASS
  1
DICTIONARYVAR
  2
AcDbDictionaryVar
  3
"AutoCAD"
 90
        0
280
     0
281
     0
  0
CLASS
  1
HATCH
  2
AcDbHatch
  3
"ACAD_SEDONA"
 90
        0
280
     0
281
     1
  0
ENDSEC
  0
SECTION
  2
TABLES
  0
TABLE
  2
VPORT
  5
F4
100
AcDbSymbolTable
 70
     2
  0
VPORT
  5
7F7
100
AcDbSymbolTableRecord
100
AcDbViewportTableRecord
  2
*ACTIVE
 70
     0
 10
0.0
 20
0.0
 11
1.0
 21
1.0
 12
29.217225
 22
163.591096
 13
0.0
 23
0.0
 14
1.0
 24
1.0
 15
10.0
 25
10.0
 16
0.0
 26
0.0
 36
1.0
 17
0.0
 27
0.0
 37
0.0
 40
122.540972
 41
1.592689
 42
50.0
 43
0.0
 44
0.0
 50
0.0
 51
0.0
 71
     0
 72
   100
 73
     1
 74
     1
 75
     0
 76
     1
 77
     0
 78
     0
  0
ENDTAB
  0
TABLE
  2
LTYPE
  5
F1
100
AcDbSymbolTable
 70
     5
  0
LTYPE
  5
FD
100
AcDbSymbolTableRecord
100
AcDbLinetypeTableRecord
  2
BYBLOCK
 70
     0
  3

 72
    65
 73
     0
 40
0.0
  0
LTYPE
  5
FE
100
AcDbSymbolTableRecord
100
AcDbLinetypeTableRecord
  2
BYLAYER
 70
     0
  3

 72
    65
 73
     0
 40
0.0
  0
LTYPE
  5
FF
100
AcDbSymbolTableRecord
100
AcDbLinetypeTableRecord
  2
CONTINUOUS
 70
     0
  3
Solid line
 72
    65
 73
     0
 40
0.0
  0
LTYPE
  5
110
100
AcDbSymbolTableRecord
100
AcDbLinetypeTableRecord
  2
CACHE
 70
     0
  3
__ __ __ __ __ __ __ __ __ __ __ __ __ __ __ __
 72
    65
 73
     2
 40
0.375
 49
0.25
 74
     0
 49
-0.125
 74
     0
  0
LTYPE
  5
112
100
AcDbSymbolTableRecord
100
AcDbLinetypeTableRecord
  2
AXES2
 70
     0
  3
___ _ ___ _ ___ _ ___ _ ___ _ ___ _ ___ _ ___ _
 72
    65
 73
     4
 40
1.125
 49
0.75
 74
     0
 49
-0.125
 74
     0
 49
0.125
 74
     0
 49
-0.125
 74
     0
  0
LTYPE
  5
120
100
AcDbSymbolTableRecord
100
AcDbLinetypeTableRecord
  2
CACHE2
 70
     0
  3
_ _ _ _ _ _ _ _ _ _ _ _ _ _ _ _ _ _ _ _ _ _ _ _
 72
    65
 73
     2
 40
0.1875
 49
0.125
 74
     0
 49
-0.0625
 74
     0
  0
LTYPE
  5
121
100
AcDbSymbolTableRecord
100
AcDbLinetypeTableRecord
  2
CACHEX2
 70
     0
  3
____ ____ ____ ____ ____ ____ ____ ____ ____ __
 72
    65
 73
     2
 40
0.75
 49
0.5
 74
     0
 49
-0.25
 74
     0
  0
ENDTAB
  0
TABLE
  2
LAYER
  5
EE
100
AcDbSymbolTable
 70
     5
  0
LAYER
  5
FA
100
AcDbSymbolTableRecord
100
AcDbLayerTableRecord
  2
0
 70
     0
 62
     7
  6
CONTINUOUS
  0
LAYER
  5
12C
100
AcDbSymbolTableRecord
100
AcDbLayerTableRecord
  2
ALPHA
 70
     0
 62
   255
  6
CONTINUOUS
  0
LAYER
  5
12F
100
AcDbSymbolTableRecord
100
AcDbLayerTableRecord
  2
COTATION1
 70
     0
 62
     2
  6
CONTINUOUS
  0
LAYER
  5
13B
100
AcDbSymbolTableRecord
100
AcDbLayerTableRecord
  2
ASHADE
 70
     0
 62
     7
  6
CONTINUOUS
  0
LAYER
  5
13E
100
AcDbSymbolTableRecord
100
AcDbLayerTableRecord
  2
DEFPOINTS
 70
     0
 62
     7
  6
CONTINUOUS
  0
ENDTAB
  0
TABLE
  2
STYLE
  5
EF
100
AcDbSymbolTable
 70
     2
  0
STYLE
  5
FB
100
AcDbSymbolTableRecord
100
AcDbTextStyleTableRecord
  2
STANDARD
 70
     0
 40
0.0
 41
1.0
 50
0.0
 71
     0
 42
2.5
  3
txt
  4

  0
STYLE
  5
386
100
AcDbSymbolTableRecord
100
AcDbTextStyleTableRecord
  2
STD
 70
     0
 40
0.0
 41
1.0
 50
0.0
 71
     0
 42
0.0
  3
txt
  4

  0
ENDTAB
  0
TABLE
  2
VIEW
  5
F2
100
AcDbSymbolTable
 70
     0
  0
ENDTAB
  0
TABLE
  2
UCS
  5
F3
100
AcDbSymbolTable
 70
     0
  0
ENDTAB
  0
TABLE
  2
APPID
  5
F5
100
AcDbSymbolTable
 70
     3
  0
APPID
  5
FC
100
AcDbSymbolTableRecord
100
AcDbRegAppTableRecord
  2
ACAD
 70
     0
  0
APPID
  5
127
100
AcDbSymbolTableRecord
100
AcDbRegAppTableRecord
  2
AVE_RENDER
 70
     0
  0
APPID
  5
128
100
AcDbSymbolTableRecord
100
AcDbRegAppTableRecord
  2
AVE_MATERIAL
 70
     0
  0
ENDTAB
  0
TABLE
  2
DIMSTYLE
  5
F6
100
AcDbSymbolTable
 70
     4
  0
DIMSTYLE
105
129
100
AcDbSymbolTableRecord
100
AcDbDimStyleTableRecord
  2
STANDARD
 70
     0
  3

  4

  5

  6

  7

 40
1.0
 41
0.18
 42
0.0625
 43
0.38
 44
0.18
 45
0.0
 46
0.0
 47
0.0
 48
0.0
140
0.18
141
0.09
142
0.0
143
25.4
144
1.0
145
0.0
146
1.0
147
0.09
 71
     0
 72
     0
 73
     1
 74
     1
 75
     0
 76
     0
 77
     0
 78
     0
170
     0
171
     2
172
     0
173
     0
174
     0
175
     0
176
     0
177
     0
178
     0
270
     2
271
     3
272
     3
273
     2
274
     2
340
FB
275
     0
280
     0
281
     0
282
     0
283
     1
284
    12
285
    12
286
    12
287
     5
288
     0
  0
DIMSTYLE
105
12A
100
AcDbSymbolTableRecord
100
AcDbDimStyleTableRecord
  2
SC_STAND
 70
     0
  3

  4

  5

  6

  7

 40
1.0
 41
3.0
 42
0.0625
 43
0.38
 44
0.18
 45
0.01
 46
0.0
 47
0.0
 48
0.0
140
2.5
141
0.09
142
0.0
143
25.4
144
1.0
145
0.0
146
1.0
147
1.0
 71
     0
 72
     0
 73
     0
 74
     0
 75
     0
 76
     0
 77
     1
 78
    12
170
     0
171
     2
172
     1
173
     0
174
     0
175
     0
176
     0
177
     0
178
     0
270
     2
271
     3
272
     3
273
     2
274
     2
340
FB
275
     0
280
     0
281
     0
282
     0
283
     1
284
    12
285
    12
286
    12
287
     5
288
     0
  0
DIMSTYLE
105
59C
102
{ACAD_REACTORS
330
6AB
102
}
100
AcDbSymbolTableRecord
100
AcDbDimStyleTableRecord
  2
DIMSTYLE_1
 70
     0
  3

  4

  5

  6

  7

 40
1.0
 41
1.5
 42
0.0625
 43
0.38
 44
0.18
 45
0.0
 46
0.0
 47
0.1
 48
0.1
140
2.5
141
0.09
142
0.0
143
25.4
144
1.0
145
0.0
146
1.0
147
0.09
 71
     0
 72
     0
 73
     0
 74
     0
 75
     0
 76
     0
 77
     1
 78
     8
170
     0
171
     2
172
     0
173
     0
174
     0
175
     0
176
     0
177
     0
178
     0
270
     2
271
     2
272
     2
273
     2
274
     2
340
FB
275
     0
280
     0
281
     0
282
     0
283
     1
284
     8
285
     0
286
     0
287
     3
288
     0
  0
DIMSTYLE
105
59D
102
{ACAD_REACTORS
330
6E0
102
}
100
AcDbSymbolTableRecord
100
AcDbDimStyleTableRecord
  2
DIMSTYLE_2
 70
     0
  3

  4

  5

  6

  7

 40
1.0
 41
1.5
 42
0.0625
 43
0.38
 44
0.18
 45
0.0
 46
0.0
 47
0.15
 48
0.15
140
2.5
141
0.09
142
0.0
143
25.4
144
1.0
145
0.0
146
1.0
147
0.09
 71
     0
 72
     0
 73
     0
 74
     0
 75
     0
 76
     0
 77
     1
 78
     8
170
     0
171
     2
172
     0
173
     0
174
     0
175
     0
176
     0
177
     0
178
     0
270
     2
271
     2
272
     2
273
     2
274
     2
340
FB
275
     0
280
     0
281
     0
282
     0
283
     1
284
     8
285
     0
286
     0
287
     3
288
     0
  0
ENDTAB
  0
TABLE
  2
BLOCK_RECORD
  5
ED
100
AcDbSymbolTable
 70
    11
  0
BLOCK_RECORD
  5
103
100
AcDbSymbolTableRecord
100
AcDbBlockTableRecord
  2
*MODEL_SPACE
  0
BLOCK_RECORD
  5
100
100
AcDbSymbolTableRecord
100
AcDbBlockTableRecord
  2
*PAPER_SPACE
  0
BLOCK_RECORD
  5
108
100
AcDbSymbolTableRecord
100
AcDbBlockTableRecord
  2
AVE_RENDER
  0
BLOCK_RECORD
  5
109
100
AcDbSymbolTableRecord
100
AcDbBlockTableRecord
  2
AVE_GLOBAL
  0
BLOCK_RECORD
  5
10A
100
AcDbSymbolTableRecord
100
AcDbBlockTableRecord
  2
SCH_IS
  0
BLOCK_RECORD
  5
14D
100
AcDbSymbolTableRecord
100
AcDbBlockTableRecord
  2
AI9-BLK1
  0
BLOCK_RECORD
  5
37A
100
AcDbSymbolTableRecord
100
AcDbBlockTableRecord
  2
AI9-BLK7
  0
BLOCK_RECORD
  5
37E
100
AcDbSymbolTableRecord
100
AcDbBlockTableRecord
  2
AI9-BLK8
  0
BLOCK_RECORD
  5
382
100
AcDbSymbolTableRecord
100
AcDbBlockTableRecord
  2
AI9-BLK9
  0
BLOCK_RECORD
  5
798
100
AcDbSymbolTableRecord
100
AcDbBlockTableRecord
  2
*D9
  0
BLOCK_RECORD
  5
7A4
100
AcDbSymbolTableRecord
100
AcDbBlockTableRecord
  2
*D10
  0
ENDTAB
  0
ENDSEC
  0
SECTION
  2
BLOCKS
  0
BLOCK
  5
141
100
AcDbEntity
  8
0
100
AcDbBlockBegin
  2
*MODEL_SPACE
 70
     0
 10
0.0
 20
0.0
 30
0.0
  3
*MODEL_SPACE
  1

  0
ENDBLK
  5
142
100
AcDbEntity
  8
0
100
AcDbBlockEnd
  0
BLOCK
  5
13F
100
AcDbEntity
 67
     1
  8
0
100
AcDbBlockBegin
  2
*PAPER_SPACE
 70
     0
 10
0.0
 20
0.0
 30
0.0
  3
*PAPER_SPACE
  1

  0
ENDBLK
  5
140
100
AcDbEntity
 67
     1
  8
0
100
AcDbBlockEnd
  0
BLOCK
  5
8D
100
AcDbEntity
  8
0
100
AcDbBlockBegin
  2
AVE_RENDER
 70
     0
 10
0.0
 20
0.0
 30
0.0
  3
AVE_RENDER
  1
AVE_RENDER
  0
ENDBLK
  5
8E
100
AcDbEntity
  8
0
100
AcDbBlockEnd
  0
BLOCK
  5
90
100
AcDbEntity
  8
0
100
AcDbBlockBegin
  2
AVE_GLOBAL
 70
     0
 10
0.0
 20
0.0
 30
0.0
  3
AVE_GLOBAL
  1
AVE_GLOBAL
  0
ENDBLK
  5
91
100
AcDbEntity
  8
0
100
AcDbBlockEnd
  0
BLOCK
  5
C9
100
AcDbEntity
  8
0
100
AcDbBlockBegin
  2
SCH_IS
 70
     0
 10
0.0
 20
0.0
 30
0.0
  3
SCH_IS
  1

  0
INSERT
  5
C0
100
AcDbEntity
  8
ASHADE
 62
     1
100
AcDbBlockReference
  2
AVE_RENDER
 10
0.0
 20
0.0
 30
0.0
1001
AVE_RENDER
1002
{
1070
     6
1000
Pref
1070
    50
1070
    20
1070
     1
1070
     0
1000

1070
    10
1070
     1
1070
    30
1040
25.4
1070
     1
1040
0.3
1040
0.7
1040
0.0
1040
10.0
1010
-1.0
1020
-1.0
1030
-1.0
1040
0.3
1070
    49
1070
     0
1070
     0
1010
1.0
1020
1.0
1030
1.0
1040
45.0
1070
     1
1070
     0
1000
WCS
1040
0.0
1002
}
  0
INSERT
  5
C1
100
AcDbEntity
  8
ASHADE
 62
     3
100
AcDbBlockReference
  2
AVE_RENDER
 10
0.0
 20
0.0
 30
0.0
1001
AVE_RENDER
1002
{
1070
     0
1000
Full Opt
1070
     0
1070
     1
1070
     1
1070
     1
1070
     0
1070
     0
1070
     0
1070
     1
1070
     1
1040
0.0001
1040
0.0001
1002
}
  0
INSERT
  5
C2
100
AcDbEntity
  8
ASHADE
 62
     4
100
AcDbBlockReference
  2
AVE_RENDER
 10
0.0
 20
0.0
 30
0.0
1001
AVE_RENDER
1002
{
1070
     0
1000
Quick Opt
1070
     0
1070
     1
1070
     1
1070
     1
1070
     0
1070
     0
1070
     1
1002
}
  0
INSERT
  5
C3
100
AcDbEntity
  8
ASHADE
 62
     5
100
AcDbBlockReference
  2
AVE_RENDER
 10
0.0
 20
0.0
 30
0.0
1001
AVE_RENDER
1002
{
1070
     1
1000
Scanl Opt
1070
     2
1070
     0
1070
     2
1040
2.0
1040
4.0
1070
     0
1070
     1
1070
     0
1040
0.03
1002
}
  0
INSERT
  5
C4
100
AcDbEntity
  8
ASHADE
 62
     6
100
AcDbBlockReference
  2
AVE_RENDER
 10
0.0
 20
0.0
 30
0.0
1001
AVE_RENDER
1002
{
1070
     2
1000
Raytr Opt
1070
     2
1070
     0
1070
     2
1040
2.0
1040
4.0
1070
     0
1070
     1
1070
     1
1040
0.03
1070
     3
1040
0.03
1002
}
  0
INSERT
  5
C5
100
AcDbEntity
  8
ASHADE
 62
     7
100
AcDbBlockReference
  2
AVE_RENDER
 10
0.0
 20
0.0
 30
0.0
1001
AVE_RENDER
1002
{
1070
     0
1000
RFile Opt
1070
     5
1070
   640
1070
   480
1070
 10000
1070
     3
1070
    32
1070
    24
1070
     0
1070
     0
1070
     0
1070
     1
1070
     0
1070
     0
1070
     0
1002
}
  0
INSERT
  5
C6
100
AcDbEntity
  8
ASHADE
 62
     8
100
AcDbBlockReference
  2
AVE_RENDER
 10
0.0
 20
0.0
 30
0.0
1001
AVE_RENDER
1002
{
1070
     0
1000
Fog Opt
1070
     0
1070
     0
1040
0.0
1040
1.0
1040
0.0
1040
1.0
1010
0.5
1020
0.5
1030
0.5
1002
}
  0
INSERT
  5
C7
100
AcDbEntity
  8
ASHADE
 62
     9
100
AcDbBlockReference
  2
AVE_RENDER
 10
0.0
 20
0.0
 30
0.0
1001
AVE_RENDER
1002
{
1070
     0
1000
BG Opt
1070
     0
1070
     1
1010
0.0
1020
0.0
1030
0.0
1010
1.0
1020
0.0
1030
0.0
1010
0.0
1020
1.0
1030
0.0
1010
0.0
1020
0.0
1030
1.0
1040
0.5
1040
0.33
1040
0.0
1000

1070
     1
1000

1070
     1
1070
     1
1040
1.0
1040
1.0
1040
0.0
1040
0.0
1070
     0
1002
}
  0
INSERT
  5
C8
100
AcDbEntity
  8
ASHADE
 62
     1
100
AcDbBlockReference
  2
AVE_GLOBAL
 10
0.0
 20
0.0
 30
0.0
1001
AVE_MATERIAL
1002
{
1000
*GLOBAL*
1000
1
1000
Finition globale.
1002
{
1002
}
1002
{
1070
    63
1002
{
1002
{
1010
-1.0
1020
-1.0
1030
-1.0
1002
}
1040
0.1
1000

1040
0.0
1002
{
1002
}
1040
0.0
1002
{
1002
}
1040
0.0
1002
}
1002
{
1002
{
1010
-1.0
1020
-1.0
1030
-1.0
1002
}
1040
0.7
1000

1040
0.0
1002
{
1002
}
1040
0.0
1002
{
1002
}
1040
0.0
1002
}
1002
{
1002
{
1010
-1.0
1020
-1.0
1030
-1.0
1002
}
1040
0.2
1000

1040
0.0
1002
{
1002
}
1040
0.0
1002
{
1002
}
1040
0.0
1002
}
1002
{
1070
     0
1002
{
1070
     1
1002
{
1040
1.0
1040
1.0
1000

1040
0.0
1002
{
1002
}
1040
0.0
1002
{
1002
}
1040
0.0
1002
}
1002
}
1040
1.0
1040
0.0
1040
0.0
1002
}
1002
{
1040
1.0
1040
1.0
1000

1040
0.0
1002
{
1002
}
1040
0.0
1002
{
1002
}
1040
0.0
1002
}
1002
{
1040
0.5
1040
1.0
1000

1040
0.0
1002
{
1002
}
1040
0.0
1002
{
1002
}
1040
0.0
1002
}
1002
{
1070
     0
1040
0.0
1002
{
1002
}
1040
1.0
1002
{
1002
}
1040
0.0
1002
}
1002
{
1040
0.0
1002
{
1002
{
1010
0.0
1020
0.0
1030
0.0
1002
}
1040
1.0
1000

1040
0.0
1002
{
1002
}
1040
0.0
1002
{
1002
}
1040
0.0
1002
}
1002
}
1002
{
1002
{
1070
     1
1002
{
1040
0.0
1040
1.0
1000

1040
0.0
1002
{
1002
}
1040
0.0
1002
{
1002
}
1040
0.0
1002
}
1002
}
1040
0.0
1002
{
1002
}
1010
1.0
1020
0.0
1030
0.0
1010
0.0
1020
1.0
1030
0.0
1010
0.0
1020
0.0
1030
1.0
1070
     0
1002
}
1002
{
1002
{
1040
1.0
1040
1.0
1002
{
1070
     1
1002
{
1040
1.0
1040
1.0
1000

1040
0.0
1002
{
1002
}
1040
0.0
1002
{
1002
}
1040
0.0
1002
}
1002
}
1002
}
1070
     0
1040
0.0
1002
{
1002
}
1002
}
1002
{
1002
}
1002
}
1002
{
1071
        3
1070
     3
1070
     0
1002
{
1070
     2
1070
     0
1070
     0
1040
0.0
1002
}
1070
     0
1070
     2
1002
{
1002
}
1002
}
1002
{
1040
8030.0
1040
190.300003
1040
0.305
1040
228.0
1040
545.0
1040
14.0
1040
17.4
1040
0.456
1002
}
1002
}
  0
ENDBLK
  5
CA
100
AcDbEntity
  8
0
100
AcDbBlockEnd
  0
BLOCK
  5
232
100
AcDbEntity
  8
ALPHA
 62
     7
100
AcDbBlockBegin
  2
AI9-BLK1
 70
     0
 10
0.0
 20
0.0
 30
0.0
  3
AI9-BLK1
  1

  0
SPLINE
  5
14E
100
AcDbEntity
  8
ALPHA
 62
     7
100
AcDbSpline
210
0.0
220
0.0
230
-1.0
 70
    11
 71
     3
 72
    29
 73
    25
 74
     0
 42
0.0000001
 43
0.0000001
 40
0.0
 40
0.0
 40
0.0
 40
0.0
 40
1.0
 40
1.0
 40
1.0
 40
2.0
 40
2.0
 40
2.0
 40
3.0
 40
3.0
 40
3.0
 40
4.0
 40
4.0
 40
4.0
 40
5.0
 40
5.0
 40
5.0
 40
6.0
 40
6.0
 40
6.0
 40
7.0
 40
7.0
 40
7.0
 40
8.0
 40
8.0
 40
8.0
 40
8.0
 10
146.0000891791449
 20
-98.25020446777344
 30
0.0
 10
146.0000891791449
 20
-99.90660637749565
 30
0.0
 10
144.6571909586588
 20
-101.2501936170789
 30
0.0
 10
143.0001000298393
 20
-101.2501936170789
 30
0.0
 10
143.0001000298393
 20
-101.2501936170789
 30
0.0
 10
-143.0000139024522
 20
-101.2501936170789
 30
0.0
 10
-143.0000139024522
 20
-101.2501936170789
 30
0.0
 10
-144.656760321723
 20
-101.2501936170789
 30
0.0
 10
-146.0000030517577
 20
-99.90660637749565
 30
0.0
 10
-146.0000030517577
 20
-98.25020446777344
 30
0.0
 10
-146.0000030517577
 20
-98.25020446777344
 30
0.0
 10
-146.0000030517577
 20
98.25011834038628
 30
0.0
 10
-146.0000030517577
 20
98.25011834038628
 30
0.0
 10
-146.0000030517577
 20
99.90686475965711
 30
0.0
 10
-144.656760321723
 20
101.2501074896918
 30
0.0
 10
-143.0000139024522
 20
101.2501074896918
 30
0.0
 10
-143.0000139024522
 20
101.2501074896918
 30
0.0
 10
143.0001000298393
 20
101.2501074896918
 30
0.0
 10
143.0001000298393
 20
101.2501074896918
 30
0.0
 10
144.6571909586588
 20
101.2501074896918
 30
0.0
 10
146.0000891791449
 20
99.90686475965711
 30
0.0
 10
146.0000891791449
 20
98.25011834038628
 30
0.0
 10
146.0000891791449
 20
98.25011834038628
 30
0.0
 10
146.0000891791449
 20
-98.25020446777344
 30
0.0
 10
146.0000891791449
 20
-98.25020446777344
 30
0.0
  0
SPLINE
  5
14F
100
AcDbEntity
  8
ALPHA
 62
     7
100
AcDbSpline
210
0.0
220
0.0
230
-1.0
 70
    11
 71
     3
 72
    29
 73
    25
 74
     0
 42
0.0000001
 43
0.0000001
 40
0.0
 40
0.0
 40
0.0
 40
0.0
 40
1.0
 40
1.0
 40
1.0
 40
2.0
 40
2.0
 40
2.0
 40
3.0
 40
3.0
 40
3.0
 40
4.0
 40
4.0
 40
4.0
 40
5.0
 40
5.0
 40
5.0
 40
6.0
 40
6.0
 40
6.0
 40
7.0
 40
7.0
 40
7.0
 40
8.0
 40
8.0
 40
8.0
 40
8.0
 10
76.18936326768663
 20
40.38818935818142
 30
0.0
 10
77.01894226074218
 20
40.38818935818142
 30
0.0
 10
77.69142489963107
 20
41.0606719970703
 30
0.0
 10
77.69142489963107
 20
41.88887295193142
 30
0.0
 10
77.69142489963107
 20
41.88887295193142
 30
0.0
 10
77.87056986490885
 20
67.24339769151474
 30
0.0
 10
77.87056986490885
 20
67.24339769151474
 30
0.0
 10
77.87056986490885
 20
68.0757327609592
 30
0.0
 10
77.19808722601996
 20
68.74683736165363
 30
0.0
 10
76.36437411838106
 20
68.74683736165363
 30
0.0
 10
76.36437411838106
 20
68.74683736165363
 30
0.0
 10
-76.01202697753905
 20
68.92460428873697
 30
0.0
 10
-76.01202697753905
 20
68.92460428873697
 30
0.0
 10
-76.84022793240017
 20
68.92460428873697
 30
0.0
 10
-77.51271057128906
 20
68.25074361165363
 30
0.0
 10
-77.51271057128906
 20
67.42116461859808
 30
0.0
 10
-77.51271057128906
 20
67.42116461859808
 30
0.0
 10
-77.69185553656683
 20
41.88887295193142
 30
0.0
 10
-77.69185553656683
 20
41.88887295193142
 30
0.0
 10
-77.69185553656683
 20
41.0606719970703
 30
0.0
 10
-77.01937289767794
 20
40.38818935818142
 30
0.0
 10
-76.1870378282335
 20
40.38818935818142
 30
0.0
 10
-76.1870378282335
 20
40.38818935818142
 30
0.0
 10
76.18936326768663
 20
40.38818935818142
 30
0.0
 10
76.18936326768663
 20
40.38818935818142
 30
0.0
  0
POLYLINE
  5
150
100
AcDbEntity
  8
ALPHA
 62
     7
100
AcDb2dPolyline
 66
     1
 10
0.0
 20
0.0
 30
0.0
 70
     1
  0
VERTEX
  5
151
100
AcDbEntity
  8
ALPHA
 62
     7
100
AcDbVertex
100
AcDb2dVertex
 10
77.691425
 20
-84.679973
 30
0.0
  0
VERTEX
  5
152
100
AcDbEntity
  8
ALPHA
 62
     7
100
AcDbVertex
100
AcDb2dVertex
 10
77.691425
 20
25.69279
 30
0.0
  0
VERTEX
  5
153
100
AcDbEntity
  8
ALPHA
 62
     7
100
AcDbVertex
100
AcDb2dVertex
 10
-77.691856
 20
25.69279
 30
0.0
  0
VERTEX
  5
154
100
AcDbEntity
  8
ALPHA
 62
     7
100
AcDbVertex
100
AcDb2dVertex
 10
-77.691856
 20
-84.679973
 30
0.0
  0
SEQEND
  5
155
100
AcDbEntity
  8
ALPHA
 62
     7
  0
POLYLINE
  5
156
100
AcDbEntity
  8
ALPHA
 62
     7
100
AcDb2dPolyline
 66
     1
 10
0.0
 20
0.0
 30
0.0
 70
     1
  0
VERTEX
  5
157
100
AcDbEntity
  8
ALPHA
 62
     7
100
AcDbVertex
100
AcDb2dVertex
 10
-36.28198
 20
-29.293862
 30
0.0
  0
VERTEX
  5
158
100
AcDbEntity
  8
ALPHA
 62
     7
100
AcDbVertex
100
AcDb2dVertex
 10
-41.795511
 20
-25.282393
 30
0.0
  0
VERTEX
  5
159
100
AcDbEntity
  8
ALPHA
 62
     7
100
AcDbVertex
100
AcDb2dVertex
 10
-41.795511
 20
-25.282393
 30
0.0
  0
VERTEX
  5
15A
100
AcDbEntity
  8
ALPHA
 62
     7
100
AcDbVertex
100
AcDb2dVertex
 10
-47.307664
 20
-29.293862
 30
0.0
  0
VERTEX
  5
15B
100
AcDbEntity
  8
ALPHA
 62
     7
100
AcDbVertex
100
AcDb2dVertex
 10
-44.558477
 20
-29.297996
 30
0.0
  0
VERTEX
  5
15C
100
AcDbEntity
  8
ALPHA
 62
     7
100
AcDbVertex
100
AcDb2dVertex
 10
-44.558477
 20
-32.304876
 30
0.0
  0
VERTEX
  5
15D
100
AcDbEntity
  8
ALPHA
 62
     7
100
AcDbVertex
100
AcDb2dVertex
 10
-39.046325
 20
-32.304876
 30
0.0
  0
VERTEX
  5
15E
100
AcDbEntity
  8
ALPHA
 62
     7
100
AcDbVertex
100
AcDb2dVertex
 10
-39.046325
 20
-29.297996
 30
0.0
  0
SEQEND
  5
15F
100
AcDbEntity
  8
ALPHA
 62
     7
  0
POLYLINE
  5
160
100
AcDbEntity
  8
ALPHA
 62
     7
100
AcDb2dPolyline
 66
     1
 10
0.0
 20
0.0
 30
0.0
 70
     1
  0
VERTEX
  5
161
100
AcDbEntity
  8
ALPHA
 62
     7
100
AcDbVertex
100
AcDb2dVertex
 10
-23.222312
 20
-53.379214
 30
0.0
  0
VERTEX
  5
162
100
AcDbEntity
  8
ALPHA
 62
     7
100
AcDbVertex
100
AcDb2dVertex
 10
-19.210843
 20
-47.865683
 30
0.0
  0
VERTEX
  5
163
100
AcDbEntity
  8
ALPHA
 62
     7
100
AcDbVertex
100
AcDb2dVertex
 10
-19.210843
 20
-47.865683
 30
0.0
  0
VERTEX
  5
164
100
AcDbEntity
  8
ALPHA
 62
     7
100
AcDbVertex
100
AcDb2dVertex
 10
-23.222312
 20
-42.349396
 30
0.0
  0
VERTEX
  5
165
100
AcDbEntity
  8
ALPHA
 62
     7
100
AcDbVertex
100
AcDb2dVertex
 10
-23.231958
 20
-45.102716
 30
0.0
  0
VERTEX
  5
166
100
AcDbEntity
  8
ALPHA
 62
     7
100
AcDbVertex
100
AcDb2dVertex
 10
-26.238838
 20
-45.102716
 30
0.0
  0
VERTEX
  5
167
100
AcDbEntity
  8
ALPHA
 62
     7
100
AcDbVertex
100
AcDb2dVertex
 10
-26.238838
 20
-50.614869
 30
0.0
  0
VERTEX
  5
168
100
AcDbEntity
  8
ALPHA
 62
     7
100
AcDbVertex
100
AcDb2dVertex
 10
-23.231958
 20
-50.614869
 30
0.0
  0
SEQEND
  5
169
100
AcDbEntity
  8
ALPHA
 62
     7
  0
POLYLINE
  5
16A
100
AcDbEntity
  8
ALPHA
 62
     7
100
AcDb2dPolyline
 66
     1
 10
0.0
 20
0.0
 30
0.0
 70
     1
  0
VERTEX
  5
16B
100
AcDbEntity
  8
ALPHA
 62
     7
100
AcDbVertex
100
AcDb2dVertex
 10
-60.367159
 20
-42.349396
 30
0.0
  0
VERTEX
  5
16C
100
AcDbEntity
  8
ALPHA
 62
     7
100
AcDbVertex
100
AcDb2dVertex
 10
-64.378629
 20
-47.865683
 30
0.0
  0
VERTEX
  5
16D
100
AcDbEntity
  8
ALPHA
 62
     7
100
AcDbVertex
100
AcDb2dVertex
 10
-64.378629
 20
-47.865683
 30
0.0
  0
VERTEX
  5
16E
100
AcDbEntity
  8
ALPHA
 62
     7
100
AcDbVertex
100
AcDb2dVertex
 10
-60.367159
 20
-53.379214
 30
0.0
  0
VERTEX
  5
16F
100
AcDbEntity
  8
ALPHA
 62
     7
100
AcDbVertex
100
AcDb2dVertex
 10
-60.363025
 20
-50.62865
 30
0.0
  0
VERTEX
  5
170
100
AcDbEntity
  8
ALPHA
 62
     7
100
AcDbVertex
100
AcDb2dVertex
 10
-57.356146
 20
-50.62865
 30
0.0
  0
VERTEX
  5
171
100
AcDbEntity
  8
ALPHA
 62
     7
100
AcDbVertex
100
AcDb2dVertex
 10
-57.356146
 20
-45.112363
 30
0.0
  0
VERTEX
  5
172
100
AcDbEntity
  8
ALPHA
 62
     7
100
AcDbVertex
100
AcDb2dVertex
 10
-60.363025
 20
-45.112363
 30
0.0
  0
SEQEND
  5
173
100
AcDbEntity
  8
ALPHA
 62
     7
  0
POLYLINE
  5
174
100
AcDbEntity
  8
ALPHA
 62
     7
100
AcDb2dPolyline
 66
     1
 10
0.0
 20
0.0
 30
0.0
 70
     1
  0
VERTEX
  5
175
100
AcDbEntity
  8
ALPHA
 62
     7
100
AcDbVertex
100
AcDb2dVertex
 10
-47.307664
 20
-66.438882
 30
0.0
  0
VERTEX
  5
176
100
AcDbEntity
  8
ALPHA
 62
     7
100
AcDbVertex
100
AcDb2dVertex
 10
-41.795511
 20
-70.444839
 30
0.0
  0
VERTEX
  5
177
100
AcDbEntity
  8
ALPHA
 62
     7
100
AcDbVertex
100
AcDb2dVertex
 10
-41.795511
 20
-70.444839
 30
0.0
  0
VERTEX
  5
178
100
AcDbEntity
  8
ALPHA
 62
     7
100
AcDbVertex
100
AcDb2dVertex
 10
-36.28198
 20
-66.438882
 30
0.0
  0
VERTEX
  5
179
100
AcDbEntity
  8
ALPHA
 62
     7
100
AcDbVertex
100
AcDb2dVertex
 10
-39.032544
 20
-66.429236
 30
0.0
  0
VERTEX
  5
17A
100
AcDbEntity
  8
ALPHA
 62
     7
100
AcDbVertex
100
AcDb2dVertex
 10
-39.032544
 20
-63.422356
 30
0.0
  0
VERTEX
  5
17B
100
AcDbEntity
  8
ALPHA
 62
     7
100
AcDbVertex
100
AcDb2dVertex
 10
-44.544697
 20
-63.422356
 30
0.0
  0
VERTEX
  5
17C
100
AcDbEntity
  8
ALPHA
 62
     7
100
AcDbVertex
100
AcDb2dVertex
 10
-44.544697
 20
-66.429236
 30
0.0
  0
SEQEND
  5
17D
100
AcDbEntity
  8
ALPHA
 62
     7
  0
SPLINE
  5
17E
100
AcDbEntity
  8
ALPHA
 62
     7
100
AcDbSpline
210
0.0
220
0.0
230
-1.0
 70
     8
 71
     3
 72
    17
 73
    13
 74
     0
 42
0.0000001
 43
0.0000001
 40
0.0
 40
0.0
 40
0.0
 40
0.0
 40
1.0
 40
1.0
 40
1.0
 40
2.0
 40
2.0
 40
2.0
 40
3.0
 40
3.0
 40
3.0
 40
4.0
 40
4.0
 40
4.0
 40
4.0
 10
-48.39906989203559
 20
-38.33792690700954
 30
0.0
 10
-48.39906989203559
 20
-38.33792690700954
 30
0.0
 10
-48.39906989203559
 20
-34.95759921603732
 30
0.0
 10
-48.39906989203559
 20
-34.95759921603732
 30
0.0
 10
-48.39906989203559
 20
-34.95759921603732
 30
0.0
 10
-48.40320400661892
 20
-34.95346510145399
 30
0.0
 10
-48.40320400661892
 20
-34.95346510145399
 30
0.0
 10
-49.89975348578559
 20
-33.34667256673176
 30
0.0
 10
-50.81614888509114
 20
-31.18590867784288
 30
0.0
 10
-50.81614888509114
 20
-28.81017083062065
 30
0.0
 10
-50.81614888509114
 20
-24.42525329589843
 30
0.0
 10
-47.6893802218967
 20
-20.76931796603732
 30
0.0
 10
-43.54010721842447
 20
-19.95903150770399
 30
0.0
  0
SPLINE
  5
17F
100
AcDbEntity
  8
ALPHA
 62
     7
100
AcDbSpline
210
0.0
220
0.0
230
1.0
 70
     8
 71
     3
 72
    17
 73
    13
 74
     0
 42
0.0000001
 43
0.0000001
 40
0.0
 40
0.0
 40
0.0
 40
0.0
 40
1.0
 40
1.0
 40
1.0
 40
2.0
 40
2.0
 40
2.0
 40
3.0
 40
3.0
 40
3.0
 40
4.0
 40
4.0
 40
4.0
 40
4.0
 10
-40.0495364718967
 20
-19.95903150770399
 30
0.0
 10
-35.9043975830078
 20
-20.76931796603732
 30
0.0
 10
-32.77349480523003
 20
-24.42525329589843
 30
0.0
 10
-32.77349480523003
 20
-28.81017083062065
 30
0.0
 10
-32.77349480523003
 20
-31.28237135145399
 30
0.0
 10
-33.76292622884114
 20
-33.51617126464843
 30
0.0
 10
-35.37109680175781
 20
-35.14639044867621
 30
0.0
 10
-35.37109680175781
 20
-35.14639044867621
 30
0.0
 10
-35.36558464898003
 20
-35.15603671603732
 30
0.0
 10
-35.36558464898003
 20
-35.15603671603732
 30
0.0
 10
-35.36558464898003
 20
-35.15603671603732
 30
0.0
 10
-35.36558464898003
 20
-38.33792690700954
 30
0.0
 10
-35.36558464898003
 20
-38.33792690700954
 30
0.0
  0
SPLINE
  5
180
100
AcDbEntity
  8
ALPHA
 62
     7
100
AcDbSpline
210
0.0
220
0.0
230
-1.0
 70
     8
 71
     3
 72
    17
 73
    13
 74
     0
 42
0.0000001
 43
0.0000001
 40
0.0
 40
0.0
 40
0.0
 40
0.0
 40
1.0
 40
1.0
 40
1.0
 40
2.0
 40
2.0
 40
2.0
 40
3.0
 40
3.0
 40
3.0
 40
4.0
 40
4.0
 40
4.0
 40
4.0
 10
-32.35870530870225
 20
-41.3503184000651
 30
0.0
 10
-32.35870530870225
 20
-41.3503184000651
 30
0.0
 10
-28.9742435031467
 20
-41.3503184000651
 30
0.0
 10
-28.9742435031467
 20
-41.3503184000651
 30
0.0
 10
-28.9742435031467
 20
-41.3503184000651
 30
0.0
 10
-28.9742435031467
 20
-41.34480624728732
 30
0.0
 10
-28.9742435031467
 20
-41.34480624728732
 30
0.0
 10
-27.3619388156467
 20
-39.84825676812065
 30
0.0
 10
-25.20255296495225
 20
-38.9318613688151
 30
0.0
 10
-22.83094923231336
 20
-38.9318613688151
 30
0.0
 10
-18.44740973578558
 20
-38.9318613688151
 30
0.0
 10
-14.79009636773003
 20
-42.05863003200954
 30
0.0
 10
-13.9798099093967
 20
-46.20790303548176
 30
0.0
  0
SPLINE
  5
181
100
AcDbEntity
  8
ALPHA
 62
     7
100
AcDbSpline
210
0.0
220
0.0
230
1.0
 70
     8
 71
     3
 72
    17
 73
    13
 74
     0
 42
0.0000001
 43
0.0000001
 40
0.0
 40
0.0
 40
0.0
 40
0.0
 40
1.0
 40
1.0
 40
1.0
 40
2.0
 40
2.0
 40
2.0
 40
3.0
 40
3.0
 40
3.0
 40
4.0
 40
4.0
 40
4.0
 40
4.0
 10
-13.9798099093967
 20
-49.69847378200954
 30
0.0
 10
-14.79009636773003
 20
-53.84361267089843
 30
0.0
 10
-18.44740973578558
 20
-56.97589348687065
 30
0.0
 10
-22.83094923231336
 20
-56.97589348687065
 30
0.0
 10
-25.29901563856336
 20
-56.97589348687065
 30
0.0
 10
-27.53694966634114
 20
-55.9850840250651
 30
0.0
 10
-29.16716885036892
 20
-54.37829149034287
 30
0.0
 10
-29.16716885036892
 20
-54.37829149034287
 30
0.0
 10
-29.17681511773003
 20
-54.38242560492621
 30
0.0
 10
-29.17681511773003
 20
-54.38242560492621
 30
0.0
 10
-29.17681511773003
 20
-54.38242560492621
 30
0.0
 10
-32.35870530870225
 20
-54.38242560492621
 30
0.0
 10
-32.35870530870225
 20
-54.38242560492621
 30
0.0
  0
SPLINE
  5
182
100
AcDbEntity
  8
ALPHA
 62
     7
100
AcDbSpline
210
0.0
220
0.0
230
1.0
 70
     8
 71
     3
 72
    17
 73
    13
 74
     0
 42
0.0000001
 43
0.0000001
 40
0.0
 40
0.0
 40
0.0
 40
0.0
 40
1.0
 40
1.0
 40
1.0
 40
2.0
 40
2.0
 40
2.0
 40
3.0
 40
3.0
 40
3.0
 40
4.0
 40
4.0
 40
4.0
 40
4.0
 10
-35.36558464898003
 20
-57.38930494520399
 30
0.0
 10
-35.36558464898003
 20
-57.38930494520399
 30
0.0
 10
-35.36558464898003
 20
-60.77514478895398
 30
0.0
 10
-35.36558464898003
 20
-60.77514478895398
 30
0.0
 10
-35.36558464898003
 20
-60.77514478895398
 30
0.0
 10
-35.36558464898003
 20
-60.77514478895398
 30
0.0
 10
-35.36558464898003
 20
-60.77514478895398
 30
0.0
 10
-33.86490105523003
 20
-62.38607143825954
 30
0.0
 10
-32.94850565592447
 20
-64.54683532714843
 30
0.0
 10
-32.94850565592447
 20
-66.91843905978732
 30
0.0
 10
-32.94850565592447
 20
-71.30197855631509
 30
0.0
 10
-36.07940843370225
 20
-74.95791388617622
 30
0.0
 10
-40.22868143717447
 20
-75.76957838270399
 30
0.0
  0
SPLINE
  5
183
100
AcDbEntity
  8
ALPHA
 62
     7
100
AcDbSpline
210
0.0
220
0.0
230
-1.0
 70
     8
 71
     3
 72
    17
 73
    13
 74
     0
 42
0.0000001
 43
0.0000001
 40
0.0
 40
0.0
 40
0.0
 40
0.0
 40
1.0
 40
1.0
 40
1.0
 40
2.0
 40
2.0
 40
2.0
 40
3.0
 40
3.0
 40
3.0
 40
4.0
 40
4.0
 40
4.0
 40
4.0
 10
-43.71511806911892
 20
-75.76957838270399
 30
0.0
 10
-47.86439107259114
 20
-74.95791388617622
 30
0.0
 10
-50.99667188856336
 20
-71.30197855631509
 30
0.0
 10
-50.99667188856336
 20
-66.91843905978732
 30
0.0
 10
-50.99667188856336
 20
-64.44899461534287
 30
0.0
 10
-50.00172831217447
 20
-62.2110605875651
 30
0.0
 10
-48.39493577745225
 20
-60.58084140353732
 30
0.0
 10
-48.39493577745225
 20
-60.58084140353732
 30
0.0
 10
-48.39906989203559
 20
-60.57257317437065
 30
0.0
 10
-48.39906989203559
 20
-60.57257317437065
 30
0.0
 10
-48.39906989203559
 20
-60.57257317437065
 30
0.0
 10
-48.39906989203559
 20
-57.38930494520399
 30
0.0
 10
-48.39906989203559
 20
-57.38930494520399
 30
0.0
  0
SPLINE
  5
184
100
AcDbEntity
  8
ALPHA
 62
     7
100
AcDbSpline
210
0.0
220
0.0
230
1.0
 70
     8
 71
     3
 72
    17
 73
    13
 74
     0
 42
0.0000001
 43
0.0000001
 40
0.0
 40
0.0
 40
0.0
 40
0.0
 40
1.0
 40
1.0
 40
1.0
 40
2.0
 40
2.0
 40
2.0
 40
3.0
 40
3.0
 40
3.0
 40
4.0
 40
4.0
 40
4.0
 40
4.0
 10
-51.4100833468967
 20
-54.38242560492621
 30
0.0
 10
-51.4100833468967
 20
-54.38242560492621
 30
0.0
 10
-54.79023878309462
 20
-54.38242560492621
 30
0.0
 10
-54.79023878309462
 20
-54.38242560492621
 30
0.0
 10
-54.79023878309462
 20
-54.38242560492621
 30
0.0
 10
-54.79575093587239
 20
-54.38242560492621
 30
0.0
 10
-54.79575093587239
 20
-54.38242560492621
 30
0.0
 10
-56.40254347059461
 20
-55.88448723687065
 30
0.0
 10
-58.56192932128905
 20
-56.80088263617621
 30
0.0
 10
-60.93904520670572
 20
-56.80088263617621
 30
0.0
 10
-65.3225847032335
 20
-56.80088263617621
 30
0.0
 10
-68.97989807128905
 20
-53.66860182020399
 30
0.0
 10
-69.7901845296224
 20
-49.51932881673176
 30
0.0
  0
SPLINE
  5
185
100
AcDbEntity
  8
ALPHA
 62
     7
100
AcDbSpline
210
0.0
220
0.0
230
-1.0
 70
     8
 71
     3
 72
    17
 73
    13
 74
     0
 42
0.0000001
 43
0.0000001
 40
0.0
 40
0.0
 40
0.0
 40
0.0
 40
1.0
 40
1.0
 40
1.0
 40
2.0
 40
2.0
 40
2.0
 40
3.0
 40
3.0
 40
3.0
 40
4.0
 40
4.0
 40
4.0
 40
4.0
 10
-69.7901845296224
 20
-46.03289218478732
 30
0.0
 10
-68.97989807128905
 20
-41.88361918131509
 30
0.0
 10
-65.3225847032335
 20
-38.75271640353732
 30
0.0
 10
-60.93904520670572
 20
-38.75271640353732
 30
0.0
 10
-58.46546664767794
 20
-38.75271640353732
 30
0.0
 10
-56.2316667344835
 20
-39.74765997992621
 30
0.0
 10
-54.60161980523003
 20
-41.35445251464843
 30
0.0
 10
-54.60161980523003
 20
-41.35445251464843
 30
0.0
 10
-54.59335157606336
 20
-41.3503184000651
 30
0.0
 10
-54.59335157606336
 20
-41.3503184000651
 30
0.0
 10
-54.59335157606336
 20
-41.3503184000651
 30
0.0
 10
-51.4100833468967
 20
-41.3503184000651
 30
0.0
 10
-51.4100833468967
 20
-41.3503184000651
 30
0.0
  0
SPLINE
  5
186
100
AcDbEntity
  8
ALPHA
 62
     7
100
AcDbSpline
210
0.0
220
0.0
230
-1.0
 70
    11
 71
     3
 72
    29
 73
    25
 74
     0
 42
0.0000001
 43
0.0000001
 40
0.0
 40
0.0
 40
0.0
 40
0.0
 40
1.0
 40
1.0
 40
1.0
 40
2.0
 40
2.0
 40
2.0
 40
3.0
 40
3.0
 40
3.0
 40
4.0
 40
4.0
 40
4.0
 40
5.0
 40
5.0
 40
5.0
 40
6.0
 40
6.0
 40
6.0
 40
7.0
 40
7.0
 40
7.0
 40
8.0
 40
8.0
 40
8.0
 40
8.0
 10
-16.60497266981336
 20
-72.66485833062064
 30
0.0
 10
-16.05237935384114
 20
-72.66485833062064
 30
0.0
 10
-15.60589497884114
 20
-72.21837395562065
 30
0.0
 10
-15.60589497884114
 20
-71.66578063964843
 30
0.0
 10
-15.60589497884114
 20
-71.66578063964843
 30
0.0
 10
-15.60589497884114
 20
-64.64743211534288
 30
0.0
 10
-15.60589497884114
 20
-64.64743211534288
 30
0.0
 10
-15.60589497884114
 20
-64.09483879937065
 30
0.0
 10
-16.05237935384114
 20
-63.64422030978732
 30
0.0
 10
-16.60497266981336
 20
-63.64422030978732
 30
0.0
 10
-16.60497266981336
 20
-63.64422030978732
 30
0.0
 10
-28.63386806911892
 20
-63.64422030978732
 30
0.0
 10
-28.63386806911892
 20
-63.64422030978732
 30
0.0
 10
-29.19059549967447
 20
-63.64422030978732
 30
0.0
 10
-29.63707987467447
 20
-64.09483879937065
 30
0.0
 10
-29.63707987467447
 20
-64.64743211534288
 30
0.0
 10
-29.63707987467447
 20
-64.64743211534288
 30
0.0
 10
-29.63707987467447
 20
-71.66578063964843
 30
0.0
 10
-29.63707987467447
 20
-71.66578063964843
 30
0.0
 10
-29.63707987467447
 20
-72.21837395562065
 30
0.0
 10
-29.19059549967447
 20
-72.66485833062064
 30
0.0
 10
-28.63386806911892
 20
-72.66485833062064
 30
0.0
 10
-28.63386806911892
 20
-72.66485833062064
 30
0.0
 10
-16.60497266981336
 20
-72.66485833062064
 30
0.0
 10
-16.60497266981336
 20
-72.66485833062064
 30
0.0
  0
SPLINE
  5
187
100
AcDbEntity
  8
ALPHA
 62
     7
100
AcDbSpline
210
0.0
220
0.0
230
1.0
 70
     8
 71
     3
 72
    32
 73
    28
 74
     0
 42
0.0000001
 43
0.0000001
 40
0.0
 40
0.0
 40
0.0
 40
0.0
 40
1.0
 40
1.0
 40
1.0
 40
2.0
 40
2.0
 40
2.0
 40
3.0
 40
3.0
 40
3.0
 40
4.0
 40
4.0
 40
4.0
 40
5.0
 40
5.0
 40
5.0
 40
6.0
 40
6.0
 40
6.0
 40
7.0
 40
7.0
 40
7.0
 40
8.0
 40
8.0
 40
8.0
 40
9.0
 40
9.0
 40
9.0
 40
9.0
 10
-109.2930274115668
 20
44.47682868109808
 30
0.0
 10
-109.2930274115668
 20
44.47682868109808
 30
0.0
 10
-108.5419965955946
 20
44.47682868109808
 30
0.0
 10
-108.5419965955946
 20
44.47682868109808
 30
0.0
 10
-107.7137956407334
 20
44.47682868109808
 30
0.0
 10
-107.0413130018446
 20
45.14931131998697
 30
0.0
 10
-107.0413130018446
 20
45.98302442762586
 30
0.0
 10
-107.0413130018446
 20
45.98302442762586
 30
0.0
 10
-107.0413130018446
 20
49.49150967068142
 30
0.0
 10
-107.0413130018446
 20
49.49150967068142
 30
0.0
 10
-107.0413130018446
 20
50.32246670193142
 30
0.0
 10
-107.7137956407334
 20
50.99494934082031
 30
0.0
 10
-108.5419965955946
 20
50.99494934082031
 30
0.0
 10
-108.5419965955946
 20
50.99494934082031
 30
0.0
 10
-115.5603451199001
 20
50.99494934082031
 30
0.0
 10
-115.5603451199001
 20
50.99494934082031
 30
0.0
 10
-116.3899241129557
 20
50.99494934082031
 30
0.0
 10
-117.0624067518446
 20
50.32246670193142
 30
0.0
 10
-117.0624067518446
 20
49.49150967068142
 30
0.0
 10
-117.0624067518446
 20
49.49150967068142
 30
0.0
 10
-117.0624067518446
 20
45.98302442762586
 30
0.0
 10
-117.0624067518446
 20
45.98302442762586
 30
0.0
 10
-117.0624067518446
 20
45.14931131998697
 30
0.0
 10
-116.3899241129557
 20
44.47682868109808
 30
0.0
 10
-115.5603451199001
 20
44.47682868109808
 30
0.0
 10
-115.5603451199001
 20
44.47682868109808
 30
0.0
 10
-114.8106923421223
 20
44.47682868109808
 30
0.0
 10
-114.8106923421223
 20
44.47682868109808
 30
0.0
  0
SPLINE
  5
188
100
AcDbEntity
  8
ALPHA
 62
     7
100
AcDbSpline
210
0.0
220
0.0
230
-1.0
 70
     8
 71
     3
 72
    20
 73
    16
 74
     0
 42
0.0000001
 43
0.0000001
 40
0.0
 40
0.0
 40
0.0
 40
0.0
 40
1.0
 40
1.0
 40
1.0
 40
2.0
 40
2.0
 40
2.0
 40
3.0
 40
3.0
 40
3.0
 40
4.0
 40
4.0
 40
4.0
 40
5.0
 40
5.0
 40
5.0
 40
5.0
 10
-109.2930274115668
 20
42.47316114637587
 30
0.0
 10
-109.2930274115668
 20
42.47316114637587
 30
0.0
 10
-109.2930274115668
 20
45.23199361165364
 30
0.0
 10
-109.2930274115668
 20
45.23199361165364
 30
0.0
 10
-109.2930274115668
 20
46.75610385470919
 30
0.0
 10
-110.527749633789
 20
47.99082607693142
 30
0.0
 10
-112.0518598768446
 20
47.99082607693142
 30
0.0
 10
-112.0518598768446
 20
47.99082607693142
 30
0.0
 10
-112.0518598768446
 20
47.99082607693142
 30
0.0
 10
-112.0518598768446
 20
47.99082607693142
 30
0.0
 10
-113.5759701199001
 20
47.99082607693142
 30
0.0
 10
-114.8106923421223
 20
46.75610385470919
 30
0.0
 10
-114.8106923421223
 20
45.23199361165364
 30
0.0
 10
-114.8106923421223
 20
45.23199361165364
 30
0.0
 10
-114.8106923421223
 20
42.47316114637587
 30
0.0
 10
-114.8106923421223
 20
42.47316114637587
 30
0.0
  0
SPLINE
  5
189
100
AcDbEntity
  8
ALPHA
 62
     7
100
AcDbSpline
210
0.0
220
0.0
230
-1.0
 70
    11
 71
     3
 72
    29
 73
    25
 74
     0
 42
0.0000001
 43
0.0000001
 40
0.0
 40
0.0
 40
0.0
 40
0.0
 40
1.0
 40
1.0
 40
1.0
 40
2.0
 40
2.0
 40
2.0
 40
3.0
 40
3.0
 40
3.0
 40
4.0
 40
4.0
 40
4.0
 40
5.0
 40
5.0
 40
5.0
 40
6.0
 40
6.0
 40
6.0
 40
7.0
 40
7.0
 40
7.0
 40
8.0
 40
8.0
 40
8.0
 40
8.0
 10
-112.0518598768446
 20
43.92423536512587
 30
0.0
 10
-111.3600847032335
 20
43.92423536512587
 30
0.0
 10
-110.7992231580946
 20
44.4864749484592
 30
0.0
 10
-110.7992231580946
 20
45.17687208387586
 30
0.0
 10
-110.7992231580946
 20
45.17687208387586
 30
0.0
 10
-110.7992231580946
 20
46.18146192762586
 30
0.0
 10
-110.7992231580946
 20
46.18146192762586
 30
0.0
 10
-110.7992231580946
 20
46.87185906304253
 30
0.0
 10
-111.3600847032335
 20
47.43409864637587
 30
0.0
 10
-112.0518598768446
 20
47.43409864637587
 30
0.0
 10
-112.0518598768446
 20
47.43409864637587
 30
0.0
 10
-112.0518598768446
 20
47.43409864637587
 30
0.0
 10
-112.0518598768446
 20
47.43409864637587
 30
0.0
 10
-112.7422570122612
 20
47.43409864637587
 30
0.0
 10
-113.3044965955946
 20
46.87185906304253
 30
0.0
 10
-113.3044965955946
 20
46.18146192762586
 30
0.0
 10
-113.3044965955946
 20
46.18146192762586
 30
0.0
 10
-113.3044965955946
 20
45.17687208387586
 30
0.0
 10
-113.3044965955946
 20
45.17687208387586
 30
0.0
 10
-113.3044965955946
 20
44.4864749484592
 30
0.0
 10
-112.7422570122612
 20
43.92423536512587
 30
0.0
 10
-112.0518598768446
 20
43.92423536512587
 30
0.0
 10
-112.0518598768446
 20
43.92423536512587
 30
0.0
 10
-112.0518598768446
 20
43.92423536512587
 30
0.0
 10
-112.0518598768446
 20
43.92423536512587
 30
0.0
  0
SPLINE
  5
18A
100
AcDbEntity
  8
ALPHA
 62
     7
100
AcDbSpline
210
0.0
220
0.0
230
-1.0
 70
     8
 71
     3
 72
    32
 73
    28
 74
     0
 42
0.0000001
 43
0.0000001
 40
0.0
 40
0.0
 40
0.0
 40
0.0
 40
1.0
 40
1.0
 40
1.0
 40
2.0
 40
2.0
 40
2.0
 40
3.0
 40
3.0
 40
3.0
 40
4.0
 40
4.0
 40
4.0
 40
5.0
 40
5.0
 40
5.0
 40
6.0
 40
6.0
 40
6.0
 40
7.0
 40
7.0
 40
7.0
 40
8.0
 40
8.0
 40
8.0
 40
9.0
 40
9.0
 40
9.0
 40
9.0
 10
-127.8207509358723
 20
15.07362772623697
 30
0.0
 10
-127.8207509358723
 20
15.07362772623697
 30
0.0
 10
-127.8207509358723
 20
12.06537034776475
 30
0.0
 10
-127.8207509358723
 20
12.06537034776475
 30
0.0
 10
-127.8207509358723
 20
11.5086429172092
 30
0.0
 10
-127.3742665608723
 20
11.0621585422092
 30
0.0
 10
-126.8189171685112
 20
11.0621585422092
 30
0.0
 10
-126.8189171685112
 20
11.0621585422092
 30
0.0
 10
-112.7835981580946
 20
11.0621585422092
 30
0.0
 10
-112.7835981580946
 20
11.0621585422092
 30
0.0
 10
-112.2310048421223
 20
11.0621585422092
 30
0.0
 10
-111.780386352539
 20
11.5086429172092
 30
0.0
 10
-111.780386352539
 20
12.06537034776475
 30
0.0
 10
-111.780386352539
 20
12.06537034776475
 30
0.0
 10
-111.780386352539
 20
24.09426574707031
 30
0.0
 10
-111.780386352539
 20
24.09426574707031
 30
0.0
 10
-111.780386352539
 20
24.64685906304253
 30
0.0
 10
-112.2310048421223
 20
25.09334343804253
 30
0.0
 10
-112.7835981580946
 20
25.09334343804253
 30
0.0
 10
-112.7835981580946
 20
25.09334343804253
 30
0.0
 10
-126.8189171685112
 20
25.09334343804253
 30
0.0
 10
-126.8189171685112
 20
25.09334343804253
 30
0.0
 10
-127.3742665608723
 20
25.09334343804253
 30
0.0
 10
-127.8207509358723
 20
24.64685906304253
 30
0.0
 10
-127.8207509358723
 20
24.09426574707031
 30
0.0
 10
-127.8207509358723
 20
24.09426574707031
 30
0.0
 10
-127.8207509358723
 20
21.08738640679253
 30
0.0
 10
-127.8207509358723
 20
21.08738640679253
 30
0.0
  0
SPLINE
  5
18B
100
AcDbEntity
  8
ALPHA
 62
     7
100
AcDbSpline
210
0.0
220
0.0
230
1.0
 70
    11
 71
     3
 72
    26
 73
    22
 74
     0
 42
0.0000001
 43
0.0000001
 40
0.0
 40
0.0
 40
0.0
 40
0.0
 40
1.0
 40
1.0
 40
1.0
 40
2.0
 40
2.0
 40
2.0
 40
3.0
 40
3.0
 40
3.0
 40
4.0
 40
4.0
 40
4.0
 40
5.0
 40
5.0
 40
5.0
 40
6.0
 40
6.0
 40
6.0
 40
7.0
 40
7.0
 40
7.0
 40
7.0
 10
-124.8083594428168
 20
18.08050706651475
 30
0.0
 10
-124.8083594428168
 20
18.08050706651475
 30
0.0
 10
-127.816616821289
 20
21.08738640679253
 30
0.0
 10
-127.816616821289
 20
21.08738640679253
 30
0.0
 10
-127.816616821289
 20
21.08738640679253
 30
0.0
 10
-132.8285417344835
 20
21.08738640679253
 30
0.0
 10
-132.8285417344835
 20
21.08738640679253
 30
0.0
 10
-134.489077758789
 20
21.08738640679253
 30
0.0
 10
-135.8367991129556
 20
19.73828701443142
 30
0.0
 10
-135.8367991129556
 20
18.08050706651475
 30
0.0
 10
-135.8367991129556
 20
18.08050706651475
 30
0.0
 10
-135.8367991129556
 20
18.08050706651475
 30
0.0
 10
-135.8367991129556
 20
18.08050706651475
 30
0.0
 10
-135.8367991129556
 20
16.41721496582031
 30
0.0
 10
-134.489077758789
 20
15.07362772623697
 30
0.0
 10
-132.8285417344835
 20
15.07362772623697
 30
0.0
 10
-132.8285417344835
 20
15.07362772623697
 30
0.0
 10
-127.816616821289
 20
15.07362772623697
 30
0.0
 10
-127.816616821289
 20
15.07362772623697
 30
0.0
 10
-127.816616821289
 20
15.07362772623697
 30
0.0
 10
-124.8083594428168
 20
18.08050706651475
 30
0.0
 10
-124.8083594428168
 20
18.08050706651475
 30
0.0
  0
SPLINE
  5
18C
100
AcDbEntity
  8
ALPHA
 62
     7
100
AcDbSpline
210
0.0
220
0.0
230
-1.0
 70
     8
 71
     3
 72
    32
 73
    28
 74
     0
 42
0.0000001
 43
0.0000001
 40
0.0
 40
0.0
 40
0.0
 40
0.0
 40
1.0
 40
1.0
 40
1.0
 40
2.0
 40
2.0
 40
2.0
 40
3.0
 40
3.0
 40
3.0
 40
4.0
 40
4.0
 40
4.0
 40
5.0
 40
5.0
 40
5.0
 40
6.0
 40
6.0
 40
6.0
 40
7.0
 40
7.0
 40
7.0
 40
8.0
 40
8.0
 40
8.0
 40
9.0
 40
9.0
 40
9.0
 40
9.0
 10
-127.8207509358723
 20
-4.024775865342881
 30
0.0
 10
-127.8207509358723
 20
-4.024775865342881
 30
0.0
 10
-127.8207509358723
 20
-7.031655205620658
 30
0.0
 10
-127.8207509358723
 20
-7.031655205620658
 30
0.0
 10
-127.8207509358723
 20
-7.589760674370658
 30
0.0
 10
-127.3742665608723
 20
-8.036245049370659
 30
0.0
 10
-126.8189171685112
 20
-8.036245049370659
 30
0.0
 10
-126.8189171685112
 20
-8.036245049370659
 30
0.0
 10
-112.7835981580946
 20
-8.036245049370659
 30
0.0
 10
-112.7835981580946
 20
-8.036245049370659
 30
0.0
 10
-112.2310048421223
 20
-8.036245049370659
 30
0.0
 10
-111.780386352539
 20
-7.589760674370658
 30
0.0
 10
-111.780386352539
 20
-7.031655205620658
 30
0.0
 10
-111.780386352539
 20
-7.031655205620658
 30
0.0
 10
-111.780386352539
 20
4.997240193684895
 30
0.0
 10
-111.780386352539
 20
4.997240193684895
 30
0.0
 10
-111.780386352539
 20
5.549833509657117
 30
0.0
 10
-112.2310048421223
 20
5.996317884657117
 30
0.0
 10
-112.7835981580946
 20
5.996317884657117
 30
0.0
 10
-112.7835981580946
 20
5.996317884657117
 30
0.0
 10
-126.8189171685112
 20
5.996317884657117
 30
0.0
 10
-126.8189171685112
 20
5.996317884657117
 30
0.0
 10
-127.3742665608723
 20
5.996317884657117
 30
0.0
 10
-127.8207509358723
 20
5.549833509657117
 30
0.0
 10
-127.8207509358723
 20
4.997240193684895
 30
0.0
 10
-127.8207509358723
 20
4.997240193684895
 30
0.0
 10
-127.8207509358723
 20
1.988982815212673
 30
0.0
 10
-127.8207509358723
 20
1.988982815212673
 30
0.0
  0
SPLINE
  5
18D
100
AcDbEntity
  8
ALPHA
 62
     7
100
AcDbSpline
210
0.0
220
0.0
230
1.0
 70
    11
 71
     3
 72
    26
 73
    22
 74
     0
 42
0.0000001
 43
0.0000001
 40
0.0
 40
0.0
 40
0.0
 40
0.0
 40
1.0
 40
1.0
 40
1.0
 40
2.0
 40
2.0
 40
2.0
 40
3.0
 40
3.0
 40
3.0
 40
4.0
 40
4.0
 40
4.0
 40
5.0
 40
5.0
 40
5.0
 40
6.0
 40
6.0
 40
6.0
 40
7.0
 40
7.0
 40
7.0
 40
7.0
 10
-124.8083594428168
 20
-1.017896525065103
 30
0.0
 10
-124.8083594428168
 20
-1.017896525065103
 30
0.0
 10
-127.816616821289
 20
1.988982815212673
 30
0.0
 10
-127.816616821289
 20
1.988982815212673
 30
0.0
 10
-127.816616821289
 20
1.988982815212673
 30
0.0
 10
-132.8285417344835
 20
1.988982815212673
 30
0.0
 10
-132.8285417344835
 20
1.988982815212673
 30
0.0
 10
-134.489077758789
 20
1.988982815212673
 30
0.0
 10
-135.8367991129556
 20
0.6398834228515625
 30
0.0
 10
-135.8367991129556
 20
-1.017896525065103
 30
0.0
 10
-135.8367991129556
 20
-1.017896525065103
 30
0.0
 10
-135.8367991129556
 20
-1.017896525065103
 30
0.0
 10
-135.8367991129556
 20
-1.017896525065103
 30
0.0
 10
-135.8367991129556
 20
-2.679810587565103
 30
0.0
 10
-134.489077758789
 20
-4.024775865342881
 30
0.0
 10
-132.8285417344835
 20
-4.024775865342881
 30
0.0
 10
-132.8285417344835
 20
-4.024775865342881
 30
0.0
 10
-127.816616821289
 20
-4.024775865342881
 30
0.0
 10
-127.816616821289
 20
-4.024775865342881
 30
0.0
 10
-127.816616821289
 20
-4.024775865342881
 30
0.0
 10
-124.8083594428168
 20
-1.017896525065103
 30
0.0
 10
-124.8083594428168
 20
-1.017896525065103
 30
0.0
  0
SPLINE
  5
18E
100
AcDbEntity
  8
ALPHA
 62
     7
100
AcDbSpline
210
0.0
220
0.0
230
-1.0
 70
     8
 71
     3
 72
    32
 73
    28
 74
     0
 42
0.0000001
 43
0.0000001
 40
0.0
 40
0.0
 40
0.0
 40
0.0
 40
1.0
 40
1.0
 40
1.0
 40
2.0
 40
2.0
 40
2.0
 40
3.0
 40
3.0
 40
3.0
 40
4.0
 40
4.0
 40
4.0
 40
5.0
 40
5.0
 40
5.0
 40
6.0
 40
6.0
 40
6.0
 40
7.0
 40
7.0
 40
7.0
 40
8.0
 40
8.0
 40
8.0
 40
9.0
 40
9.0
 40
9.0
 40
9.0
 10
-127.8207509358723
 20
-23.12300720214843
 30
0.0
 10
-127.8207509358723
 20
-23.12300720214843
 30
0.0
 10
-127.8207509358723
 20
-26.12988654242621
 30
0.0
 10
-127.8207509358723
 20
-26.12988654242621
 30
0.0
 10
-127.8207509358723
 20
-26.68661397298176
 30
0.0
 10
-127.3742665608723
 20
-27.13309834798177
 30
0.0
 10
-126.8189171685112
 20
-27.13309834798177
 30
0.0
 10
-126.8189171685112
 20
-27.13309834798177
 30
0.0
 10
-112.7835981580946
 20
-27.13309834798177
 30
0.0
 10
-112.7835981580946
 20
-27.13309834798177
 30
0.0
 10
-112.2310048421223
 20
-27.13309834798177
 30
0.0
 10
-111.780386352539
 20
-26.68661397298176
 30
0.0
 10
-111.780386352539
 20
-26.12988654242621
 30
0.0
 10
-111.780386352539
 20
-26.12988654242621
 30
0.0
 10
-111.780386352539
 20
-14.10099114312066
 30
0.0
 10
-111.780386352539
 20
-14.10099114312066
 30
0.0
 10
-111.780386352539
 20
-13.54839782714843
 30
0.0
 10
-112.2310048421223
 20
-13.10191345214843
 30
0.0
 10
-112.7835981580946
 20
-13.10191345214843
 30
0.0
 10
-112.7835981580946
 20
-13.10191345214843
 30
0.0
 10
-126.8189171685112
 20
-13.10191345214843
 30
0.0
 10
-126.8189171685112
 20
-13.10191345214843
 30
0.0
 10
-127.3742665608723
 20
-13.10191345214843
 30
0.0
 10
-127.8207509358723
 20
-13.54839782714843
 30
0.0
 10
-127.8207509358723
 20
-14.10099114312066
 30
0.0
 10
-127.8207509358723
 20
-14.10099114312066
 30
0.0
 10
-127.8207509358723
 20
-17.10787048339843
 30
0.0
 10
-127.8207509358723
 20
-17.10787048339843
 30
0.0
  0
SPLINE
  5
18F
100
AcDbEntity
  8
ALPHA
 62
     7
100
AcDbSpline
210
0.0
220
0.0
230
1.0
 70
    11
 71
     3
 72
    26
 73
    22
 74
     0
 42
0.0000001
 43
0.0000001
 40
0.0
 40
0.0
 40
0.0
 40
0.0
 40
1.0
 40
1.0
 40
1.0
 40
2.0
 40
2.0
 40
2.0
 40
3.0
 40
3.0
 40
3.0
 40
4.0
 40
4.0
 40
4.0
 40
5.0
 40
5.0
 40
5.0
 40
6.0
 40
6.0
 40
6.0
 40
7.0
 40
7.0
 40
7.0
 40
7.0
 10
-124.8083594428168
 20
-20.11474982367621
 30
0.0
 10
-124.8083594428168
 20
-20.11474982367621
 30
0.0
 10
-127.816616821289
 20
-17.10787048339843
 30
0.0
 10
-127.816616821289
 20
-17.10787048339843
 30
0.0
 10
-127.816616821289
 20
-17.10787048339843
 30
0.0
 10
-132.8285417344835
 20
-17.10787048339843
 30
0.0
 10
-132.8285417344835
 20
-17.10787048339843
 30
0.0
 10
-134.489077758789
 20
-17.10787048339843
 30
0.0
 10
-135.8367991129556
 20
-18.45696987575954
 30
0.0
 10
-135.8367991129556
 20
-20.11474982367621
 30
0.0
 10
-135.8367991129556
 20
-20.11474982367621
 30
0.0
 10
-135.8367991129556
 20
-20.11474982367621
 30
0.0
 10
-135.8367991129556
 20
-20.11474982367621
 30
0.0
 10
-135.8367991129556
 20
-21.77804192437065
 30
0.0
 10
-134.489077758789
 20
-23.12300720214843
 30
0.0
 10
-132.8285417344835
 20
-23.12300720214843
 30
0.0
 10
-132.8285417344835
 20
-23.12300720214843
 30
0.0
 10
-127.816616821289
 20
-23.12300720214843
 30
0.0
 10
-127.816616821289
 20
-23.12300720214843
 30
0.0
 10
-127.816616821289
 20
-23.12300720214843
 30
0.0
 10
-124.8083594428168
 20
-20.11474982367621
 30
0.0
 10
-124.8083594428168
 20
-20.11474982367621
 30
0.0
  0
SPLINE
  5
190
100
AcDbEntity
  8
ALPHA
 62
     7
100
AcDbSpline
210
0.0
220
0.0
230
-1.0
 70
     8
 71
     3
 72
    32
 73
    28
 74
     0
 42
0.0000001
 43
0.0000001
 40
0.0
 40
0.0
 40
0.0
 40
0.0
 40
1.0
 40
1.0
 40
1.0
 40
2.0
 40
2.0
 40
2.0
 40
3.0
 40
3.0
 40
3.0
 40
4.0
 40
4.0
 40
4.0
 40
5.0
 40
5.0
 40
5.0
 40
6.0
 40
6.0
 40
6.0
 40
7.0
 40
7.0
 40
7.0
 40
8.0
 40
8.0
 40
8.0
 40
9.0
 40
9.0
 40
9.0
 40
9.0
 10
-127.8207509358723
 20
-42.21986050075954
 30
0.0
 10
-127.8207509358723
 20
-42.21986050075954
 30
0.0
 10
-127.8207509358723
 20
-45.22811787923177
 30
0.0
 10
-127.8207509358723
 20
-45.22811787923177
 30
0.0
 10
-127.8207509358723
 20
-45.78484530978732
 30
0.0
 10
-127.3742665608723
 20
-46.23132968478731
 30
0.0
 10
-126.8189171685112
 20
-46.23132968478731
 30
0.0
 10
-126.8189171685112
 20
-46.23132968478731
 30
0.0
 10
-112.7835981580946
 20
-46.23132968478731
 30
0.0
 10
-112.7835981580946
 20
-46.23132968478731
 30
0.0
 10
-112.2310048421223
 20
-46.23132968478731
 30
0.0
 10
-111.780386352539
 20
-45.78484530978732
 30
0.0
 10
-111.780386352539
 20
-45.22811787923177
 30
0.0
 10
-111.780386352539
 20
-45.22811787923177
 30
0.0
 10
-111.780386352539
 20
-33.19922247992621
 30
0.0
 10
-111.780386352539
 20
-33.19922247992621
 30
0.0
 10
-111.780386352539
 20
-32.64662916395399
 30
0.0
 10
-112.2310048421223
 20
-32.19876675075954
 30
0.0
 10
-112.7835981580946
 20
-32.19876675075954
 30
0.0
 10
-112.7835981580946
 20
-32.19876675075954
 30
0.0
 10
-126.8189171685112
 20
-32.19876675075954
 30
0.0
 10
-126.8189171685112
 20
-32.19876675075954
 30
0.0
 10
-127.3742665608723
 20
-32.19876675075954
 30
0.0
 10
-127.8207509358723
 20
-32.64662916395399
 30
0.0
 10
-127.8207509358723
 20
-33.19922247992621
 30
0.0
 10
-127.8207509358723
 20
-33.19922247992621
 30
0.0
 10
-127.8207509358723
 20
-36.20610182020399
 30
0.0
 10
-127.8207509358723
 20
-36.20610182020399
 30
0.0
  0
SPLINE
  5
191
100
AcDbEntity
  8
ALPHA
 62
     7
100
AcDbSpline
210
0.0
220
0.0
230
1.0
 70
    11
 71
     3
 72
    26
 73
    22
 74
     0
 42
0.0000001
 43
0.0000001
 40
0.0
 40
0.0
 40
0.0
 40
0.0
 40
1.0
 40
1.0
 40
1.0
 40
2.0
 40
2.0
 40
2.0
 40
3.0
 40
3.0
 40
3.0
 40
4.0
 40
4.0
 40
4.0
 40
5.0
 40
5.0
 40
5.0
 40
6.0
 40
6.0
 40
6.0
 40
7.0
 40
7.0
 40
7.0
 40
7.0
 10
-124.8083594428168
 20
-39.21298116048177
 30
0.0
 10
-124.8083594428168
 20
-39.21298116048177
 30
0.0
 10
-127.816616821289
 20
-36.20610182020399
 30
0.0
 10
-127.816616821289
 20
-36.20610182020399
 30
0.0
 10
-127.816616821289
 20
-36.20610182020399
 30
0.0
 10
-132.8285417344835
 20
-36.20610182020399
 30
0.0
 10
-132.8285417344835
 20
-36.20610182020399
 30
0.0
 10
-134.489077758789
 20
-36.20610182020399
 30
0.0
 10
-135.8367991129556
 20
-37.5552012125651
 30
0.0
 10
-135.8367991129556
 20
-39.21298116048177
 30
0.0
 10
-135.8367991129556
 20
-39.21298116048177
 30
0.0
 10
-135.8367991129556
 20
-39.21298116048177
 30
0.0
 10
-135.8367991129556
 20
-39.21298116048177
 30
0.0
 10
-135.8367991129556
 20
-40.87489522298176
 30
0.0
 10
-134.489077758789
 20
-42.21986050075954
 30
0.0
 10
-132.8285417344835
 20
-42.21986050075954
 30
0.0
 10
-132.8285417344835
 20
-42.21986050075954
 30
0.0
 10
-127.816616821289
 20
-42.21986050075954
 30
0.0
 10
-127.816616821289
 20
-42.21986050075954
 30
0.0
 10
-127.816616821289
 20
-42.21986050075954
 30
0.0
 10
-124.8083594428168
 20
-39.21298116048177
 30
0.0
 10
-124.8083594428168
 20
-39.21298116048177
 30
0.0
  0
SPLINE
  5
192
100
AcDbEntity
  8
ALPHA
 62
     7
100
AcDbSpline
210
0.0
220
0.0
230
-1.0
 70
     8
 71
     3
 72
    32
 73
    28
 74
     0
 42
0.0000001
 43
0.0000001
 40
0.0
 40
0.0
 40
0.0
 40
0.0
 40
1.0
 40
1.0
 40
1.0
 40
2.0
 40
2.0
 40
2.0
 40
3.0
 40
3.0
 40
3.0
 40
4.0
 40
4.0
 40
4.0
 40
5.0
 40
5.0
 40
5.0
 40
6.0
 40
6.0
 40
6.0
 40
7.0
 40
7.0
 40
7.0
 40
8.0
 40
8.0
 40
8.0
 40
9.0
 40
9.0
 40
9.0
 40
9.0
 10
-127.8207509358723
 20
-61.3180918375651
 30
0.0
 10
-127.8207509358723
 20
-61.3180918375651
 30
0.0
 10
-127.8207509358723
 20
-64.32497117784286
 30
0.0
 10
-127.8207509358723
 20
-64.32497117784286
 30
0.0
 10
-127.8207509358723
 20
-64.88169860839843
 30
0.0
 10
-127.3742665608723
 20
-65.32956102159288
 30
0.0
 10
-126.8189171685112
 20
-65.32956102159288
 30
0.0
 10
-126.8189171685112
 20
-65.32956102159288
 30
0.0
 10
-112.7835981580946
 20
-65.32956102159288
 30
0.0
 10
-112.7835981580946
 20
-65.32956102159288
 30
0.0
 10
-112.2310048421223
 20
-65.32956102159288
 30
0.0
 10
-111.780386352539
 20
-64.88169860839843
 30
0.0
 10
-111.780386352539
 20
-64.32497117784286
 30
0.0
 10
-111.780386352539
 20
-64.32497117784286
 30
0.0
 10
-111.780386352539
 20
-52.29607577853732
 30
0.0
 10
-111.780386352539
 20
-52.29607577853732
 30
0.0
 10
-111.780386352539
 20
-51.7434824625651
 30
0.0
 10
-112.2310048421223
 20
-51.2969980875651
 30
0.0
 10
-112.7835981580946
 20
-51.2969980875651
 30
0.0
 10
-112.7835981580946
 20
-51.2969980875651
 30
0.0
 10
-126.8189171685112
 20
-51.2969980875651
 30
0.0
 10
-126.8189171685112
 20
-51.2969980875651
 30
0.0
 10
-127.3742665608723
 20
-51.2969980875651
 30
0.0
 10
-127.8207509358723
 20
-51.7434824625651
 30
0.0
 10
-127.8207509358723
 20
-52.29607577853732
 30
0.0
 10
-127.8207509358723
 20
-52.29607577853732
 30
0.0
 10
-127.8207509358723
 20
-55.3029551188151
 30
0.0
 10
-127.8207509358723
 20
-55.3029551188151
 30
0.0
  0
SPLINE
  5
193
100
AcDbEntity
  8
ALPHA
 62
     7
100
AcDbSpline
210
0.0
220
0.0
230
1.0
 70
    11
 71
     3
 72
    26
 73
    22
 74
     0
 42
0.0000001
 43
0.0000001
 40
0.0
 40
0.0
 40
0.0
 40
0.0
 40
1.0
 40
1.0
 40
1.0
 40
2.0
 40
2.0
 40
2.0
 40
3.0
 40
3.0
 40
3.0
 40
4.0
 40
4.0
 40
4.0
 40
5.0
 40
5.0
 40
5.0
 40
6.0
 40
6.0
 40
6.0
 40
7.0
 40
7.0
 40
7.0
 40
7.0
 10
-124.8083594428168
 20
-58.31121249728732
 30
0.0
 10
-124.8083594428168
 20
-58.31121249728732
 30
0.0
 10
-127.816616821289
 20
-55.3029551188151
 30
0.0
 10
-127.816616821289
 20
-55.3029551188151
 30
0.0
 10
-127.816616821289
 20
-55.3029551188151
 30
0.0
 10
-132.8285417344835
 20
-55.3029551188151
 30
0.0
 10
-132.8285417344835
 20
-55.3029551188151
 30
0.0
 10
-134.489077758789
 20
-55.3029551188151
 30
0.0
 10
-135.8367991129556
 20
-56.65343254937066
 30
0.0
 10
-135.8367991129556
 20
-58.31121249728732
 30
0.0
 10
-135.8367991129556
 20
-58.31121249728732
 30
0.0
 10
-135.8367991129556
 20
-58.31121249728732
 30
0.0
 10
-135.8367991129556
 20
-58.31121249728732
 30
0.0
 10
-135.8367991129556
 20
-59.97312655978731
 30
0.0
 10
-134.489077758789
 20
-61.3180918375651
 30
0.0
 10
-132.8285417344835
 20
-61.3180918375651
 30
0.0
 10
-132.8285417344835
 20
-61.3180918375651
 30
0.0
 10
-127.816616821289
 20
-61.3180918375651
 30
0.0
 10
-127.816616821289
 20
-61.3180918375651
 30
0.0
 10
-127.816616821289
 20
-61.3180918375651
 30
0.0
 10
-124.8083594428168
 20
-58.31121249728732
 30
0.0
 10
-124.8083594428168
 20
-58.31121249728732
 30
0.0
  0
SPLINE
  5
194
100
AcDbEntity
  8
ALPHA
 62
     7
100
AcDbSpline
210
0.0
220
0.0
230
-1.0
 70
     8
 71
     3
 72
    32
 73
    28
 74
     0
 42
0.0000001
 43
0.0000001
 40
0.0
 40
0.0
 40
0.0
 40
0.0
 40
1.0
 40
1.0
 40
1.0
 40
2.0
 40
2.0
 40
2.0
 40
3.0
 40
3.0
 40
3.0
 40
4.0
 40
4.0
 40
4.0
 40
5.0
 40
5.0
 40
5.0
 40
6.0
 40
6.0
 40
6.0
 40
7.0
 40
7.0
 40
7.0
 40
8.0
 40
8.0
 40
8.0
 40
9.0
 40
9.0
 40
9.0
 40
9.0
 10
-127.8207509358723
 20
-80.41494513617621
 30
0.0
 10
-127.8207509358723
 20
-80.41494513617621
 30
0.0
 10
-127.8207509358723
 20
-83.42320251464842
 30
0.0
 10
-127.8207509358723
 20
-83.42320251464842
 30
0.0
 10
-127.8207509358723
 20
-83.97992994520398
 30
0.0
 10
-127.3742665608723
 20
-84.42641432020399
 30
0.0
 10
-126.8189171685112
 20
-84.42641432020399
 30
0.0
 10
-126.8189171685112
 20
-84.42641432020399
 30
0.0
 10
-112.7835981580946
 20
-84.42641432020399
 30
0.0
 10
-112.7835981580946
 20
-84.42641432020399
 30
0.0
 10
-112.2310048421223
 20
-84.42641432020399
 30
0.0
 10
-111.780386352539
 20
-83.97992994520398
 30
0.0
 10
-111.780386352539
 20
-83.42320251464842
 30
0.0
 10
-111.780386352539
 20
-83.42320251464842
 30
0.0
 10
-111.780386352539
 20
-71.39430711534287
 30
0.0
 10
-111.780386352539
 20
-71.39430711534287
 30
0.0
 10
-111.780386352539
 20
-70.84171379937065
 30
0.0
 10
-112.2310048421223
 20
-70.39522942437065
 30
0.0
 10
-112.7835981580946
 20
-70.39522942437065
 30
0.0
 10
-112.7835981580946
 20
-70.39522942437065
 30
0.0
 10
-126.8189171685112
 20
-70.39522942437065
 30
0.0
 10
-126.8189171685112
 20
-70.39522942437065
 30
0.0
 10
-127.3742665608723
 20
-70.39522942437065
 30
0.0
 10
-127.8207509358723
 20
-70.84171379937065
 30
0.0
 10
-127.8207509358723
 20
-71.39430711534287
 30
0.0
 10
-127.8207509358723
 20
-71.39430711534287
 30
0.0
 10
-127.8207509358723
 20
-74.40118645562065
 30
0.0
 10
-127.8207509358723
 20
-74.40118645562065
 30
0.0
  0
SPLINE
  5
195
100
AcDbEntity
  8
ALPHA
 62
     7
100
AcDbSpline
210
0.0
220
0.0
230
1.0
 70
    11
 71
     3
 72
    26
 73
    22
 74
     0
 42
0.0000001
 43
0.0000001
 40
0.0
 40
0.0
 40
0.0
 40
0.0
 40
1.0
 40
1.0
 40
1.0
 40
2.0
 40
2.0
 40
2.0
 40
3.0
 40
3.0
 40
3.0
 40
4.0
 40
4.0
 40
4.0
 40
5.0
 40
5.0
 40
5.0
 40
6.0
 40
6.0
 40
6.0
 40
7.0
 40
7.0
 40
7.0
 40
7.0
 10
-124.8083594428168
 20
-77.40806579589843
 30
0.0
 10
-124.8083594428168
 20
-77.40806579589843
 30
0.0
 10
-127.816616821289
 20
-74.40118645562065
 30
0.0
 10
-127.816616821289
 20
-74.40118645562065
 30
0.0
 10
-127.816616821289
 20
-74.40118645562065
 30
0.0
 10
-132.8285417344835
 20
-74.40118645562065
 30
0.0
 10
-132.8285417344835
 20
-74.40118645562065
 30
0.0
 10
-134.489077758789
 20
-74.40118645562065
 30
0.0
 10
-135.8367991129556
 20
-75.75028584798175
 30
0.0
 10
-135.8367991129556
 20
-77.40806579589843
 30
0.0
 10
-135.8367991129556
 20
-77.40806579589843
 30
0.0
 10
-135.8367991129556
 20
-77.40806579589843
 30
0.0
 10
-135.8367991129556
 20
-77.40806579589843
 30
0.0
 10
-135.8367991129556
 20
-79.07135789659287
 30
0.0
 10
-134.489077758789
 20
-80.41494513617621
 30
0.0
 10
-132.8285417344835
 20
-80.41494513617621
 30
0.0
 10
-132.8285417344835
 20
-80.41494513617621
 30
0.0
 10
-127.816616821289
 20
-80.41494513617621
 30
0.0
 10
-127.816616821289
 20
-80.41494513617621
 30
0.0
 10
-127.816616821289
 20
-80.41494513617621
 30
0.0
 10
-124.8083594428168
 20
-77.40806579589843
 30
0.0
 10
-124.8083594428168
 20
-77.40806579589843
 30
0.0
  0
SPLINE
  5
196
100
AcDbEntity
  8
ALPHA
 62
     7
100
AcDbSpline
210
0.0
220
0.0
230
-1.0
 70
     8
 71
     3
 72
    32
 73
    28
 74
     0
 42
0.0000001
 43
0.0000001
 40
0.0
 40
0.0
 40
0.0
 40
0.0
 40
1.0
 40
1.0
 40
1.0
 40
2.0
 40
2.0
 40
2.0
 40
3.0
 40
3.0
 40
3.0
 40
4.0
 40
4.0
 40
4.0
 40
5.0
 40
5.0
 40
5.0
 40
6.0
 40
6.0
 40
6.0
 40
7.0
 40
7.0
 40
7.0
 40
8.0
 40
8.0
 40
8.0
 40
9.0
 40
9.0
 40
9.0
 40
9.0
 10
-89.72075093587239
 20
15.07362772623697
 30
0.0
 10
-89.72075093587239
 20
15.07362772623697
 30
0.0
 10
-89.72075093587239
 20
12.06537034776475
 30
0.0
 10
-89.72075093587239
 20
12.06537034776475
 30
0.0
 10
-89.72075093587239
 20
11.5086429172092
 30
0.0
 10
-90.16723531087238
 20
11.0621585422092
 30
0.0
 10
-90.72534077962238
 20
11.0621585422092
 30
0.0
 10
-90.72534077962238
 20
11.0621585422092
 30
0.0
 10
-104.7565256754557
 20
11.0621585422092
 30
0.0
 10
-104.7565256754557
 20
11.0621585422092
 30
0.0
 10
-105.3091189914279
 20
11.0621585422092
 30
0.0
 10
-105.7611155192057
 20
11.5086429172092
 30
0.0
 10
-105.7611155192057
 20
12.06537034776475
 30
0.0
 10
-105.7611155192057
 20
12.06537034776475
 30
0.0
 10
-105.7611155192057
 20
24.09426574707031
 30
0.0
 10
-105.7611155192057
 20
24.09426574707031
 30
0.0
 10
-105.7611155192057
 20
24.64685906304253
 30
0.0
 10
-105.3091189914279
 20
25.09334343804253
 30
0.0
 10
-104.7565256754557
 20
25.09334343804253
 30
0.0
 10
-104.7565256754557
 20
25.09334343804253
 30
0.0
 10
-90.72534077962238
 20
25.09334343804253
 30
0.0
 10
-90.72534077962238
 20
25.09334343804253
 30
0.0
 10
-90.16723531087238
 20
25.09334343804253
 30
0.0
 10
-89.72075093587239
 20
24.64685906304253
 30
0.0
 10
-89.72075093587239
 20
24.09426574707031
 30
0.0
 10
-89.72075093587239
 20
24.09426574707031
 30
0.0
 10
-89.72075093587239
 20
21.08738640679253
 30
0.0
 10
-89.72075093587239
 20
21.08738640679253
 30
0.0
  0
SPLINE
  5
197
100
AcDbEntity
  8
ALPHA
 62
     7
100
AcDbSpline
210
0.0
220
0.0
230
1.0
 70
    11
 71
     3
 72
    26
 73
    22
 74
     0
 42
0.0000001
 43
0.0000001
 40
0.0
 40
0.0
 40
0.0
 40
0.0
 40
1.0
 40
1.0
 40
1.0
 40
2.0
 40
2.0
 40
2.0
 40
3.0
 40
3.0
 40
3.0
 40
4.0
 40
4.0
 40
4.0
 40
5.0
 40
5.0
 40
5.0
 40
6.0
 40
6.0
 40
6.0
 40
7.0
 40
7.0
 40
7.0
 40
7.0
 10
-92.73314242892794
 20
18.08050706651475
 30
0.0
 10
-92.73314242892794
 20
18.08050706651475
 30
0.0
 10
-89.72626308865017
 20
21.08738640679253
 30
0.0
 10
-89.72626308865017
 20
21.08738640679253
 30
0.0
 10
-89.72626308865017
 20
21.08738640679253
 30
0.0
 10
-84.71571621365017
 20
21.08738640679253
 30
0.0
 10
-84.71571621365017
 20
21.08738640679253
 30
0.0
 10
-83.05242411295571
 20
21.08738640679253
 30
0.0
 10
-81.70745883517794
 20
19.73828701443142
 30
0.0
 10
-81.70745883517794
 20
18.08050706651475
 30
0.0
 10
-81.70745883517794
 20
18.08050706651475
 30
0.0
 10
-81.70745883517794
 20
18.08050706651475
 30
0.0
 10
-81.70745883517794
 20
18.08050706651475
 30
0.0
 10
-81.70745883517794
 20
16.41721496582031
 30
0.0
 10
-83.05242411295571
 20
15.07362772623697
 30
0.0
 10
-84.71571621365017
 20
15.07362772623697
 30
0.0
 10
-84.71571621365017
 20
15.07362772623697
 30
0.0
 10
-89.72626308865017
 20
15.07362772623697
 30
0.0
 10
-89.72626308865017
 20
15.07362772623697
 30
0.0
 10
-89.72626308865017
 20
15.07362772623697
 30
0.0
 10
-92.73314242892794
 20
18.08050706651475
 30
0.0
 10
-92.73314242892794
 20
18.08050706651475
 30
0.0
  0
SPLINE
  5
198
100
AcDbEntity
  8
ALPHA
 62
     7
100
AcDbSpline
210
0.0
220
0.0
230
-1.0
 70
     8
 71
     3
 72
    32
 73
    28
 74
     0
 42
0.0000001
 43
0.0000001
 40
0.0
 40
0.0
 40
0.0
 40
0.0
 40
1.0
 40
1.0
 40
1.0
 40
2.0
 40
2.0
 40
2.0
 40
3.0
 40
3.0
 40
3.0
 40
4.0
 40
4.0
 40
4.0
 40
5.0
 40
5.0
 40
5.0
 40
6.0
 40
6.0
 40
6.0
 40
7.0
 40
7.0
 40
7.0
 40
8.0
 40
8.0
 40
8.0
 40
9.0
 40
9.0
 40
9.0
 40
9.0
 10
-89.72075093587239
 20
-4.024775865342881
 30
0.0
 10
-89.72075093587239
 20
-4.024775865342881
 30
0.0
 10
-89.72075093587239
 20
-7.031655205620658
 30
0.0
 10
-89.72075093587239
 20
-7.031655205620658
 30
0.0
 10
-89.72075093587239
 20
-7.589760674370658
 30
0.0
 10
-90.16723531087238
 20
-8.036245049370659
 30
0.0
 10
-90.72534077962238
 20
-8.036245049370659
 30
0.0
 10
-90.72534077962238
 20
-8.036245049370659
 30
0.0
 10
-104.7565256754557
 20
-8.036245049370659
 30
0.0
 10
-104.7565256754557
 20
-8.036245049370659
 30
0.0
 10
-105.3091189914279
 20
-8.036245049370659
 30
0.0
 10
-105.7611155192057
 20
-7.589760674370658
 30
0.0
 10
-105.7611155192057
 20
-7.031655205620658
 30
0.0
 10
-105.7611155192057
 20
-7.031655205620658
 30
0.0
 10
-105.7611155192057
 20
4.997240193684895
 30
0.0
 10
-105.7611155192057
 20
4.997240193684895
 30
0.0
 10
-105.7611155192057
 20
5.549833509657117
 30
0.0
 10
-105.3091189914279
 20
5.996317884657117
 30
0.0
 10
-104.7565256754557
 20
5.996317884657117
 30
0.0
 10
-104.7565256754557
 20
5.996317884657117
 30
0.0
 10
-90.72534077962238
 20
5.996317884657117
 30
0.0
 10
-90.72534077962238
 20
5.996317884657117
 30
0.0
 10
-90.16723531087238
 20
5.996317884657117
 30
0.0
 10
-89.72075093587239
 20
5.549833509657117
 30
0.0
 10
-89.72075093587239
 20
4.997240193684895
 30
0.0
 10
-89.72075093587239
 20
4.997240193684895
 30
0.0
 10
-89.72075093587239
 20
1.988982815212673
 30
0.0
 10
-89.72075093587239
 20
1.988982815212673
 30
0.0
  0
SPLINE
  5
199
100
AcDbEntity
  8
ALPHA
 62
     7
100
AcDbSpline
210
0.0
220
0.0
230
1.0
 70
    11
 71
     3
 72
    26
 73
    22
 74
     0
 42
0.0000001
 43
0.0000001
 40
0.0
 40
0.0
 40
0.0
 40
0.0
 40
1.0
 40
1.0
 40
1.0
 40
2.0
 40
2.0
 40
2.0
 40
3.0
 40
3.0
 40
3.0
 40
4.0
 40
4.0
 40
4.0
 40
5.0
 40
5.0
 40
5.0
 40
6.0
 40
6.0
 40
6.0
 40
7.0
 40
7.0
 40
7.0
 40
7.0
 10
-92.73314242892794
 20
-1.017896525065103
 30
0.0
 10
-92.73314242892794
 20
-1.017896525065103
 30
0.0
 10
-89.72626308865017
 20
1.988982815212673
 30
0.0
 10
-89.72626308865017
 20
1.988982815212673
 30
0.0
 10
-89.72626308865017
 20
1.988982815212673
 30
0.0
 10
-84.71571621365017
 20
1.988982815212673
 30
0.0
 10
-84.71571621365017
 20
1.988982815212673
 30
0.0
 10
-83.05242411295571
 20
1.988982815212673
 30
0.0
 10
-81.70745883517794
 20
0.6398834228515625
 30
0.0
 10
-81.70745883517794
 20
-1.017896525065103
 30
0.0
 10
-81.70745883517794
 20
-1.017896525065103
 30
0.0
 10
-81.70745883517794
 20
-1.017896525065103
 30
0.0
 10
-81.70745883517794
 20
-1.017896525065103
 30
0.0
 10
-81.70745883517794
 20
-2.679810587565103
 30
0.0
 10
-83.05242411295571
 20
-4.024775865342881
 30
0.0
 10
-84.71571621365017
 20
-4.024775865342881
 30
0.0
 10
-84.71571621365017
 20
-4.024775865342881
 30
0.0
 10
-89.72626308865017
 20
-4.024775865342881
 30
0.0
 10
-89.72626308865017
 20
-4.024775865342881
 30
0.0
 10
-89.72626308865017
 20
-4.024775865342881
 30
0.0
 10
-92.73314242892794
 20
-1.017896525065103
 30
0.0
 10
-92.73314242892794
 20
-1.017896525065103
 30
0.0
  0
SPLINE
  5
19A
100
AcDbEntity
  8
ALPHA
 62
     7
100
AcDbSpline
210
0.0
220
0.0
230
-1.0
 70
     8
 71
     3
 72
    32
 73
    28
 74
     0
 42
0.0000001
 43
0.0000001
 40
0.0
 40
0.0
 40
0.0
 40
0.0
 40
1.0
 40
1.0
 40
1.0
 40
2.0
 40
2.0
 40
2.0
 40
3.0
 40
3.0
 40
3.0
 40
4.0
 40
4.0
 40
4.0
 40
5.0
 40
5.0
 40
5.0
 40
6.0
 40
6.0
 40
6.0
 40
7.0
 40
7.0
 40
7.0
 40
8.0
 40
8.0
 40
8.0
 40
9.0
 40
9.0
 40
9.0
 40
9.0
 10
-89.72075093587239
 20
-23.12300720214843
 30
0.0
 10
-89.72075093587239
 20
-23.12300720214843
 30
0.0
 10
-89.72075093587239
 20
-26.12988654242621
 30
0.0
 10
-89.72075093587239
 20
-26.12988654242621
 30
0.0
 10
-89.72075093587239
 20
-26.68661397298176
 30
0.0
 10
-90.16723531087238
 20
-27.13309834798177
 30
0.0
 10
-90.72534077962238
 20
-27.13309834798177
 30
0.0
 10
-90.72534077962238
 20
-27.13309834798177
 30
0.0
 10
-104.7565256754557
 20
-27.13309834798177
 30
0.0
 10
-104.7565256754557
 20
-27.13309834798177
 30
0.0
 10
-105.3091189914279
 20
-27.13309834798177
 30
0.0
 10
-105.7611155192057
 20
-26.68661397298176
 30
0.0
 10
-105.7611155192057
 20
-26.12988654242621
 30
0.0
 10
-105.7611155192057
 20
-26.12988654242621
 30
0.0
 10
-105.7611155192057
 20
-14.10099114312066
 30
0.0
 10
-105.7611155192057
 20
-14.10099114312066
 30
0.0
 10
-105.7611155192057
 20
-13.54839782714843
 30
0.0
 10
-105.3091189914279
 20
-13.10191345214843
 30
0.0
 10
-104.7565256754557
 20
-13.10191345214843
 30
0.0
 10
-104.7565256754557
 20
-13.10191345214843
 30
0.0
 10
-90.72534077962238
 20
-13.10191345214843
 30
0.0
 10
-90.72534077962238
 20
-13.10191345214843
 30
0.0
 10
-90.16723531087238
 20
-13.10191345214843
 30
0.0
 10
-89.72075093587239
 20
-13.54839782714843
 30
0.0
 10
-89.72075093587239
 20
-14.10099114312066
 30
0.0
 10
-89.72075093587239
 20
-14.10099114312066
 30
0.0
 10
-89.72075093587239
 20
-17.10787048339843
 30
0.0
 10
-89.72075093587239
 20
-17.10787048339843
 30
0.0
  0
SPLINE
  5
19B
100
AcDbEntity
  8
ALPHA
 62
     7
100
AcDbSpline
210
0.0
220
0.0
230
1.0
 70
    11
 71
     3
 72
    26
 73
    22
 74
     0
 42
0.0000001
 43
0.0000001
 40
0.0
 40
0.0
 40
0.0
 40
0.0
 40
1.0
 40
1.0
 40
1.0
 40
2.0
 40
2.0
 40
2.0
 40
3.0
 40
3.0
 40
3.0
 40
4.0
 40
4.0
 40
4.0
 40
5.0
 40
5.0
 40
5.0
 40
6.0
 40
6.0
 40
6.0
 40
7.0
 40
7.0
 40
7.0
 40
7.0
 10
-92.73314242892794
 20
-20.11474982367621
 30
0.0
 10
-92.73314242892794
 20
-20.11474982367621
 30
0.0
 10
-89.72626308865017
 20
-17.10787048339843
 30
0.0
 10
-89.72626308865017
 20
-17.10787048339843
 30
0.0
 10
-89.72626308865017
 20
-17.10787048339843
 30
0.0
 10
-84.71571621365017
 20
-17.10787048339843
 30
0.0
 10
-84.71571621365017
 20
-17.10787048339843
 30
0.0
 10
-83.05242411295571
 20
-17.10787048339843
 30
0.0
 10
-81.70745883517794
 20
-18.45696987575954
 30
0.0
 10
-81.70745883517794
 20
-20.11474982367621
 30
0.0
 10
-81.70745883517794
 20
-20.11474982367621
 30
0.0
 10
-81.70745883517794
 20
-20.11474982367621
 30
0.0
 10
-81.70745883517794
 20
-20.11474982367621
 30
0.0
 10
-81.70745883517794
 20
-21.77804192437065
 30
0.0
 10
-83.05242411295571
 20
-23.12300720214843
 30
0.0
 10
-84.71571621365017
 20
-23.12300720214843
 30
0.0
 10
-84.71571621365017
 20
-23.12300720214843
 30
0.0
 10
-89.72626308865017
 20
-23.12300720214843
 30
0.0
 10
-89.72626308865017
 20
-23.12300720214843
 30
0.0
 10
-89.72626308865017
 20
-23.12300720214843
 30
0.0
 10
-92.73314242892794
 20
-20.11474982367621
 30
0.0
 10
-92.73314242892794
 20
-20.11474982367621
 30
0.0
  0
SPLINE
  5
19C
100
AcDbEntity
  8
ALPHA
 62
     7
100
AcDbSpline
210
0.0
220
0.0
230
-1.0
 70
     8
 71
     3
 72
    32
 73
    28
 74
     0
 42
0.0000001
 43
0.0000001
 40
0.0
 40
0.0
 40
0.0
 40
0.0
 40
1.0
 40
1.0
 40
1.0
 40
2.0
 40
2.0
 40
2.0
 40
3.0
 40
3.0
 40
3.0
 40
4.0
 40
4.0
 40
4.0
 40
5.0
 40
5.0
 40
5.0
 40
6.0
 40
6.0
 40
6.0
 40
7.0
 40
7.0
 40
7.0
 40
8.0
 40
8.0
 40
8.0
 40
9.0
 40
9.0
 40
9.0
 40
9.0
 10
-89.72075093587239
 20
-42.21986050075954
 30
0.0
 10
-89.72075093587239
 20
-42.21986050075954
 30
0.0
 10
-89.72075093587239
 20
-45.22811787923177
 30
0.0
 10
-89.72075093587239
 20
-45.22811787923177
 30
0.0
 10
-89.72075093587239
 20
-45.78484530978732
 30
0.0
 10
-90.16723531087238
 20
-46.23132968478731
 30
0.0
 10
-90.72534077962238
 20
-46.23132968478731
 30
0.0
 10
-90.72534077962238
 20
-46.23132968478731
 30
0.0
 10
-104.7565256754557
 20
-46.23132968478731
 30
0.0
 10
-104.7565256754557
 20
-46.23132968478731
 30
0.0
 10
-105.3091189914279
 20
-46.23132968478731
 30
0.0
 10
-105.7611155192057
 20
-45.78484530978732
 30
0.0
 10
-105.7611155192057
 20
-45.22811787923177
 30
0.0
 10
-105.7611155192057
 20
-45.22811787923177
 30
0.0
 10
-105.7611155192057
 20
-33.19922247992621
 30
0.0
 10
-105.7611155192057
 20
-33.19922247992621
 30
0.0
 10
-105.7611155192057
 20
-32.64662916395399
 30
0.0
 10
-105.3091189914279
 20
-32.19876675075954
 30
0.0
 10
-104.7565256754557
 20
-32.19876675075954
 30
0.0
 10
-104.7565256754557
 20
-32.19876675075954
 30
0.0
 10
-90.72534077962238
 20
-32.19876675075954
 30
0.0
 10
-90.72534077962238
 20
-32.19876675075954
 30
0.0
 10
-90.16723531087238
 20
-32.19876675075954
 30
0.0
 10
-89.72075093587239
 20
-32.64662916395399
 30
0.0
 10
-89.72075093587239
 20
-33.19922247992621
 30
0.0
 10
-89.72075093587239
 20
-33.19922247992621
 30
0.0
 10
-89.72075093587239
 20
-36.20610182020399
 30
0.0
 10
-89.72075093587239
 20
-36.20610182020399
 30
0.0
  0
SPLINE
  5
19D
100
AcDbEntity
  8
ALPHA
 62
     7
100
AcDbSpline
210
0.0
220
0.0
230
1.0
 70
    11
 71
     3
 72
    26
 73
    22
 74
     0
 42
0.0000001
 43
0.0000001
 40
0.0
 40
0.0
 40
0.0
 40
0.0
 40
1.0
 40
1.0
 40
1.0
 40
2.0
 40
2.0
 40
2.0
 40
3.0
 40
3.0
 40
3.0
 40
4.0
 40
4.0
 40
4.0
 40
5.0
 40
5.0
 40
5.0
 40
6.0
 40
6.0
 40
6.0
 40
7.0
 40
7.0
 40
7.0
 40
7.0
 10
-92.73314242892794
 20
-39.21298116048177
 30
0.0
 10
-92.73314242892794
 20
-39.21298116048177
 30
0.0
 10
-89.72626308865017
 20
-36.20610182020399
 30
0.0
 10
-89.72626308865017
 20
-36.20610182020399
 30
0.0
 10
-89.72626308865017
 20
-36.20610182020399
 30
0.0
 10
-84.71571621365017
 20
-36.20610182020399
 30
0.0
 10
-84.71571621365017
 20
-36.20610182020399
 30
0.0
 10
-83.05242411295571
 20
-36.20610182020399
 30
0.0
 10
-81.70745883517794
 20
-37.5552012125651
 30
0.0
 10
-81.70745883517794
 20
-39.21298116048177
 30
0.0
 10
-81.70745883517794
 20
-39.21298116048177
 30
0.0
 10
-81.70745883517794
 20
-39.21298116048177
 30
0.0
 10
-81.70745883517794
 20
-39.21298116048177
 30
0.0
 10
-81.70745883517794
 20
-40.87489522298176
 30
0.0
 10
-83.05242411295571
 20
-42.21986050075954
 30
0.0
 10
-84.71571621365017
 20
-42.21986050075954
 30
0.0
 10
-84.71571621365017
 20
-42.21986050075954
 30
0.0
 10
-89.72626308865017
 20
-42.21986050075954
 30
0.0
 10
-89.72626308865017
 20
-42.21986050075954
 30
0.0
 10
-89.72626308865017
 20
-42.21986050075954
 30
0.0
 10
-92.73314242892794
 20
-39.21298116048177
 30
0.0
 10
-92.73314242892794
 20
-39.21298116048177
 30
0.0
  0
SPLINE
  5
19E
100
AcDbEntity
  8
ALPHA
 62
     7
100
AcDbSpline
210
0.0
220
0.0
230
-1.0
 70
     8
 71
     3
 72
    32
 73
    28
 74
     0
 42
0.0000001
 43
0.0000001
 40
0.0
 40
0.0
 40
0.0
 40
0.0
 40
1.0
 40
1.0
 40
1.0
 40
2.0
 40
2.0
 40
2.0
 40
3.0
 40
3.0
 40
3.0
 40
4.0
 40
4.0
 40
4.0
 40
5.0
 40
5.0
 40
5.0
 40
6.0
 40
6.0
 40
6.0
 40
7.0
 40
7.0
 40
7.0
 40
8.0
 40
8.0
 40
8.0
 40
9.0
 40
9.0
 40
9.0
 40
9.0
 10
-89.72075093587239
 20
-61.3180918375651
 30
0.0
 10
-89.72075093587239
 20
-61.3180918375651
 30
0.0
 10
-89.72075093587239
 20
-64.32497117784286
 30
0.0
 10
-89.72075093587239
 20
-64.32497117784286
 30
0.0
 10
-89.72075093587239
 20
-64.88169860839843
 30
0.0
 10
-90.16723531087238
 20
-65.32956102159288
 30
0.0
 10
-90.72534077962238
 20
-65.32956102159288
 30
0.0
 10
-90.72534077962238
 20
-65.32956102159288
 30
0.0
 10
-104.7565256754557
 20
-65.32956102159288
 30
0.0
 10
-104.7565256754557
 20
-65.32956102159288
 30
0.0
 10
-105.3091189914279
 20
-65.32956102159288
 30
0.0
 10
-105.7611155192057
 20
-64.88169860839843
 30
0.0
 10
-105.7611155192057
 20
-64.32497117784286
 30
0.0
 10
-105.7611155192057
 20
-64.32497117784286
 30
0.0
 10
-105.7611155192057
 20
-52.29607577853732
 30
0.0
 10
-105.7611155192057
 20
-52.29607577853732
 30
0.0
 10
-105.7611155192057
 20
-51.7434824625651
 30
0.0
 10
-105.3091189914279
 20
-51.2969980875651
 30
0.0
 10
-104.7565256754557
 20
-51.2969980875651
 30
0.0
 10
-104.7565256754557
 20
-51.2969980875651
 30
0.0
 10
-90.72534077962238
 20
-51.2969980875651
 30
0.0
 10
-90.72534077962238
 20
-51.2969980875651
 30
0.0
 10
-90.16723531087238
 20
-51.2969980875651
 30
0.0
 10
-89.72075093587239
 20
-51.7434824625651
 30
0.0
 10
-89.72075093587239
 20
-52.29607577853732
 30
0.0
 10
-89.72075093587239
 20
-52.29607577853732
 30
0.0
 10
-89.72075093587239
 20
-55.3029551188151
 30
0.0
 10
-89.72075093587239
 20
-55.3029551188151
 30
0.0
  0
SPLINE
  5
19F
100
AcDbEntity
  8
ALPHA
 62
     7
100
AcDbSpline
210
0.0
220
0.0
230
1.0
 70
    11
 71
     3
 72
    26
 73
    22
 74
     0
 42
0.0000001
 43
0.0000001
 40
0.0
 40
0.0
 40
0.0
 40
0.0
 40
1.0
 40
1.0
 40
1.0
 40
2.0
 40
2.0
 40
2.0
 40
3.0
 40
3.0
 40
3.0
 40
4.0
 40
4.0
 40
4.0
 40
5.0
 40
5.0
 40
5.0
 40
6.0
 40
6.0
 40
6.0
 40
7.0
 40
7.0
 40
7.0
 40
7.0
 10
-92.73314242892794
 20
-58.31121249728732
 30
0.0
 10
-92.73314242892794
 20
-58.31121249728732
 30
0.0
 10
-89.72626308865017
 20
-55.3029551188151
 30
0.0
 10
-89.72626308865017
 20
-55.3029551188151
 30
0.0
 10
-89.72626308865017
 20
-55.3029551188151
 30
0.0
 10
-84.71571621365017
 20
-55.3029551188151
 30
0.0
 10
-84.71571621365017
 20
-55.3029551188151
 30
0.0
 10
-83.05242411295571
 20
-55.3029551188151
 30
0.0
 10
-81.70745883517794
 20
-56.65343254937066
 30
0.0
 10
-81.70745883517794
 20
-58.31121249728732
 30
0.0
 10
-81.70745883517794
 20
-58.31121249728732
 30
0.0
 10
-81.70745883517794
 20
-58.31121249728732
 30
0.0
 10
-81.70745883517794
 20
-58.31121249728732
 30
0.0
 10
-81.70745883517794
 20
-59.97312655978731
 30
0.0
 10
-83.05242411295571
 20
-61.3180918375651
 30
0.0
 10
-84.71571621365017
 20
-61.3180918375651
 30
0.0
 10
-84.71571621365017
 20
-61.3180918375651
 30
0.0
 10
-89.72626308865017
 20
-61.3180918375651
 30
0.0
 10
-89.72626308865017
 20
-61.3180918375651
 30
0.0
 10
-89.72626308865017
 20
-61.3180918375651
 30
0.0
 10
-92.73314242892794
 20
-58.31121249728732
 30
0.0
 10
-92.73314242892794
 20
-58.31121249728732
 30
0.0
  0
SPLINE
  5
1A0
100
AcDbEntity
  8
ALPHA
 62
     7
100
AcDbSpline
210
0.0
220
0.0
230
-1.0
 70
     8
 71
     3
 72
    32
 73
    28
 74
     0
 42
0.0000001
 43
0.0000001
 40
0.0
 40
0.0
 40
0.0
 40
0.0
 40
1.0
 40
1.0
 40
1.0
 40
2.0
 40
2.0
 40
2.0
 40
3.0
 40
3.0
 40
3.0
 40
4.0
 40
4.0
 40
4.0
 40
5.0
 40
5.0
 40
5.0
 40
6.0
 40
6.0
 40
6.0
 40
7.0
 40
7.0
 40
7.0
 40
8.0
 40
8.0
 40
8.0
 40
9.0
 40
9.0
 40
9.0
 40
9.0
 10
-89.72075093587239
 20
-80.41494513617621
 30
0.0
 10
-89.72075093587239
 20
-80.41494513617621
 30
0.0
 10
-89.72075093587239
 20
-83.42320251464842
 30
0.0
 10
-89.72075093587239
 20
-83.42320251464842
 30
0.0
 10
-89.72075093587239
 20
-83.97992994520398
 30
0.0
 10
-90.16723531087238
 20
-84.42641432020399
 30
0.0
 10
-90.72534077962238
 20
-84.42641432020399
 30
0.0
 10
-90.72534077962238
 20
-84.42641432020399
 30
0.0
 10
-104.7565256754557
 20
-84.42641432020399
 30
0.0
 10
-104.7565256754557
 20
-84.42641432020399
 30
0.0
 10
-105.3091189914279
 20
-84.42641432020399
 30
0.0
 10
-105.7611155192057
 20
-83.97992994520398
 30
0.0
 10
-105.7611155192057
 20
-83.42320251464842
 30
0.0
 10
-105.7611155192057
 20
-83.42320251464842
 30
0.0
 10
-105.7611155192057
 20
-71.39430711534287
 30
0.0
 10
-105.7611155192057
 20
-71.39430711534287
 30
0.0
 10
-105.7611155192057
 20
-70.84171379937065
 30
0.0
 10
-105.3091189914279
 20
-70.39522942437065
 30
0.0
 10
-104.7565256754557
 20
-70.39522942437065
 30
0.0
 10
-104.7565256754557
 20
-70.39522942437065
 30
0.0
 10
-90.72534077962238
 20
-70.39522942437065
 30
0.0
 10
-90.72534077962238
 20
-70.39522942437065
 30
0.0
 10
-90.16723531087238
 20
-70.39522942437065
 30
0.0
 10
-89.72075093587239
 20
-70.84171379937065
 30
0.0
 10
-89.72075093587239
 20
-71.39430711534287
 30
0.0
 10
-89.72075093587239
 20
-71.39430711534287
 30
0.0
 10
-89.72075093587239
 20
-74.40118645562065
 30
0.0
 10
-89.72075093587239
 20
-74.40118645562065
 30
0.0
  0
SPLINE
  5
1A1
100
AcDbEntity
  8
ALPHA
 62
     7
100
AcDbSpline
210
0.0
220
0.0
230
1.0
 70
    11
 71
     3
 72
    26
 73
    22
 74
     0
 42
0.0000001
 43
0.0000001
 40
0.0
 40
0.0
 40
0.0
 40
0.0
 40
1.0
 40
1.0
 40
1.0
 40
2.0
 40
2.0
 40
2.0
 40
3.0
 40
3.0
 40
3.0
 40
4.0
 40
4.0
 40
4.0
 40
5.0
 40
5.0
 40
5.0
 40
6.0
 40
6.0
 40
6.0
 40
7.0
 40
7.0
 40
7.0
 40
7.0
 10
-92.73314242892794
 20
-77.40806579589843
 30
0.0
 10
-92.73314242892794
 20
-77.40806579589843
 30
0.0
 10
-89.72626308865017
 20
-74.40118645562065
 30
0.0
 10
-89.72626308865017
 20
-74.40118645562065
 30
0.0
 10
-89.72626308865017
 20
-74.40118645562065
 30
0.0
 10
-84.71571621365017
 20
-74.40118645562065
 30
0.0
 10
-84.71571621365017
 20
-74.40118645562065
 30
0.0
 10
-83.05242411295571
 20
-74.40118645562065
 30
0.0
 10
-81.70745883517794
 20
-75.75028584798175
 30
0.0
 10
-81.70745883517794
 20
-77.40806579589843
 30
0.0
 10
-81.70745883517794
 20
-77.40806579589843
 30
0.0
 10
-81.70745883517794
 20
-77.40806579589843
 30
0.0
 10
-81.70745883517794
 20
-77.40806579589843
 30
0.0
 10
-81.70745883517794
 20
-79.07135789659287
 30
0.0
 10
-83.05242411295571
 20
-80.41494513617621
 30
0.0
 10
-84.71571621365017
 20
-80.41494513617621
 30
0.0
 10
-84.71571621365017
 20
-80.41494513617621
 30
0.0
 10
-89.72626308865017
 20
-80.41494513617621
 30
0.0
 10
-89.72626308865017
 20
-80.41494513617621
 30
0.0
 10
-89.72626308865017
 20
-80.41494513617621
 30
0.0
 10
-92.73314242892794
 20
-77.40806579589843
 30
0.0
 10
-92.73314242892794
 20
-77.40806579589843
 30
0.0
  0
SPLINE
  5
1A2
100
AcDbEntity
  8
ALPHA
 62
     7
100
AcDbSpline
210
0.0
220
0.0
230
-1.0
 70
     8
 71
     3
 72
    32
 73
    28
 74
     0
 42
0.0000001
 43
0.0000001
 40
0.0
 40
0.0
 40
0.0
 40
0.0
 40
1.0
 40
1.0
 40
1.0
 40
2.0
 40
2.0
 40
2.0
 40
3.0
 40
3.0
 40
3.0
 40
4.0
 40
4.0
 40
4.0
 40
5.0
 40
5.0
 40
5.0
 40
6.0
 40
6.0
 40
6.0
 40
7.0
 40
7.0
 40
7.0
 40
8.0
 40
8.0
 40
8.0
 40
9.0
 40
9.0
 40
9.0
 40
9.0
 10
89.68311326768661
 20
15.07362772623697
 30
0.0
 10
89.68311326768661
 20
15.07362772623697
 30
0.0
 10
89.68311326768661
 20
12.06537034776475
 30
0.0
 10
89.68311326768661
 20
12.06537034776475
 30
0.0
 10
89.68311326768661
 20
11.5086429172092
 30
0.0
 10
90.12959764268662
 20
11.0621585422092
 30
0.0
 10
90.68219095865885
 20
11.0621585422092
 30
0.0
 10
90.68219095865885
 20
11.0621585422092
 30
0.0
 10
104.7188880072699
 20
11.0621585422092
 30
0.0
 10
104.7188880072699
 20
11.0621585422092
 30
0.0
 10
105.2714813232421
 20
11.0621585422092
 30
0.0
 10
105.7220998128254
 20
11.5086429172092
 30
0.0
 10
105.7220998128254
 20
12.06537034776475
 30
0.0
 10
105.7220998128254
 20
12.06537034776475
 30
0.0
 10
105.7220998128254
 20
24.09426574707031
 30
0.0
 10
105.7220998128254
 20
24.09426574707031
 30
0.0
 10
105.7220998128254
 20
24.64685906304253
 30
0.0
 10
105.2714813232421
 20
25.09334343804253
 30
0.0
 10
104.7188880072699
 20
25.09334343804253
 30
0.0
 10
104.7188880072699
 20
25.09334343804253
 30
0.0
 10
90.68219095865885
 20
25.09334343804253
 30
0.0
 10
90.68219095865885
 20
25.09334343804253
 30
0.0
 10
90.12959764268662
 20
25.09334343804253
 30
0.0
 10
89.68311326768661
 20
24.64685906304253
 30
0.0
 10
89.68311326768661
 20
24.09426574707031
 30
0.0
 10
89.68311326768661
 20
24.09426574707031
 30
0.0
 10
89.68311326768661
 20
21.08738640679253
 30
0.0
 10
89.68311326768661
 20
21.08738640679253
 30
0.0
  0
SPLINE
  5
1A3
100
AcDbEntity
  8
ALPHA
 62
     7
100
AcDbSpline
210
0.0
220
0.0
230
1.0
 70
    11
 71
     3
 72
    26
 73
    22
 74
     0
 42
0.0000001
 43
0.0000001
 40
0.0
 40
0.0
 40
0.0
 40
0.0
 40
1.0
 40
1.0
 40
1.0
 40
2.0
 40
2.0
 40
2.0
 40
3.0
 40
3.0
 40
3.0
 40
4.0
 40
4.0
 40
4.0
 40
5.0
 40
5.0
 40
5.0
 40
6.0
 40
6.0
 40
6.0
 40
7.0
 40
7.0
 40
7.0
 40
7.0
 10
92.69412672254773
 20
18.08050706651475
 30
0.0
 10
92.69412672254773
 20
18.08050706651475
 30
0.0
 10
89.68724738226995
 20
21.08738640679253
 30
0.0
 10
89.68724738226995
 20
21.08738640679253
 30
0.0
 10
89.68724738226995
 20
21.08738640679253
 30
0.0
 10
84.67256639268661
 20
21.08738640679253
 30
0.0
 10
84.67256639268661
 20
21.08738640679253
 30
0.0
 10
83.01478644476995
 20
21.08738640679253
 30
0.0
 10
81.66568705240884
 20
19.73828701443142
 30
0.0
 10
81.66568705240884
 20
18.08050706651475
 30
0.0
 10
81.66568705240884
 20
18.08050706651475
 30
0.0
 10
81.66568705240884
 20
18.08050706651475
 30
0.0
 10
81.66568705240884
 20
18.08050706651475
 30
0.0
 10
81.66568705240884
 20
16.41721496582031
 30
0.0
 10
83.01478644476995
 20
15.07362772623697
 30
0.0
 10
84.67256639268661
 20
15.07362772623697
 30
0.0
 10
84.67256639268661
 20
15.07362772623697
 30
0.0
 10
89.68724738226995
 20
15.07362772623697
 30
0.0
 10
89.68724738226995
 20
15.07362772623697
 30
0.0
 10
89.68724738226995
 20
15.07362772623697
 30
0.0
 10
92.69412672254773
 20
18.08050706651475
 30
0.0
 10
92.69412672254773
 20
18.08050706651475
 30
0.0
  0
SPLINE
  5
1A4
100
AcDbEntity
  8
ALPHA
 62
     7
100
AcDbSpline
210
0.0
220
0.0
230
-1.0
 70
     8
 71
     3
 72
    32
 73
    28
 74
     0
 42
0.0000001
 43
0.0000001
 40
0.0
 40
0.0
 40
0.0
 40
0.0
 40
1.0
 40
1.0
 40
1.0
 40
2.0
 40
2.0
 40
2.0
 40
3.0
 40
3.0
 40
3.0
 40
4.0
 40
4.0
 40
4.0
 40
5.0
 40
5.0
 40
5.0
 40
6.0
 40
6.0
 40
6.0
 40
7.0
 40
7.0
 40
7.0
 40
8.0
 40
8.0
 40
8.0
 40
9.0
 40
9.0
 40
9.0
 40
9.0
 10
89.68311326768661
 20
-4.024775865342881
 30
0.0
 10
89.68311326768661
 20
-4.024775865342881
 30
0.0
 10
89.68311326768661
 20
-7.031655205620658
 30
0.0
 10
89.68311326768661
 20
-7.031655205620658
 30
0.0
 10
89.68311326768661
 20
-7.589760674370658
 30
0.0
 10
90.12959764268662
 20
-8.036245049370659
 30
0.0
 10
90.68219095865885
 20
-8.036245049370659
 30
0.0
 10
90.68219095865885
 20
-8.036245049370659
 30
0.0
 10
104.7188880072699
 20
-8.036245049370659
 30
0.0
 10
104.7188880072699
 20
-8.036245049370659
 30
0.0
 10
105.2714813232421
 20
-8.036245049370659
 30
0.0
 10
105.7220998128254
 20
-7.589760674370658
 30
0.0
 10
105.7220998128254
 20
-7.031655205620658
 30
0.0
 10
105.7220998128254
 20
-7.031655205620658
 30
0.0
 10
105.7220998128254
 20
4.997240193684895
 30
0.0
 10
105.7220998128254
 20
4.997240193684895
 30
0.0
 10
105.7220998128254
 20
5.549833509657117
 30
0.0
 10
105.2714813232421
 20
5.996317884657117
 30
0.0
 10
104.7188880072699
 20
5.996317884657117
 30
0.0
 10
104.7188880072699
 20
5.996317884657117
 30
0.0
 10
90.68219095865885
 20
5.996317884657117
 30
0.0
 10
90.68219095865885
 20
5.996317884657117
 30
0.0
 10
90.12959764268662
 20
5.996317884657117
 30
0.0
 10
89.68311326768661
 20
5.549833509657117
 30
0.0
 10
89.68311326768661
 20
4.997240193684895
 30
0.0
 10
89.68311326768661
 20
4.997240193684895
 30
0.0
 10
89.68311326768661
 20
1.988982815212673
 30
0.0
 10
89.68311326768661
 20
1.988982815212673
 30
0.0
  0
SPLINE
  5
1A5
100
AcDbEntity
  8
ALPHA
 62
     7
100
AcDbSpline
210
0.0
220
0.0
230
1.0
 70
    11
 71
     3
 72
    26
 73
    22
 74
     0
 42
0.0000001
 43
0.0000001
 40
0.0
 40
0.0
 40
0.0
 40
0.0
 40
1.0
 40
1.0
 40
1.0
 40
2.0
 40
2.0
 40
2.0
 40
3.0
 40
3.0
 40
3.0
 40
4.0
 40
4.0
 40
4.0
 40
5.0
 40
5.0
 40
5.0
 40
6.0
 40
6.0
 40
6.0
 40
7.0
 40
7.0
 40
7.0
 40
7.0
 10
92.69412672254773
 20
-1.017896525065103
 30
0.0
 10
92.69412672254773
 20
-1.017896525065103
 30
0.0
 10
89.68724738226995
 20
1.988982815212673
 30
0.0
 10
89.68724738226995
 20
1.988982815212673
 30
0.0
 10
89.68724738226995
 20
1.988982815212673
 30
0.0
 10
84.67256639268661
 20
1.988982815212673
 30
0.0
 10
84.67256639268661
 20
1.988982815212673
 30
0.0
 10
83.01478644476995
 20
1.988982815212673
 30
0.0
 10
81.66568705240884
 20
0.6398834228515625
 30
0.0
 10
81.66568705240884
 20
-1.017896525065103
 30
0.0
 10
81.66568705240884
 20
-1.017896525065103
 30
0.0
 10
81.66568705240884
 20
-1.017896525065103
 30
0.0
 10
81.66568705240884
 20
-1.017896525065103
 30
0.0
 10
81.66568705240884
 20
-2.679810587565103
 30
0.0
 10
83.01478644476995
 20
-4.024775865342881
 30
0.0
 10
84.67256639268661
 20
-4.024775865342881
 30
0.0
 10
84.67256639268661
 20
-4.024775865342881
 30
0.0
 10
89.68724738226995
 20
-4.024775865342881
 30
0.0
 10
89.68724738226995
 20
-4.024775865342881
 30
0.0
 10
89.68724738226995
 20
-4.024775865342881
 30
0.0
 10
92.69412672254773
 20
-1.017896525065103
 30
0.0
 10
92.69412672254773
 20
-1.017896525065103
 30
0.0
  0
SPLINE
  5
1A6
100
AcDbEntity
  8
ALPHA
 62
     7
100
AcDbSpline
210
0.0
220
0.0
230
-1.0
 70
     8
 71
     3
 72
    32
 73
    28
 74
     0
 42
0.0000001
 43
0.0000001
 40
0.0
 40
0.0
 40
0.0
 40
0.0
 40
1.0
 40
1.0
 40
1.0
 40
2.0
 40
2.0
 40
2.0
 40
3.0
 40
3.0
 40
3.0
 40
4.0
 40
4.0
 40
4.0
 40
5.0
 40
5.0
 40
5.0
 40
6.0
 40
6.0
 40
6.0
 40
7.0
 40
7.0
 40
7.0
 40
8.0
 40
8.0
 40
8.0
 40
9.0
 40
9.0
 40
9.0
 40
9.0
 10
89.68311326768661
 20
-23.12300720214843
 30
0.0
 10
89.68311326768661
 20
-23.12300720214843
 30
0.0
 10
89.68311326768661
 20
-26.12988654242621
 30
0.0
 10
89.68311326768661
 20
-26.12988654242621
 30
0.0
 10
89.68311326768661
 20
-26.68661397298176
 30
0.0
 10
90.12959764268662
 20
-27.13309834798177
 30
0.0
 10
90.68219095865885
 20
-27.13309834798177
 30
0.0
 10
90.68219095865885
 20
-27.13309834798177
 30
0.0
 10
104.7188880072699
 20
-27.13309834798177
 30
0.0
 10
104.7188880072699
 20
-27.13309834798177
 30
0.0
 10
105.2714813232421
 20
-27.13309834798177
 30
0.0
 10
105.7220998128254
 20
-26.68661397298176
 30
0.0
 10
105.7220998128254
 20
-26.12988654242621
 30
0.0
 10
105.7220998128254
 20
-26.12988654242621
 30
0.0
 10
105.7220998128254
 20
-14.10099114312066
 30
0.0
 10
105.7220998128254
 20
-14.10099114312066
 30
0.0
 10
105.7220998128254
 20
-13.54839782714843
 30
0.0
 10
105.2714813232421
 20
-13.10191345214843
 30
0.0
 10
104.7188880072699
 20
-13.10191345214843
 30
0.0
 10
104.7188880072699
 20
-13.10191345214843
 30
0.0
 10
90.68219095865885
 20
-13.10191345214843
 30
0.0
 10
90.68219095865885
 20
-13.10191345214843
 30
0.0
 10
90.12959764268662
 20
-13.10191345214843
 30
0.0
 10
89.68311326768661
 20
-13.54839782714843
 30
0.0
 10
89.68311326768661
 20
-14.10099114312066
 30
0.0
 10
89.68311326768661
 20
-14.10099114312066
 30
0.0
 10
89.68311326768661
 20
-17.10787048339843
 30
0.0
 10
89.68311326768661
 20
-17.10787048339843
 30
0.0
  0
SPLINE
  5
1A7
100
AcDbEntity
  8
ALPHA
 62
     7
100
AcDbSpline
210
0.0
220
0.0
230
1.0
 70
    11
 71
     3
 72
    26
 73
    22
 74
     0
 42
0.0000001
 43
0.0000001
 40
0.0
 40
0.0
 40
0.0
 40
0.0
 40
1.0
 40
1.0
 40
1.0
 40
2.0
 40
2.0
 40
2.0
 40
3.0
 40
3.0
 40
3.0
 40
4.0
 40
4.0
 40
4.0
 40
5.0
 40
5.0
 40
5.0
 40
6.0
 40
6.0
 40
6.0
 40
7.0
 40
7.0
 40
7.0
 40
7.0
 10
92.69412672254773
 20
-20.11474982367621
 30
0.0
 10
92.69412672254773
 20
-20.11474982367621
 30
0.0
 10
89.68724738226995
 20
-17.10787048339843
 30
0.0
 10
89.68724738226995
 20
-17.10787048339843
 30
0.0
 10
89.68724738226995
 20
-17.10787048339843
 30
0.0
 10
84.67256639268661
 20
-17.10787048339843
 30
0.0
 10
84.67256639268661
 20
-17.10787048339843
 30
0.0
 10
83.01478644476995
 20
-17.10787048339843
 30
0.0
 10
81.66568705240884
 20
-18.45696987575954
 30
0.0
 10
81.66568705240884
 20
-20.11474982367621
 30
0.0
 10
81.66568705240884
 20
-20.11474982367621
 30
0.0
 10
81.66568705240884
 20
-20.11474982367621
 30
0.0
 10
81.66568705240884
 20
-20.11474982367621
 30
0.0
 10
81.66568705240884
 20
-21.77804192437065
 30
0.0
 10
83.01478644476995
 20
-23.12300720214843
 30
0.0
 10
84.67256639268661
 20
-23.12300720214843
 30
0.0
 10
84.67256639268661
 20
-23.12300720214843
 30
0.0
 10
89.68724738226995
 20
-23.12300720214843
 30
0.0
 10
89.68724738226995
 20
-23.12300720214843
 30
0.0
 10
89.68724738226995
 20
-23.12300720214843
 30
0.0
 10
92.69412672254773
 20
-20.11474982367621
 30
0.0
 10
92.69412672254773
 20
-20.11474982367621
 30
0.0
  0
SPLINE
  5
1A8
100
AcDbEntity
  8
ALPHA
 62
     7
100
AcDbSpline
210
0.0
220
0.0
230
-1.0
 70
     8
 71
     3
 72
    32
 73
    28
 74
     0
 42
0.0000001
 43
0.0000001
 40
0.0
 40
0.0
 40
0.0
 40
0.0
 40
1.0
 40
1.0
 40
1.0
 40
2.0
 40
2.0
 40
2.0
 40
3.0
 40
3.0
 40
3.0
 40
4.0
 40
4.0
 40
4.0
 40
5.0
 40
5.0
 40
5.0
 40
6.0
 40
6.0
 40
6.0
 40
7.0
 40
7.0
 40
7.0
 40
8.0
 40
8.0
 40
8.0
 40
9.0
 40
9.0
 40
9.0
 40
9.0
 10
89.68311326768661
 20
-42.21986050075954
 30
0.0
 10
89.68311326768661
 20
-42.21986050075954
 30
0.0
 10
89.68311326768661
 20
-45.22811787923177
 30
0.0
 10
89.68311326768661
 20
-45.22811787923177
 30
0.0
 10
89.68311326768661
 20
-45.78484530978732
 30
0.0
 10
90.12959764268662
 20
-46.23132968478731
 30
0.0
 10
90.68219095865885
 20
-46.23132968478731
 30
0.0
 10
90.68219095865885
 20
-46.23132968478731
 30
0.0
 10
104.7188880072699
 20
-46.23132968478731
 30
0.0
 10
104.7188880072699
 20
-46.23132968478731
 30
0.0
 10
105.2714813232421
 20
-46.23132968478731
 30
0.0
 10
105.7220998128254
 20
-45.78484530978732
 30
0.0
 10
105.7220998128254
 20
-45.22811787923177
 30
0.0
 10
105.7220998128254
 20
-45.22811787923177
 30
0.0
 10
105.7220998128254
 20
-33.19922247992621
 30
0.0
 10
105.7220998128254
 20
-33.19922247992621
 30
0.0
 10
105.7220998128254
 20
-32.64662916395399
 30
0.0
 10
105.2714813232421
 20
-32.19876675075954
 30
0.0
 10
104.7188880072699
 20
-32.19876675075954
 30
0.0
 10
104.7188880072699
 20
-32.19876675075954
 30
0.0
 10
90.68219095865885
 20
-32.19876675075954
 30
0.0
 10
90.68219095865885
 20
-32.19876675075954
 30
0.0
 10
90.12959764268662
 20
-32.19876675075954
 30
0.0
 10
89.68311326768661
 20
-32.64662916395399
 30
0.0
 10
89.68311326768661
 20
-33.19922247992621
 30
0.0
 10
89.68311326768661
 20
-33.19922247992621
 30
0.0
 10
89.68311326768661
 20
-36.20610182020399
 30
0.0
 10
89.68311326768661
 20
-36.20610182020399
 30
0.0
  0
SPLINE
  5
1A9
100
AcDbEntity
  8
ALPHA
 62
     7
100
AcDbSpline
210
0.0
220
0.0
230
1.0
 70
    11
 71
     3
 72
    26
 73
    22
 74
     0
 42
0.0000001
 43
0.0000001
 40
0.0
 40
0.0
 40
0.0
 40
0.0
 40
1.0
 40
1.0
 40
1.0
 40
2.0
 40
2.0
 40
2.0
 40
3.0
 40
3.0
 40
3.0
 40
4.0
 40
4.0
 40
4.0
 40
5.0
 40
5.0
 40
5.0
 40
6.0
 40
6.0
 40
6.0
 40
7.0
 40
7.0
 40
7.0
 40
7.0
 10
92.69412672254773
 20
-39.21298116048177
 30
0.0
 10
92.69412672254773
 20
-39.21298116048177
 30
0.0
 10
89.68724738226995
 20
-36.20610182020399
 30
0.0
 10
89.68724738226995
 20
-36.20610182020399
 30
0.0
 10
89.68724738226995
 20
-36.20610182020399
 30
0.0
 10
84.67256639268661
 20
-36.20610182020399
 30
0.0
 10
84.67256639268661
 20
-36.20610182020399
 30
0.0
 10
83.01478644476995
 20
-36.20610182020399
 30
0.0
 10
81.66568705240884
 20
-37.5552012125651
 30
0.0
 10
81.66568705240884
 20
-39.21298116048177
 30
0.0
 10
81.66568705240884
 20
-39.21298116048177
 30
0.0
 10
81.66568705240884
 20
-39.21298116048177
 30
0.0
 10
81.66568705240884
 20
-39.21298116048177
 30
0.0
 10
81.66568705240884
 20
-40.87489522298176
 30
0.0
 10
83.01478644476995
 20
-42.21986050075954
 30
0.0
 10
84.67256639268661
 20
-42.21986050075954
 30
0.0
 10
84.67256639268661
 20
-42.21986050075954
 30
0.0
 10
89.68724738226995
 20
-42.21986050075954
 30
0.0
 10
89.68724738226995
 20
-42.21986050075954
 30
0.0
 10
89.68724738226995
 20
-42.21986050075954
 30
0.0
 10
92.69412672254773
 20
-39.21298116048177
 30
0.0
 10
92.69412672254773
 20
-39.21298116048177
 30
0.0
  0
SPLINE
  5
1AA
100
AcDbEntity
  8
ALPHA
 62
     7
100
AcDbSpline
210
0.0
220
0.0
230
-1.0
 70
     8
 71
     3
 72
    32
 73
    28
 74
     0
 42
0.0000001
 43
0.0000001
 40
0.0
 40
0.0
 40
0.0
 40
0.0
 40
1.0
 40
1.0
 40
1.0
 40
2.0
 40
2.0
 40
2.0
 40
3.0
 40
3.0
 40
3.0
 40
4.0
 40
4.0
 40
4.0
 40
5.0
 40
5.0
 40
5.0
 40
6.0
 40
6.0
 40
6.0
 40
7.0
 40
7.0
 40
7.0
 40
8.0
 40
8.0
 40
8.0
 40
9.0
 40
9.0
 40
9.0
 40
9.0
 10
89.68311326768661
 20
-61.3180918375651
 30
0.0
 10
89.68311326768661
 20
-61.3180918375651
 30
0.0
 10
89.68311326768661
 20
-64.32497117784286
 30
0.0
 10
89.68311326768661
 20
-64.32497117784286
 30
0.0
 10
89.68311326768661
 20
-64.88169860839843
 30
0.0
 10
90.12959764268662
 20
-65.32956102159288
 30
0.0
 10
90.68219095865885
 20
-65.32956102159288
 30
0.0
 10
90.68219095865885
 20
-65.32956102159288
 30
0.0
 10
104.7188880072699
 20
-65.32956102159288
 30
0.0
 10
104.7188880072699
 20
-65.32956102159288
 30
0.0
 10
105.2714813232421
 20
-65.32956102159288
 30
0.0
 10
105.7220998128254
 20
-64.88169860839843
 30
0.0
 10
105.7220998128254
 20
-64.32497117784286
 30
0.0
 10
105.7220998128254
 20
-64.32497117784286
 30
0.0
 10
105.7220998128254
 20
-52.29607577853732
 30
0.0
 10
105.7220998128254
 20
-52.29607577853732
 30
0.0
 10
105.7220998128254
 20
-51.7434824625651
 30
0.0
 10
105.2714813232421
 20
-51.2969980875651
 30
0.0
 10
104.7188880072699
 20
-51.2969980875651
 30
0.0
 10
104.7188880072699
 20
-51.2969980875651
 30
0.0
 10
90.68219095865885
 20
-51.2969980875651
 30
0.0
 10
90.68219095865885
 20
-51.2969980875651
 30
0.0
 10
90.12959764268662
 20
-51.2969980875651
 30
0.0
 10
89.68311326768661
 20
-51.7434824625651
 30
0.0
 10
89.68311326768661
 20
-52.29607577853732
 30
0.0
 10
89.68311326768661
 20
-52.29607577853732
 30
0.0
 10
89.68311326768661
 20
-55.3029551188151
 30
0.0
 10
89.68311326768661
 20
-55.3029551188151
 30
0.0
  0
SPLINE
  5
1AB
100
AcDbEntity
  8
ALPHA
 62
     7
100
AcDbSpline
210
0.0
220
0.0
230
1.0
 70
    11
 71
     3
 72
    26
 73
    22
 74
     0
 42
0.0000001
 43
0.0000001
 40
0.0
 40
0.0
 40
0.0
 40
0.0
 40
1.0
 40
1.0
 40
1.0
 40
2.0
 40
2.0
 40
2.0
 40
3.0
 40
3.0
 40
3.0
 40
4.0
 40
4.0
 40
4.0
 40
5.0
 40
5.0
 40
5.0
 40
6.0
 40
6.0
 40
6.0
 40
7.0
 40
7.0
 40
7.0
 40
7.0
 10
92.69412672254773
 20
-58.31121249728732
 30
0.0
 10
92.69412672254773
 20
-58.31121249728732
 30
0.0
 10
89.68724738226995
 20
-55.3029551188151
 30
0.0
 10
89.68724738226995
 20
-55.3029551188151
 30
0.0
 10
89.68724738226995
 20
-55.3029551188151
 30
0.0
 10
84.67256639268661
 20
-55.3029551188151
 30
0.0
 10
84.67256639268661
 20
-55.3029551188151
 30
0.0
 10
83.01478644476995
 20
-55.3029551188151
 30
0.0
 10
81.66568705240884
 20
-56.65343254937066
 30
0.0
 10
81.66568705240884
 20
-58.31121249728732
 30
0.0
 10
81.66568705240884
 20
-58.31121249728732
 30
0.0
 10
81.66568705240884
 20
-58.31121249728732
 30
0.0
 10
81.66568705240884
 20
-58.31121249728732
 30
0.0
 10
81.66568705240884
 20
-59.97312655978731
 30
0.0
 10
83.01478644476995
 20
-61.3180918375651
 30
0.0
 10
84.67256639268661
 20
-61.3180918375651
 30
0.0
 10
84.67256639268661
 20
-61.3180918375651
 30
0.0
 10
89.68724738226995
 20
-61.3180918375651
 30
0.0
 10
89.68724738226995
 20
-61.3180918375651
 30
0.0
 10
89.68724738226995
 20
-61.3180918375651
 30
0.0
 10
92.69412672254773
 20
-58.31121249728732
 30
0.0
 10
92.69412672254773
 20
-58.31121249728732
 30
0.0
  0
SPLINE
  5
1AC
100
AcDbEntity
  8
ALPHA
 62
     7
100
AcDbSpline
210
0.0
220
0.0
230
-1.0
 70
     8
 71
     3
 72
    32
 73
    28
 74
     0
 42
0.0000001
 43
0.0000001
 40
0.0
 40
0.0
 40
0.0
 40
0.0
 40
1.0
 40
1.0
 40
1.0
 40
2.0
 40
2.0
 40
2.0
 40
3.0
 40
3.0
 40
3.0
 40
4.0
 40
4.0
 40
4.0
 40
5.0
 40
5.0
 40
5.0
 40
6.0
 40
6.0
 40
6.0
 40
7.0
 40
7.0
 40
7.0
 40
8.0
 40
8.0
 40
8.0
 40
9.0
 40
9.0
 40
9.0
 40
9.0
 10
89.68311326768661
 20
-80.41494513617621
 30
0.0
 10
89.68311326768661
 20
-80.41494513617621
 30
0.0
 10
89.68311326768661
 20
-83.42320251464842
 30
0.0
 10
89.68311326768661
 20
-83.42320251464842
 30
0.0
 10
89.68311326768661
 20
-83.97992994520398
 30
0.0
 10
90.12959764268662
 20
-84.42641432020399
 30
0.0
 10
90.68219095865885
 20
-84.42641432020399
 30
0.0
 10
90.68219095865885
 20
-84.42641432020399
 30
0.0
 10
104.7188880072699
 20
-84.42641432020399
 30
0.0
 10
104.7188880072699
 20
-84.42641432020399
 30
0.0
 10
105.2714813232421
 20
-84.42641432020399
 30
0.0
 10
105.7220998128254
 20
-83.97992994520398
 30
0.0
 10
105.7220998128254
 20
-83.42320251464842
 30
0.0
 10
105.7220998128254
 20
-83.42320251464842
 30
0.0
 10
105.7220998128254
 20
-71.39430711534287
 30
0.0
 10
105.7220998128254
 20
-71.39430711534287
 30
0.0
 10
105.7220998128254
 20
-70.84171379937065
 30
0.0
 10
105.2714813232421
 20
-70.39522942437065
 30
0.0
 10
104.7188880072699
 20
-70.39522942437065
 30
0.0
 10
104.7188880072699
 20
-70.39522942437065
 30
0.0
 10
90.68219095865885
 20
-70.39522942437065
 30
0.0
 10
90.68219095865885
 20
-70.39522942437065
 30
0.0
 10
90.12959764268662
 20
-70.39522942437065
 30
0.0
 10
89.68311326768661
 20
-70.84171379937065
 30
0.0
 10
89.68311326768661
 20
-71.39430711534287
 30
0.0
 10
89.68311326768661
 20
-71.39430711534287
 30
0.0
 10
89.68311326768661
 20
-74.40118645562065
 30
0.0
 10
89.68311326768661
 20
-74.40118645562065
 30
0.0
  0
SPLINE
  5
1AD
100
AcDbEntity
  8
ALPHA
 62
     7
100
AcDbSpline
210
0.0
220
0.0
230
1.0
 70
    11
 71
     3
 72
    26
 73
    22
 74
     0
 42
0.0000001
 43
0.0000001
 40
0.0
 40
0.0
 40
0.0
 40
0.0
 40
1.0
 40
1.0
 40
1.0
 40
2.0
 40
2.0
 40
2.0
 40
3.0
 40
3.0
 40
3.0
 40
4.0
 40
4.0
 40
4.0
 40
5.0
 40
5.0
 40
5.0
 40
6.0
 40
6.0
 40
6.0
 40
7.0
 40
7.0
 40
7.0
 40
7.0
 10
92.69412672254773
 20
-77.40806579589843
 30
0.0
 10
92.69412672254773
 20
-77.40806579589843
 30
0.0
 10
89.68724738226995
 20
-74.40118645562065
 30
0.0
 10
89.68724738226995
 20
-74.40118645562065
 30
0.0
 10
89.68724738226995
 20
-74.40118645562065
 30
0.0
 10
84.67256639268661
 20
-74.40118645562065
 30
0.0
 10
84.67256639268661
 20
-74.40118645562065
 30
0.0
 10
83.01478644476995
 20
-74.40118645562065
 30
0.0
 10
81.66568705240884
 20
-75.75028584798175
 30
0.0
 10
81.66568705240884
 20
-77.40806579589843
 30
0.0
 10
81.66568705240884
 20
-77.40806579589843
 30
0.0
 10
81.66568705240884
 20
-77.40806579589843
 30
0.0
 10
81.66568705240884
 20
-77.40806579589843
 30
0.0
 10
81.66568705240884
 20
-79.07135789659287
 30
0.0
 10
83.01478644476995
 20
-80.41494513617621
 30
0.0
 10
84.67256639268661
 20
-80.41494513617621
 30
0.0
 10
84.67256639268661
 20
-80.41494513617621
 30
0.0
 10
89.68724738226995
 20
-80.41494513617621
 30
0.0
 10
89.68724738226995
 20
-80.41494513617621
 30
0.0
 10
89.68724738226995
 20
-80.41494513617621
 30
0.0
 10
92.69412672254773
 20
-77.40806579589843
 30
0.0
 10
92.69412672254773
 20
-77.40806579589843
 30
0.0
  0
SPLINE
  5
1AE
100
AcDbEntity
  8
ALPHA
 62
     7
100
AcDbSpline
210
0.0
220
0.0
230
-1.0
 70
     8
 71
     3
 72
    32
 73
    28
 74
     0
 42
0.0000001
 43
0.0000001
 40
0.0
 40
0.0
 40
0.0
 40
0.0
 40
1.0
 40
1.0
 40
1.0
 40
2.0
 40
2.0
 40
2.0
 40
3.0
 40
3.0
 40
3.0
 40
4.0
 40
4.0
 40
4.0
 40
5.0
 40
5.0
 40
5.0
 40
6.0
 40
6.0
 40
6.0
 40
7.0
 40
7.0
 40
7.0
 40
8.0
 40
8.0
 40
8.0
 40
9.0
 40
9.0
 40
9.0
 40
9.0
 10
127.7817352294921
 20
15.07362772623697
 30
0.0
 10
127.7817352294921
 20
15.07362772623697
 30
0.0
 10
127.7817352294921
 20
12.06537034776475
 30
0.0
 10
127.7817352294921
 20
12.06537034776475
 30
0.0
 10
127.7817352294921
 20
11.5086429172092
 30
0.0
 10
127.3352508544921
 20
11.0621585422092
 30
0.0
 10
126.7771453857421
 20
11.0621585422092
 30
0.0
 10
126.7771453857421
 20
11.0621585422092
 30
0.0
 10
112.7459604899088
 20
11.0621585422092
 30
0.0
 10
112.7459604899088
 20
11.0621585422092
 30
0.0
 10
112.1933671739366
 20
11.0621585422092
 30
0.0
 10
111.7413706461588
 20
11.5086429172092
 30
0.0
 10
111.7413706461588
 20
12.06537034776475
 30
0.0
 10
111.7413706461588
 20
12.06537034776475
 30
0.0
 10
111.7413706461588
 20
24.09426574707031
 30
0.0
 10
111.7413706461588
 20
24.09426574707031
 30
0.0
 10
111.7413706461588
 20
24.64685906304253
 30
0.0
 10
112.1933671739366
 20
25.09334343804253
 30
0.0
 10
112.7459604899088
 20
25.09334343804253
 30
0.0
 10
112.7459604899088
 20
25.09334343804253
 30
0.0
 10
126.7771453857421
 20
25.09334343804253
 30
0.0
 10
126.7771453857421
 20
25.09334343804253
 30
0.0
 10
127.3352508544921
 20
25.09334343804253
 30
0.0
 10
127.7817352294921
 20
24.64685906304253
 30
0.0
 10
127.7817352294921
 20
24.09426574707031
 30
0.0
 10
127.7817352294921
 20
24.09426574707031
 30
0.0
 10
127.7817352294921
 20
21.08738640679253
 30
0.0
 10
127.7817352294921
 20
21.08738640679253
 30
0.0
  0
SPLINE
  5
1AF
100
AcDbEntity
  8
ALPHA
 62
     7
100
AcDbSpline
210
0.0
220
0.0
230
1.0
 70
    11
 71
     3
 72
    26
 73
    22
 74
     0
 42
0.0000001
 43
0.0000001
 40
0.0
 40
0.0
 40
0.0
 40
0.0
 40
1.0
 40
1.0
 40
1.0
 40
2.0
 40
2.0
 40
2.0
 40
3.0
 40
3.0
 40
3.0
 40
4.0
 40
4.0
 40
4.0
 40
5.0
 40
5.0
 40
5.0
 40
6.0
 40
6.0
 40
6.0
 40
7.0
 40
7.0
 40
7.0
 40
7.0
 10
124.7693437364366
 20
18.08050706651475
 30
0.0
 10
124.7693437364366
 20
18.08050706651475
 30
0.0
 10
127.7776011149088
 20
21.08738640679253
 30
0.0
 10
127.7776011149088
 20
21.08738640679253
 30
0.0
 10
127.7776011149088
 20
21.08738640679253
 30
0.0
 10
132.7867699517144
 20
21.08738640679253
 30
0.0
 10
132.7867699517144
 20
21.08738640679253
 30
0.0
 10
134.4500620524088
 20
21.08738640679253
 30
0.0
 10
135.7950273301866
 20
19.73828701443142
 30
0.0
 10
135.7950273301866
 20
18.08050706651475
 30
0.0
 10
135.7950273301866
 20
18.08050706651475
 30
0.0
 10
135.7950273301866
 20
18.08050706651475
 30
0.0
 10
135.7950273301866
 20
18.08050706651475
 30
0.0
 10
135.7950273301866
 20
16.41721496582031
 30
0.0
 10
134.4500620524088
 20
15.07362772623697
 30
0.0
 10
132.7867699517144
 20
15.07362772623697
 30
0.0
 10
132.7867699517144
 20
15.07362772623697
 30
0.0
 10
127.7776011149088
 20
15.07362772623697
 30
0.0
 10
127.7776011149088
 20
15.07362772623697
 30
0.0
 10
127.7776011149088
 20
15.07362772623697
 30
0.0
 10
124.7693437364366
 20
18.08050706651475
 30
0.0
 10
124.7693437364366
 20
18.08050706651475
 30
0.0
  0
SPLINE
  5
1B0
100
AcDbEntity
  8
ALPHA
 62
     7
100
AcDbSpline
210
0.0
220
0.0
230
-1.0
 70
     8
 71
     3
 72
    32
 73
    28
 74
     0
 42
0.0000001
 43
0.0000001
 40
0.0
 40
0.0
 40
0.0
 40
0.0
 40
1.0
 40
1.0
 40
1.0
 40
2.0
 40
2.0
 40
2.0
 40
3.0
 40
3.0
 40
3.0
 40
4.0
 40
4.0
 40
4.0
 40
5.0
 40
5.0
 40
5.0
 40
6.0
 40
6.0
 40
6.0
 40
7.0
 40
7.0
 40
7.0
 40
8.0
 40
8.0
 40
8.0
 40
9.0
 40
9.0
 40
9.0
 40
9.0
 10
127.7817352294921
 20
-4.024775865342881
 30
0.0
 10
127.7817352294921
 20
-4.024775865342881
 30
0.0
 10
127.7817352294921
 20
-7.031655205620658
 30
0.0
 10
127.7817352294921
 20
-7.031655205620658
 30
0.0
 10
127.7817352294921
 20
-7.589760674370658
 30
0.0
 10
127.3352508544921
 20
-8.036245049370659
 30
0.0
 10
126.7771453857421
 20
-8.036245049370659
 30
0.0
 10
126.7771453857421
 20
-8.036245049370659
 30
0.0
 10
112.7459604899088
 20
-8.036245049370659
 30
0.0
 10
112.7459604899088
 20
-8.036245049370659
 30
0.0
 10
112.1933671739366
 20
-8.036245049370659
 30
0.0
 10
111.7413706461588
 20
-7.589760674370658
 30
0.0
 10
111.7413706461588
 20
-7.031655205620658
 30
0.0
 10
111.7413706461588
 20
-7.031655205620658
 30
0.0
 10
111.7413706461588
 20
4.997240193684895
 30
0.0
 10
111.7413706461588
 20
4.997240193684895
 30
0.0
 10
111.7413706461588
 20
5.549833509657117
 30
0.0
 10
112.1933671739366
 20
5.996317884657117
 30
0.0
 10
112.7459604899088
 20
5.996317884657117
 30
0.0
 10
112.7459604899088
 20
5.996317884657117
 30
0.0
 10
126.7771453857421
 20
5.996317884657117
 30
0.0
 10
126.7771453857421
 20
5.996317884657117
 30
0.0
 10
127.3352508544921
 20
5.996317884657117
 30
0.0
 10
127.7817352294921
 20
5.549833509657117
 30
0.0
 10
127.7817352294921
 20
4.997240193684895
 30
0.0
 10
127.7817352294921
 20
4.997240193684895
 30
0.0
 10
127.7817352294921
 20
1.988982815212673
 30
0.0
 10
127.7817352294921
 20
1.988982815212673
 30
0.0
  0
SPLINE
  5
1B1
100
AcDbEntity
  8
ALPHA
 62
     7
100
AcDbSpline
210
0.0
220
0.0
230
1.0
 70
    11
 71
     3
 72
    26
 73
    22
 74
     0
 42
0.0000001
 43
0.0000001
 40
0.0
 40
0.0
 40
0.0
 40
0.0
 40
1.0
 40
1.0
 40
1.0
 40
2.0
 40
2.0
 40
2.0
 40
3.0
 40
3.0
 40
3.0
 40
4.0
 40
4.0
 40
4.0
 40
5.0
 40
5.0
 40
5.0
 40
6.0
 40
6.0
 40
6.0
 40
7.0
 40
7.0
 40
7.0
 40
7.0
 10
124.7693437364366
 20
-1.017896525065103
 30
0.0
 10
124.7693437364366
 20
-1.017896525065103
 30
0.0
 10
127.7776011149088
 20
1.988982815212673
 30
0.0
 10
127.7776011149088
 20
1.988982815212673
 30
0.0
 10
127.7776011149088
 20
1.988982815212673
 30
0.0
 10
132.7867699517144
 20
1.988982815212673
 30
0.0
 10
132.7867699517144
 20
1.988982815212673
 30
0.0
 10
134.4500620524088
 20
1.988982815212673
 30
0.0
 10
135.7950273301866
 20
0.6398834228515625
 30
0.0
 10
135.7950273301866
 20
-1.017896525065103
 30
0.0
 10
135.7950273301866
 20
-1.017896525065103
 30
0.0
 10
135.7950273301866
 20
-1.017896525065103
 30
0.0
 10
135.7950273301866
 20
-1.017896525065103
 30
0.0
 10
135.7950273301866
 20
-2.679810587565103
 30
0.0
 10
134.4500620524088
 20
-4.024775865342881
 30
0.0
 10
132.7867699517144
 20
-4.024775865342881
 30
0.0
 10
132.7867699517144
 20
-4.024775865342881
 30
0.0
 10
127.7776011149088
 20
-4.024775865342881
 30
0.0
 10
127.7776011149088
 20
-4.024775865342881
 30
0.0
 10
127.7776011149088
 20
-4.024775865342881
 30
0.0
 10
124.7693437364366
 20
-1.017896525065103
 30
0.0
 10
124.7693437364366
 20
-1.017896525065103
 30
0.0
  0
SPLINE
  5
1B2
100
AcDbEntity
  8
ALPHA
 62
     7
100
AcDbSpline
210
0.0
220
0.0
230
-1.0
 70
     8
 71
     3
 72
    32
 73
    28
 74
     0
 42
0.0000001
 43
0.0000001
 40
0.0
 40
0.0
 40
0.0
 40
0.0
 40
1.0
 40
1.0
 40
1.0
 40
2.0
 40
2.0
 40
2.0
 40
3.0
 40
3.0
 40
3.0
 40
4.0
 40
4.0
 40
4.0
 40
5.0
 40
5.0
 40
5.0
 40
6.0
 40
6.0
 40
6.0
 40
7.0
 40
7.0
 40
7.0
 40
8.0
 40
8.0
 40
8.0
 40
9.0
 40
9.0
 40
9.0
 40
9.0
 10
127.7817352294921
 20
-23.12300720214843
 30
0.0
 10
127.7817352294921
 20
-23.12300720214843
 30
0.0
 10
127.7817352294921
 20
-26.12988654242621
 30
0.0
 10
127.7817352294921
 20
-26.12988654242621
 30
0.0
 10
127.7817352294921
 20
-26.68661397298176
 30
0.0
 10
127.3352508544921
 20
-27.13309834798177
 30
0.0
 10
126.7771453857421
 20
-27.13309834798177
 30
0.0
 10
126.7771453857421
 20
-27.13309834798177
 30
0.0
 10
112.7459604899088
 20
-27.13309834798177
 30
0.0
 10
112.7459604899088
 20
-27.13309834798177
 30
0.0
 10
112.1933671739366
 20
-27.13309834798177
 30
0.0
 10
111.7413706461588
 20
-26.68661397298176
 30
0.0
 10
111.7413706461588
 20
-26.12988654242621
 30
0.0
 10
111.7413706461588
 20
-26.12988654242621
 30
0.0
 10
111.7413706461588
 20
-14.10099114312066
 30
0.0
 10
111.7413706461588
 20
-14.10099114312066
 30
0.0
 10
111.7413706461588
 20
-13.54839782714843
 30
0.0
 10
112.1933671739366
 20
-13.10191345214843
 30
0.0
 10
112.7459604899088
 20
-13.10191345214843
 30
0.0
 10
112.7459604899088
 20
-13.10191345214843
 30
0.0
 10
126.7771453857421
 20
-13.10191345214843
 30
0.0
 10
126.7771453857421
 20
-13.10191345214843
 30
0.0
 10
127.3352508544921
 20
-13.10191345214843
 30
0.0
 10
127.7817352294921
 20
-13.54839782714843
 30
0.0
 10
127.7817352294921
 20
-14.10099114312066
 30
0.0
 10
127.7817352294921
 20
-14.10099114312066
 30
0.0
 10
127.7817352294921
 20
-17.10787048339843
 30
0.0
 10
127.7817352294921
 20
-17.10787048339843
 30
0.0
  0
SPLINE
  5
1B3
100
AcDbEntity
  8
ALPHA
 62
     7
100
AcDbSpline
210
0.0
220
0.0
230
1.0
 70
    11
 71
     3
 72
    26
 73
    22
 74
     0
 42
0.0000001
 43
0.0000001
 40
0.0
 40
0.0
 40
0.0
 40
0.0
 40
1.0
 40
1.0
 40
1.0
 40
2.0
 40
2.0
 40
2.0
 40
3.0
 40
3.0
 40
3.0
 40
4.0
 40
4.0
 40
4.0
 40
5.0
 40
5.0
 40
5.0
 40
6.0
 40
6.0
 40
6.0
 40
7.0
 40
7.0
 40
7.0
 40
7.0
 10
124.7693437364366
 20
-20.11474982367621
 30
0.0
 10
124.7693437364366
 20
-20.11474982367621
 30
0.0
 10
127.7776011149088
 20
-17.10787048339843
 30
0.0
 10
127.7776011149088
 20
-17.10787048339843
 30
0.0
 10
127.7776011149088
 20
-17.10787048339843
 30
0.0
 10
132.7867699517144
 20
-17.10787048339843
 30
0.0
 10
132.7867699517144
 20
-17.10787048339843
 30
0.0
 10
134.4500620524088
 20
-17.10787048339843
 30
0.0
 10
135.7950273301866
 20
-18.45696987575954
 30
0.0
 10
135.7950273301866
 20
-20.11474982367621
 30
0.0
 10
135.7950273301866
 20
-20.11474982367621
 30
0.0
 10
135.7950273301866
 20
-20.11474982367621
 30
0.0
 10
135.7950273301866
 20
-20.11474982367621
 30
0.0
 10
135.7950273301866
 20
-21.77804192437065
 30
0.0
 10
134.4500620524088
 20
-23.12300720214843
 30
0.0
 10
132.7867699517144
 20
-23.12300720214843
 30
0.0
 10
132.7867699517144
 20
-23.12300720214843
 30
0.0
 10
127.7776011149088
 20
-23.12300720214843
 30
0.0
 10
127.7776011149088
 20
-23.12300720214843
 30
0.0
 10
127.7776011149088
 20
-23.12300720214843
 30
0.0
 10
124.7693437364366
 20
-20.11474982367621
 30
0.0
 10
124.7693437364366
 20
-20.11474982367621
 30
0.0
  0
SPLINE
  5
1B4
100
AcDbEntity
  8
ALPHA
 62
     7
100
AcDbSpline
210
0.0
220
0.0
230
-1.0
 70
     8
 71
     3
 72
    32
 73
    28
 74
     0
 42
0.0000001
 43
0.0000001
 40
0.0
 40
0.0
 40
0.0
 40
0.0
 40
1.0
 40
1.0
 40
1.0
 40
2.0
 40
2.0
 40
2.0
 40
3.0
 40
3.0
 40
3.0
 40
4.0
 40
4.0
 40
4.0
 40
5.0
 40
5.0
 40
5.0
 40
6.0
 40
6.0
 40
6.0
 40
7.0
 40
7.0
 40
7.0
 40
8.0
 40
8.0
 40
8.0
 40
9.0
 40
9.0
 40
9.0
 40
9.0
 10
127.7817352294921
 20
-42.21986050075954
 30
0.0
 10
127.7817352294921
 20
-42.21986050075954
 30
0.0
 10
127.7817352294921
 20
-45.22811787923177
 30
0.0
 10
127.7817352294921
 20
-45.22811787923177
 30
0.0
 10
127.7817352294921
 20
-45.78484530978732
 30
0.0
 10
127.3352508544921
 20
-46.23132968478731
 30
0.0
 10
126.7771453857421
 20
-46.23132968478731
 30
0.0
 10
126.7771453857421
 20
-46.23132968478731
 30
0.0
 10
112.7459604899088
 20
-46.23132968478731
 30
0.0
 10
112.7459604899088
 20
-46.23132968478731
 30
0.0
 10
112.1933671739366
 20
-46.23132968478731
 30
0.0
 10
111.7413706461588
 20
-45.78484530978732
 30
0.0
 10
111.7413706461588
 20
-45.22811787923177
 30
0.0
 10
111.7413706461588
 20
-45.22811787923177
 30
0.0
 10
111.7413706461588
 20
-33.19922247992621
 30
0.0
 10
111.7413706461588
 20
-33.19922247992621
 30
0.0
 10
111.7413706461588
 20
-32.64662916395399
 30
0.0
 10
112.1933671739366
 20
-32.19876675075954
 30
0.0
 10
112.7459604899088
 20
-32.19876675075954
 30
0.0
 10
112.7459604899088
 20
-32.19876675075954
 30
0.0
 10
126.7771453857421
 20
-32.19876675075954
 30
0.0
 10
126.7771453857421
 20
-32.19876675075954
 30
0.0
 10
127.3352508544921
 20
-32.19876675075954
 30
0.0
 10
127.7817352294921
 20
-32.64662916395399
 30
0.0
 10
127.7817352294921
 20
-33.19922247992621
 30
0.0
 10
127.7817352294921
 20
-33.19922247992621
 30
0.0
 10
127.7817352294921
 20
-36.20610182020399
 30
0.0
 10
127.7817352294921
 20
-36.20610182020399
 30
0.0
  0
SPLINE
  5
1B5
100
AcDbEntity
  8
ALPHA
 62
     7
100
AcDbSpline
210
0.0
220
0.0
230
1.0
 70
    11
 71
     3
 72
    26
 73
    22
 74
     0
 42
0.0000001
 43
0.0000001
 40
0.0
 40
0.0
 40
0.0
 40
0.0
 40
1.0
 40
1.0
 40
1.0
 40
2.0
 40
2.0
 40
2.0
 40
3.0
 40
3.0
 40
3.0
 40
4.0
 40
4.0
 40
4.0
 40
5.0
 40
5.0
 40
5.0
 40
6.0
 40
6.0
 40
6.0
 40
7.0
 40
7.0
 40
7.0
 40
7.0
 10
124.7693437364366
 20
-39.21298116048177
 30
0.0
 10
124.7693437364366
 20
-39.21298116048177
 30
0.0
 10
127.7776011149088
 20
-36.20610182020399
 30
0.0
 10
127.7776011149088
 20
-36.20610182020399
 30
0.0
 10
127.7776011149088
 20
-36.20610182020399
 30
0.0
 10
132.7867699517144
 20
-36.20610182020399
 30
0.0
 10
132.7867699517144
 20
-36.20610182020399
 30
0.0
 10
134.4500620524088
 20
-36.20610182020399
 30
0.0
 10
135.7950273301866
 20
-37.5552012125651
 30
0.0
 10
135.7950273301866
 20
-39.21298116048177
 30
0.0
 10
135.7950273301866
 20
-39.21298116048177
 30
0.0
 10
135.7950273301866
 20
-39.21298116048177
 30
0.0
 10
135.7950273301866
 20
-39.21298116048177
 30
0.0
 10
135.7950273301866
 20
-40.87489522298176
 30
0.0
 10
134.4500620524088
 20
-42.21986050075954
 30
0.0
 10
132.7867699517144
 20
-42.21986050075954
 30
0.0
 10
132.7867699517144
 20
-42.21986050075954
 30
0.0
 10
127.7776011149088
 20
-42.21986050075954
 30
0.0
 10
127.7776011149088
 20
-42.21986050075954
 30
0.0
 10
127.7776011149088
 20
-42.21986050075954
 30
0.0
 10
124.7693437364366
 20
-39.21298116048177
 30
0.0
 10
124.7693437364366
 20
-39.21298116048177
 30
0.0
  0
SPLINE
  5
1B6
100
AcDbEntity
  8
ALPHA
 62
     7
100
AcDbSpline
210
0.0
220
0.0
230
-1.0
 70
     8
 71
     3
 72
    32
 73
    28
 74
     0
 42
0.0000001
 43
0.0000001
 40
0.0
 40
0.0
 40
0.0
 40
0.0
 40
1.0
 40
1.0
 40
1.0
 40
2.0
 40
2.0
 40
2.0
 40
3.0
 40
3.0
 40
3.0
 40
4.0
 40
4.0
 40
4.0
 40
5.0
 40
5.0
 40
5.0
 40
6.0
 40
6.0
 40
6.0
 40
7.0
 40
7.0
 40
7.0
 40
8.0
 40
8.0
 40
8.0
 40
9.0
 40
9.0
 40
9.0
 40
9.0
 10
127.7817352294921
 20
-61.3180918375651
 30
0.0
 10
127.7817352294921
 20
-61.3180918375651
 30
0.0
 10
127.7817352294921
 20
-64.32497117784286
 30
0.0
 10
127.7817352294921
 20
-64.32497117784286
 30
0.0
 10
127.7817352294921
 20
-64.88169860839843
 30
0.0
 10
127.3352508544921
 20
-65.32956102159288
 30
0.0
 10
126.7771453857421
 20
-65.32956102159288
 30
0.0
 10
126.7771453857421
 20
-65.32956102159288
 30
0.0
 10
112.7459604899088
 20
-65.32956102159288
 30
0.0
 10
112.7459604899088
 20
-65.32956102159288
 30
0.0
 10
112.1933671739366
 20
-65.32956102159288
 30
0.0
 10
111.7413706461588
 20
-64.88169860839843
 30
0.0
 10
111.7413706461588
 20
-64.32497117784286
 30
0.0
 10
111.7413706461588
 20
-64.32497117784286
 30
0.0
 10
111.7413706461588
 20
-52.29607577853732
 30
0.0
 10
111.7413706461588
 20
-52.29607577853732
 30
0.0
 10
111.7413706461588
 20
-51.7434824625651
 30
0.0
 10
112.1933671739366
 20
-51.2969980875651
 30
0.0
 10
112.7459604899088
 20
-51.2969980875651
 30
0.0
 10
112.7459604899088
 20
-51.2969980875651
 30
0.0
 10
126.7771453857421
 20
-51.2969980875651
 30
0.0
 10
126.7771453857421
 20
-51.2969980875651
 30
0.0
 10
127.3352508544921
 20
-51.2969980875651
 30
0.0
 10
127.7817352294921
 20
-51.7434824625651
 30
0.0
 10
127.7817352294921
 20
-52.29607577853732
 30
0.0
 10
127.7817352294921
 20
-52.29607577853732
 30
0.0
 10
127.7817352294921
 20
-55.3029551188151
 30
0.0
 10
127.7817352294921
 20
-55.3029551188151
 30
0.0
  0
SPLINE
  5
1B7
100
AcDbEntity
  8
ALPHA
 62
     7
100
AcDbSpline
210
0.0
220
0.0
230
1.0
 70
    11
 71
     3
 72
    26
 73
    22
 74
     0
 42
0.0000001
 43
0.0000001
 40
0.0
 40
0.0
 40
0.0
 40
0.0
 40
1.0
 40
1.0
 40
1.0
 40
2.0
 40
2.0
 40
2.0
 40
3.0
 40
3.0
 40
3.0
 40
4.0
 40
4.0
 40
4.0
 40
5.0
 40
5.0
 40
5.0
 40
6.0
 40
6.0
 40
6.0
 40
7.0
 40
7.0
 40
7.0
 40
7.0
 10
124.7693437364366
 20
-58.31121249728732
 30
0.0
 10
124.7693437364366
 20
-58.31121249728732
 30
0.0
 10
127.7776011149088
 20
-55.3029551188151
 30
0.0
 10
127.7776011149088
 20
-55.3029551188151
 30
0.0
 10
127.7776011149088
 20
-55.3029551188151
 30
0.0
 10
132.7867699517144
 20
-55.3029551188151
 30
0.0
 10
132.7867699517144
 20
-55.3029551188151
 30
0.0
 10
134.4500620524088
 20
-55.3029551188151
 30
0.0
 10
135.7950273301866
 20
-56.65343254937066
 30
0.0
 10
135.7950273301866
 20
-58.31121249728732
 30
0.0
 10
135.7950273301866
 20
-58.31121249728732
 30
0.0
 10
135.7950273301866
 20
-58.31121249728732
 30
0.0
 10
135.7950273301866
 20
-58.31121249728732
 30
0.0
 10
135.7950273301866
 20
-59.97312655978731
 30
0.0
 10
134.4500620524088
 20
-61.3180918375651
 30
0.0
 10
132.7867699517144
 20
-61.3180918375651
 30
0.0
 10
132.7867699517144
 20
-61.3180918375651
 30
0.0
 10
127.7776011149088
 20
-61.3180918375651
 30
0.0
 10
127.7776011149088
 20
-61.3180918375651
 30
0.0
 10
127.7776011149088
 20
-61.3180918375651
 30
0.0
 10
124.7693437364366
 20
-58.31121249728732
 30
0.0
 10
124.7693437364366
 20
-58.31121249728732
 30
0.0
  0
SPLINE
  5
1B8
100
AcDbEntity
  8
ALPHA
 62
     7
100
AcDbSpline
210
0.0
220
0.0
230
-1.0
 70
     8
 71
     3
 72
    32
 73
    28
 74
     0
 42
0.0000001
 43
0.0000001
 40
0.0
 40
0.0
 40
0.0
 40
0.0
 40
1.0
 40
1.0
 40
1.0
 40
2.0
 40
2.0
 40
2.0
 40
3.0
 40
3.0
 40
3.0
 40
4.0
 40
4.0
 40
4.0
 40
5.0
 40
5.0
 40
5.0
 40
6.0
 40
6.0
 40
6.0
 40
7.0
 40
7.0
 40
7.0
 40
8.0
 40
8.0
 40
8.0
 40
9.0
 40
9.0
 40
9.0
 40
9.0
 10
127.7817352294921
 20
-80.41494513617621
 30
0.0
 10
127.7817352294921
 20
-80.41494513617621
 30
0.0
 10
127.7817352294921
 20
-83.42320251464842
 30
0.0
 10
127.7817352294921
 20
-83.42320251464842
 30
0.0
 10
127.7817352294921
 20
-83.97992994520398
 30
0.0
 10
127.3352508544921
 20
-84.42641432020399
 30
0.0
 10
126.7771453857421
 20
-84.42641432020399
 30
0.0
 10
126.7771453857421
 20
-84.42641432020399
 30
0.0
 10
112.7459604899088
 20
-84.42641432020399
 30
0.0
 10
112.7459604899088
 20
-84.42641432020399
 30
0.0
 10
112.1933671739366
 20
-84.42641432020399
 30
0.0
 10
111.7413706461588
 20
-83.97992994520398
 30
0.0
 10
111.7413706461588
 20
-83.42320251464842
 30
0.0
 10
111.7413706461588
 20
-83.42320251464842
 30
0.0
 10
111.7413706461588
 20
-71.39430711534287
 30
0.0
 10
111.7413706461588
 20
-71.39430711534287
 30
0.0
 10
111.7413706461588
 20
-70.84171379937065
 30
0.0
 10
112.1933671739366
 20
-70.39522942437065
 30
0.0
 10
112.7459604899088
 20
-70.39522942437065
 30
0.0
 10
112.7459604899088
 20
-70.39522942437065
 30
0.0
 10
126.7771453857421
 20
-70.39522942437065
 30
0.0
 10
126.7771453857421
 20
-70.39522942437065
 30
0.0
 10
127.3352508544921
 20
-70.39522942437065
 30
0.0
 10
127.7817352294921
 20
-70.84171379937065
 30
0.0
 10
127.7817352294921
 20
-71.39430711534287
 30
0.0
 10
127.7817352294921
 20
-71.39430711534287
 30
0.0
 10
127.7817352294921
 20
-74.40118645562065
 30
0.0
 10
127.7817352294921
 20
-74.40118645562065
 30
0.0
  0
SPLINE
  5
1B9
100
AcDbEntity
  8
ALPHA
 62
     7
100
AcDbSpline
210
0.0
220
0.0
230
1.0
 70
    11
 71
     3
 72
    26
 73
    22
 74
     0
 42
0.0000001
 43
0.0000001
 40
0.0
 40
0.0
 40
0.0
 40
0.0
 40
1.0
 40
1.0
 40
1.0
 40
2.0
 40
2.0
 40
2.0
 40
3.0
 40
3.0
 40
3.0
 40
4.0
 40
4.0
 40
4.0
 40
5.0
 40
5.0
 40
5.0
 40
6.0
 40
6.0
 40
6.0
 40
7.0
 40
7.0
 40
7.0
 40
7.0
 10
124.7693437364366
 20
-77.40806579589843
 30
0.0
 10
124.7693437364366
 20
-77.40806579589843
 30
0.0
 10
127.7776011149088
 20
-74.40118645562065
 30
0.0
 10
127.7776011149088
 20
-74.40118645562065
 30
0.0
 10
127.7776011149088
 20
-74.40118645562065
 30
0.0
 10
132.7867699517144
 20
-74.40118645562065
 30
0.0
 10
132.7867699517144
 20
-74.40118645562065
 30
0.0
 10
134.4500620524088
 20
-74.40118645562065
 30
0.0
 10
135.7950273301866
 20
-75.75028584798175
 30
0.0
 10
135.7950273301866
 20
-77.40806579589843
 30
0.0
 10
135.7950273301866
 20
-77.40806579589843
 30
0.0
 10
135.7950273301866
 20
-77.40806579589843
 30
0.0
 10
135.7950273301866
 20
-77.40806579589843
 30
0.0
 10
135.7950273301866
 20
-79.07135789659287
 30
0.0
 10
134.4500620524088
 20
-80.41494513617621
 30
0.0
 10
132.7867699517144
 20
-80.41494513617621
 30
0.0
 10
132.7867699517144
 20
-80.41494513617621
 30
0.0
 10
127.7776011149088
 20
-80.41494513617621
 30
0.0
 10
127.7776011149088
 20
-80.41494513617621
 30
0.0
 10
127.7776011149088
 20
-80.41494513617621
 30
0.0
 10
124.7693437364366
 20
-77.40806579589843
 30
0.0
 10
124.7693437364366
 20
-77.40806579589843
 30
0.0
  0
POLYLINE
  5
1BA
100
AcDbEntity
  8
ALPHA
 62
     7
100
AcDb2dPolyline
 66
     1
 10
0.0
 20
0.0
 30
0.0
 70
     1
  0
VERTEX
  5
1BB
100
AcDbEntity
  8
ALPHA
 62
     7
100
AcDbVertex
100
AcDb2dVertex
 10
-53.427531
 20
-72.416811
 30
0.0
  0
VERTEX
  5
1BC
100
AcDbEntity
  8
ALPHA
 62
     7
100
AcDbVertex
100
AcDb2dVertex
 10
-53.427531
 20
-63.394795
 30
0.0
  0
VERTEX
  5
1BD
100
AcDbEntity
  8
ALPHA
 62
     7
100
AcDbVertex
100
AcDb2dVertex
 10
-68.468646
 20
-63.394795
 30
0.0
  0
VERTEX
  5
1BE
100
AcDbEntity
  8
ALPHA
 62
     7
100
AcDbVertex
100
AcDb2dVertex
 10
-68.468646
 20
-72.416811
 30
0.0
  0
SEQEND
  5
1BF
100
AcDbEntity
  8
ALPHA
 62
     7
  0
POLYLINE
  5
1C0
100
AcDbEntity
  8
ALPHA
 62
     7
100
AcDb2dPolyline
 66
     1
 10
0.0
 20
0.0
 30
0.0
 70
     1
  0
VERTEX
  5
1C1
100
AcDbEntity
  8
ALPHA
 62
     7
100
AcDbVertex
100
AcDb2dVertex
 10
-53.427531
 20
-34.221727
 30
0.0
  0
VERTEX
  5
1C2
100
AcDbEntity
  8
ALPHA
 62
     7
100
AcDbVertex
100
AcDb2dVertex
 10
-53.427531
 20
-25.199711
 30
0.0
  0
VERTEX
  5
1C3
100
AcDbEntity
  8
ALPHA
 62
     7
100
AcDbVertex
100
AcDb2dVertex
 10
-68.468646
 20
-25.199711
 30
0.0
  0
VERTEX
  5
1C4
100
AcDbEntity
  8
ALPHA
 62
     7
100
AcDbVertex
100
AcDb2dVertex
 10
-68.468646
 20
-34.221727
 30
0.0
  0
SEQEND
  5
1C5
100
AcDbEntity
  8
ALPHA
 62
     7
  0
POLYLINE
  5
1C6
100
AcDbEntity
  8
ALPHA
 62
     7
100
AcDb2dPolyline
 66
     1
 10
0.0
 20
0.0
 30
0.0
 70
     1
  0
VERTEX
  5
1C7
100
AcDbEntity
  8
ALPHA
 62
     7
100
AcDbVertex
100
AcDb2dVertex
 10
-34.330678
 20
-52.789413
 30
0.0
  0
VERTEX
  5
1C8
100
AcDbEntity
  8
ALPHA
 62
     7
100
AcDbVertex
100
AcDb2dVertex
 10
-34.330678
 20
-43.767397
 30
0.0
  0
VERTEX
  5
1C9
100
AcDbEntity
  8
ALPHA
 62
     7
100
AcDbVertex
100
AcDb2dVertex
 10
-49.370587
 20
-43.767397
 30
0.0
  0
VERTEX
  5
1CA
100
AcDbEntity
  8
ALPHA
 62
     7
100
AcDbVertex
100
AcDb2dVertex
 10
-49.370587
 20
-52.789413
 30
0.0
  0
SEQEND
  5
1CB
100
AcDbEntity
  8
ALPHA
 62
     7
  0
POLYLINE
  5
1CC
100
AcDbEntity
  8
ALPHA
 62
     7
100
AcDb2dPolyline
 66
     1
 10
0.0
 20
0.0
 30
0.0
 70
     1
  0
VERTEX
  5
1CD
100
AcDbEntity
  8
ALPHA
 62
     7
100
AcDbVertex
100
AcDb2dVertex
 10
-14.528269
 20
-34.221727
 30
0.0
  0
VERTEX
  5
1CE
100
AcDbEntity
  8
ALPHA
 62
     7
100
AcDbVertex
100
AcDb2dVertex
 10
-14.528269
 20
-25.199711
 30
0.0
  0
VERTEX
  5
1CF
100
AcDbEntity
  8
ALPHA
 62
     7
100
AcDbVertex
100
AcDb2dVertex
 10
-29.564044
 20
-25.199711
 30
0.0
  0
VERTEX
  5
1D0
100
AcDbEntity
  8
ALPHA
 62
     7
100
AcDbVertex
100
AcDb2dVertex
 10
-29.564044
 20
-34.221727
 30
0.0
  0
SEQEND
  5
1D1
100
AcDbEntity
  8
ALPHA
 62
     7
  0
POLYLINE
  5
1D2
100
AcDbEntity
  8
ALPHA
 62
     7
100
AcDb2dPolyline
 66
     1
 10
0.0
 20
0.0
 30
0.0
 70
     1
  0
VERTEX
  5
1D3
100
AcDbEntity
  8
ALPHA
 62
     7
100
AcDbVertex
100
AcDb2dVertex
 10
1.03805
 20
3.265046
 30
0.0
  0
VERTEX
  5
1D4
100
AcDbEntity
  8
ALPHA
 62
     7
100
AcDbVertex
100
AcDb2dVertex
 10
1.03805
 20
12.287234
 30
0.0
  0
VERTEX
  5
1D5
100
AcDbEntity
  8
ALPHA
 62
     7
100
AcDbVertex
100
AcDb2dVertex
 10
-14.003237
 20
12.287234
 30
0.0
  0
VERTEX
  5
1D6
100
AcDbEntity
  8
ALPHA
 62
     7
100
AcDbVertex
100
AcDb2dVertex
 10
-14.003237
 20
3.265046
 30
0.0
  0
SEQEND
  5
1D7
100
AcDbEntity
  8
ALPHA
 62
     7
  0
POLYLINE
  5
1D8
100
AcDbEntity
  8
ALPHA
 62
     7
100
AcDb2dPolyline
 66
     1
 10
0.0
 20
0.0
 30
0.0
 70
     1
  0
VERTEX
  5
1D9
100
AcDbEntity
  8
ALPHA
 62
     7
100
AcDbVertex
100
AcDb2dVertex
 10
22.254326
 20
3.265046
 30
0.0
  0
VERTEX
  5
1DA
100
AcDbEntity
  8
ALPHA
 62
     7
100
AcDbVertex
100
AcDb2dVertex
 10
22.254326
 20
12.287234
 30
0.0
  0
VERTEX
  5
1DB
100
AcDbEntity
  8
ALPHA
 62
     7
100
AcDbVertex
100
AcDb2dVertex
 10
7.218552
 20
12.287234
 30
0.0
  0
VERTEX
  5
1DC
100
AcDbEntity
  8
ALPHA
 62
     7
100
AcDbVertex
100
AcDb2dVertex
 10
7.218552
 20
3.265046
 30
0.0
  0
SEQEND
  5
1DD
100
AcDbEntity
  8
ALPHA
 62
     7
  0
POLYLINE
  5
1DE
100
AcDbEntity
  8
ALPHA
 62
     7
100
AcDb2dPolyline
 66
     1
 10
0.0
 20
0.0
 30
0.0
 70
     1
  0
VERTEX
  5
1DF
100
AcDbEntity
  8
ALPHA
 62
     7
100
AcDbVertex
100
AcDb2dVertex
 10
43.474737
 20
3.265046
 30
0.0
  0
VERTEX
  5
1E0
100
AcDbEntity
  8
ALPHA
 62
     7
100
AcDbVertex
100
AcDb2dVertex
 10
43.474737
 20
12.287234
 30
0.0
  0
VERTEX
  5
1E1
100
AcDbEntity
  8
ALPHA
 62
     7
100
AcDbVertex
100
AcDb2dVertex
 10
28.438962
 20
12.287234
 30
0.0
  0
VERTEX
  5
1E2
100
AcDbEntity
  8
ALPHA
 62
     7
100
AcDbVertex
100
AcDb2dVertex
 10
28.438962
 20
3.265046
 30
0.0
  0
SEQEND
  5
1E3
100
AcDbEntity
  8
ALPHA
 62
     7
  0
POLYLINE
  5
1E4
100
AcDbEntity
  8
ALPHA
 62
     7
100
AcDb2dPolyline
 66
     1
 10
0.0
 20
0.0
 30
0.0
 70
     1
  0
VERTEX
  5
1E5
100
AcDbEntity
  8
ALPHA
 62
     7
100
AcDbVertex
100
AcDb2dVertex
 10
64.695147
 20
3.265046
 30
0.0
  0
VERTEX
  5
1E6
100
AcDbEntity
  8
ALPHA
 62
     7
100
AcDbVertex
100
AcDb2dVertex
 10
64.695147
 20
12.287234
 30
0.0
  0
VERTEX
  5
1E7
100
AcDbEntity
  8
ALPHA
 62
     7
100
AcDbVertex
100
AcDb2dVertex
 10
49.659372
 20
12.287234
 30
0.0
  0
VERTEX
  5
1E8
100
AcDbEntity
  8
ALPHA
 62
     7
100
AcDbVertex
100
AcDb2dVertex
 10
49.659372
 20
3.265046
 30
0.0
  0
SEQEND
  5
1E9
100
AcDbEntity
  8
ALPHA
 62
     7
  0
POLYLINE
  5
1EA
100
AcDbEntity
  8
ALPHA
 62
     7
100
AcDb2dPolyline
 66
     1
 10
0.0
 20
0.0
 30
0.0
 70
     1
  0
VERTEX
  5
1EB
100
AcDbEntity
  8
ALPHA
 62
     7
100
AcDbVertex
100
AcDb2dVertex
 10
22.254326
 20
-73.125123
 30
0.0
  0
VERTEX
  5
1EC
100
AcDbEntity
  8
ALPHA
 62
     7
100
AcDbVertex
100
AcDb2dVertex
 10
22.254326
 20
-64.104485
 30
0.0
  0
VERTEX
  5
1ED
100
AcDbEntity
  8
ALPHA
 62
     7
100
AcDbVertex
100
AcDb2dVertex
 10
7.218552
 20
-64.104485
 30
0.0
  0
VERTEX
  5
1EE
100
AcDbEntity
  8
ALPHA
 62
     7
100
AcDbVertex
100
AcDb2dVertex
 10
7.218552
 20
-73.125123
 30
0.0
  0
SEQEND
  5
1EF
100
AcDbEntity
  8
ALPHA
 62
     7
  0
POLYLINE
  5
1F0
100
AcDbEntity
  8
ALPHA
 62
     7
100
AcDb2dPolyline
 66
     1
 10
0.0
 20
0.0
 30
0.0
 70
     1
  0
VERTEX
  5
1F1
100
AcDbEntity
  8
ALPHA
 62
     7
100
AcDbVertex
100
AcDb2dVertex
 10
43.474737
 20
-73.125123
 30
0.0
  0
VERTEX
  5
1F2
100
AcDbEntity
  8
ALPHA
 62
     7
100
AcDbVertex
100
AcDb2dVertex
 10
43.474737
 20
-64.104485
 30
0.0
  0
VERTEX
  5
1F3
100
AcDbEntity
  8
ALPHA
 62
     7
100
AcDbVertex
100
AcDb2dVertex
 10
28.438962
 20
-64.104485
 30
0.0
  0
VERTEX
  5
1F4
100
AcDbEntity
  8
ALPHA
 62
     7
100
AcDbVertex
100
AcDb2dVertex
 10
28.438962
 20
-73.125123
 30
0.0
  0
SEQEND
  5
1F5
100
AcDbEntity
  8
ALPHA
 62
     7
  0
POLYLINE
  5
1F6
100
AcDbEntity
  8
ALPHA
 62
     7
100
AcDb2dPolyline
 66
     1
 10
0.0
 20
0.0
 30
0.0
 70
     1
  0
VERTEX
  5
1F7
100
AcDbEntity
  8
ALPHA
 62
     7
100
AcDbVertex
100
AcDb2dVertex
 10
64.695147
 20
-73.125123
 30
0.0
  0
VERTEX
  5
1F8
100
AcDbEntity
  8
ALPHA
 62
     7
100
AcDbVertex
100
AcDb2dVertex
 10
64.695147
 20
-64.104485
 30
0.0
  0
VERTEX
  5
1F9
100
AcDbEntity
  8
ALPHA
 62
     7
100
AcDbVertex
100
AcDb2dVertex
 10
49.659372
 20
-64.104485
 30
0.0
  0
VERTEX
  5
1FA
100
AcDbEntity
  8
ALPHA
 62
     7
100
AcDbVertex
100
AcDb2dVertex
 10
49.659372
 20
-73.125123
 30
0.0
  0
SEQEND
  5
1FB
100
AcDbEntity
  8
ALPHA
 62
     7
  0
POLYLINE
  5
1FC
100
AcDbEntity
  8
ALPHA
 62
     7
100
AcDb2dPolyline
 66
     1
 10
0.0
 20
0.0
 30
0.0
 70
     1
  0
VERTEX
  5
1FD
100
AcDbEntity
  8
ALPHA
 62
     7
100
AcDbVertex
100
AcDb2dVertex
 10
22.254326
 20
-55.442137
 30
0.0
  0
VERTEX
  5
1FE
100
AcDbEntity
  8
ALPHA
 62
     7
100
AcDbVertex
100
AcDb2dVertex
 10
22.254326
 20
-46.420121
 30
0.0
  0
VERTEX
  5
1FF
100
AcDbEntity
  8
ALPHA
 62
     7
100
AcDbVertex
100
AcDb2dVertex
 10
7.218552
 20
-46.420121
 30
0.0
  0
VERTEX
  5
200
100
AcDbEntity
  8
ALPHA
 62
     7
100
AcDbVertex
100
AcDb2dVertex
 10
7.218552
 20
-55.442137
 30
0.0
  0
SEQEND
  5
201
100
AcDbEntity
  8
ALPHA
 62
     7
  0
POLYLINE
  5
202
100
AcDbEntity
  8
ALPHA
 62
     7
100
AcDb2dPolyline
 66
     1
 10
0.0
 20
0.0
 30
0.0
 70
     1
  0
VERTEX
  5
203
100
AcDbEntity
  8
ALPHA
 62
     7
100
AcDbVertex
100
AcDb2dVertex
 10
43.474737
 20
-55.442137
 30
0.0
  0
VERTEX
  5
204
100
AcDbEntity
  8
ALPHA
 62
     7
100
AcDbVertex
100
AcDb2dVertex
 10
43.474737
 20
-46.420121
 30
0.0
  0
VERTEX
  5
205
100
AcDbEntity
  8
ALPHA
 62
     7
100
AcDbVertex
100
AcDb2dVertex
 10
28.438962
 20
-46.420121
 30
0.0
  0
VERTEX
  5
206
100
AcDbEntity
  8
ALPHA
 62
     7
100
AcDbVertex
100
AcDb2dVertex
 10
28.438962
 20
-55.442137
 30
0.0
  0
SEQEND
  5
207
100
AcDbEntity
  8
ALPHA
 62
     7
  0
POLYLINE
  5
208
100
AcDbEntity
  8
ALPHA
 62
     7
100
AcDb2dPolyline
 66
     1
 10
0.0
 20
0.0
 30
0.0
 70
     1
  0
VERTEX
  5
209
100
AcDbEntity
  8
ALPHA
 62
     7
100
AcDbVertex
100
AcDb2dVertex
 10
64.695147
 20
-55.442137
 30
0.0
  0
VERTEX
  5
20A
100
AcDbEntity
  8
ALPHA
 62
     7
100
AcDbVertex
100
AcDb2dVertex
 10
64.695147
 20
-46.420121
 30
0.0
  0
VERTEX
  5
20B
100
AcDbEntity
  8
ALPHA
 62
     7
100
AcDbVertex
100
AcDb2dVertex
 10
49.659372
 20
-46.420121
 30
0.0
  0
VERTEX
  5
20C
100
AcDbEntity
  8
ALPHA
 62
     7
100
AcDbVertex
100
AcDb2dVertex
 10
49.659372
 20
-55.442137
 30
0.0
  0
SEQEND
  5
20D
100
AcDbEntity
  8
ALPHA
 62
     7
  0
POLYLINE
  5
20E
100
AcDbEntity
  8
ALPHA
 62
     7
100
AcDb2dPolyline
 66
     1
 10
0.0
 20
0.0
 30
0.0
 70
     1
  0
VERTEX
  5
20F
100
AcDbEntity
  8
ALPHA
 62
     7
100
AcDbVertex
100
AcDb2dVertex
 10
22.254326
 20
-35.98975
 30
0.0
  0
VERTEX
  5
210
100
AcDbEntity
  8
ALPHA
 62
     7
100
AcDbVertex
100
AcDb2dVertex
 10
22.254326
 20
-26.967734
 30
0.0
  0
VERTEX
  5
211
100
AcDbEntity
  8
ALPHA
 62
     7
100
AcDbVertex
100
AcDb2dVertex
 10
7.218552
 20
-26.967734
 30
0.0
  0
VERTEX
  5
212
100
AcDbEntity
  8
ALPHA
 62
     7
100
AcDbVertex
100
AcDb2dVertex
 10
7.218552
 20
-35.98975
 30
0.0
  0
SEQEND
  5
213
100
AcDbEntity
  8
ALPHA
 62
     7
  0
POLYLINE
  5
214
100
AcDbEntity
  8
ALPHA
 62
     7
100
AcDb2dPolyline
 66
     1
 10
0.0
 20
0.0
 30
0.0
 70
     1
  0
VERTEX
  5
215
100
AcDbEntity
  8
ALPHA
 62
     7
100
AcDbVertex
100
AcDb2dVertex
 10
43.474737
 20
-35.98975
 30
0.0
  0
VERTEX
  5
216
100
AcDbEntity
  8
ALPHA
 62
     7
100
AcDbVertex
100
AcDb2dVertex
 10
43.474737
 20
-26.967734
 30
0.0
  0
VERTEX
  5
217
100
AcDbEntity
  8
ALPHA
 62
     7
100
AcDbVertex
100
AcDb2dVertex
 10
28.438962
 20
-26.967734
 30
0.0
  0
VERTEX
  5
218
100
AcDbEntity
  8
ALPHA
 62
     7
100
AcDbVertex
100
AcDb2dVertex
 10
28.438962
 20
-35.98975
 30
0.0
  0
SEQEND
  5
219
100
AcDbEntity
  8
ALPHA
 62
     7
  0
POLYLINE
  5
21A
100
AcDbEntity
  8
ALPHA
 62
     7
100
AcDb2dPolyline
 66
     1
 10
0.0
 20
0.0
 30
0.0
 70
     1
  0
VERTEX
  5
21B
100
AcDbEntity
  8
ALPHA
 62
     7
100
AcDbVertex
100
AcDb2dVertex
 10
64.695147
 20
-35.98975
 30
0.0
  0
VERTEX
  5
21C
100
AcDbEntity
  8
ALPHA
 62
     7
100
AcDbVertex
100
AcDb2dVertex
 10
64.695147
 20
-26.967734
 30
0.0
  0
VERTEX
  5
21D
100
AcDbEntity
  8
ALPHA
 62
     7
100
AcDbVertex
100
AcDb2dVertex
 10
49.659372
 20
-26.967734
 30
0.0
  0
VERTEX
  5
21E
100
AcDbEntity
  8
ALPHA
 62
     7
100
AcDbVertex
100
AcDb2dVertex
 10
49.659372
 20
-35.98975
 30
0.0
  0
SEQEND
  5
21F
100
AcDbEntity
  8
ALPHA
 62
     7
  0
POLYLINE
  5
220
100
AcDbEntity
  8
ALPHA
 62
     7
100
AcDb2dPolyline
 66
     1
 10
0.0
 20
0.0
 30
0.0
 70
     1
  0
VERTEX
  5
221
100
AcDbEntity
  8
ALPHA
 62
     7
100
AcDbVertex
100
AcDb2dVertex
 10
22.254326
 20
-16.362352
 30
0.0
  0
VERTEX
  5
222
100
AcDbEntity
  8
ALPHA
 62
     7
100
AcDbVertex
100
AcDb2dVertex
 10
22.254326
 20
-7.340336
 30
0.0
  0
VERTEX
  5
223
100
AcDbEntity
  8
ALPHA
 62
     7
100
AcDbVertex
100
AcDb2dVertex
 10
7.218552
 20
-7.340336
 30
0.0
  0
VERTEX
  5
224
100
AcDbEntity
  8
ALPHA
 62
     7
100
AcDbVertex
100
AcDb2dVertex
 10
7.218552
 20
-16.362352
 30
0.0
  0
SEQEND
  5
225
100
AcDbEntity
  8
ALPHA
 62
     7
  0
POLYLINE
  5
226
100
AcDbEntity
  8
ALPHA
 62
     7
100
AcDb2dPolyline
 66
     1
 10
0.0
 20
0.0
 30
0.0
 70
     1
  0
VERTEX
  5
227
100
AcDbEntity
  8
ALPHA
 62
     7
100
AcDbVertex
100
AcDb2dVertex
 10
43.474737
 20
-16.362352
 30
0.0
  0
VERTEX
  5
228
100
AcDbEntity
  8
ALPHA
 62
     7
100
AcDbVertex
100
AcDb2dVertex
 10
43.474737
 20
-7.340336
 30
0.0
  0
VERTEX
  5
229
100
AcDbEntity
  8
ALPHA
 62
     7
100
AcDbVertex
100
AcDb2dVertex
 10
28.438962
 20
-7.340336
 30
0.0
  0
VERTEX
  5
22A
100
AcDbEntity
  8
ALPHA
 62
     7
100
AcDbVertex
100
AcDb2dVertex
 10
28.438962
 20
-16.362352
 30
0.0
  0
SEQEND
  5
22B
100
AcDbEntity
  8
ALPHA
 62
     7
  0
POLYLINE
  5
22C
100
AcDbEntity
  8
ALPHA
 62
     7
100
AcDb2dPolyline
 66
     1
 10
0.0
 20
0.0
 30
0.0
 70
     1
  0
VERTEX
  5
22D
100
AcDbEntity
  8
ALPHA
 62
     7
100
AcDbVertex
100
AcDb2dVertex
 10
64.695147
 20
-16.362352
 30
0.0
  0
VERTEX
  5
22E
100
AcDbEntity
  8
ALPHA
 62
     7
100
AcDbVertex
100
AcDb2dVertex
 10
64.695147
 20
-7.340336
 30
0.0
  0
VERTEX
  5
22F
100
AcDbEntity
  8
ALPHA
 62
     7
100
AcDbVertex
100
AcDb2dVertex
 10
49.659372
 20
-7.340336
 30
0.0
  0
VERTEX
  5
230
100
AcDbEntity
  8
ALPHA
 62
     7
100
AcDbVertex
100
AcDb2dVertex
 10
49.659372
 20
-16.362352
 30
0.0
  0
SEQEND
  5
231
100
AcDbEntity
  8
ALPHA
 62
     7
  0
ENDBLK
  5
233
100
AcDbEntity
  8
ALPHA
100
AcDbBlockEnd
  0
BLOCK
  5
37C
100
AcDbEntity
  8
ALPHA
 62
     7
100
AcDbBlockBegin
  2
AI9-BLK7
 70
     0
 10
0.0
 20
0.0
 30
0.0
  3
AI9-BLK7
  1

  0
HATCH
  5
37B
100
AcDbEntity
  8
ALPHA
 62
     7
100
AcDbHatch
 10
0.0
 20
0.0
 30
0.0
210
0.0
220
0.0
230
1.0
  2
SOLID
 70
     1
 71
     0
 91
        1
 92
        1
 93
        1
 72
     4
 94
        3
 73
     0
 74
     0
 95
       59
 96
       55
 40
0.0
 40
0.0
 40
0.0
 40
0.0
 40
1.0
 40
1.0
 40
1.0
 40
2.0
 40
2.0
 40
2.0
 40
3.0
 40
3.0
 40
3.0
 40
4.0
 40
4.0
 40
4.0
 40
5.0
 40
5.0
 40
5.0
 40
6.0
 40
6.0
 40
6.0
 40
7.0
 40
7.0
 40
7.0
 40
8.0
 40
8.0
 40
8.0
 40
9.0
 40
9.0
 40
9.0
 40
10.0
 40
10.0
 40
10.0
 40
11.0
 40
11.0
 40
11.0
 40
12.0
 40
12.0
 40
12.0
 40
13.0
 40
13.0
 40
13.0
 40
14.0
 40
14.0
 40
14.0
 40
15.0
 40
15.0
 40
15.0
 40
16.0
 40
16.0
 40
16.0
 40
17.0
 40
17.0
 40
17.0
 40
18.0
 40
18.0
 40
18.0
 40
18.0
 10
-0.073381
 20
0.079754
 10
-0.054949
 20
0.078376
 10
-0.038068
 20
0.078376
 10
-0.021015
 20
0.078376
 10
0.080443
 20
0.078376
 10
0.169326
 20
0.133325
 10
0.169326
 20
0.242018
 10
0.169326
 20
0.346404
 10
0.09319
 20
0.402904
 10
-0.00844
 20
0.402904
 10
-0.139699
 20
0.402904
 10
-0.196026
 20
0.302652
 10
-0.197404
 20
0.185518
 10
-0.197404
 20
0.185518
 10
-0.317466
 20
0.185518
 10
-0.317466
 20
0.185518
 10
-0.310403
 20
0.376032
 10
-0.208773
 20
0.508668
 10
-0.00844
 20
0.508668
 10
0.165192
 20
0.508668
 10
0.29645
 20
0.425469
 10
0.29645
 20
0.24064
 10
0.29645
 20
0.153134
 10
0.234266
 20
0.076826
 10
0.15813
 20
0.041686
 10
0.15813
 20
0.041686
 10
0.15813
 20
0.038757
 10
0.15813
 20
0.038757
 10
0.279397
 20
0.012058
 10
0.338653
 20
-0.08406
 10
0.338653
 20
-0.20395
 10
0.338653
 20
-0.404282
 10
0.182073
 20
-0.508668
 10
-0.005512
 20
-0.508668
 10
-0.208773
 20
-0.508668
 10
-0.342787
 20
-0.388779
 10
-0.338653
 20
-0.182762
 10
-0.338653
 20
-0.182762
 10
-0.218591
 20
-0.182762
 10
-0.218591
 20
-0.182762
 10
-0.214457
 20
-0.312642
 10
-0.142455
 20
-0.402904
 10
-0.005512
 20
-0.402904
 10
0.111621
 20
-0.402904
 10
0.211701
 20
-0.330901
 10
0.211701
 20
-0.209634
 10
0.211701
 20
-0.08406
 10
0.117133
 20
-0.017742
 10
-0.001378
 20
-0.017742
 10
-0.025321
 20
-0.017742
 10
-0.050815
 20
-0.01912
 10
-0.073381
 20
-0.021876
 10
-0.073381
 20
-0.021876
 10
-0.073381
 20
0.079754
 10
-0.073381
 20
0.079754
 97
        0
 75
     0
 76
     1
 98
        1
 10
0.0
 20
0.0
  0
ENDBLK
  5
37D
100
AcDbEntity
  8
ALPHA
100
AcDbBlockEnd
  0
BLOCK
  5
380
100
AcDbEntity
  8
ALPHA
 62
     7
100
AcDbBlockBegin
  2
AI9-BLK8
 70
     0
 10
0.0
 20
0.0
 30
0.0
  3
AI9-BLK8
  1

  0
HATCH
  5
37F
100
AcDbEntity
  8
ALPHA
 62
     7
100
AcDbHatch
 10
0.0
 20
0.0
 30
0.0
210
0.0
220
0.0
230
1.0
  2
SOLID
 70
     1
 71
     0
 91
        2
 92
       16
 93
        1
 72
     4
 94
        3
 73
     0
 74
     0
 95
       17
 96
       13
 40
0.0
 40
0.0
 40
0.0
 40
0.0
 40
1.0
 40
1.0
 40
1.0
 40
2.0
 40
2.0
 40
2.0
 40
3.0
 40
3.0
 40
3.0
 40
4.0
 40
4.0
 40
4.0
 40
4.0
 10
0.095343
 20
-0.160197
 10
0.095343
 20
-0.160197
 10
0.095343
 20
0.329523
 10
0.095343
 20
0.329523
 10
0.095343
 20
0.329523
 10
0.092415
 20
0.329523
 10
0.092415
 20
0.329523
 10
0.092415
 20
0.329523
 10
-0.240554
 20
-0.160197
 10
-0.240554
 20
-0.160197
 10
-0.240554
 20
-0.160197
 10
0.095343
 20
-0.160197
 10
0.095343
 20
-0.160197
 97
        0
 92
        1
 93
        1
 72
     4
 94
        3
 73
     0
 74
     0
 95
       38
 96
       34
 40
0.0
 40
0.0
 40
0.0
 40
0.0
 40
1.0
 40
1.0
 40
1.0
 40
2.0
 40
2.0
 40
2.0
 40
3.0
 40
3.0
 40
3.0
 40
4.0
 40
4.0
 40
4.0
 40
5.0
 40
5.0
 40
5.0
 40
6.0
 40
6.0
 40
6.0
 40
7.0
 40
7.0
 40
7.0
 40
8.0
 40
8.0
 40
8.0
 40
9.0
 40
9.0
 40
9.0
 40
10.0
 40
10.0
 40
10.0
 40
11.0
 40
11.0
 40
11.0
 40
11.0
 10
0.20817
 20
-0.160197
 10
0.20817
 20
-0.160197
 10
0.343562
 20
-0.160197
 10
0.343562
 20
-0.160197
 10
0.343562
 20
-0.160197
 10
0.343562
 20
-0.265961
 10
0.343562
 20
-0.265961
 10
0.343562
 20
-0.265961
 10
0.20817
 20
-0.265961
 10
0.20817
 20
-0.265961
 10
0.20817
 20
-0.265961
 10
0.20817
 20
-0.500228
 10
0.20817
 20
-0.500228
 10
0.20817
 20
-0.500228
 10
0.095343
 20
-0.500228
 10
0.095343
 20
-0.500228
 10
0.095343
 20
-0.500228
 10
0.095343
 20
-0.265961
 10
0.095343
 20
-0.265961
 10
0.095343
 20
-0.265961
 10
-0.343562
 20
-0.265961
 10
-0.343562
 20
-0.265961
 10
-0.343562
 20
-0.265961
 10
-0.343562
 20
-0.150206
 10
-0.343562
 20
-0.150206
 10
-0.343562
 20
-0.150206
 10
0.112224
 20
0.500228
 10
0.112224
 20
0.500228
 10
0.112224
 20
0.500228
 10
0.20817
 20
0.500228
 10
0.20817
 20
0.500228
 10
0.20817
 20
0.500228
 10
0.20817
 20
-0.160197
 10
0.20817
 20
-0.160197
 97
        0
 75
     0
 76
     1
 98
        1
 10
0.0
 20
0.0
  0
ENDBLK
  5
381
100
AcDbEntity
  8
ALPHA
100
AcDbBlockEnd
  0
BLOCK
  5
384
100
AcDbEntity
  8
ALPHA
 62
     7
100
AcDbBlockBegin
  2
AI9-BLK9
 70
     0
 10
0.0
 20
0.0
 30
0.0
  3
AI9-BLK9
  1

  0
HATCH
  5
383
100
AcDbEntity
  8
ALPHA
 62
     7
100
AcDbHatch
 10
0.0
 20
0.0
 30
0.0
210
0.0
220
0.0
230
1.0
  2
SOLID
 70
     1
 71
     0
 91
        1
 92
        1
 93
        1
 72
     4
 94
        3
 73
     0
 74
     0
 95
       26
 96
       22
 40
0.0
 40
0.0
 40
0.0
 40
0.0
 40
1.0
 40
1.0
 40
1.0
 40
2.0
 40
2.0
 40
2.0
 40
3.0
 40
3.0
 40
3.0
 40
4.0
 40
4.0
 40
4.0
 40
5.0
 40
5.0
 40
5.0
 40
6.0
 40
6.0
 40
6.0
 40
7.0
 40
7.0
 40
7.0
 40
7.0
 10
0.189825
 20
-0.500228
 10
0.189825
 20
-0.500228
 10
0.069935
 20
-0.500228
 10
0.069935
 20
-0.500228
 10
0.069935
 20
-0.500228
 10
0.069935
 20
0.216697
 10
0.069935
 20
0.216697
 10
0.069935
 20
0.216697
 10
-0.189825
 20
0.216697
 10
-0.189825
 20
0.216697
 10
-0.189825
 20
0.216697
 10
-0.189825
 20
0.312642
 10
-0.189825
 20
0.312642
 10
-0.052882
 20
0.312642
 10
0.071313
 20
0.349333
 10
0.098013
 20
0.500228
 10
0.098013
 20
0.500228
 10
0.189825
 20
0.500228
 10
0.189825
 20
0.500228
 10
0.189825
 20
0.500228
 10
0.189825
 20
-0.500228
 10
0.189825
 20
-0.500228
 97
        0
 75
     0
 76
     1
 98
        1
 10
0.0
 20
0.0
  0
ENDBLK
  5
385
100
AcDbEntity
  8
ALPHA
100
AcDbBlockEnd
  0
BLOCK
  5
7E1
100
AcDbEntity
  8
0
100
AcDbBlockBegin
  2
*D9
 70
     1
 10
0.0
 20
0.0
 30
0.0
  3
*D9
  1

  0
LINE
  5
7E2
100
AcDbEntity
  8
0
  6
BYBLOCK
 62
     0
100
AcDbLine
 10
5.043454
 20
204.279778
 30
0.0
 11
5.043454
 21
221.972444
 31
0.0
  0
LINE
  5
7E3
100
AcDbEntity
  8
0
  6
BYBLOCK
 62
     0
100
AcDbLine
 10
27.543454
 20
204.279778
 30
0.0
 11
27.543454
 21
221.972444
 31
0.0
  0
LINE
  5
7E4
100
AcDbEntity
  8
0
  6
BYBLOCK
 62
     0
100
AcDbLine
 10
6.543454
 20
221.792444
 30
0.0
 11
26.043454
 21
221.792444
 31
0.0
  0
SOLID
  5
7E5
100
AcDbEntity
  8
0
  6
BYBLOCK
 62
     0
100
AcDbTrace
 10
6.543454
 20
222.042444
 30
0.0
 11
6.543454
 21
221.542444
 31
0.0
 12
5.043454
 22
221.792444
 32
0.0
 13
5.043454
 23
221.792444
 33
0.0
  0
SOLID
  5
7E6
100
AcDbEntity
  8
0
  6
BYBLOCK
 62
     0
100
AcDbTrace
 10
26.043454
 20
222.042444
 30
0.0
 11
26.043454
 21
221.542444
 31
0.0
 12
27.543454
 22
221.792444
 32
0.0
 13
27.543454
 23
221.792444
 33
0.0
  0
MTEXT
  5
7E7
100
AcDbEntity
  8
0
  6
BYBLOCK
 62
     0
100
AcDbMText
 10
17.186946
 20
223.132444
 30
0.0
 40
2.5
 41
0.0
 71
     5
 72
     1
  1
\A1;22.5
  0
POINT
  5
7E8
100
AcDbEntity
  8
DEFPOINTS
  6
BYBLOCK
 62
     0
100
AcDbPoint
 10
5.043454
 20
204.217278
 30
0.0
  0
POINT
  5
7E9
100
AcDbEntity
  8
DEFPOINTS
  6
BYBLOCK
 62
     0
100
AcDbPoint
 10
27.543454
 20
204.217278
 30
0.0
  0
POINT
  5
7EA
100
AcDbEntity
  8
DEFPOINTS
  6
BYBLOCK
 62
     0
100
AcDbPoint
 10
27.543454
 20
221.792444
 30
0.0
  0
ENDBLK
  5
7EB
100
AcDbEntity
  8
0
100
AcDbBlockEnd
  0
BLOCK
  5
7EC
100
AcDbEntity
  8
0
100
AcDbBlockBegin
  2
*D10
 70
     1
 10
0.0
 20
0.0
 30
0.0
  3
*D10
  1

  0
LINE
  5
7ED
100
AcDbEntity
  8
0
  6
BYBLOCK
 62
     0
100
AcDbLine
 10
28.15618
 20
203.217278
 30
0.0
 11
53.311244
 21
203.217278
 31
0.0
  0
LINE
  5
7EE
100
AcDbEntity
  8
0
  6
BYBLOCK
 62
     0
100
AcDbLine
 10
17.355954
 20
102.817278
 30
0.0
 11
53.311244
 21
102.817278
 31
0.0
  0
LINE
  5
7EF
100
AcDbEntity
  8
0
  6
BYBLOCK
 62
     0
100
AcDbLine
 10
53.131244
 20
201.717278
 30
0.0
 11
53.131244
 21
104.317278
 31
0.0
  0
SOLID
  5
7F0
100
AcDbEntity
  8
0
  6
BYBLOCK
 62
     0
100
AcDbTrace
 10
52.881244
 20
201.717278
 30
0.0
 11
53.381244
 21
201.717278
 31
0.0
 12
53.131244
 22
203.217278
 32
0.0
 13
53.131244
 23
203.217278
 33
0.0
  0
SOLID
  5
7F1
100
AcDbEntity
  8
0
  6
BYBLOCK
 62
     0
100
AcDbTrace
 10
52.881244
 20
104.317278
 30
0.0
 11
53.381244
 21
104.317278
 31
0.0
 12
53.131244
 22
102.817278
 32
0.0
 13
53.131244
 23
102.817278
 33
0.0
  0
MTEXT
  5
7F2
100
AcDbEntity
  8
0
  6
BYBLOCK
 62
     0
100
AcDbMText
 10
51.791244
 20
155.082957
 30
0.0
 40
2.5
 41
0.0
 71
     5
 72
     1
  1
\A1;100.4
 11
0.0
 21
1.0
 31
0.0
  0
POINT
  5
7F3
100
AcDbEntity
  8
DEFPOINTS
  6
BYBLOCK
 62
     0
100
AcDbPoint
 10
28.09368
 20
203.217278
 30
0.0
  0
POINT
  5
7F4
100
AcDbEntity
  8
DEFPOINTS
  6
BYBLOCK
 62
     0
100
AcDbPoint
 10
17.293454
 20
102.817278
 30
0.0
  0
POINT
  5
7F5
100
AcDbEntity
  8
DEFPOINTS
  6
BYBLOCK
 62
     0
100
AcDbPoint
 10
53.131244
 20
102.817278
 30
0.0
  0
ENDBLK
  5
7F6
100
AcDbEntity
  8
0
100
AcDbBlockEnd
  0
ENDSEC
  0
SECTION
  2
ENTITIES
  0
INSERT
  5
CC
100
AcDbEntity
  8
0
100
AcDbBlockReference
  2
SCH_IS
 10
-68.718396
 20
-140.042541
 30
0.0
  0
INSERT
  5
EC
100
AcDbEntity
  8
COTATION1
100
AcDbBlockReference
  2
SCH_IS
 10
0.0
 20
0.0
 30
0.0
  0
SPLINE
  5
69D
100
AcDbEntity
  8
ALPHA
  6
CONTINUOUS
 62
     7
100
AcDbSpline
210
0.0
220
0.0
230
-1.0
 70
     8
 71
     3
 72
    12
 73
     8
 74
     6
 42
0.0000001
 43
0.0000001
 44
0.0000000001
 40
0.0
 40
0.0
 40
0.0
 40
0.0
 40
0.2454294681498053
 40
0.469780663439662
 40
0.6495168370431321
 40
0.7710232183756143
 40
0.8297643855975266
 40
0.8297643855975266
 40
0.8297643855975266
 40
0.8297643855975266
 10
12.09345428002197
 20
133.2450380312934
 30
0.0
 10
12.01178778387302
 20
133.2436330176602
 30
0.0
 10
11.85546857318138
 20
133.2409436574879
 30
0.0
 10
11.63764100282435
 20
133.2241467199215
 30
0.0
 10
11.46972361234082
 20
133.190670475488
 30
0.0
 10
11.3429809763456
 20
133.1686268111201
 30
0.0
 10
11.30562747381166
 20
133.119866895217
 30
0.0
 10
11.29345428002196
 20
133.1039764467934
 30
0.0
 11
12.09345428002197
 21
133.2450380312934
 31
0.0
 11
11.84811894592195
 21
133.2382411438934
 31
0.0
 11
11.62465745922196
 21
133.2182806130934
 31
0.0
 11
11.44762454572196
 21
133.1872251845934
 31
0.0
 11
11.33274665352198
 21
133.1476414683934
 31
0.0
 11
11.29345428002196
 21
133.1039764467934
 31
0.0
  0
SPLINE
  5
69E
100
AcDbEntity
  8
ALPHA
  6
CONTINUOUS
 62
     7
100
AcDbSpline
210
0.0
220
0.0
230
1.0
 70
     8
 71
     3
 72
    13
 73
     9
 74
     7
 42
0.0000001
 43
0.0000001
 44
0.0000000001
 40
0.0
 40
0.0
 40
0.0
 40
0.0
 40
0.6417165295719625
 40
1.243171114293583
 40
1.766036055102533
 40
2.176709569062554
 40
2.451566549545907
 40
2.595639375545661
 40
2.595639375545661
 40
2.595639375545661
 40
2.595639375545661
 10
9.793454280021961
 20
131.6580952049934
 30
0.0
 10
10.00750263494361
 20
131.6607270713405
 30
0.0
 10
10.42216973425949
 20
131.6658256780752
 30
0.0
 10
11.00805150214375
 20
131.7096752684907
 30
0.0
 10
11.5209205419578
 20
131.770013486103
 30
0.0
 10
11.90282022512227
 20
131.8643910149942
 30
0.0
 10
12.19126165311298
 20
131.9358910861556
 30
0.0
 10
12.26730310401906
 20
132.0571952247054
 30
0.0
 10
12.29345427912196
 20
132.0989125476934
 30
0.0
 11
9.793454280021961
 21
131.6580952049934
 31
0.0
 11
10.43500100032196
 21
131.6728569798934
 31
0.0
 11
11.03488566072195
 21
131.7162852160934
 31
0.0
 11
11.55311113732196
 21
131.7857841493934
 31
0.0
 11
11.95352930042196
 21
131.8769873824934
 31
0.0
 11
12.20676730632195
 21
131.9838371465934
 31
0.0
 11
12.29345427912196
 21
132.0989125476934
 31
0.0
  0
SPLINE
  5
69F
100
AcDbEntity
  8
ALPHA
  6
CONTINUOUS
 62
     7
100
AcDbSpline
210
0.0
220
0.0
230
-1.0
 70
     8
 71
     3
 72
    13
 73
     9
 74
     7
 42
0.0000001
 43
0.0000001
 44
0.0000000001
 40
0.0
 40
0.0
 40
0.0
 40
0.0
 40
0.1440435914505897
 40
0.4188882630976217
 40
0.8295646114312551
 40
1.352444711056014
 40
1.953917115641724
 40
2.595641079948594
 40
2.595641079948594
 40
2.595641079948594
 40
2.595641079948594
 10
12.29345427912196
 20
132.0989125476934
 30
0.0
 10
12.26731138593026
 20
132.140623293075
 30
0.0
 10
12.19128612849857
 20
132.2619208913191
 30
0.0
 10
11.90285567398084
 20
132.3334247600141
 30
0.0
 10
11.5209573176522
 20
132.4278064731852
 30
0.0
 10
11.00807551579422
 20
132.4881480035839
 30
0.0
 10
10.42218070857414
 20
132.53199939927
 30
0.0
 10
10.00750513887717
 20
132.5370981769033
 30
0.0
 10
9.793454280021961
 20
132.5397301084934
 30
0.0
 11
12.29345427912196
 21
132.0989125476934
 31
0.0
 11
12.20679350532196
 21
132.2139710828934
 31
0.0
 11
11.95357077202197
 21
132.3208253802934
 31
0.0
 11
11.55315097522196
 21
132.4120342033934
 31
0.0
 11
11.03491079752197
 21
132.4815375615934
 31
0.0
 11
10.43500842902196
 21
132.5249679857934
 31
0.0
 11
9.793454280021961
 21
132.5397301084934
 31
0.0
  0
ARC
  5
6A0
100
AcDbEntity
  8
ALPHA
  6
CONTINUOUS
 62
     7
100
AcDbCircle
 10
16.293454
 20
125.417278
 30
0.0
 40
22.6
100
AcDbArc
 50
240.540403
 51
299.459597
  0
LINE
  5
6A1
100
AcDbEntity
  8
ALPHA
  6
CONTINUOUS
 62
     7
100
AcDbLine
 10
5.043454
 20
203.217278
 30
0.0
 11
27.543454
 21
203.217278
 31
0.0
  0
LINE
  5
6A2
100
AcDbEntity
  8
ALPHA
  6
CONTINUOUS
 62
     7
100
AcDbLine
 10
11.293454
 20
129.117278
 30
0.0
 11
12.193454
 21
130.017278
 31
0.0
  0
LINE
  5
6A3
100
AcDbEntity
  8
ALPHA
  6
CONTINUOUS
 62
     7
100
AcDbLine
 10
5.043454
 20
157.517278
 30
0.0
 11
27.543454
 21
157.517278
 31
0.0
  0
LINE
  5
6A4
100
AcDbEntity
  8
ALPHA
  6
CONTINUOUS
 62
     7
100
AcDbLine
 10
12.193454
 20
155.417278
 30
0.0
 11
7.393454
 21
155.417278
 31
0.0
  0
LINE
  5
6A5
100
AcDbEntity
  8
ALPHA
  6
CONTINUOUS
 62
     7
100
AcDbLine
 10
11.293454
 20
146.917278
 30
0.0
 11
12.293454
 21
146.917278
 31
0.0
  0
LINE
  5
6A6
100
AcDbEntity
  8
ALPHA
  6
CONTINUOUS
 62
     7
100
AcDbLine
 10
11.293454
 20
154.517278
 30
0.0
 11
12.193454
 21
155.417278
 31
0.0
  0
LINE
  5
6A7
100
AcDbEntity
  8
ALPHA
  6
CONTINUOUS
 62
     7
100
AcDbLine
 10
6.043454
 20
131.217278
 30
0.0
 11
26.543454
 21
131.217278
 31
0.0
  0
LINE
  5
6A8
100
AcDbEntity
  8
ALPHA
  6
CONTINUOUS
 62
     7
100
AcDbLine
 10
7.393454
 20
130.017278
 30
0.0
 11
12.193454
 21
130.017278
 31
0.0
  0
LINE
  5
6A9
100
AcDbEntity
  8
ALPHA
  6
CONTINUOUS
 62
     7
100
AcDbLine
 10
11.293454
 20
121.517278
 30
0.0
 11
12.293454
 21
121.517278
 31
0.0
  0
LINE
  5
6AA
100
AcDbEntity
  8
ALPHA
  6
CONTINUOUS
 62
     7
100
AcDbLine
 10
5.043454
 20
108.317278
 30
0.0
 11
27.543454
 21
108.317278
 31
0.0
  0
DIMENSION
  5
6AB
100
AcDbEntity
  8
COTATION1
  6
CONTINUOUS
100
AcDbDimension
  2
*D9
 10
27.543454
 20
221.792444
 30
0.0
 11
17.186946
 21
221.792444
 31
0.0
 70
   160
  3
DIMSTYLE_1
100
AcDbAlignedDimension
 13
5.043454
 23
204.217278
 33
0.0
 14
27.543454
 24
204.217278
 34
0.0
100
AcDbRotatedDimension
  0
LINE
  5
6AC
100
AcDbEntity
  8
ALPHA
  6
CONTINUOUS
 62
     7
100
AcDbLine
 10
11.293454
 20
154.517278
 30
0.0
 11
11.293454
 21
133.059895
 31
0.0
  0
LINE
  5
6AD
100
AcDbEntity
  8
ALPHA
  6
CONTINUOUS
 62
     7
100
AcDbLine
 10
8.293454
 20
133.059895
 30
0.0
 11
8.293454
 21
154.517278
 31
0.0
  0
LINE
  5
6AE
100
AcDbEntity
  8
ALPHA
  6
CONTINUOUS
 62
     7
100
AcDbLine
 10
7.393454
 20
146.917278
 30
0.0
 11
7.393454
 21
155.417278
 31
0.0
  0
LINE
  5
6AF
100
AcDbEntity
  8
ALPHA
  6
CONTINUOUS
 62
     9
100
AcDbLine
 10
6.043454
 20
108.317278
 30
0.0
 11
6.043454
 21
157.517278
 31
0.0
  0
LINE
  5
6B0
100
AcDbEntity
  8
ALPHA
  6
CONTINUOUS
 62
     7
100
AcDbLine
 10
5.043454
 20
108.317278
 30
0.0
 11
5.043454
 21
203.217278
 31
0.0
  0
LINE
  5
6B1
100
AcDbEntity
  8
ALPHA
  6
CONTINUOUS
 62
     7
100
AcDbLine
 10
11.293454
 20
129.117278
 30
0.0
 11
11.293454
 21
108.317278
 31
0.0
  0
LINE
  5
6B2
100
AcDbEntity
  8
ALPHA
  6
CONTINUOUS
 62
     7
100
AcDbLine
 10
8.293454
 20
108.317278
 30
0.0
 11
8.293454
 21
129.117278
 31
0.0
  0
LINE
  5
6B3
100
AcDbEntity
  8
ALPHA
  6
CONTINUOUS
 62
     9
100
AcDbLine
 10
7.493454
 20
108.317278
 30
0.0
 11
7.493454
 21
121.517278
 31
0.0
  0
LINE
  5
6B4
100
AcDbEntity
  8
ALPHA
  6
CONTINUOUS
 62
     7
100
AcDbLine
 10
7.293454
 20
108.317278
 30
0.0
 11
7.293454
 21
121.517278
 31
0.0
  0
LINE
  5
6B5
100
AcDbEntity
  8
ALPHA
  6
CONTINUOUS
 62
     7
100
AcDbLine
 10
5.043454
 20
108.317278
 30
0.0
 11
5.178555
 21
105.739396
 31
0.0
  0
LINE
  5
6B6
100
AcDbEntity
  8
ALPHA
  6
CONTINUOUS
 62
     9
100
AcDbLine
 10
6.042084
 20
108.317278
 30
0.0
 11
6.205791
 21
105.193553
 31
0.0
  0
LINE
  5
6B7
100
AcDbEntity
  8
ALPHA
  6
CONTINUOUS
 62
     9
100
AcDbLine
 10
7.493454
 20
133.245038
 30
0.0
 11
7.493454
 21
146.917278
 31
0.0
  0
LINE
  5
6B8
100
AcDbEntity
  8
ALPHA
  6
CONTINUOUS
 62
     7
100
AcDbLine
 10
7.293454
 20
133.245038
 30
0.0
 11
7.293454
 21
146.917278
 31
0.0
  0
LINE
  5
6B9
100
AcDbEntity
  8
ALPHA
  6
CONTINUOUS
 62
     7
100
AcDbLine
 10
7.393454
 20
121.517278
 30
0.0
 11
7.393454
 21
130.017278
 31
0.0
  0
LINE
  5
6BA
100
AcDbEntity
  8
ALPHA
  6
CONTINUOUS
 62
     7
100
AcDbLine
 10
7.293454
 20
121.517278
 30
0.0
 11
8.293454
 21
121.517278
 31
0.0
  0
LINE
  5
6BB
100
AcDbEntity
  8
ALPHA
  6
CONTINUOUS
 62
     7
100
AcDbLine
 10
11.293454
 20
123.117278
 30
0.0
 11
8.293454
 21
123.117278
 31
0.0
  0
SPLINE
  5
6BC
100
AcDbEntity
  8
ALPHA
  6
CONTINUOUS
 62
     7
100
AcDbSpline
210
0.0
220
0.0
230
1.0
 70
     8
 71
     3
 72
    13
 73
     9
 74
     7
 42
0.0000001
 43
0.0000001
 44
0.0000000001
 40
0.0
 40
0.0
 40
0.0
 40
0.0
 40
0.1908940979331904
 40
0.3945954944389767
 40
0.6160059241506958
 40
0.861109642018965
 40
1.135679295637822
 40
1.443083076503064
 40
1.443083076503064
 40
1.443083076503064
 40
1.443083076503064
 10
5.043454280021961
 20
132.0563773843934
 30
0.0
 10
5.048548569506159
 20
131.992560167422
 30
0.0
 10
5.059078930054736
 20
131.8606441650041
 30
0.0
 10
5.145262043406082
 20
131.6700557602389
 30
0.0
 10
5.28613651303163
 20
131.4939421103303
 30
0.0
 10
5.487665350512035
 20
131.3469795191898
 30
0.0
 10
5.746070772171481
 20
131.2392586580231
 30
0.0
 10
5.940666831566474
 20
131.2248752193021
 30
0.0
 10
6.043454280021961
 20
131.2172777531934
 30
0.0
 11
5.043454280021961
 21
132.0563773843934
 31
0.0
 11
5.069192903621967
 21
131.8672264396934
 31
0.0
 11
5.149644951021969
 21
131.6800855114934
 31
0.0
 11
5.287644709421954
 21
131.5069420880934
 31
0.0
 11
5.484333682421947
 21
131.3606913430934
 31
0.0
 11
5.738654521921972
 21
131.2572050865934
 31
0.0
 11
6.043454280021961
 21
131.2172777531934
 31
0.0
  0
SPLINE
  5
6BD
100
AcDbEntity
  8
ALPHA
  6
CONTINUOUS
 62
     7
100
AcDbSpline
210
0.0
220
0.0
230
1.0
 70
     8
 71
     3
 72
    13
 73
     9
 74
     7
 42
0.0000001
 43
0.0000001
 44
0.0000000001
 40
0.0
 40
0.0
 40
0.0
 40
0.0
 40
0.1908940979332185
 40
0.3945954944390049
 40
0.616005924150724
 40
0.8611096420189761
 40
1.135679295637833
 40
1.443083076503079
 40
1.443083076503079
 40
1.443083076503079
 40
1.443083076503079
 10
5.043454280021961
 20
134.1723011528934
 30
0.0
 10
5.048548569506158
 20
134.108483935922
 30
0.0
 10
5.059078930054734
 20
133.9765679335041
 30
0.0
 10
5.145262043406082
 20
133.7859795287388
 30
0.0
 10
5.286136513031623
 20
133.6098658788304
 30
0.0
 10
5.487665350512044
 20
133.4629032876898
 30
0.0
 10
5.746070772171483
 20
133.3551824265231
 30
0.0
 10
5.940666831566474
 20
133.3407989878021
 30
0.0
 10
6.043454280021961
 20
133.3332015216934
 30
0.0
 11
5.043454280021961
 21
134.1723011528934
 31
0.0
 11
5.069192903621967
 21
133.9831502081934
 31
0.0
 11
5.149644951021969
 21
133.7960092799934
 31
0.0
 11
5.287644709421954
 21
133.6228658565934
 31
0.0
 11
5.484333682421947
 21
133.4766151115934
 31
0.0
 11
5.738654521921972
 21
133.3731288550934
 31
0.0
 11
6.043454280021961
 21
133.3332015216934
 31
0.0
  0
LINE
  5
6BE
100
AcDbEntity
  8
ALPHA
  6
CONTINUOUS
 62
     7
100
AcDbLine
 10
8.293454
 20
129.117278
 30
0.0
 11
11.293454
 21
129.117278
 31
0.0
  0
LINE
  5
6BF
100
AcDbEntity
  8
ALPHA
  6
CONTINUOUS
 62
     9
100
AcDbLine
 10
11.293454
 20
127.932469
 30
0.0
 11
8.293454
 21
127.932469
 31
0.0
  0
LINE
  5
6C0
100
AcDbEntity
  8
ALPHA
  6
CONTINUOUS
 62
     7
100
AcDbLine
 10
8.293454
 20
129.117278
 30
0.0
 11
7.393454
 21
130.017278
 31
0.0
  0
SPLINE
  5
6C1
100
AcDbEntity
  8
ALPHA
  6
CONTINUOUS
 62
     7
100
AcDbSpline
210
0.0
220
0.0
230
1.0
 70
     8
 71
     3
 72
    13
 73
     9
 74
     7
 42
0.0000001
 43
0.0000001
 44
0.0000000001
 40
0.0
 40
0.0
 40
0.0
 40
0.0
 40
0.1440435914505897
 40
0.4188882630976478
 40
0.829564611453488
 40
1.352444711078247
 40
1.953917115656737
 40
2.595641080063568
 40
2.595641080063568
 40
2.595641080063568
 40
2.595641080063568
 10
7.293454280821947
 20
132.0989127657934
 30
0.0
 10
7.319597174013522
 20
132.0572020204112
 30
0.0
 10
7.395622431444863
 20
131.9359044221656
 30
0.0
 10
7.684052885975688
 20
131.8644005534923
 30
0.0
 10
8.065951242274003
 20
131.7700188401613
 30
0.0
 10
8.578833044148744
 20
131.7096773097886
 30
0.0
 10
9.164727851407032
 20
131.6658259142467
 30
0.0
 10
9.579403421133921
 20
131.6607271365938
 30
0.0
 10
9.793454280021961
 20
131.6580952049934
 30
0.0
 11
7.293454280821947
 21
132.0989127657934
 31
0.0
 11
7.380115054621938
 21
131.9838542305934
 31
0.0
 11
7.633337787921959
 21
131.8769999331934
 31
0.0
 11
8.033757584721968
 21
131.7857911099934
 31
0.0
 11
8.551997762421962
 21
131.7162877517934
 31
0.0
 11
9.151900130921973
 21
131.6728573276934
 31
0.0
 11
9.793454280021961
 21
131.6580952049934
 31
0.0
  0
SPLINE
  5
6C2
100
AcDbEntity
  8
ALPHA
  6
CONTINUOUS
 62
     7
100
AcDbSpline
210
0.0
220
0.0
230
-1.0
 70
     8
 71
     3
 72
    13
 73
     9
 74
     7
 42
0.0000001
 43
0.0000001
 44
0.0000000001
 40
0.0
 40
0.0
 40
0.0
 40
0.0
 40
0.6417165296719521
 40
1.243171114400796
 40
1.766036055196421
 40
2.176709569156441
 40
2.451566549678689
 40
2.595639375598581
 40
2.595639375598581
 40
2.595639375598581
 40
2.595639375598581
 10
9.793454280021961
 20
132.5397301084934
 30
0.0
 10
9.579405925065874
 20
132.5370982421631
 30
0.0
 10
9.164738825712131
 20
132.5319996354612
 30
0.0
 10
8.578857057810557
 20
132.4881500448308
 30
0.0
 10
8.065988017990621
 20
132.4278118273935
 30
0.0
 10
7.684088334778115
 20
132.3334342985409
 30
0.0
 10
7.395646906893268
 20
132.261934227222
 30
0.0
 10
7.319605455931911
 20
132.1406300887392
 30
0.0
 10
7.293454280821947
 20
132.0989127657934
 30
0.0
 11
9.793454280021961
 21
132.5397301084934
 31
0.0
 11
9.151907559621946
 21
132.5249683335934
 31
0.0
 11
8.552022899221952
 21
132.4815400972934
 31
0.0
 11
8.033797422621972
 21
132.4120411640934
 31
0.0
 11
7.633379259521973
 21
132.3208379309934
 31
0.0
 11
7.380141253621957
 21
132.2139881667934
 31
0.0
 11
7.293454280821947
 21
132.0989127657934
 31
0.0
  0
LINE
  5
6C3
100
AcDbEntity
  8
ALPHA
  6
CONTINUOUS
 62
     7
100
AcDbLine
 10
8.293454
 20
133.059895
 30
0.0
 11
11.293454
 21
133.059895
 31
0.0
  0
SPLINE
  5
6C4
100
AcDbEntity
  8
ALPHA
  6
CONTINUOUS
 62
     7
100
AcDbSpline
210
0.0
220
0.0
230
-1.0
 70
     8
 71
     3
 72
    12
 73
     8
 74
     6
 42
0.0000001
 43
0.0000001
 44
0.0000000001
 40
0.0
 40
0.0
 40
0.0
 40
0.0
 40
0.0587411672887948
 40
0.1802475486212769
 40
0.3599837222247472
 40
0.5843349175146323
 40
0.8297643855644597
 40
0.8297643855644597
 40
0.8297643855644597
 40
0.8297643855644597
 10
8.293454280021961
 20
133.1039764467934
 30
0.0
 10
8.281281086197429
 20
133.1198668952166
 30
0.0
 10
8.243927583585264
 20
133.168626811081
 30
0.0
 10
8.11718494762217
 20
133.1906704755062
 30
0.0
 10
7.949267557112094
 20
133.2241467199144
 30
0.0
 10
7.731439986798243
 20
133.2409436574873
 30
0.0
 10
7.575120776138398
 20
133.2436330176602
 30
0.0
 10
7.49345428002195
 20
133.2450380312934
 30
0.0
 11
8.293454280021961
 21
133.1039764467934
 31
0.0
 11
8.254161906421956
 21
133.1476414683934
 31
0.0
 11
8.139284014221971
 21
133.1872251845934
 31
0.0
 11
7.962251100721971
 21
133.2182806130934
 31
0.0
 11
7.738789614021953
 21
133.2382411438934
 31
0.0
 11
7.49345428002195
 21
133.2450380312934
 31
0.0
  0
LINE
  5
6C5
100
AcDbEntity
  8
ALPHA
  6
CONTINUOUS
 62
     7
100
AcDbLine
 10
6.043454
 20
133.333202
 30
0.0
 11
7.293454
 21
133.333202
 31
0.0
  0
LINE
  5
6C6
100
AcDbEntity
  8
ALPHA
  6
CONTINUOUS
 62
     7
100
AcDbLine
 10
7.493454
 20
133.245038
 30
0.0
 11
7.293454
 21
133.245038
 31
0.0
  0
LINE
  5
6C7
100
AcDbEntity
  8
ALPHA
  6
CONTINUOUS
 62
     7
100
AcDbLine
 10
8.393454
 20
148.732469
 30
0.0
 11
10.993454
 21
148.732469
 31
0.0
  0
LINE
  5
6C8
100
AcDbEntity
  8
ALPHA
  6
CONTINUOUS
 62
     7
100
AcDbLine
 10
8.293454
 20
148.517278
 30
0.0
 11
11.293454
 21
148.517278
 31
0.0
  0
LINE
  5
6C9
100
AcDbEntity
  8
ALPHA
  6
CONTINUOUS
 62
     7
100
AcDbLine
 10
8.293454
 20
146.917278
 30
0.0
 11
7.293454
 21
146.917278
 31
0.0
  0
LINE
  5
6CA
100
AcDbEntity
  8
ALPHA
  6
CONTINUOUS
 62
     7
100
AcDbLine
 10
8.393454
 20
148.517278
 30
0.0
 11
8.393454
 21
148.732469
 31
0.0
  0
LINE
  5
6CB
100
AcDbEntity
  8
ALPHA
  6
CONTINUOUS
 62
     7
100
AcDbLine
 10
10.993454
 20
148.517278
 30
0.0
 11
10.993454
 21
148.732469
 31
0.0
  0
LINE
  5
6CC
100
AcDbEntity
  8
ALPHA
  6
CONTINUOUS
 62
     7
100
AcDbLine
 10
9.993454
 20
148.517278
 30
0.0
 11
9.993454
 21
148.732469
 31
0.0
  0
LINE
  5
6CD
100
AcDbEntity
  8
ALPHA
  6
CONTINUOUS
 62
     7
100
AcDbLine
 10
9.393454
 20
148.517278
 30
0.0
 11
9.393454
 21
148.732469
 31
0.0
  0
LINE
  5
6CE
100
AcDbEntity
  8
ALPHA
  6
CONTINUOUS
 62
     9
100
AcDbLine
 10
5.493228
 20
203.217278
 30
0.0
 11
5.493228
 21
157.717278
 31
0.0
  0
LINE
  5
6CF
100
AcDbEntity
  8
ALPHA
  6
CONTINUOUS
 62
     9
100
AcDbLine
 10
5.193639
 20
203.217278
 30
0.0
 11
5.193639
 21
157.717278
 31
0.0
  0
LINE
  5
6D0
100
AcDbEntity
  8
ALPHA
  6
CONTINUOUS
 62
     7
100
AcDbLine
 10
5.043454
 20
157.717278
 30
0.0
 11
5.743454
 21
157.717278
 31
0.0
  0
LINE
  5
6D1
100
AcDbEntity
  8
ALPHA
  6
CONTINUOUS
 62
     7
100
AcDbLine
 10
5.760952
 20
157.517278
 30
0.0
 11
5.743454
 21
157.717278
 31
0.0
  0
LINE
  5
6D2
100
AcDbEntity
  8
ALPHA
  6
CONTINUOUS
 62
     7
100
AcDbLine
 10
8.293454
 20
154.517278
 30
0.0
 11
7.393454
 21
155.417278
 31
0.0
  0
LINE
  5
6D3
100
AcDbEntity
  8
ALPHA
  6
CONTINUOUS
 62
     7
100
AcDbLine
 10
11.293454
 20
154.517278
 30
0.0
 11
8.293454
 21
154.517278
 31
0.0
  0
LINE
  5
6D4
100
AcDbEntity
  8
ALPHA
  6
CONTINUOUS
 62
     9
100
AcDbLine
 10
11.293454
 20
153.332469
 30
0.0
 11
8.293454
 21
153.332469
 31
0.0
  0
LINE
  5
6D5
100
AcDbEntity
  8
ALPHA
  6
CONTINUOUS
 62
     7
100
AcDbLine
 10
27.543454
 20
108.317278
 30
0.0
 11
27.543454
 21
203.217278
 31
0.0
  0
LINE
  5
6D6
100
AcDbEntity
  8
ALPHA
  6
CONTINUOUS
 62
     9
100
AcDbLine
 10
26.543454
 20
157.517278
 30
0.0
 11
26.543454
 21
108.317278
 31
0.0
  0
LINE
  5
6D7
100
AcDbEntity
  8
ALPHA
  6
CONTINUOUS
 62
     7
100
AcDbLine
 10
25.193454
 20
155.417278
 30
0.0
 11
25.193454
 21
146.917278
 31
0.0
  0
LINE
  5
6D8
100
AcDbEntity
  8
ALPHA
  6
CONTINUOUS
 62
     7
100
AcDbLine
 10
24.293454
 20
154.517278
 30
0.0
 11
24.293454
 21
133.059895
 31
0.0
  0
LINE
  5
6D9
100
AcDbEntity
  8
ALPHA
  6
CONTINUOUS
 62
     7
100
AcDbLine
 10
21.293454
 20
133.059895
 30
0.0
 11
21.293454
 21
154.517278
 31
0.0
  0
LINE
  5
6DA
100
AcDbEntity
  8
ALPHA
  6
CONTINUOUS
 62
     7
100
AcDbLine
 10
20.393454
 20
146.917278
 30
0.0
 11
20.393454
 21
155.417278
 31
0.0
  0
LINE
  5
6DB
100
AcDbEntity
  8
ALPHA
  6
CONTINUOUS
 62
     7
100
AcDbLine
 10
18.693454
 20
155.417278
 30
0.0
 11
18.693454
 21
146.917278
 31
0.0
  0
LINE
  5
6DC
100
AcDbEntity
  8
ALPHA
  6
CONTINUOUS
 62
     7
100
AcDbLine
 10
17.793454
 20
154.517278
 30
0.0
 11
17.793454
 21
133.059895
 31
0.0
  0
LINE
  5
6DD
100
AcDbEntity
  8
ALPHA
  6
CONTINUOUS
 62
     7
100
AcDbLine
 10
14.793454
 20
133.059895
 30
0.0
 11
14.793454
 21
154.517278
 31
0.0
  0
LINE
  5
6DE
100
AcDbEntity
  8
ALPHA
  6
CONTINUOUS
 62
     7
100
AcDbLine
 10
13.893454
 20
146.917278
 30
0.0
 11
13.893454
 21
155.417278
 31
0.0
  0
LINE
  5
6DF
100
AcDbEntity
  8
ALPHA
  6
CONTINUOUS
 62
     7
100
AcDbLine
 10
12.193454
 20
155.417278
 30
0.0
 11
12.193454
 21
146.917278
 31
0.0
  0
DIMENSION
  5
6E0
100
AcDbEntity
  8
COTATION1
  6
CONTINUOUS
100
AcDbDimension
  2
*D10
 10
53.131244
 20
102.817278
 30
0.0
 11
53.131244
 21
155.082957
 31
0.0
 70
   160
  3
DIMSTYLE_2
100
AcDbAlignedDimension
 13
28.09368
 23
203.217278
 33
0.0
 14
17.293454
 24
102.817278
 34
0.0
 50
270.0
100
AcDbRotatedDimension
  0
LINE
  5
6E1
100
AcDbEntity
  8
ALPHA
  6
CONTINUOUS
 62
     7
100
AcDbLine
 10
25.293454
 20
108.317278
 30
0.0
 11
25.293454
 21
121.517278
 31
0.0
  0
LINE
  5
6E2
100
AcDbEntity
  8
ALPHA
  6
CONTINUOUS
 62
     9
100
AcDbLine
 10
25.093454
 20
121.517278
 30
0.0
 11
25.093454
 21
108.317278
 31
0.0
  0
LINE
  5
6E3
100
AcDbEntity
  8
ALPHA
  6
CONTINUOUS
 62
     7
100
AcDbLine
 10
24.293454
 20
129.117278
 30
0.0
 11
24.293454
 21
108.317278
 31
0.0
  0
LINE
  5
6E4
100
AcDbEntity
  8
ALPHA
  6
CONTINUOUS
 62
     7
100
AcDbLine
 10
21.293454
 20
108.317278
 30
0.0
 11
21.293454
 21
129.117278
 31
0.0
  0
LINE
  5
6E5
100
AcDbEntity
  8
ALPHA
  6
CONTINUOUS
 62
     9
100
AcDbLine
 10
20.493454
 20
108.317278
 30
0.0
 11
20.493454
 21
121.517278
 31
0.0
  0
LINE
  5
6E6
100
AcDbEntity
  8
ALPHA
  6
CONTINUOUS
 62
     7
100
AcDbLine
 10
20.293454
 20
108.317278
 30
0.0
 11
20.293454
 21
121.517278
 31
0.0
  0
LINE
  5
6E7
100
AcDbEntity
  8
ALPHA
  6
CONTINUOUS
 62
     7
100
AcDbLine
 10
18.793454
 20
108.317278
 30
0.0
 11
18.793454
 21
121.517278
 31
0.0
  0
LINE
  5
6E8
100
AcDbEntity
  8
ALPHA
  6
CONTINUOUS
 62
     9
100
AcDbLine
 10
18.593454
 20
121.517278
 30
0.0
 11
18.593454
 21
108.317278
 31
0.0
  0
LINE
  5
6E9
100
AcDbEntity
  8
ALPHA
  6
CONTINUOUS
 62
     7
100
AcDbLine
 10
17.793454
 20
129.117278
 30
0.0
 11
17.793454
 21
108.317278
 31
0.0
  0
LINE
  5
6EA
100
AcDbEntity
  8
ALPHA
  6
CONTINUOUS
 62
     7
100
AcDbLine
 10
14.793454
 20
108.317278
 30
0.0
 11
14.793454
 21
129.117278
 31
0.0
  0
LINE
  5
6EB
100
AcDbEntity
  8
ALPHA
  6
CONTINUOUS
 62
     9
100
AcDbLine
 10
13.993454
 20
108.317278
 30
0.0
 11
13.993454
 21
121.517278
 31
0.0
  0
LINE
  5
6EC
100
AcDbEntity
  8
ALPHA
  6
CONTINUOUS
 62
     7
100
AcDbLine
 10
13.793454
 20
108.317278
 30
0.0
 11
13.793454
 21
121.517278
 31
0.0
  0
LINE
  5
6ED
100
AcDbEntity
  8
ALPHA
  6
CONTINUOUS
 62
     7
100
AcDbLine
 10
12.293454
 20
108.317278
 30
0.0
 11
12.293454
 21
121.517278
 31
0.0
  0
LINE
  5
6EE
100
AcDbEntity
  8
ALPHA
  6
CONTINUOUS
 62
     9
100
AcDbLine
 10
12.093454
 20
121.517278
 30
0.0
 11
12.093454
 21
108.317278
 31
0.0
  0
LINE
  5
6EF
100
AcDbEntity
  8
ALPHA
  6
CONTINUOUS
 62
     9
100
AcDbLine
 10
26.381117
 20
105.193553
 30
0.0
 11
26.544825
 21
108.317278
 31
0.0
  0
LINE
  5
6F0
100
AcDbEntity
  8
ALPHA
  6
CONTINUOUS
 62
     7
100
AcDbLine
 10
27.408353
 20
105.739396
 30
0.0
 11
27.543454
 21
108.317278
 31
0.0
  0
LINE
  5
6F1
100
AcDbEntity
  8
ALPHA
  6
CONTINUOUS
 62
     7
100
AcDbLine
 10
25.293454
 20
133.245038
 30
0.0
 11
25.293454
 21
146.917278
 31
0.0
  0
LINE
  5
6F2
100
AcDbEntity
  8
ALPHA
  6
CONTINUOUS
 62
     9
100
AcDbLine
 10
25.093454
 20
146.917278
 30
0.0
 11
25.093454
 21
133.245038
 31
0.0
  0
LINE
  5
6F3
100
AcDbEntity
  8
ALPHA
  6
CONTINUOUS
 62
     9
100
AcDbLine
 10
20.493454
 20
133.245038
 30
0.0
 11
20.493454
 21
146.917278
 31
0.0
  0
LINE
  5
6F4
100
AcDbEntity
  8
ALPHA
  6
CONTINUOUS
 62
     7
100
AcDbLine
 10
20.293454
 20
133.245038
 30
0.0
 11
20.293454
 21
146.917278
 31
0.0
  0
LINE
  5
6F5
100
AcDbEntity
  8
ALPHA
  6
CONTINUOUS
 62
     7
100
AcDbLine
 10
18.793454
 20
133.245038
 30
0.0
 11
18.793454
 21
146.917278
 31
0.0
  0
LINE
  5
6F6
100
AcDbEntity
  8
ALPHA
  6
CONTINUOUS
 62
     9
100
AcDbLine
 10
18.593454
 20
146.917278
 30
0.0
 11
18.593454
 21
133.245038
 31
0.0
  0
LINE
  5
6F7
100
AcDbEntity
  8
ALPHA
  6
CONTINUOUS
 62
     9
100
AcDbLine
 10
13.993454
 20
133.245038
 30
0.0
 11
13.993454
 21
146.917278
 31
0.0
  0
LINE
  5
6F8
100
AcDbEntity
  8
ALPHA
  6
CONTINUOUS
 62
     7
100
AcDbLine
 10
13.793454
 20
133.245038
 30
0.0
 11
13.793454
 21
146.917278
 31
0.0
  0
LINE
  5
6F9
100
AcDbEntity
  8
ALPHA
  6
CONTINUOUS
 62
     7
100
AcDbLine
 10
12.293454
 20
133.245038
 30
0.0
 11
12.293454
 21
146.917278
 31
0.0
  0
LINE
  5
6FA
100
AcDbEntity
  8
ALPHA
  6
CONTINUOUS
 62
     9
100
AcDbLine
 10
12.093454
 20
146.917278
 30
0.0
 11
12.093454
 21
133.245038
 31
0.0
  0
SPLINE
  5
6FB
100
AcDbEntity
  8
ALPHA
  6
CONTINUOUS
 62
     7
100
AcDbSpline
210
0.0
220
0.0
230
1.0
 70
     8
 71
     3
 72
    13
 73
     9
 74
     7
 42
0.0000001
 43
0.0000001
 44
0.0000000001
 40
0.0
 40
0.0
 40
0.0
 40
0.0
 40
0.6417165295719625
 40
1.243171114293583
 40
1.766036055102533
 40
2.176709569062554
 40
2.451566549545907
 40
2.595639375545661
 40
2.595639375545661
 40
2.595639375545661
 40
2.595639375545661
 10
22.79345428002196
 20
131.6580952049934
 30
0.0
 10
23.00750263494361
 20
131.6607270713405
 30
0.0
 10
23.42216973425949
 20
131.6658256780752
 30
0.0
 10
24.00805150214375
 20
131.7096752684907
 30
0.0
 10
24.52092054195781
 20
131.770013486103
 30
0.0
 10
24.90282022512227
 20
131.8643910149942
 30
0.0
 10
25.19126165311298
 20
131.9358910861556
 30
0.0
 10
25.26730310401906
 20
132.0571952247054
 30
0.0
 10
25.29345427912196
 20
132.0989125476934
 30
0.0
 11
22.79345428002196
 21
131.6580952049934
 31
0.0
 11
23.43500100032195
 21
131.6728569798934
 31
0.0
 11
24.03488566072195
 21
131.7162852160934
 31
0.0
 11
24.55311113732196
 21
131.7857841493934
 31
0.0
 11
24.95352930042196
 21
131.8769873824934
 31
0.0
 11
25.20676730632195
 21
131.9838371465934
 31
0.0
 11
25.29345427912196
 21
132.0989125476934
 31
0.0
  0
SPLINE
  5
6FC
100
AcDbEntity
  8
ALPHA
  6
CONTINUOUS
 62
     7
100
AcDbSpline
210
0.0
220
0.0
230
-1.0
 70
     8
 71
     3
 72
    13
 73
     9
 74
     7
 42
0.0000001
 43
0.0000001
 44
0.0000000001
 40
0.0
 40
0.0
 40
0.0
 40
0.0
 40
0.1440435914505897
 40
0.4188882630976217
 40
0.8295646114312551
 40
1.352444711056014
 40
1.953917115641724
 40
2.595641079948594
 40
2.595641079948594
 40
2.595641079948594
 40
2.595641079948594
 10
25.29345427912196
 20
132.0989125476934
 30
0.0
 10
25.26731138593026
 20
132.140623293075
 30
0.0
 10
25.19128612849858
 20
132.2619208913191
 30
0.0
 10
24.90285567398084
 20
132.3334247600141
 30
0.0
 10
24.5209573176522
 20
132.4278064731852
 30
0.0
 10
24.00807551579422
 20
132.4881480035839
 30
0.0
 10
23.42218070857414
 20
132.53199939927
 30
0.0
 10
23.00750513887718
 20
132.5370981769033
 30
0.0
 10
22.79345428002196
 20
132.5397301084934
 30
0.0
 11
25.29345427912196
 21
132.0989125476934
 31
0.0
 11
25.20679350532196
 21
132.2139710828934
 31
0.0
 11
24.95357077202197
 21
132.3208253802934
 31
0.0
 11
24.55315097522197
 21
132.4120342033934
 31
0.0
 11
24.03491079752197
 21
132.4815375615934
 31
0.0
 11
23.43500842902196
 21
132.5249679857934
 31
0.0
 11
22.79345428002196
 21
132.5397301084934
 31
0.0
  0
LINE
  5
6FD
100
AcDbEntity
  8
ALPHA
  6
CONTINUOUS
 62
     7
100
AcDbLine
 10
21.293454
 20
133.059895
 30
0.0
 11
24.293454
 21
133.059895
 31
0.0
  0
LINE
  5
6FE
100
AcDbEntity
  8
ALPHA
  6
CONTINUOUS
 62
     7
100
AcDbLine
 10
20.393454
 20
130.017278
 30
0.0
 11
25.193454
 21
130.017278
 31
0.0
  0
LINE
  5
6FF
100
AcDbEntity
  8
ALPHA
  6
CONTINUOUS
 62
     7
100
AcDbLine
 10
21.293454
 20
129.117278
 30
0.0
 11
24.293454
 21
129.117278
 31
0.0
  0
LINE
  5
700
100
AcDbEntity
  8
ALPHA
  6
CONTINUOUS
 62
     9
100
AcDbLine
 10
24.293454
 20
127.932469
 30
0.0
 11
21.293454
 21
127.932469
 31
0.0
  0
LINE
  5
701
100
AcDbEntity
  8
ALPHA
  6
CONTINUOUS
 62
     7
100
AcDbLine
 10
24.293454
 20
123.117278
 30
0.0
 11
21.293454
 21
123.117278
 31
0.0
  0
LINE
  5
702
100
AcDbEntity
  8
ALPHA
  6
CONTINUOUS
 62
     7
100
AcDbLine
 10
20.393454
 20
121.517278
 30
0.0
 11
20.393454
 21
130.017278
 31
0.0
  0
LINE
  5
703
100
AcDbEntity
  8
ALPHA
  6
CONTINUOUS
 62
     7
100
AcDbLine
 10
18.693454
 20
130.017278
 30
0.0
 11
18.693454
 21
121.517278
 31
0.0
  0
LINE
  5
704
100
AcDbEntity
  8
ALPHA
  6
CONTINUOUS
 62
     7
100
AcDbLine
 10
13.893454
 20
121.517278
 30
0.0
 11
13.893454
 21
130.017278
 31
0.0
  0
LINE
  5
705
100
AcDbEntity
  8
ALPHA
  6
CONTINUOUS
 62
     7
100
AcDbLine
 10
12.193454
 20
130.017278
 30
0.0
 11
12.193454
 21
121.517278
 31
0.0
  0
LINE
  5
706
100
AcDbEntity
  8
ALPHA
  6
CONTINUOUS
 62
     7
100
AcDbLine
 10
14.793454
 20
123.117278
 30
0.0
 11
17.793454
 21
123.117278
 31
0.0
  0
LINE
  5
707
100
AcDbEntity
  8
ALPHA
  6
CONTINUOUS
 62
     7
100
AcDbLine
 10
13.793454
 20
121.517278
 30
0.0
 11
14.793454
 21
121.517278
 31
0.0
  0
LINE
  5
708
100
AcDbEntity
  8
ALPHA
  6
CONTINUOUS
 62
     7
100
AcDbLine
 10
20.293454
 20
121.517278
 30
0.0
 11
21.293454
 21
121.517278
 31
0.0
  0
LINE
  5
709
100
AcDbEntity
  8
ALPHA
  6
CONTINUOUS
 62
     7
100
AcDbLine
 10
17.793454
 20
121.517278
 30
0.0
 11
18.793454
 21
121.517278
 31
0.0
  0
SPLINE
  5
70A
100
AcDbEntity
  8
ALPHA
  6
CONTINUOUS
 62
     7
100
AcDbSpline
210
0.0
220
0.0
230
1.0
 70
     8
 71
     3
 72
    13
 73
     9
 74
     7
 42
0.0000001
 43
0.0000001
 44
0.0000000001
 40
0.0
 40
0.0
 40
0.0
 40
0.0
 40
0.6417165295719625
 40
1.243171114293583
 40
1.766036055102533
 40
2.176709569062554
 40
2.451566549545907
 40
2.595639375545661
 40
2.595639375545661
 40
2.595639375545661
 40
2.595639375545661
 10
16.29345428002196
 20
131.6580952049934
 30
0.0
 10
16.50750263494361
 20
131.6607270713405
 30
0.0
 10
16.92216973425949
 20
131.6658256780752
 30
0.0
 10
17.50805150214375
 20
131.7096752684907
 30
0.0
 10
18.0209205419578
 20
131.770013486103
 30
0.0
 10
18.40282022512226
 20
131.8643910149942
 30
0.0
 10
18.69126165311298
 20
131.9358910861556
 30
0.0
 10
18.76730310401906
 20
132.0571952247054
 30
0.0
 10
18.79345427912196
 20
132.0989125476934
 30
0.0
 11
16.29345428002196
 21
131.6580952049934
 31
0.0
 11
16.93500100032196
 21
131.6728569798934
 31
0.0
 11
17.53488566072195
 21
131.7162852160934
 31
0.0
 11
18.05311113732196
 21
131.7857841493934
 31
0.0
 11
18.45352930042196
 21
131.8769873824934
 31
0.0
 11
18.70676730632195
 21
131.9838371465934
 31
0.0
 11
18.79345427912196
 21
132.0989125476934
 31
0.0
  0
SPLINE
  5
70B
100
AcDbEntity
  8
ALPHA
  6
CONTINUOUS
 62
     7
100
AcDbSpline
210
0.0
220
0.0
230
-1.0
 70
     8
 71
     3
 72
    13
 73
     9
 74
     7
 42
0.0000001
 43
0.0000001
 44
0.0000000001
 40
0.0
 40
0.0
 40
0.0
 40
0.0
 40
0.1440435914505897
 40
0.4188882630976217
 40
0.8295646114312551
 40
1.352444711056014
 40
1.953917115641724
 40
2.595641079948594
 40
2.595641079948594
 40
2.595641079948594
 40
2.595641079948594
 10
18.79345427912196
 20
132.0989125476934
 30
0.0
 10
18.76731138593026
 20
132.140623293075
 30
0.0
 10
18.69128612849858
 20
132.2619208913191
 30
0.0
 10
18.40285567398083
 20
132.3334247600141
 30
0.0
 10
18.0209573176522
 20
132.4278064731852
 30
0.0
 10
17.50807551579422
 20
132.4881480035839
 30
0.0
 10
16.92218070857413
 20
132.53199939927
 30
0.0
 10
16.50750513887717
 20
132.5370981769033
 30
0.0
 10
16.29345428002196
 20
132.5397301084934
 30
0.0
 11
18.79345427912196
 21
132.0989125476934
 31
0.0
 11
18.70679350532197
 21
132.2139710828934
 31
0.0
 11
18.45357077202197
 21
132.3208253802934
 31
0.0
 11
18.05315097522196
 21
132.4120342033934
 31
0.0
 11
17.53491079752197
 21
132.4815375615934
 31
0.0
 11
16.93500842902196
 21
132.5249679857934
 31
0.0
 11
16.29345428002196
 21
132.5397301084934
 31
0.0
  0
LINE
  5
70C
100
AcDbEntity
  8
ALPHA
  6
CONTINUOUS
 62
     7
100
AcDbLine
 10
14.793454
 20
133.059895
 30
0.0
 11
17.793454
 21
133.059895
 31
0.0
  0
LINE
  5
70D
100
AcDbEntity
  8
ALPHA
  6
CONTINUOUS
 62
     7
100
AcDbLine
 10
13.893454
 20
130.017278
 30
0.0
 11
18.693454
 21
130.017278
 31
0.0
  0
LINE
  5
70E
100
AcDbEntity
  8
ALPHA
  6
CONTINUOUS
 62
     7
100
AcDbLine
 10
14.793454
 20
129.117278
 30
0.0
 11
17.793454
 21
129.117278
 31
0.0
  0
LINE
  5
70F
100
AcDbEntity
  8
ALPHA
  6
CONTINUOUS
 62
     9
100
AcDbLine
 10
17.793454
 20
127.932469
 30
0.0
 11
14.793454
 21
127.932469
 31
0.0
  0
LINE
  5
710
100
AcDbEntity
  8
ALPHA
  6
CONTINUOUS
 62
     7
100
AcDbLine
 10
13.893454
 20
130.017278
 30
0.0
 11
14.793454
 21
129.117278
 31
0.0
  0
SPLINE
  5
711
100
AcDbEntity
  8
ALPHA
  6
CONTINUOUS
 62
     7
100
AcDbSpline
210
0.0
220
0.0
230
1.0
 70
     8
 71
     3
 72
    13
 73
     9
 74
     7
 42
0.0000001
 43
0.0000001
 44
0.0000000001
 40
0.0
 40
0.0
 40
0.0
 40
0.0
 40
0.1440435914505897
 40
0.4188882630976478
 40
0.829564611453488
 40
1.352444711078247
 40
1.953917115656737
 40
2.595641080063568
 40
2.595641080063568
 40
2.595641080063568
 40
2.595641080063568
 10
13.79345428082194
 20
132.0989127657934
 30
0.0
 10
13.81959717401352
 20
132.0572020204112
 30
0.0
 10
13.89562243144486
 20
131.9359044221656
 30
0.0
 10
14.18405288597568
 20
131.8644005534923
 30
0.0
 10
14.565951242274
 20
131.7700188401613
 30
0.0
 10
15.07883304414874
 20
131.7096773097886
 30
0.0
 10
15.66472785140703
 20
131.6658259142467
 30
0.0
 10
16.07940342113391
 20
131.6607271365938
 30
0.0
 10
16.29345428002196
 20
131.6580952049934
 30
0.0
 11
13.79345428082194
 21
132.0989127657934
 31
0.0
 11
13.88011505462193
 21
131.9838542305934
 31
0.0
 11
14.13333778792195
 21
131.8769999331934
 31
0.0
 11
14.53375758472196
 21
131.7857911099934
 31
0.0
 11
15.05199776242196
 21
131.7162877517934
 31
0.0
 11
15.65190013092197
 21
131.6728573276934
 31
0.0
 11
16.29345428002196
 21
131.6580952049934
 31
0.0
  0
SPLINE
  5
712
100
AcDbEntity
  8
ALPHA
  6
CONTINUOUS
 62
     7
100
AcDbSpline
210
0.0
220
0.0
230
-1.0
 70
     8
 71
     3
 72
    12
 73
     8
 74
     6
 42
0.0000001
 43
0.0000001
 44
0.0000000001
 40
0.0
 40
0.0
 40
0.0
 40
0.0
 40
0.0587411672887948
 40
0.1802475486212769
 40
0.3599837222247472
 40
0.5843349175146323
 40
0.8297643855644597
 40
0.8297643855644597
 40
0.8297643855644597
 40
0.8297643855644597
 10
14.79345428002196
 20
133.1039764467934
 30
0.0
 10
14.78128108619743
 20
133.1198668952166
 30
0.0
 10
14.74392758358526
 20
133.168626811081
 30
0.0
 10
14.61718494762217
 20
133.1906704755062
 30
0.0
 10
14.44926755711209
 20
133.2241467199144
 30
0.0
 10
14.23143998679824
 20
133.2409436574873
 30
0.0
 10
14.0751207761384
 20
133.2436330176602
 30
0.0
 10
13.99345428002195
 20
133.2450380312934
 30
0.0
 11
14.79345428002196
 21
133.1039764467934
 31
0.0
 11
14.75416190642195
 21
133.1476414683934
 31
0.0
 11
14.63928401422197
 21
133.1872251845934
 31
0.0
 11
14.46225110072197
 21
133.2182806130934
 31
0.0
 11
14.23878961402195
 21
133.2382411438934
 31
0.0
 11
13.99345428002195
 21
133.2450380312934
 31
0.0
  0
SPLINE
  5
713
100
AcDbEntity
  8
ALPHA
  6
CONTINUOUS
 62
     7
100
AcDbSpline
210
0.0
220
0.0
230
-1.0
 70
     8
 71
     3
 72
    13
 73
     9
 74
     7
 42
0.0000001
 43
0.0000001
 44
0.0000000001
 40
0.0
 40
0.0
 40
0.0
 40
0.0
 40
0.6417165296719521
 40
1.243171114400796
 40
1.766036055196421
 40
2.176709569156441
 40
2.451566549678689
 40
2.595639375598581
 40
2.595639375598581
 40
2.595639375598581
 40
2.595639375598581
 10
16.29345428002196
 20
132.5397301084934
 30
0.0
 10
16.07940592506587
 20
132.5370982421631
 30
0.0
 10
15.66473882571213
 20
132.5319996354612
 30
0.0
 10
15.07885705781055
 20
132.4881500448308
 30
0.0
 10
14.56598801799062
 20
132.4278118273935
 30
0.0
 10
14.18408833477811
 20
132.3334342985409
 30
0.0
 10
13.89564690689327
 20
132.261934227222
 30
0.0
 10
13.81960545593191
 20
132.1406300887392
 30
0.0
 10
13.79345428082194
 20
132.0989127657934
 30
0.0
 11
16.29345428002196
 21
132.5397301084934
 31
0.0
 11
15.65190755962194
 21
132.5249683335934
 31
0.0
 11
15.05202289922195
 21
132.4815400972934
 31
0.0
 11
14.53379742262197
 21
132.4120411640934
 31
0.0
 11
14.13337925952197
 21
132.3208379309934
 31
0.0
 11
13.88014125362195
 21
132.2139881667934
 31
0.0
 11
13.79345428082194
 21
132.0989127657934
 31
0.0
  0
LINE
  5
714
100
AcDbEntity
  8
ALPHA
  6
CONTINUOUS
 62
     7
100
AcDbLine
 10
12.293454
 20
133.333202
 30
0.0
 11
13.793454
 21
133.333202
 31
0.0
  0
LINE
  5
715
100
AcDbEntity
  8
ALPHA
  6
CONTINUOUS
 62
     7
100
AcDbLine
 10
12.293454
 20
133.245038
 30
0.0
 11
12.093454
 21
133.245038
 31
0.0
  0
LINE
  5
716
100
AcDbEntity
  8
ALPHA
  6
CONTINUOUS
 62
     7
100
AcDbLine
 10
13.993454
 20
133.245038
 30
0.0
 11
13.793454
 21
133.245038
 31
0.0
  0
LINE
  5
717
100
AcDbEntity
  8
ALPHA
  6
CONTINUOUS
 62
     7
100
AcDbLine
 10
17.793454
 20
129.117278
 30
0.0
 11
18.693454
 21
130.017278
 31
0.0
  0
LINE
  5
718
100
AcDbEntity
  8
ALPHA
  6
CONTINUOUS
 62
     7
100
AcDbLine
 10
20.393454
 20
130.017278
 30
0.0
 11
21.293454
 21
129.117278
 31
0.0
  0
SPLINE
  5
719
100
AcDbEntity
  8
ALPHA
  6
CONTINUOUS
 62
     7
100
AcDbSpline
210
0.0
220
0.0
230
1.0
 70
     8
 71
     3
 72
    13
 73
     9
 74
     7
 42
0.0000001
 43
0.0000001
 44
0.0000000001
 40
0.0
 40
0.0
 40
0.0
 40
0.0
 40
0.1440435914505897
 40
0.4188882630976478
 40
0.829564611453488
 40
1.352444711078247
 40
1.953917115656737
 40
2.595641080063568
 40
2.595641080063568
 40
2.595641080063568
 40
2.595641080063568
 10
20.29345428082194
 20
132.0989127657934
 30
0.0
 10
20.31959717401352
 20
132.0572020204112
 30
0.0
 10
20.39562243144486
 20
131.9359044221656
 30
0.0
 10
20.68405288597568
 20
131.8644005534923
 30
0.0
 10
21.06595124227399
 20
131.7700188401613
 30
0.0
 10
21.57883304414874
 20
131.7096773097886
 30
0.0
 10
22.16472785140703
 20
131.6658259142467
 30
0.0
 10
22.57940342113392
 20
131.6607271365938
 30
0.0
 10
22.79345428002196
 20
131.6580952049934
 30
0.0
 11
20.29345428082194
 21
132.0989127657934
 31
0.0
 11
20.38011505462193
 21
131.9838542305934
 31
0.0
 11
20.63333778792196
 21
131.8769999331934
 31
0.0
 11
21.03375758472196
 21
131.7857911099934
 31
0.0
 11
21.55199776242196
 21
131.7162877517934
 31
0.0
 11
22.15190013092197
 21
131.6728573276934
 31
0.0
 11
22.79345428002196
 21
131.6580952049934
 31
0.0
  0
SPLINE
  5
71A
100
AcDbEntity
  8
ALPHA
  6
CONTINUOUS
 62
     7
100
AcDbSpline
210
0.0
220
0.0
230
-1.0
 70
     8
 71
     3
 72
    13
 73
     9
 74
     7
 42
0.0000001
 43
0.0000001
 44
0.0000000001
 40
0.0
 40
0.0
 40
0.0
 40
0.0
 40
0.6417165296719521
 40
1.243171114400796
 40
1.766036055196421
 40
2.176709569156441
 40
2.451566549678689
 40
2.595639375598581
 40
2.595639375598581
 40
2.595639375598581
 40
2.595639375598581
 10
22.79345428002196
 20
132.5397301084934
 30
0.0
 10
22.57940592506587
 20
132.5370982421631
 30
0.0
 10
22.16473882571213
 20
132.5319996354612
 30
0.0
 10
21.57885705781055
 20
132.4881500448308
 30
0.0
 10
21.06598801799061
 20
132.4278118273935
 30
0.0
 10
20.68408833477811
 20
132.3334342985409
 30
0.0
 10
20.39564690689326
 20
132.261934227222
 30
0.0
 10
20.31960545593191
 20
132.1406300887392
 30
0.0
 10
20.29345428082194
 20
132.0989127657934
 30
0.0
 11
22.79345428002196
 21
132.5397301084934
 31
0.0
 11
22.15190755962194
 21
132.5249683335934
 31
0.0
 11
21.55202289922195
 21
132.4815400972934
 31
0.0
 11
21.03379742262197
 21
132.4120411640934
 31
0.0
 11
20.63337925952197
 21
132.3208379309934
 31
0.0
 11
20.38014125362195
 21
132.2139881667934
 31
0.0
 11
20.29345428082194
 21
132.0989127657934
 31
0.0
  0
LINE
  5
71B
100
AcDbEntity
  8
ALPHA
  6
CONTINUOUS
 62
     7
100
AcDbLine
 10
20.493454
 20
133.245038
 30
0.0
 11
20.293454
 21
133.245038
 31
0.0
  0
SPLINE
  5
71C
100
AcDbEntity
  8
ALPHA
  6
CONTINUOUS
 62
     7
100
AcDbSpline
210
0.0
220
0.0
230
-1.0
 70
     8
 71
     3
 72
    12
 73
     8
 74
     6
 42
0.0000001
 43
0.0000001
 44
0.0000000001
 40
0.0
 40
0.0
 40
0.0
 40
0.0
 40
0.2454294681498053
 40
0.469780663439662
 40
0.6495168370431321
 40
0.7710232183756143
 40
0.8297643855975266
 40
0.8297643855975266
 40
0.8297643855975266
 40
0.8297643855975266
 10
18.59345428002197
 20
133.2450380312934
 30
0.0
 10
18.51178778387302
 20
133.2436330176602
 30
0.0
 10
18.35546857318138
 20
133.2409436574879
 30
0.0
 10
18.13764100282434
 20
133.2241467199215
 30
0.0
 10
17.96972361234082
 20
133.190670475488
 30
0.0
 10
17.84298097634561
 20
133.1686268111201
 30
0.0
 10
17.80562747381165
 20
133.119866895217
 30
0.0
 10
17.79345428002196
 20
133.1039764467934
 30
0.0
 11
18.59345428002197
 21
133.2450380312934
 31
0.0
 11
18.34811894592195
 21
133.2382411438934
 31
0.0
 11
18.12465745922196
 21
133.2182806130934
 31
0.0
 11
17.94762454572196
 21
133.1872251845934
 31
0.0
 11
17.83274665352197
 21
133.1476414683934
 31
0.0
 11
17.79345428002196
 21
133.1039764467934
 31
0.0
  0
LINE
  5
71D
100
AcDbEntity
  8
ALPHA
  6
CONTINUOUS
 62
     7
100
AcDbLine
 10
18.793454
 20
133.333202
 30
0.0
 11
20.293454
 21
133.333202
 31
0.0
  0
LINE
  5
71E
100
AcDbEntity
  8
ALPHA
  6
CONTINUOUS
 62
     7
100
AcDbLine
 10
18.793454
 20
133.245038
 30
0.0
 11
18.593454
 21
133.245038
 31
0.0
  0
SPLINE
  5
71F
100
AcDbEntity
  8
ALPHA
  6
CONTINUOUS
 62
     7
100
AcDbSpline
210
0.0
220
0.0
230
-1.0
 70
     8
 71
     3
 72
    12
 73
     8
 74
     6
 42
0.0000001
 43
0.0000001
 44
0.0000000001
 40
0.0
 40
0.0
 40
0.0
 40
0.0
 40
0.0587411672887948
 40
0.1802475486212769
 40
0.3599837222247472
 40
0.5843349175146323
 40
0.8297643855644597
 40
0.8297643855644597
 40
0.8297643855644597
 40
0.8297643855644597
 10
21.29345428002196
 20
133.1039764467934
 30
0.0
 10
21.28128108619742
 20
133.1198668952166
 30
0.0
 10
21.24392758358526
 20
133.168626811081
 30
0.0
 10
21.11718494762218
 20
133.1906704755062
 30
0.0
 10
20.94926755711208
 20
133.2241467199144
 30
0.0
 10
20.73143998679824
 20
133.2409436574873
 30
0.0
 10
20.57512077613839
 20
133.2436330176602
 30
0.0
 10
20.49345428002195
 20
133.2450380312934
 30
0.0
 11
21.29345428002196
 21
133.1039764467934
 31
0.0
 11
21.25416190642195
 21
133.1476414683934
 31
0.0
 11
21.13928401422197
 21
133.1872251845934
 31
0.0
 11
20.96225110072197
 21
133.2182806130934
 31
0.0
 11
20.73878961402195
 21
133.2382411438934
 31
0.0
 11
20.49345428002195
 21
133.2450380312934
 31
0.0
  0
LINE
  5
720
100
AcDbEntity
  8
ALPHA
  6
CONTINUOUS
 62
     7
100
AcDbLine
 10
25.193454
 20
130.017278
 30
0.0
 11
25.193454
 21
121.517278
 31
0.0
  0
LINE
  5
721
100
AcDbEntity
  8
ALPHA
  6
CONTINUOUS
 62
     7
100
AcDbLine
 10
24.293454
 20
121.517278
 30
0.0
 11
25.293454
 21
121.517278
 31
0.0
  0
LINE
  5
722
100
AcDbEntity
  8
ALPHA
  6
CONTINUOUS
 62
     7
100
AcDbLine
 10
24.293454
 20
129.117278
 30
0.0
 11
25.193454
 21
130.017278
 31
0.0
  0
LINE
  5
723
100
AcDbEntity
  8
ALPHA
  6
CONTINUOUS
 62
     7
100
AcDbLine
 10
25.293454
 20
133.333202
 30
0.0
 11
26.543454
 21
133.333202
 31
0.0
  0
SPLINE
  5
724
100
AcDbEntity
  8
ALPHA
  6
CONTINUOUS
 62
     7
100
AcDbSpline
210
0.0
220
0.0
230
-1.0
 70
     8
 71
     3
 72
    12
 73
     8
 74
     6
 42
0.0000001
 43
0.0000001
 44
0.0000000001
 40
0.0
 40
0.0
 40
0.0
 40
0.0
 40
0.2454294681498053
 40
0.469780663439662
 40
0.6495168370431321
 40
0.7710232183756143
 40
0.8297643855975266
 40
0.8297643855975266
 40
0.8297643855975266
 40
0.8297643855975266
 10
25.09345428002197
 20
133.2450380312934
 30
0.0
 10
25.01178778387302
 20
133.2436330176602
 30
0.0
 10
24.85546857318138
 20
133.2409436574879
 30
0.0
 10
24.63764100282435
 20
133.2241467199215
 30
0.0
 10
24.46972361234082
 20
133.190670475488
 30
0.0
 10
24.34298097634561
 20
133.1686268111201
 30
0.0
 10
24.30562747381166
 20
133.119866895217
 30
0.0
 10
24.29345428002196
 20
133.1039764467934
 30
0.0
 11
25.09345428002197
 21
133.2450380312934
 31
0.0
 11
24.84811894592195
 21
133.2382411438934
 31
0.0
 11
24.62465745922196
 21
133.2182806130934
 31
0.0
 11
24.44762454572196
 21
133.1872251845934
 31
0.0
 11
24.33274665352198
 21
133.1476414683934
 31
0.0
 11
24.29345428002196
 21
133.1039764467934
 31
0.0
  0
LINE
  5
725
100
AcDbEntity
  8
ALPHA
  6
CONTINUOUS
 62
     7
100
AcDbLine
 10
25.293454
 20
133.245038
 30
0.0
 11
25.093454
 21
133.245038
 31
0.0
  0
SPLINE
  5
726
100
AcDbEntity
  8
ALPHA
  6
CONTINUOUS
 62
     7
100
AcDbSpline
210
0.0
220
0.0
230
1.0
 70
     8
 71
     3
 72
    13
 73
     9
 74
     7
 42
0.0000001
 43
0.0000001
 44
0.0000000001
 40
0.0
 40
0.0
 40
0.0
 40
0.0
 40
0.1908940979467039
 40
0.394595494452479
 40
0.6160059241642159
 40
0.8611096420324681
 40
1.135679295651299
 40
1.443083076417404
 40
1.443083076417404
 40
1.443083076417404
 40
1.443083076417404
 10
27.54345428002196
 20
134.1723011528934
 30
0.0
 10
27.53835999049631
 20
134.1084839359231
 30
0.0
 10
27.52782962986242
 20
133.9765679335122
 30
0.0
 10
27.44164651654648
 20
133.7859795287376
 30
0.0
 10
27.30077204690961
 20
133.6098658788307
 30
0.0
 10
27.09924320943267
 20
133.4629032876896
 30
0.0
 10
26.84083778780331
 20
133.3551824265365
 30
0.0
 10
26.64624172844332
 20
133.340798987806
 30
0.0
 10
26.54345428002196
 20
133.3332015216934
 30
0.0
 11
27.54345428002196
 21
134.1723011528934
 31
0.0
 11
27.51771565632194
 21
133.9831502081934
 31
0.0
 11
27.43726360892196
 21
133.7960092799934
 31
0.0
 11
27.29926385052195
 21
133.6228658565934
 31
0.0
 11
27.10257487752196
 21
133.4766151115934
 31
0.0
 11
26.84825403802196
 21
133.3731288550934
 31
0.0
 11
26.54345428002196
 21
133.3332015216934
 31
0.0
  0
SPLINE
  5
727
100
AcDbEntity
  8
ALPHA
  6
CONTINUOUS
 62
     7
100
AcDbSpline
210
0.0
220
0.0
230
1.0
 70
     8
 71
     3
 72
    13
 73
     9
 74
     7
 42
0.0000001
 43
0.0000001
 44
0.0000000001
 40
0.0
 40
0.0
 40
0.0
 40
0.0
 40
0.1908940979466757
 40
0.3945954944524508
 40
0.6160059241641877
 40
0.8611096420324567
 40
1.135679295651288
 40
1.443083076417389
 40
1.443083076417389
 40
1.443083076417389
 40
1.443083076417389
 10
27.54345428002196
 20
132.0563773843934
 30
0.0
 10
27.5383599904963
 20
131.9925601674231
 30
0.0
 10
27.52782962986242
 20
131.8606441650122
 30
0.0
 10
27.44164651654648
 20
131.6700557602376
 30
0.0
 10
27.30077204690961
 20
131.4939421103308
 30
0.0
 10
27.09924320943268
 20
131.3469795191896
 30
0.0
 10
26.84083778780331
 20
131.2392586580364
 30
0.0
 10
26.64624172844332
 20
131.2248752193059
 30
0.0
 10
26.54345428002196
 20
131.2172777531934
 30
0.0
 11
27.54345428002196
 21
132.0563773843934
 31
0.0
 11
27.51771565632194
 21
131.8672264396934
 31
0.0
 11
27.43726360892196
 21
131.6800855114934
 31
0.0
 11
27.29926385052195
 21
131.5069420880934
 31
0.0
 11
27.10257487752196
 21
131.3606913430934
 31
0.0
 11
26.84825403802196
 21
131.2572050865934
 31
0.0
 11
26.54345428002196
 21
131.2172777531934
 31
0.0
  0
LINE
  5
728
100
AcDbEntity
  8
ALPHA
  6
CONTINUOUS
 62
     7
100
AcDbLine
 10
21.293454
 20
148.732469
 30
0.0
 11
23.793454
 21
148.732469
 31
0.0
  0
LINE
  5
729
100
AcDbEntity
  8
ALPHA
  6
CONTINUOUS
 62
     7
100
AcDbLine
 10
21.293454
 20
148.517278
 30
0.0
 11
24.293454
 21
148.517278
 31
0.0
  0
LINE
  5
72A
100
AcDbEntity
  8
ALPHA
  6
CONTINUOUS
 62
     7
100
AcDbLine
 10
14.793454
 20
148.517278
 30
0.0
 11
17.793454
 21
148.517278
 31
0.0
  0
LINE
  5
72B
100
AcDbEntity
  8
ALPHA
  6
CONTINUOUS
 62
     7
100
AcDbLine
 10
14.793454
 20
146.917278
 30
0.0
 11
13.793454
 21
146.917278
 31
0.0
  0
LINE
  5
72C
100
AcDbEntity
  8
ALPHA
  6
CONTINUOUS
 62
     7
100
AcDbLine
 10
17.393454
 20
148.517278
 30
0.0
 11
17.393454
 21
148.732469
 31
0.0
  0
LINE
  5
72D
100
AcDbEntity
  8
ALPHA
  6
CONTINUOUS
 62
     7
100
AcDbLine
 10
16.393454
 20
148.517278
 30
0.0
 11
16.393454
 21
148.732469
 31
0.0
  0
LINE
  5
72E
100
AcDbEntity
  8
ALPHA
  6
CONTINUOUS
 62
     7
100
AcDbLine
 10
15.793454
 20
148.517278
 30
0.0
 11
15.793454
 21
148.732469
 31
0.0
  0
LINE
  5
72F
100
AcDbEntity
  8
ALPHA
  6
CONTINUOUS
 62
     7
100
AcDbLine
 10
14.793454
 20
148.732469
 30
0.0
 11
17.393454
 21
148.732469
 31
0.0
  0
LINE
  5
730
100
AcDbEntity
  8
ALPHA
  6
CONTINUOUS
 62
     7
100
AcDbLine
 10
21.293454
 20
146.917278
 30
0.0
 11
20.293454
 21
146.917278
 31
0.0
  0
LINE
  5
731
100
AcDbEntity
  8
ALPHA
  6
CONTINUOUS
 62
     7
100
AcDbLine
 10
17.793454
 20
146.917278
 30
0.0
 11
18.793454
 21
146.917278
 31
0.0
  0
LINE
  5
732
100
AcDbEntity
  8
ALPHA
  6
CONTINUOUS
 62
     7
100
AcDbLine
 10
22.793454
 20
148.517278
 30
0.0
 11
22.793454
 21
148.732469
 31
0.0
  0
LINE
  5
733
100
AcDbEntity
  8
ALPHA
  6
CONTINUOUS
 62
     7
100
AcDbLine
 10
22.193454
 20
148.517278
 30
0.0
 11
22.193454
 21
148.732469
 31
0.0
  0
LINE
  5
734
100
AcDbEntity
  8
ALPHA
  6
CONTINUOUS
 62
     7
100
AcDbLine
 10
23.793454
 20
148.517278
 30
0.0
 11
23.793454
 21
148.732469
 31
0.0
  0
LINE
  5
735
100
AcDbEntity
  8
ALPHA
  6
CONTINUOUS
 62
     7
100
AcDbLine
 10
24.293454
 20
146.917278
 30
0.0
 11
25.293454
 21
146.917278
 31
0.0
  0
SPLINE
  5
736
100
AcDbEntity
  8
ALPHA
  6
CONTINUOUS
 62
     7
100
AcDbSpline
210
0.0
220
0.0
230
-1.0
 70
     8
 71
     3
 72
    16
 73
    12
 74
    10
 42
0.0000001
 43
0.0000001
 44
0.0000000001
 40
0.0
 40
0.0
 40
0.0
 40
0.0
 40
0.3185912915754979
 40
0.6391018741948298
 40
0.9571855131563447
 40
1.281435583222328
 40
1.598216698669275
 40
1.922451645304731
 40
2.240528213249015
 40
2.560990510067837
 40
2.879529690462207
 40
2.879529690462207
 40
2.879529690462207
 40
2.879529690462207
 10
13.29345428002196
 20
184.3887674449934
 30
0.0
 10
13.18664691731234
 20
184.3782543240426
 30
0.0
 10
12.97238875178633
 20
184.3571647478961
 30
0.0
 10
12.69083764886326
 20
184.1871579660186
 30
0.0
 10
12.47905884654679
 20
183.9392905692658
 30
0.0
 10
12.36776133182407
 20
183.6316725125919
 30
0.0
 10
12.36779083942182
 20
183.303937401247
 30
0.0
 10
12.47911387032016
 20
182.9963390508286
 30
0.0
 10
12.690909041894
 20
182.7485143099127
 30
0.0
 10
12.97244163967128
 20
182.5785570842922
 30
0.0
 10
13.18666497291408
 20
182.5574701226998
 30
0.0
 10
13.29345428002196
 20
182.5469583731934
 30
0.0
 11
13.29345428002196
 21
184.3887674449934
 31
0.0
 11
12.97956023032196
 21
184.3342611459934
 31
0.0
 11
12.70205886612197
 21
184.1738865019934
 31
0.0
 11
12.49678244132195
 21
183.9309075094934
 31
0.0
 11
12.38593213492197
 21
183.6261940087934
 31
0.0
 11
12.38595662912195
 21
183.3094128942934
 31
0.0
 11
12.49683633642195
 21
183.0047261844934
 31
0.0
 11
12.70213666642195
 21
182.7617766473934
 31
0.0
 11
12.97961082082196
 21
182.6014514237934
 31
0.0
 11
13.29345428002196
 21
182.5469583731934
 31
0.0
  0
SPLINE
  5
737
100
AcDbEntity
  8
ALPHA
  6
CONTINUOUS
 62
     7
100
AcDbSpline
210
0.0
220
0.0
230
1.0
 70
     8
 71
     3
 72
    16
 73
    12
 74
    10
 42
0.0000001
 43
0.0000001
 44
0.0000000001
 40
0.0
 40
0.0
 40
0.0
 40
0.0
 40
0.3185391802958284
 40
0.6390014771146504
 40
0.9570780451234888
 40
1.281312991758945
 40
1.598094107205884
 40
1.922344177271867
 40
2.240427816233383
 40
2.560938398852739
 40
2.879529690329695
 40
2.879529690329695
 40
2.879529690329695
 40
2.879529690329695
 10
23.79345428002196
 20
182.5469583731934
 30
0.0
 10
23.90024358709694
 20
182.5574701227031
 30
0.0
 10
24.11446692030697
 20
182.5785570843055
 30
0.0
 10
24.39599951804844
 20
182.7485143099437
 30
0.0
 10
24.60779468972612
 20
182.9963390507909
 30
0.0
 10
24.71911772065434
 20
183.3039374012514
 30
0.0
 10
24.71914722808383
 20
183.6316725125907
 30
0.0
 10
24.60784971340669
 20
183.939290569266
 30
0.0
 10
24.39607091107804
 20
184.1871579660187
 30
0.0
 10
24.1145198081875
 20
184.3571647478779
 30
0.0
 10
23.90026164269721
 20
184.3782543240376
 30
0.0
 10
23.79345428002196
 20
184.3887674449934
 30
0.0
 11
23.79345428002196
 21
182.5469583731934
 31
0.0
 11
24.10729773912194
 21
182.6014514237934
 31
0.0
 11
24.38477189352195
 21
182.7617766473934
 31
0.0
 11
24.59007222362197
 21
183.0047261844934
 31
0.0
 11
24.70095193092197
 21
183.3094128942934
 31
0.0
 11
24.70097642502196
 21
183.6261940087934
 31
0.0
 11
24.59012611862198
 21
183.9309075094934
 31
0.0
 11
24.38484969382196
 21
184.1738865019934
 31
0.0
 11
24.10734832962194
 21
184.3342611459934
 31
0.0
 11
23.79345428002196
 21
184.3887674449934
 31
0.0
  0
SPLINE
  5
738
100
AcDbEntity
  8
ALPHA
  6
CONTINUOUS
 62
     7
100
AcDbSpline
210
0.0
220
0.0
230
-1.0
 70
     8
 71
     3
 72
    15
 73
    11
 74
     9
 42
0.0000001
 43
0.0000001
 44
0.0000000001
 40
0.0
 40
0.0
 40
0.0
 40
0.0
 40
0.2926734210942261
 40
0.5849672313982002
 40
0.8774122716901283
 40
1.169888762338393
 40
1.462365252986713
 40
1.754810293278594
 40
2.0471041035826
 40
2.339777524676815
 40
2.339777524676815
 40
2.339777524676815
 40
2.339777524676815
 10
13.29345428002196
 20
184.2172777531934
 30
0.0
 10
13.19542293680465
 20
184.2055888639587
 30
0.0
 10
12.99948740149816
 20
184.1822262465124
 30
0.0
 10
12.74875492335985
 20
184.0104372992917
 30
0.0
 10
12.58409002572567
 20
183.761483144716
 30
0.0
 10
12.52313531470846
 20
183.4672777531934
 30
0.0
 10
12.58409002572564
 20
183.1730723616708
 30
0.0
 10
12.74875492335989
 20
182.9241182070951
 30
0.0
 10
12.99948740149814
 20
182.7523292598743
 30
0.0
 10
13.19542293680464
 20
182.7289666424281
 30
0.0
 10
13.29345428002196
 20
182.7172777531934
 30
0.0
 11
13.29345428002196
 21
184.2172777531934
 31
0.0
 11
13.00656288972194
 21
184.1593893986934
 31
0.0
 11
12.76312419412195
 21
183.9976078390934
 31
0.0
 11
12.60138450652195
 21
183.7539597833934
 31
0.0
 11
12.54345428002196
 21
183.4672777531934
 31
0.0
 11
12.60138450652195
 21
183.1805957229934
 31
0.0
 11
12.76312419412195
 21
182.9369476672934
 31
0.0
 11
13.00656288972194
 21
182.7751661076934
 31
0.0
 11
13.29345428002196
 21
182.7172777531934
 31
0.0
  0
SPLINE
  5
739
100
AcDbEntity
  8
ALPHA
  6
CONTINUOUS
 62
     7
100
AcDbSpline
210
0.0
220
0.0
230
1.0
 70
     8
 71
     3
 72
    15
 73
    11
 74
     9
 42
0.0000001
 43
0.0000001
 44
0.0000000001
 40
0.0
 40
0.0
 40
0.0
 40
0.0
 40
0.2926734209961748
 40
0.5849672313001804
 40
0.8774122715920611
 40
1.169888762260191
 40
1.462365252928266
 40
1.754810293220195
 40
2.047104103524169
 40
2.339777524520355
 40
2.339777524520355
 40
2.339777524520355
 40
2.339777524520355
 10
23.79345428002196
 20
182.7172777531934
 30
0.0
 10
23.89148562320341
 20
182.7289666424336
 30
0.0
 10
24.087421158471
 20
182.7523292598949
 30
0.0
 10
24.33815363659597
 20
182.9241182070935
 30
0.0
 10
24.50281853417688
 20
183.173072361682
 30
0.0
 10
24.56377324540685
 20
183.4672777531934
 30
0.0
 10
24.50281853417686
 20
183.7614831447048
 30
0.0
 10
24.33815363659599
 20
184.0104372992933
 30
0.0
 10
24.087421158471
 20
184.1822262464918
 30
0.0
 10
23.8914856232034
 20
184.2055888639532
 30
0.0
 10
23.79345428002196
 20
184.2172777531934
 30
0.0
 11
23.79345428002196
 21
182.7172777531934
 31
0.0
 11
24.08034567022196
 21
182.7751661076934
 31
0.0
 11
24.32378436582195
 21
182.9369476672934
 31
0.0
 11
24.48552405342195
 21
183.1805957229934
 31
0.0
 11
24.54345428002196
 21
183.4672777531934
 31
0.0
 11
24.48552405342195
 21
183.7539597833934
 31
0.0
 11
24.32378436582195
 21
183.9976078390934
 31
0.0
 11
24.08034567022196
 21
184.1593893986934
 31
0.0
 11
23.79345428002196
 21
184.2172777531934
 31
0.0
  0
LINE
  5
73A
100
AcDbEntity
  8
ALPHA
  6
CONTINUOUS
 62
     9
100
AcDbLine
 10
27.393269
 20
157.717278
 30
0.0
 11
27.393269
 21
203.217278
 31
0.0
  0
LINE
  5
73B
100
AcDbEntity
  8
ALPHA
  6
CONTINUOUS
 62
     9
100
AcDbLine
 10
27.09368
 20
157.717278
 30
0.0
 11
27.09368
 21
203.217278
 31
0.0
  0
LINE
  5
73C
100
AcDbEntity
  8
ALPHA
  6
CONTINUOUS
 62
     7
100
AcDbLine
 10
25.193454
 20
155.417278
 30
0.0
 11
20.393454
 21
155.417278
 31
0.0
  0
LINE
  5
73D
100
AcDbEntity
  8
ALPHA
  6
CONTINUOUS
 62
     7
100
AcDbLine
 10
24.293454
 20
154.517278
 30
0.0
 11
21.293454
 21
154.517278
 31
0.0
  0
LINE
  5
73E
100
AcDbEntity
  8
ALPHA
  6
CONTINUOUS
 62
     9
100
AcDbLine
 10
24.293454
 20
153.332469
 30
0.0
 11
21.293454
 21
153.332469
 31
0.0
  0
LINE
  5
73F
100
AcDbEntity
  8
ALPHA
  6
CONTINUOUS
 62
     7
100
AcDbLine
 10
18.693454
 20
155.417278
 30
0.0
 11
13.893454
 21
155.417278
 31
0.0
  0
LINE
  5
740
100
AcDbEntity
  8
ALPHA
  6
CONTINUOUS
 62
     7
100
AcDbLine
 10
17.793454
 20
154.517278
 30
0.0
 11
14.793454
 21
154.517278
 31
0.0
  0
LINE
  5
741
100
AcDbEntity
  8
ALPHA
  6
CONTINUOUS
 62
     9
100
AcDbLine
 10
17.793454
 20
153.332469
 30
0.0
 11
14.793454
 21
153.332469
 31
0.0
  0
LINE
  5
742
100
AcDbEntity
  8
ALPHA
  6
CONTINUOUS
 62
     7
100
AcDbLine
 10
13.893454
 20
155.417278
 30
0.0
 11
14.793454
 21
154.517278
 31
0.0
  0
LINE
  5
743
100
AcDbEntity
  8
ALPHA
  6
CONTINUOUS
 62
     7
100
AcDbLine
 10
20.393454
 20
155.417278
 30
0.0
 11
21.293454
 21
154.517278
 31
0.0
  0
LINE
  5
744
100
AcDbEntity
  8
ALPHA
  6
CONTINUOUS
 62
     7
100
AcDbLine
 10
17.793454
 20
154.517278
 30
0.0
 11
18.693454
 21
155.417278
 31
0.0
  0
LINE
  5
745
100
AcDbEntity
  8
ALPHA
  6
CONTINUOUS
 62
     7
100
AcDbLine
 10
24.293454
 20
154.517278
 30
0.0
 11
25.193454
 21
155.417278
 31
0.0
  0
LINE
  5
746
100
AcDbEntity
  8
ALPHA
  6
CONTINUOUS
 62
     7
100
AcDbLine
 10
26.825957
 20
157.517278
 30
0.0
 11
26.843454
 21
157.717278
 31
0.0
  0
LINE
  5
747
100
AcDbEntity
  8
ALPHA
  6
CONTINUOUS
 62
     7
100
AcDbLine
 10
27.543454
 20
157.717278
 30
0.0
 11
26.843454
 21
157.717278
 31
0.0
  0
LINE
  5
748
100
AcDbEntity
  8
ALPHA
  6
CONTINUOUS
 62
     7
100
AcDbLine
 10
13.293454
 20
182.717278
 30
0.0
 11
23.793454
 21
182.717278
 31
0.0
  0
LINE
  5
749
100
AcDbEntity
  8
ALPHA
  6
CONTINUOUS
 62
     7
100
AcDbLine
 10
13.293454
 20
182.546958
 30
0.0
 11
23.793454
 21
182.546958
 31
0.0
  0
LINE
  5
74A
100
AcDbEntity
  8
ALPHA
  6
CONTINUOUS
 62
     7
100
AcDbLine
 10
23.793454
 20
181.386427
 30
0.0
 11
13.293454
 21
181.386427
 31
0.0
  0
LINE
  5
74B
100
AcDbEntity
  8
ALPHA
  6
CONTINUOUS
 62
     7
100
AcDbLine
 10
23.793454
 20
181.217278
 30
0.0
 11
13.293454
 21
181.217278
 31
0.0
  0
LINE
  5
74C
100
AcDbEntity
  8
ALPHA
  6
CONTINUOUS
 62
     7
100
AcDbLine
 10
13.293454
 20
179.717278
 30
0.0
 11
23.793454
 21
179.717278
 31
0.0
  0
LINE
  5
74D
100
AcDbEntity
  8
ALPHA
  6
CONTINUOUS
 62
     7
100
AcDbLine
 10
13.293454
 20
179.549299
 30
0.0
 11
23.793454
 21
179.549299
 31
0.0
  0
LINE
  5
74E
100
AcDbEntity
  8
ALPHA
  6
CONTINUOUS
 62
     7
100
AcDbLine
 10
23.793454
 20
178.384086
 30
0.0
 11
13.293454
 21
178.384086
 31
0.0
  0
LINE
  5
74F
100
AcDbEntity
  8
ALPHA
  6
CONTINUOUS
 62
     7
100
AcDbLine
 10
23.793454
 20
178.217278
 30
0.0
 11
13.293454
 21
178.217278
 31
0.0
  0
LINE
  5
750
100
AcDbEntity
  8
ALPHA
  6
CONTINUOUS
 62
     7
100
AcDbLine
 10
13.293454
 20
176.717278
 30
0.0
 11
23.793454
 21
176.717278
 31
0.0
  0
LINE
  5
751
100
AcDbEntity
  8
ALPHA
  6
CONTINUOUS
 62
     7
100
AcDbLine
 10
13.293454
 20
176.55164
 30
0.0
 11
23.793454
 21
176.55164
 31
0.0
  0
SPLINE
  5
752
100
AcDbEntity
  8
ALPHA
  6
CONTINUOUS
 62
     7
100
AcDbSpline
210
0.0
220
0.0
230
-1.0
 70
     8
 71
     3
 72
    16
 73
    12
 74
    10
 42
0.0000001
 43
0.0000001
 44
0.0000000001
 40
0.0
 40
0.0
 40
0.0
 40
0.0
 40
0.3169792404656428
 40
0.6358903379301966
 40
0.9523398361302925
 40
1.274929243439839
 40
1.590103618848957
 40
1.912677609232939
 40
2.229119029458847
 40
2.547980738675668
 40
2.864906246334904
 40
2.864906246334904
 40
2.864906246334904
 40
2.864906246334904
 10
13.29345428002196
 20
178.3840861977934
 30
0.0
 10
13.18718625924849
 20
178.37363002161
 30
0.0
 10
12.97400255819114
 20
178.3526539431863
 30
0.0
 10
12.69388783945055
 20
178.1834858926324
 30
0.0
 10
12.48318213355942
 20
177.9368840366238
 30
0.0
 10
12.3724633734169
 20
177.6308327692747
 30
0.0
 10
12.37249364941744
 20
177.3047732237152
 30
0.0
 10
12.48323906515337
 20
176.9987425852863
 30
0.0
 10
12.693961395917
 20
176.7521846833358
 30
0.0
 10
12.9740569704915
 20
176.5830677770573
 30
0.0
 10
13.18720488095225
 20
176.5620943820954
 30
0.0
 10
13.29345428002196
 20
176.5516396203934
 30
0.0
 11
13.29345428002196
 21
178.3840861977934
 31
0.0
 11
12.98114737762196
 21
178.3298622399934
 31
0.0
 11
12.70503777692195
 21
178.1702759733934
 31
0.0
 11
12.50081789392194
 21
177.9285436331934
 31
0.0
 11
12.39054099562196
 21
177.6253886704934
 31
0.0
 11
12.39056621672196
 21
177.3102142960934
 31
0.0
 11
12.50087370472195
 21
177.0070868684934
 31
0.0
 11
12.70511766942198
 21
176.7653854507934
 31
0.0
 11
12.98119954052194
 21
176.6058499059934
 31
0.0
 11
13.29345428002196
 21
176.5516396203934
 31
0.0
  0
SPLINE
  5
753
100
AcDbEntity
  8
ALPHA
  6
CONTINUOUS
 62
     7
100
AcDbSpline
210
0.0
220
0.0
230
-1.0
 70
     8
 71
     3
 72
    15
 73
    11
 74
     9
 42
0.0000001
 43
0.0000001
 44
0.0000000001
 40
0.0
 40
0.0
 40
0.0
 40
0.0
 40
0.2926734210942261
 40
0.5849672313982002
 40
0.8774122716901283
 40
1.169888762338393
 40
1.462365252986713
 40
1.754810293278594
 40
2.0471041035826
 40
2.339777524676815
 40
2.339777524676815
 40
2.339777524676815
 40
2.339777524676815
 10
13.29345428002196
 20
178.2172777531934
 30
0.0
 10
13.19542293680465
 20
178.2055888639587
 30
0.0
 10
12.99948740149816
 20
178.1822262465125
 30
0.0
 10
12.74875492335985
 20
178.0104372992916
 30
0.0
 10
12.58409002572567
 20
177.761483144716
 30
0.0
 10
12.52313531470846
 20
177.4672777531933
 30
0.0
 10
12.58409002572564
 20
177.1730723616708
 30
0.0
 10
12.74875492335989
 20
176.9241182070953
 30
0.0
 10
12.99948740149814
 20
176.7523292598743
 30
0.0
 10
13.19542293680464
 20
176.728966642428
 30
0.0
 10
13.29345428002196
 20
176.7172777531934
 30
0.0
 11
13.29345428002196
 21
178.2172777531934
 31
0.0
 11
13.00656288972194
 21
178.1593893986934
 31
0.0
 11
12.76312419412195
 21
177.9976078390934
 31
0.0
 11
12.60138450652195
 21
177.7539597833934
 31
0.0
 11
12.54345428002196
 21
177.4672777531934
 31
0.0
 11
12.60138450652195
 21
177.1805957229934
 31
0.0
 11
12.76312419412195
 21
176.9369476672934
 31
0.0
 11
13.00656288972194
 21
176.7751661076934
 31
0.0
 11
13.29345428002196
 21
176.7172777531934
 31
0.0
  0
LINE
  5
754
100
AcDbEntity
  8
ALPHA
  6
CONTINUOUS
 62
     9
100
AcDbLine
 10
13.293454
 20
176.55164
 30
0.0
 11
13.293454
 21
176.717278
 31
0.0
  0
LINE
  5
755
100
AcDbEntity
  8
ALPHA
  6
CONTINUOUS
 62
     9
100
AcDbLine
 10
13.293454
 20
178.384086
 30
0.0
 11
13.293454
 21
178.217278
 31
0.0
  0
SPLINE
  5
756
100
AcDbEntity
  8
ALPHA
  6
CONTINUOUS
 62
     7
100
AcDbSpline
210
0.0
220
0.0
230
-1.0
 70
     8
 71
     3
 72
    16
 73
    12
 74
    10
 42
0.0000001
 43
0.0000001
 44
0.0000000001
 40
0.0
 40
0.0
 40
0.0
 40
0.0
 40
0.3177852650972459
 40
0.6374960999524772
 40
0.9547626534914044
 40
1.278182394310316
 40
1.594160142787559
 40
1.917564617208984
 40
2.234823604904527
 40
2.554485612952352
 40
2.872217969397691
 40
2.872217969397691
 40
2.872217969397691
 40
2.872217969397691
 10
13.29345428002196
 20
181.3864268213934
 30
0.0
 10
13.18691658859154
 20
181.3759421729384
 30
0.0
 10
12.97319565737075
 20
181.3549093459527
 30
0.0
 10
12.69236275200749
 20
181.185321934879
 30
0.0
 10
12.48112049884804
 20
180.9380873167673
 30
0.0
 10
12.37011235532665
 20
180.6312526603088
 30
0.0
 10
12.37014224086154
 20
180.3043553280622
 30
0.0
 10
12.48117645945178
 20
179.9975408304763
 30
0.0
 10
12.69243520827381
 20
179.7503495057657
 30
0.0
 10
12.97324929457371
 20
179.5808124315052
 30
0.0
 10
13.18693492259884
 20
179.5597822527333
 30
0.0
 10
13.29345428002196
 20
179.5492989967934
 30
0.0
 11
13.29345428002196
 21
181.3864268213934
 31
0.0
 11
12.98035380482196
 21
181.3320616933934
 31
0.0
 11
12.70354832602197
 21
181.1720812419934
 31
0.0
 11
12.49880017832197
 21
180.9297255900934
 31
0.0
 11
12.38823656832195
 21
180.6257913588934
 31
0.0
 11
12.38826141972194
 21
180.3098136113934
 31
0.0
 11
12.49885501462196
 21
180.0059065353934
 31
0.0
 11
12.70362715432196
 21
179.7635810598934
 31
0.0
 11
12.98040516862195
 21
179.6036506681934
 31
0.0
 11
13.29345428002196
 21
179.5492989967934
 31
0.0
  0
SPLINE
  5
757
100
AcDbEntity
  8
ALPHA
  6
CONTINUOUS
 62
     7
100
AcDbSpline
210
0.0
220
0.0
230
-1.0
 70
     8
 71
     3
 72
    15
 73
    11
 74
     9
 42
0.0000001
 43
0.0000001
 44
0.0000000001
 40
0.0
 40
0.0
 40
0.0
 40
0.0
 40
0.2926734210942261
 40
0.5849672313982002
 40
0.8774122716901283
 40
1.169888762338393
 40
1.462365252986713
 40
1.754810293278594
 40
2.0471041035826
 40
2.339777524676815
 40
2.339777524676815
 40
2.339777524676815
 40
2.339777524676815
 10
13.29345428002196
 20
181.2172777531934
 30
0.0
 10
13.19542293680465
 20
181.2055888639587
 30
0.0
 10
12.99948740149816
 20
181.1822262465125
 30
0.0
 10
12.74875492335985
 20
181.0104372992917
 30
0.0
 10
12.58409002572567
 20
180.761483144716
 30
0.0
 10
12.52313531470846
 20
180.4672777531934
 30
0.0
 10
12.58409002572564
 20
180.1730723616708
 30
0.0
 10
12.74875492335989
 20
179.9241182070952
 30
0.0
 10
12.99948740149814
 20
179.7523292598742
 30
0.0
 10
13.19542293680464
 20
179.728966642428
 30
0.0
 10
13.29345428002196
 20
179.7172777531934
 30
0.0
 11
13.29345428002196
 21
181.2172777531934
 31
0.0
 11
13.00656288972194
 21
181.1593893986934
 31
0.0
 11
12.76312419412195
 21
180.9976078390934
 31
0.0
 11
12.60138450652195
 21
180.7539597833934
 31
0.0
 11
12.54345428002196
 21
180.4672777531934
 31
0.0
 11
12.60138450652195
 21
180.1805957229934
 31
0.0
 11
12.76312419412195
 21
179.9369476672934
 31
0.0
 11
13.00656288972194
 21
179.7751661076934
 31
0.0
 11
13.29345428002196
 21
179.7172777531934
 31
0.0
  0
LINE
  5
758
100
AcDbEntity
  8
ALPHA
  6
CONTINUOUS
 62
     9
100
AcDbLine
 10
13.293454
 20
182.546958
 30
0.0
 11
13.293454
 21
182.717278
 31
0.0
  0
LINE
  5
759
100
AcDbEntity
  8
ALPHA
  6
CONTINUOUS
 62
     9
100
AcDbLine
 10
13.293454
 20
179.549299
 30
0.0
 11
13.293454
 21
179.717278
 31
0.0
  0
LINE
  5
75A
100
AcDbEntity
  8
ALPHA
  6
CONTINUOUS
 62
     9
100
AcDbLine
 10
13.293454
 20
181.386427
 30
0.0
 11
13.293454
 21
181.217278
 31
0.0
  0
SPLINE
  5
75B
100
AcDbEntity
  8
ALPHA
  6
CONTINUOUS
 62
     7
100
AcDbSpline
210
0.0
220
0.0
230
1.0
 70
     8
 71
     3
 72
    16
 73
    12
 74
    10
 42
0.0000001
 43
0.0000001
 44
0.0000000001
 40
0.0
 40
0.0
 40
0.0
 40
0.0
 40
0.3169255075606935
 40
0.6357872167775398
 40
0.9522286370034287
 40
1.274802627387421
 40
1.589977002796546
 40
1.912566410140284
 40
2.229015908275835
 40
2.547927005826957
 40
2.864906246194086
 40
2.864906246194086
 40
2.864906246194086
 40
2.864906246194086
 10
23.79345428002196
 20
176.5516396203934
 30
0.0
 10
23.89970367905735
 20
176.5620943821004
 30
0.0
 10
24.11285158948251
 20
176.5830677770756
 30
0.0
 10
24.39294716402351
 20
176.7521846833353
 30
0.0
 10
24.60366949480306
 20
176.9987425852875
 30
0.0
 10
24.71441491047923
 20
177.3047732237107
 30
0.0
 10
24.71444518670052
 20
177.6308327693029
 30
0.0
 10
24.60372642633505
 20
177.9368840365616
 30
0.0
 10
24.39302072059677
 20
178.1834858927021
 30
0.0
 10
24.11290600179283
 20
178.3526539431415
 30
0.0
 10
23.89972230075478
 20
178.3736300215971
 30
0.0
 10
23.79345428002196
 20
178.3840861977934
 30
0.0
 11
23.79345428002196
 21
176.5516396203934
 31
0.0
 11
24.10570901942196
 21
176.6058499059934
 31
0.0
 11
24.38179089052195
 21
176.7653854507934
 31
0.0
 11
24.58603485522195
 21
177.0070868684934
 31
0.0
 11
24.69634234322197
 21
177.3102142960934
 31
0.0
 11
24.69636756442196
 21
177.6253886704934
 31
0.0
 11
24.58609066602196
 21
177.9285436331934
 31
0.0
 11
24.38187078312196
 21
178.1702759733934
 31
0.0
 11
24.10576118232197
 21
178.3298622399934
 31
0.0
 11
23.79345428002196
 21
178.3840861977934
 31
0.0
  0
SPLINE
  5
75C
100
AcDbEntity
  8
ALPHA
  6
CONTINUOUS
 62
     7
100
AcDbSpline
210
0.0
220
0.0
230
1.0
 70
     8
 71
     3
 72
    15
 73
    11
 74
     9
 42
0.0000001
 43
0.0000001
 44
0.0000000001
 40
0.0
 40
0.0
 40
0.0
 40
0.0
 40
0.2926734209961748
 40
0.5849672313001804
 40
0.8774122715920611
 40
1.169888762260191
 40
1.462365252928266
 40
1.754810293220195
 40
2.047104103524169
 40
2.339777524520355
 40
2.339777524520355
 40
2.339777524520355
 40
2.339777524520355
 10
23.79345428002196
 20
176.7172777531934
 30
0.0
 10
23.89148562320341
 20
176.7289666424336
 30
0.0
 10
24.087421158471
 20
176.7523292598949
 30
0.0
 10
24.33815363659597
 20
176.9241182070935
 30
0.0
 10
24.50281853417688
 20
177.173072361682
 30
0.0
 10
24.56377324540685
 20
177.4672777531934
 30
0.0
 10
24.50281853417686
 20
177.7614831447048
 30
0.0
 10
24.33815363659599
 20
178.0104372992934
 30
0.0
 10
24.087421158471
 20
178.1822262464918
 30
0.0
 10
23.8914856232034
 20
178.2055888639531
 30
0.0
 10
23.79345428002196
 20
178.2172777531934
 30
0.0
 11
23.79345428002196
 21
176.7172777531934
 31
0.0
 11
24.08034567022196
 21
176.7751661076934
 31
0.0
 11
24.32378436582195
 21
176.9369476672934
 31
0.0
 11
24.48552405342195
 21
177.1805957229934
 31
0.0
 11
24.54345428002196
 21
177.4672777531934
 31
0.0
 11
24.48552405342195
 21
177.7539597833934
 31
0.0
 11
24.32378436582195
 21
177.9976078390934
 31
0.0
 11
24.08034567022196
 21
178.1593893986934
 31
0.0
 11
23.79345428002196
 21
178.2172777531934
 31
0.0
  0
LINE
  5
75D
100
AcDbEntity
  8
ALPHA
  6
CONTINUOUS
 62
     9
100
AcDbLine
 10
23.793454
 20
176.55164
 30
0.0
 11
23.793454
 21
176.717278
 31
0.0
  0
LINE
  5
75E
100
AcDbEntity
  8
ALPHA
  6
CONTINUOUS
 62
     9
100
AcDbLine
 10
23.793454
 20
178.384086
 30
0.0
 11
23.793454
 21
178.217278
 31
0.0
  0
SPLINE
  5
75F
100
AcDbEntity
  8
ALPHA
  6
CONTINUOUS
 62
     7
100
AcDbSpline
210
0.0
220
0.0
230
1.0
 70
     8
 71
     3
 72
    16
 73
    12
 74
    10
 42
0.0000001
 43
0.0000001
 44
0.0000000001
 40
0.0
 40
0.0
 40
0.0
 40
0.0
 40
0.317732356346797
 40
0.6373943643946215
 40
0.9546533520901826
 40
1.278057826511598
 40
1.594035574988841
 40
1.917455315807743
 40
2.234721869346671
 40
2.554432704201902
 40
2.872217969200634
 40
2.872217969200634
 40
2.872217969200634
 40
2.872217969200634
 10
23.79345428002196
 20
179.5492989967934
 30
0.0
 10
23.89997363741049
 20
179.5597822527383
 30
0.0
 10
24.11365926539949
 20
179.5808124315234
 30
0.0
 10
24.39447335167001
 20
179.7503495057655
 30
0.0
 10
24.60573210049219
 20
179.9975408304764
 30
0.0
 10
24.71676631908234
 20
180.3043553280622
 30
0.0
 10
24.71679620461724
 20
180.6312526603088
 30
0.0
 10
24.60578806109591
 20
180.9380873167673
 30
0.0
 10
24.39454580793636
 20
181.1853219348791
 30
0.0
 10
24.11371290260245
 20
181.3549093459345
 30
0.0
 10
23.89999197141779
 20
181.3759421729335
 30
0.0
 10
23.79345428002196
 20
181.3864268213934
 30
0.0
 11
23.79345428002196
 21
179.5492989967934
 31
0.0
 11
24.10650339132195
 21
179.6036506681934
 31
0.0
 11
24.38328140562194
 21
179.7635810598934
 31
0.0
 11
24.58805354532197
 21
180.0059065353934
 31
0.0
 11
24.69864714022196
 21
180.3098136113934
 31
0.0
 11
24.69867199162194
 21
180.6257913588934
 31
0.0
 11
24.58810838162196
 21
180.9297255900934
 31
0.0
 11
24.38336023392196
 21
181.1720812419934
 31
0.0
 11
24.10655475512197
 21
181.3320616933934
 31
0.0
 11
23.79345428002196
 21
181.3864268213934
 31
0.0
  0
SPLINE
  5
760
100
AcDbEntity
  8
ALPHA
  6
CONTINUOUS
 62
     7
100
AcDbSpline
210
0.0
220
0.0
230
1.0
 70
     8
 71
     3
 72
    15
 73
    11
 74
     9
 42
0.0000001
 43
0.0000001
 44
0.0000000001
 40
0.0
 40
0.0
 40
0.0
 40
0.0
 40
0.2926734209961748
 40
0.5849672313001804
 40
0.8774122715920611
 40
1.169888762260191
 40
1.462365252928266
 40
1.754810293220195
 40
2.047104103524169
 40
2.339777524520355
 40
2.339777524520355
 40
2.339777524520355
 40
2.339777524520355
 10
23.79345428002196
 20
179.7172777531934
 30
0.0
 10
23.89148562320341
 20
179.7289666424336
 30
0.0
 10
24.087421158471
 20
179.7523292598949
 30
0.0
 10
24.33815363659597
 20
179.9241182070935
 30
0.0
 10
24.50281853417688
 20
180.173072361682
 30
0.0
 10
24.56377324540685
 20
180.4672777531934
 30
0.0
 10
24.50281853417686
 20
180.7614831447048
 30
0.0
 10
24.33815363659599
 20
181.0104372992934
 30
0.0
 10
24.087421158471
 20
181.1822262464918
 30
0.0
 10
23.8914856232034
 20
181.2055888639532
 30
0.0
 10
23.79345428002196
 20
181.2172777531934
 30
0.0
 11
23.79345428002196
 21
179.7172777531934
 31
0.0
 11
24.08034567022196
 21
179.7751661076934
 31
0.0
 11
24.32378436582195
 21
179.9369476672934
 31
0.0
 11
24.48552405342195
 21
180.1805957229934
 31
0.0
 11
24.54345428002196
 21
180.4672777531934
 31
0.0
 11
24.48552405342195
 21
180.7539597833934
 31
0.0
 11
24.32378436582195
 21
180.9976078390934
 31
0.0
 11
24.08034567022196
 21
181.1593893986934
 31
0.0
 11
23.79345428002196
 21
181.2172777531934
 31
0.0
  0
LINE
  5
761
100
AcDbEntity
  8
ALPHA
  6
CONTINUOUS
 62
     9
100
AcDbLine
 10
23.793454
 20
182.546958
 30
0.0
 11
23.793454
 21
182.717278
 31
0.0
  0
LINE
  5
762
100
AcDbEntity
  8
ALPHA
  6
CONTINUOUS
 62
     9
100
AcDbLine
 10
23.793454
 20
179.549299
 30
0.0
 11
23.793454
 21
179.717278
 31
0.0
  0
LINE
  5
763
100
AcDbEntity
  8
ALPHA
  6
CONTINUOUS
 62
     9
100
AcDbLine
 10
23.793454
 20
181.386427
 30
0.0
 11
23.793454
 21
181.217278
 31
0.0
  0
LINE
  5
764
100
AcDbEntity
  8
ALPHA
  6
CONTINUOUS
 62
     7
100
AcDbLine
 10
23.793454
 20
196.39813
 30
0.0
 11
13.293454
 21
196.39813
 31
0.0
  0
LINE
  5
765
100
AcDbEntity
  8
ALPHA
  6
CONTINUOUS
 62
     7
100
AcDbLine
 10
23.793454
 20
196.217278
 30
0.0
 11
13.293454
 21
196.217278
 31
0.0
  0
LINE
  5
766
100
AcDbEntity
  8
ALPHA
  6
CONTINUOUS
 62
     7
100
AcDbLine
 10
13.293454
 20
194.717278
 30
0.0
 11
23.793454
 21
194.717278
 31
0.0
  0
LINE
  5
767
100
AcDbEntity
  8
ALPHA
  6
CONTINUOUS
 62
     7
100
AcDbLine
 10
13.293454
 20
194.537596
 30
0.0
 11
23.793454
 21
194.537596
 31
0.0
  0
LINE
  5
768
100
AcDbEntity
  8
ALPHA
  6
CONTINUOUS
 62
     7
100
AcDbLine
 10
23.793454
 20
193.395789
 30
0.0
 11
13.293454
 21
193.395789
 31
0.0
  0
LINE
  5
769
100
AcDbEntity
  8
ALPHA
  6
CONTINUOUS
 62
     7
100
AcDbLine
 10
23.793454
 20
193.217278
 30
0.0
 11
13.293454
 21
193.217278
 31
0.0
  0
LINE
  5
76A
100
AcDbEntity
  8
ALPHA
  6
CONTINUOUS
 62
     7
100
AcDbLine
 10
13.293454
 20
191.717278
 30
0.0
 11
23.793454
 21
191.717278
 31
0.0
  0
LINE
  5
76B
100
AcDbEntity
  8
ALPHA
  6
CONTINUOUS
 62
     7
100
AcDbLine
 10
13.293454
 20
191.539937
 30
0.0
 11
23.793454
 21
191.539937
 31
0.0
  0
LINE
  5
76C
100
AcDbEntity
  8
ALPHA
  6
CONTINUOUS
 62
     7
100
AcDbLine
 10
23.793454
 20
190.393449
 30
0.0
 11
13.293454
 21
190.393449
 31
0.0
  0
LINE
  5
76D
100
AcDbEntity
  8
ALPHA
  6
CONTINUOUS
 62
     7
100
AcDbLine
 10
23.793454
 20
190.217278
 30
0.0
 11
13.293454
 21
190.217278
 31
0.0
  0
LINE
  5
76E
100
AcDbEntity
  8
ALPHA
  6
CONTINUOUS
 62
     7
100
AcDbLine
 10
13.293454
 20
188.717278
 30
0.0
 11
23.793454
 21
188.717278
 31
0.0
  0
LINE
  5
76F
100
AcDbEntity
  8
ALPHA
  6
CONTINUOUS
 62
     7
100
AcDbLine
 10
13.293454
 20
188.542277
 30
0.0
 11
23.793454
 21
188.542277
 31
0.0
  0
LINE
  5
770
100
AcDbEntity
  8
ALPHA
  6
CONTINUOUS
 62
     7
100
AcDbLine
 10
23.793454
 20
187.391108
 30
0.0
 11
13.293454
 21
187.391108
 31
0.0
  0
LINE
  5
771
100
AcDbEntity
  8
ALPHA
  6
CONTINUOUS
 62
     7
100
AcDbLine
 10
23.793454
 20
187.217278
 30
0.0
 11
13.293454
 21
187.217278
 31
0.0
  0
LINE
  5
772
100
AcDbEntity
  8
ALPHA
  6
CONTINUOUS
 62
     7
100
AcDbLine
 10
13.293454
 20
185.717278
 30
0.0
 11
23.793454
 21
185.717278
 31
0.0
  0
LINE
  5
773
100
AcDbEntity
  8
ALPHA
  6
CONTINUOUS
 62
     7
100
AcDbLine
 10
13.293454
 20
185.544618
 30
0.0
 11
23.793454
 21
185.544618
 31
0.0
  0
LINE
  5
774
100
AcDbEntity
  8
ALPHA
  6
CONTINUOUS
 62
     7
100
AcDbLine
 10
23.793454
 20
184.388767
 30
0.0
 11
13.293454
 21
184.388767
 31
0.0
  0
LINE
  5
775
100
AcDbEntity
  8
ALPHA
  6
CONTINUOUS
 62
     7
100
AcDbLine
 10
23.793454
 20
184.217278
 30
0.0
 11
13.293454
 21
184.217278
 31
0.0
  0
SPLINE
  5
776
100
AcDbEntity
  8
ALPHA
  6
CONTINUOUS
 62
     7
100
AcDbSpline
210
0.0
220
0.0
230
-1.0
 70
     8
 71
     3
 72
    16
 73
    12
 74
    10
 42
0.0000001
 43
0.0000001
 44
0.0000000001
 40
0.0
 40
0.0
 40
0.0
 40
0.0
 40
0.3210093781302125
 40
0.6439192627303678
 40
0.9644543322326493
 40
1.29119536339306
 40
1.61038654465753
 40
1.937112838336209
 40
2.257642227056555
 40
2.580505333675835
 40
2.901464843569196
 40
2.901464843569196
 40
2.901464843569196
 40
2.901464843569196
 10
13.29345428002196
 20
193.3957893159934
 30
0.0
 10
13.18583790090072
 20
193.3851907770748
 30
0.0
 10
12.96996800979322
 20
193.3639309515638
 30
0.0
 10
12.68626225332525
 20
193.1926659972758
 30
0.0
 10
12.472873789777
 20
192.9429001727781
 30
0.0
 10
12.36070823170328
 20
192.6329318518688
 30
0.0
 10
12.36073667303312
 20
192.3026834482415
 30
0.0
 10
12.47292619510773
 20
191.992733573677
 30
0.0
 10
12.68633066221031
 20
191.7430086192672
 30
0.0
 10
12.97001879493036
 20
191.5717910326504
 30
0.0
 10
13.18585517351298
 20
191.5505337284516
 30
0.0
 10
13.29345428002196
 20
191.5399365021934
 30
0.0
 11
13.29345428002196
 21
193.3957893159934
 31
0.0
 11
12.97717950022198
 21
193.3408595015934
 31
0.0
 11
12.69759043872196
 21
193.1793022353934
 31
0.0
 11
12.49072910852197
 21
192.9344530555934
 31
0.0
 11
12.37901880042196
 21
192.6274017430934
 31
0.0
 11
12.37904229182197
 21
192.3082105626934
 31
0.0
 11
12.49078036582196
 21
192.0011850363934
 31
0.0
 11
12.69766535792197
 21
191.7563632867934
 31
0.0
 11
12.97722791552195
 21
191.5948536523934
 31
0.0
 11
13.29345428002196
 21
191.5399365021934
 31
0.0
  0
SPLINE
  5
777
100
AcDbEntity
  8
ALPHA
  6
CONTINUOUS
 62
     7
100
AcDbSpline
210
0.0
220
0.0
230
-1.0
 70
     8
 71
     3
 72
    15
 73
    11
 74
     9
 42
0.0000001
 43
0.0000001
 44
0.0000000001
 40
0.0
 40
0.0
 40
0.0
 40
0.0
 40
0.2926734210942261
 40
0.5849672313982002
 40
0.8774122716901283
 40
1.169888762338393
 40
1.462365252986713
 40
1.754810293278594
 40
2.0471041035826
 40
2.339777524676815
 40
2.339777524676815
 40
2.339777524676815
 40
2.339777524676815
 10
13.29345428002196
 20
193.2172777531934
 30
0.0
 10
13.19542293680465
 20
193.2055888639588
 30
0.0
 10
12.99948740149816
 20
193.1822262465125
 30
0.0
 10
12.74875492335985
 20
193.0104372992916
 30
0.0
 10
12.58409002572567
 20
192.761483144716
 30
0.0
 10
12.52313531470846
 20
192.4672777531934
 30
0.0
 10
12.58409002572564
 20
192.1730723616708
 30
0.0
 10
12.74875492335989
 20
191.9241182070952
 30
0.0
 10
12.99948740149814
 20
191.7523292598743
 30
0.0
 10
13.19542293680464
 20
191.728966642428
 30
0.0
 10
13.29345428002196
 20
191.7172777531934
 30
0.0
 11
13.29345428002196
 21
193.2172777531934
 31
0.0
 11
13.00656288972194
 21
193.1593893986934
 31
0.0
 11
12.76312419412195
 21
192.9976078390934
 31
0.0
 11
12.60138450652195
 21
192.7539597833934
 31
0.0
 11
12.54345428002196
 21
192.4672777531934
 31
0.0
 11
12.60138450652195
 21
192.1805957229934
 31
0.0
 11
12.76312419412195
 21
191.9369476672934
 31
0.0
 11
13.00656288972194
 21
191.7751661076934
 31
0.0
 11
13.29345428002196
 21
191.7172777531934
 31
0.0
  0
SPLINE
  5
778
100
AcDbEntity
  8
ALPHA
  6
CONTINUOUS
 62
     7
100
AcDbSpline
210
0.0
220
0.0
230
-1.0
 70
     8
 71
     3
 72
    16
 73
    12
 74
    10
 42
0.0000001
 43
0.0000001
 44
0.0000000001
 40
0.0
 40
0.0
 40
0.0
 40
0.0
 40
0.3193973195532606
 40
0.6407076600489759
 40
0.9596084138291983
 40
1.284688808734287
 40
1.602273285252441
 40
1.927338692235855
 40
2.246232853807105
 40
2.567495429623361
 40
2.886841409870332
 40
2.886841409870332
 40
2.886841409870332
 40
2.886841409870332
 10
13.29345428002196
 20
187.3911080686934
 30
0.0
 10
13.18637724549078
 20
187.380566475159
 30
0.0
 10
12.9715818416489
 20
187.3594201495229
 30
0.0
 10
12.68931253090929
 20
187.1889939863379
 30
0.0
 10
12.47699717710681
 20
186.9404937953542
 30
0.0
 10
12.36541030321039
 20
186.6320923276165
 30
0.0
 10
12.36543944445921
 20
186.3035194447729
 30
0.0
 10
12.47705129696727
 20
185.9951372474704
 30
0.0
 10
12.6893828958508
 20
185.7466790964295
 30
0.0
 10
12.97163400519307
 20
185.5763017355114
 30
0.0
 10
13.18639503165004
 20
185.5551579919636
 30
0.0
 10
13.29345428002196
 20
185.5446177494934
 30
0.0
 11
13.29345428002196
 21
187.3911080686934
 31
0.0
 11
12.97876665442197
 21
187.3364605981934
 31
0.0
 11
12.70056939782196
 21
187.1756917537934
 31
0.0
 11
12.49476468352196
 21
186.9320893926934
 31
0.0
 11
12.38362769562195
 21
186.6265966217934
 31
0.0
 11
12.38365184442196
 21
186.3090121461934
 31
0.0
 11
12.49481766922196
 21
186.0035458170934
 31
0.0
 11
12.70064620492195
 21
185.7599722138934
 31
0.0
 11
12.97881649642195
 21
185.5992521729934
 31
0.0
 11
13.29345428002196
 21
185.5446177494934
 31
0.0
  0
SPLINE
  5
779
100
AcDbEntity
  8
ALPHA
  6
CONTINUOUS
 62
     7
100
AcDbSpline
210
0.0
220
0.0
230
-1.0
 70
     8
 71
     3
 72
    15
 73
    11
 74
     9
 42
0.0000001
 43
0.0000001
 44
0.0000000001
 40
0.0
 40
0.0
 40
0.0
 40
0.0
 40
0.2926734210942261
 40
0.5849672313982002
 40
0.8774122716901283
 40
1.169888762338393
 40
1.462365252986713
 40
1.754810293278594
 40
2.0471041035826
 40
2.339777524676815
 40
2.339777524676815
 40
2.339777524676815
 40
2.339777524676815
 10
13.29345428002196
 20
187.2172777531934
 30
0.0
 10
13.19542293680465
 20
187.2055888639587
 30
0.0
 10
12.99948740149816
 20
187.1822262465125
 30
0.0
 10
12.74875492335985
 20
187.0104372992916
 30
0.0
 10
12.58409002572567
 20
186.761483144716
 30
0.0
 10
12.52313531470846
 20
186.4672777531934
 30
0.0
 10
12.58409002572564
 20
186.1730723616708
 30
0.0
 10
12.74875492335989
 20
185.9241182070952
 30
0.0
 10
12.99948740149814
 20
185.7523292598743
 30
0.0
 10
13.19542293680464
 20
185.7289666424281
 30
0.0
 10
13.29345428002196
 20
185.7172777531934
 30
0.0
 11
13.29345428002196
 21
187.2172777531934
 31
0.0
 11
13.00656288972194
 21
187.1593893986934
 31
0.0
 11
12.76312419412195
 21
186.9976078390934
 31
0.0
 11
12.60138450652195
 21
186.7539597833934
 31
0.0
 11
12.54345428002196
 21
186.4672777531934
 31
0.0
 11
12.60138450652195
 21
186.1805957229934
 31
0.0
 11
12.76312419412195
 21
185.9369476672934
 31
0.0
 11
13.00656288972194
 21
185.7751661076934
 31
0.0
 11
13.29345428002196
 21
185.7172777531934
 31
0.0
  0
LINE
  5
77A
100
AcDbEntity
  8
ALPHA
  6
CONTINUOUS
 62
     9
100
AcDbLine
 10
13.293454
 20
185.544618
 30
0.0
 11
13.293454
 21
185.717278
 31
0.0
  0
LINE
  5
77B
100
AcDbEntity
  8
ALPHA
  6
CONTINUOUS
 62
     9
100
AcDbLine
 10
13.293454
 20
184.388767
 30
0.0
 11
13.293454
 21
184.217278
 31
0.0
  0
LINE
  5
77C
100
AcDbEntity
  8
ALPHA
  6
CONTINUOUS
 62
     9
100
AcDbLine
 10
13.293454
 20
187.391108
 30
0.0
 11
13.293454
 21
187.217278
 31
0.0
  0
SPLINE
  5
77D
100
AcDbEntity
  8
ALPHA
  6
CONTINUOUS
 62
     7
100
AcDbSpline
210
0.0
220
0.0
230
-1.0
 70
     8
 71
     3
 72
    16
 73
    12
 74
    10
 42
0.0000001
 43
0.0000001
 44
0.0000000001
 40
0.0
 40
0.0
 40
0.0
 40
0.0
 40
0.3202033485034606
 40
0.6423134564631436
 40
0.9620313539352483
 40
1.287942069253749
 40
1.606329900944405
 40
1.93222575693939
 40
2.251937525334165
 40
2.574000371033996
 40
2.8941531274952
 40
2.8941531274952
 40
2.8941531274952
 40
2.8941531274952
 10
13.29345428002196
 20
190.3934486922934
 30
0.0
 10
13.18610757331962
 20
190.3828786261075
 30
0.0
 10
12.97077492753636
 20
190.3616755506911
 30
0.0
 10
12.68778739882602
 20
190.1908299966061
 30
0.0
 10
12.4749354913218
 20
189.9416969961499
 30
0.0
 10
12.36305926982096
 20
189.6325121069222
 30
0.0
 10
12.36308805559437
 20
189.303101459979
 30
0.0
 10
12.47498873888856
 20
188.993935421502
 30
0.0
 10
12.68785676955709
 20
188.7448438660317
 30
0.0
 10
12.97082639048661
 20
188.5740463849338
 30
0.0
 10
13.18612509861176
 20
188.5528458605795
 30
0.0
 10
13.29345428002196
 20
188.5422771258934
 30
0.0
 11
13.29345428002196
 21
190.3934486922934
 31
0.0
 11
12.97797307762195
 21
190.3386600499934
 31
0.0
 11
12.69907992182197
 21
190.1774969980934
 31
0.0
 11
12.49274690572195
 21
189.9332712409934
 31
0.0
 11
12.38132325072194
 21
189.6269991993934
 31
0.0
 11
12.38134706532196
 21
189.3086113685934
 31
0.0
 11
12.49279901262196
 21
189.0023654340934
 31
0.0
 11
12.69915576902195
 21
188.7581677601934
 31
0.0
 11
12.97802219492194
 21
188.5970529157934
 31
0.0
 11
13.29345428002196
 21
188.5422771258934
 31
0.0
  0
SPLINE
  5
77E
100
AcDbEntity
  8
ALPHA
  6
CONTINUOUS
 62
     7
100
AcDbSpline
210
0.0
220
0.0
230
-1.0
 70
     8
 71
     3
 72
    15
 73
    11
 74
     9
 42
0.0000001
 43
0.0000001
 44
0.0000000001
 40
0.0
 40
0.0
 40
0.0
 40
0.0
 40
0.2926734210942261
 40
0.5849672313982002
 40
0.8774122716901283
 40
1.169888762338393
 40
1.462365252986713
 40
1.754810293278594
 40
2.0471041035826
 40
2.339777524676815
 40
2.339777524676815
 40
2.339777524676815
 40
2.339777524676815
 10
13.29345428002196
 20
190.2172777531934
 30
0.0
 10
13.19542293680465
 20
190.2055888639587
 30
0.0
 10
12.99948740149816
 20
190.1822262465125
 30
0.0
 10
12.74875492335985
 20
190.0104372992916
 30
0.0
 10
12.58409002572567
 20
189.761483144716
 30
0.0
 10
12.52313531470846
 20
189.4672777531934
 30
0.0
 10
12.58409002572564
 20
189.1730723616709
 30
0.0
 10
12.74875492335989
 20
188.9241182070952
 30
0.0
 10
12.99948740149814
 20
188.7523292598743
 30
0.0
 10
13.19542293680464
 20
188.7289666424281
 30
0.0
 10
13.29345428002196
 20
188.7172777531934
 30
0.0
 11
13.29345428002196
 21
190.2172777531934
 31
0.0
 11
13.00656288972194
 21
190.1593893986934
 31
0.0
 11
12.76312419412195
 21
189.9976078390934
 31
0.0
 11
12.60138450652195
 21
189.7539597833934
 31
0.0
 11
12.54345428002196
 21
189.4672777531934
 31
0.0
 11
12.60138450652195
 21
189.1805957229934
 31
0.0
 11
12.76312419412195
 21
188.9369476672934
 31
0.0
 11
13.00656288972194
 21
188.7751661076934
 31
0.0
 11
13.29345428002196
 21
188.7172777531934
 31
0.0
  0
LINE
  5
77F
100
AcDbEntity
  8
ALPHA
  6
CONTINUOUS
 62
     9
100
AcDbLine
 10
13.293454
 20
191.539937
 30
0.0
 11
13.293454
 21
191.717278
 31
0.0
  0
LINE
  5
780
100
AcDbEntity
  8
ALPHA
  6
CONTINUOUS
 62
     9
100
AcDbLine
 10
13.293454
 20
188.542277
 30
0.0
 11
13.293454
 21
188.717278
 31
0.0
  0
LINE
  5
781
100
AcDbEntity
  8
ALPHA
  6
CONTINUOUS
 62
     9
100
AcDbLine
 10
13.293454
 20
190.393449
 30
0.0
 11
13.293454
 21
190.217278
 31
0.0
  0
SPLINE
  5
782
100
AcDbEntity
  8
ALPHA
  6
CONTINUOUS
 62
     7
100
AcDbSpline
210
0.0
220
0.0
230
-1.0
 70
     8
 71
     3
 72
    16
 73
    12
 74
    10
 42
0.0000001
 43
0.0000001
 44
0.0000000001
 40
0.0
 40
0.0
 40
0.0
 40
0.0
 40
0.3218154079064902
 40
0.6455250780721011
 40
0.966877347431749
 40
1.294448689845126
 40
1.614443214884595
 40
1.941999935294954
 40
2.263346957878488
 40
2.587010317135894
 40
2.908776557974531
 40
2.908776557974531
 40
2.908776557974531
 40
2.908776557974531
 10
13.29345428002196
 20
196.3981299395934
 30
0.0
 10
13.18556822842694
 20
196.3875029278816
 30
0.0
 10
12.96916108890614
 20
196.3661863519925
 30
0.0
 10
12.68473709492723
 20
196.1945019889875
 30
0.0
 10
12.47081207318974
 20
195.9441033260315
 30
0.0
 10
12.35835718915578
 20
195.633351563777
 30
0.0
 10
12.35838529610632
 20
195.30226541075
 30
0.0
 10
12.47086366518014
 20
194.991531705156
 30
0.0
 10
12.68480457307312
 20
194.7411733566475
 30
0.0
 10
12.96921121809252
 20
194.5695356788259
 30
0.0
 10
13.18558525625298
 20
194.5482215957636
 30
0.0
 10
13.29345428002196
 20
194.5375958785934
 30
0.0
 11
13.29345428002196
 21
196.3981299395934
 31
0.0
 11
12.97638592272196
 21
196.3430589529934
 31
0.0
 11
12.69610094902196
 21
196.1811074661934
 31
0.0
 11
12.48871129262195
 21
195.9356348374934
 31
0.0
 11
12.37671434492196
 21
195.6278042540934
 31
0.0
 11
12.37673752342195
 21
195.3078097298934
 31
0.0
 11
12.48876172832197
 21
195.0000046249934
 31
0.0
 11
12.69617497082197
 21
194.7545587943934
 31
0.0
 11
12.97643365792197
 21
194.5926543829934
 31
0.0
 11
13.29345428002196
 21
194.5375958785934
 31
0.0
  0
SPLINE
  5
783
100
AcDbEntity
  8
ALPHA
  6
CONTINUOUS
 62
     7
100
AcDbSpline
210
0.0
220
0.0
230
-1.0
 70
     8
 71
     3
 72
    15
 73
    11
 74
     9
 42
0.0000001
 43
0.0000001
 44
0.0000000001
 40
0.0
 40
0.0
 40
0.0
 40
0.0
 40
0.2926734210942261
 40
0.5849672313982002
 40
0.8774122716901283
 40
1.169888762338393
 40
1.462365252986713
 40
1.754810293278594
 40
2.0471041035826
 40
2.339777524676815
 40
2.339777524676815
 40
2.339777524676815
 40
2.339777524676815
 10
13.29345428002196
 20
196.2172777531934
 30
0.0
 10
13.19542293680465
 20
196.2055888639587
 30
0.0
 10
12.99948740149816
 20
196.1822262465125
 30
0.0
 10
12.74875492335985
 20
196.0104372992917
 30
0.0
 10
12.58409002572567
 20
195.761483144716
 30
0.0
 10
12.52313531470846
 20
195.4672777531933
 30
0.0
 10
12.58409002572564
 20
195.1730723616708
 30
0.0
 10
12.74875492335989
 20
194.9241182070952
 30
0.0
 10
12.99948740149814
 20
194.7523292598743
 30
0.0
 10
13.19542293680464
 20
194.7289666424281
 30
0.0
 10
13.29345428002196
 20
194.7172777531934
 30
0.0
 11
13.29345428002196
 21
196.2172777531934
 31
0.0
 11
13.00656288972194
 21
196.1593893986934
 31
0.0
 11
12.76312419412195
 21
195.9976078390934
 31
0.0
 11
12.60138450652195
 21
195.7539597833934
 31
0.0
 11
12.54345428002196
 21
195.4672777531934
 31
0.0
 11
12.60138450652195
 21
195.1805957229934
 31
0.0
 11
12.76312419412195
 21
194.9369476672934
 31
0.0
 11
13.00656288972194
 21
194.7751661076934
 31
0.0
 11
13.29345428002196
 21
194.7172777531934
 31
0.0
  0
LINE
  5
784
100
AcDbEntity
  8
ALPHA
  6
CONTINUOUS
 62
     9
100
AcDbLine
 10
13.293454
 20
194.537596
 30
0.0
 11
13.293454
 21
194.717278
 31
0.0
  0
LINE
  5
785
100
AcDbEntity
  8
ALPHA
  6
CONTINUOUS
 62
     9
100
AcDbLine
 10
13.293454
 20
193.395789
 30
0.0
 11
13.293454
 21
193.217278
 31
0.0
  0
LINE
  5
786
100
AcDbEntity
  8
ALPHA
  6
CONTINUOUS
 62
     9
100
AcDbLine
 10
13.293454
 20
196.39813
 30
0.0
 11
13.293454
 21
196.217278
 31
0.0
  0
SPLINE
  5
787
100
AcDbEntity
  8
ALPHA
  6
CONTINUOUS
 62
     7
100
AcDbSpline
210
0.0
220
0.0
230
1.0
 70
     8
 71
     3
 72
    16
 73
    12
 74
    10
 42
0.0000001
 43
0.0000001
 44
0.0000000001
 40
0.0
 40
0.0
 40
0.0
 40
0.0
 40
0.3209595097948192
 40
0.643822616414124
 40
0.9643520051344701
 40
1.291078298813149
 40
1.610269480077619
 40
1.93701051123803
 40
2.257545580740312
 40
2.580455465340467
 40
2.901464843372167
 40
2.901464843372167
 40
2.901464843372167
 40
2.901464843372167
 10
23.79345428002196
 20
191.5399365021934
 30
0.0
 10
23.90105338649636
 20
191.5505337284565
 30
0.0
 10
24.11688976504284
 20
191.5717910326686
 30
0.0
 10
24.40057789773353
 20
191.7430086192669
 30
0.0
 10
24.61398236483621
 20
191.9927335736771
 30
0.0
 10
24.7261718869108
 20
192.3026834482415
 30
0.0
 10
24.72620032824064
 20
192.6329318518688
 30
0.0
 10
24.61403477016696
 20
192.942900172778
 30
0.0
 10
24.4006463066186
 20
193.192665997276
 30
0.0
 10
24.11694055017998
 20
193.3639309515456
 30
0.0
 10
23.90107065910862
 20
193.3851907770699
 30
0.0
 10
23.79345428002196
 20
193.3957893159934
 30
0.0
 11
23.79345428002196
 21
191.5399365021934
 31
0.0
 11
24.10968064442196
 21
191.5948536523934
 31
0.0
 11
24.38924320202195
 21
191.7563632867934
 31
0.0
 11
24.59612819412197
 21
192.0011850363934
 31
0.0
 11
24.70786626812196
 21
192.3082105626934
 31
0.0
 11
24.70788975952197
 21
192.6274017430934
 31
0.0
 11
24.59617945142196
 21
192.9344530555934
 31
0.0
 11
24.38931812122197
 21
193.1793022353934
 31
0.0
 11
24.10972905972196
 21
193.3408595015934
 31
0.0
 11
23.79345428002196
 21
193.3957893159934
 31
0.0
  0
SPLINE
  5
788
100
AcDbEntity
  8
ALPHA
  6
CONTINUOUS
 62
     7
100
AcDbSpline
210
0.0
220
0.0
230
1.0
 70
     8
 71
     3
 72
    15
 73
    11
 74
     9
 42
0.0000001
 43
0.0000001
 44
0.0000000001
 40
0.0
 40
0.0
 40
0.0
 40
0.0
 40
0.2926734209961748
 40
0.5849672313001804
 40
0.8774122715920611
 40
1.169888762260191
 40
1.462365252928266
 40
1.754810293220195
 40
2.047104103524169
 40
2.339777524520355
 40
2.339777524520355
 40
2.339777524520355
 40
2.339777524520355
 10
23.79345428002196
 20
191.7172777531934
 30
0.0
 10
23.89148562320341
 20
191.7289666424336
 30
0.0
 10
24.087421158471
 20
191.7523292598949
 30
0.0
 10
24.33815363659597
 20
191.9241182070934
 30
0.0
 10
24.50281853417688
 20
192.173072361682
 30
0.0
 10
24.56377324540685
 20
192.4672777531934
 30
0.0
 10
24.50281853417686
 20
192.7614831447048
 30
0.0
 10
24.33815363659599
 20
193.0104372992934
 30
0.0
 10
24.087421158471
 20
193.1822262464919
 30
0.0
 10
23.8914856232034
 20
193.2055888639531
 30
0.0
 10
23.79345428002196
 20
193.2172777531934
 30
0.0
 11
23.79345428002196
 21
191.7172777531934
 31
0.0
 11
24.08034567022196
 21
191.7751661076934
 31
0.0
 11
24.32378436582195
 21
191.9369476672934
 31
0.0
 11
24.48552405342195
 21
192.1805957229934
 31
0.0
 11
24.54345428002196
 21
192.4672777531934
 31
0.0
 11
24.48552405342195
 21
192.7539597833934
 31
0.0
 11
24.32378436582195
 21
192.9976078390934
 31
0.0
 11
24.08034567022196
 21
193.1593893986934
 31
0.0
 11
23.79345428002196
 21
193.2172777531934
 31
0.0
  0
SPLINE
  5
789
100
AcDbEntity
  8
ALPHA
  6
CONTINUOUS
 62
     7
100
AcDbSpline
210
0.0
220
0.0
230
1.0
 70
     8
 71
     3
 72
    16
 73
    12
 74
    10
 42
0.0000001
 43
0.0000001
 44
0.0000000001
 40
0.0
 40
0.0
 40
0.0
 40
0.0
 40
0.3193459801484575
 40
0.6406085559646892
 40
0.9595027175359383
 40
1.284568124553556
 40
1.602152601071702
 40
1.927232995976791
 40
2.246133749757013
 40
2.567444090252704
 40
2.886841409707452
 40
2.886841409707452
 40
2.886841409707452
 40
2.886841409707452
 10
23.79345428002196
 20
185.5446177494934
 30
0.0
 10
23.90051352835835
 20
185.5551579919688
 30
0.0
 10
24.11527455477729
 20
185.5763017355304
 30
0.0
 10
24.39752566410444
 20
185.7466790964261
 30
0.0
 10
24.60985726294138
 20
185.9951372474914
 30
0.0
 10
24.72146911565252
 20
186.3035194447501
 30
0.0
 10
24.72149825668778
 20
186.6320923276197
 30
0.0
 10
24.60991138284922
 20
186.9404937953533
 30
0.0
 10
24.3975960290313
 20
187.1889939863383
 30
0.0
 10
24.11532671832511
 20
187.3594201495047
 30
0.0
 10
23.90053131451883
 20
187.3805664751541
 30
0.0
 10
23.79345428002196
 20
187.3911080686934
 30
0.0
 11
23.79345428002196
 21
185.5446177494934
 31
0.0
 11
24.10809206352197
 21
185.5992521729934
 31
0.0
 11
24.38626235502195
 21
185.7599722138934
 31
0.0
 11
24.59209089072194
 21
186.0035458170934
 31
0.0
 11
24.70325671562196
 21
186.3090121461934
 31
0.0
 11
24.70328086432195
 21
186.6265966217934
 31
0.0
 11
24.59214387642194
 21
186.9320893926934
 31
0.0
 11
24.38633916212194
 21
187.1756917537934
 31
0.0
 11
24.10814190552196
 21
187.3364605981934
 31
0.0
 11
23.79345428002196
 21
187.3911080686934
 31
0.0
  0
SPLINE
  5
78A
100
AcDbEntity
  8
ALPHA
  6
CONTINUOUS
 62
     7
100
AcDbSpline
210
0.0
220
0.0
230
1.0
 70
     8
 71
     3
 72
    15
 73
    11
 74
     9
 42
0.0000001
 43
0.0000001
 44
0.0000000001
 40
0.0
 40
0.0
 40
0.0
 40
0.0
 40
0.2926734209961748
 40
0.5849672313001804
 40
0.8774122715920611
 40
1.169888762260191
 40
1.462365252928266
 40
1.754810293220195
 40
2.047104103524169
 40
2.339777524520355
 40
2.339777524520355
 40
2.339777524520355
 40
2.339777524520355
 10
23.79345428002196
 20
185.7172777531934
 30
0.0
 10
23.89148562320341
 20
185.7289666424336
 30
0.0
 10
24.087421158471
 20
185.7523292598949
 30
0.0
 10
24.33815363659597
 20
185.9241182070935
 30
0.0
 10
24.50281853417688
 20
186.173072361682
 30
0.0
 10
24.56377324540685
 20
186.4672777531934
 30
0.0
 10
24.50281853417686
 20
186.7614831447048
 30
0.0
 10
24.33815363659599
 20
187.0104372992934
 30
0.0
 10
24.087421158471
 20
187.1822262464918
 30
0.0
 10
23.8914856232034
 20
187.2055888639532
 30
0.0
 10
23.79345428002196
 20
187.2172777531934
 30
0.0
 11
23.79345428002196
 21
185.7172777531934
 31
0.0
 11
24.08034567022196
 21
185.7751661076934
 31
0.0
 11
24.32378436582195
 21
185.9369476672934
 31
0.0
 11
24.48552405342195
 21
186.1805957229934
 31
0.0
 11
24.54345428002196
 21
186.4672777531934
 31
0.0
 11
24.48552405342195
 21
186.7539597833934
 31
0.0
 11
24.32378436582195
 21
186.9976078390934
 31
0.0
 11
24.08034567022196
 21
187.1593893986934
 31
0.0
 11
23.79345428002196
 21
187.2172777531934
 31
0.0
  0
LINE
  5
78B
100
AcDbEntity
  8
ALPHA
  6
CONTINUOUS
 62
     9
100
AcDbLine
 10
23.793454
 20
185.544618
 30
0.0
 11
23.793454
 21
185.717278
 31
0.0
  0
LINE
  5
78C
100
AcDbEntity
  8
ALPHA
  6
CONTINUOUS
 62
     9
100
AcDbLine
 10
23.793454
 20
184.388767
 30
0.0
 11
23.793454
 21
184.217278
 31
0.0
  0
LINE
  5
78D
100
AcDbEntity
  8
ALPHA
  6
CONTINUOUS
 62
     9
100
AcDbLine
 10
23.793454
 20
187.391108
 30
0.0
 11
23.793454
 21
187.217278
 31
0.0
  0
SPLINE
  5
78E
100
AcDbEntity
  8
ALPHA
  6
CONTINUOUS
 62
     7
100
AcDbSpline
210
0.0
220
0.0
230
1.0
 70
     8
 71
     3
 72
    16
 73
    12
 74
    10
 42
0.0000001
 43
0.0000001
 44
0.0000000001
 40
0.0
 40
0.0
 40
0.0
 40
0.0
 40
0.3201527564612043
 40
0.6422156020744334
 40
0.9619273704692092
 40
1.287823226464193
 40
1.606211058154849
 40
1.93212177347335
 40
2.251839670945437
 40
2.573949778818547
 40
2.894153127322008
 40
2.894153127322008
 40
2.894153127322008
 40
2.894153127322008
 10
23.79345428002196
 20
188.5422771258934
 30
0.0
 10
23.90078346143537
 20
188.5528458605735
 30
0.0
 10
24.11608216953794
 20
188.574046384913
 30
0.0
 10
24.39905179039882
 20
188.7448438660668
 30
0.0
 10
24.61191982105722
 20
188.9939354214984
 30
0.0
 10
24.72382050434918
 20
189.3031014599801
 30
0.0
 10
24.72384929012256
 20
189.632512106921
 30
0.0
 10
24.61197306862399
 20
189.9416969961535
 30
0.0
 10
24.3991211611299
 20
190.190829996571
 30
0.0
 10
24.1161336324882
 20
190.3616755507119
 30
0.0
 10
23.90080098672751
 20
190.3828786261134
 30
0.0
 10
23.79345428002196
 20
190.3934486922934
 30
0.0
 11
23.79345428002196
 21
188.5422771258934
 31
0.0
 11
24.10888636512197
 21
188.5970529157934
 31
0.0
 11
24.38775279092195
 21
188.7581677601934
 31
0.0
 11
24.59410954732195
 21
189.0023654340934
 31
0.0
 11
24.70556149462194
 21
189.3086113685934
 31
0.0
 11
24.70558530922196
 21
189.6269991993934
 31
0.0
 11
24.59416165422195
 21
189.9332712409934
 31
0.0
 11
24.38782863812196
 21
190.1774969980934
 31
0.0
 11
24.10893548242197
 21
190.3386600499934
 31
0.0
 11
23.79345428002196
 21
190.3934486922934
 31
0.0
  0
SPLINE
  5
78F
100
AcDbEntity
  8
ALPHA
  6
CONTINUOUS
 62
     7
100
AcDbSpline
210
0.0
220
0.0
230
1.0
 70
     8
 71
     3
 72
    15
 73
    11
 74
     9
 42
0.0000001
 43
0.0000001
 44
0.0000000001
 40
0.0
 40
0.0
 40
0.0
 40
0.0
 40
0.2926734209961748
 40
0.5849672313001804
 40
0.8774122715920611
 40
1.169888762260191
 40
1.462365252928266
 40
1.754810293220195
 40
2.047104103524169
 40
2.339777524520355
 40
2.339777524520355
 40
2.339777524520355
 40
2.339777524520355
 10
23.79345428002196
 20
188.7172777531934
 30
0.0
 10
23.89148562320341
 20
188.7289666424337
 30
0.0
 10
24.087421158471
 20
188.752329259895
 30
0.0
 10
24.33815363659597
 20
188.9241182070934
 30
0.0
 10
24.50281853417688
 20
189.173072361682
 30
0.0
 10
24.56377324540685
 20
189.4672777531934
 30
0.0
 10
24.50281853417686
 20
189.7614831447048
 30
0.0
 10
24.33815363659599
 20
190.0104372992933
 30
0.0
 10
24.087421158471
 20
190.1822262464919
 30
0.0
 10
23.8914856232034
 20
190.2055888639531
 30
0.0
 10
23.79345428002196
 20
190.2172777531934
 30
0.0
 11
23.79345428002196
 21
188.7172777531934
 31
0.0
 11
24.08034567022196
 21
188.7751661076934
 31
0.0
 11
24.32378436582195
 21
188.9369476672934
 31
0.0
 11
24.48552405342195
 21
189.1805957229934
 31
0.0
 11
24.54345428002196
 21
189.4672777531934
 31
0.0
 11
24.48552405342195
 21
189.7539597833934
 31
0.0
 11
24.32378436582195
 21
189.9976078390934
 31
0.0
 11
24.08034567022196
 21
190.1593893986934
 31
0.0
 11
23.79345428002196
 21
190.2172777531934
 31
0.0
  0
LINE
  5
790
100
AcDbEntity
  8
ALPHA
  6
CONTINUOUS
 62
     9
100
AcDbLine
 10
23.793454
 20
191.539937
 30
0.0
 11
23.793454
 21
191.717278
 31
0.0
  0
LINE
  5
791
100
AcDbEntity
  8
ALPHA
  6
CONTINUOUS
 62
     9
100
AcDbLine
 10
23.793454
 20
188.542277
 30
0.0
 11
23.793454
 21
188.717278
 31
0.0
  0
LINE
  5
792
100
AcDbEntity
  8
ALPHA
  6
CONTINUOUS
 62
     9
100
AcDbLine
 10
23.793454
 20
190.393449
 30
0.0
 11
23.793454
 21
190.217278
 31
0.0
  0
SPLINE
  5
793
100
AcDbEntity
  8
ALPHA
  6
CONTINUOUS
 62
     7
100
AcDbSpline
210
0.0
220
0.0
230
1.0
 70
     8
 71
     3
 72
    16
 73
    12
 74
    10
 42
0.0000001
 43
0.0000001
 44
0.0000000001
 40
0.0
 40
0.0
 40
0.0
 40
0.0
 40
0.3217662407401246
 40
0.6454295999975304
 40
0.9667766225810645
 40
1.294333342991413
 40
1.614327868030882
 40
1.94189921044427
 40
2.263251479803899
 40
2.586961149969535
 40
2.908776557777484
 40
2.908776557777484
 40
2.908776557777484
 40
2.908776557777484
 10
23.79345428002196
 20
194.5375958785934
 30
0.0
 10
23.90132330375636
 20
194.5482215957685
 30
0.0
 10
24.11769734188069
 20
194.5695356788441
 30
0.0
 10
24.40210398687073
 20
194.7411733566472
 30
0.0
 10
24.61604489476381
 20
194.991531705156
 30
0.0
 10
24.72852326383756
 20
195.30226541075
 30
0.0
 10
24.72855137078818
 20
195.633351563777
 30
0.0
 10
24.61609648675415
 20
195.9441033260314
 30
0.0
 10
24.40217146501662
 20
196.1945019889877
 30
0.0
 10
24.11774747106704
 20
196.3661863519743
 30
0.0
 10
23.90134033158238
 20
196.3875029278766
 30
0.0
 10
23.79345428002196
 20
196.3981299395934
 30
0.0
 11
23.79345428002196
 21
194.5375958785934
 31
0.0
 11
24.11047490202196
 21
194.5926543829934
 31
0.0
 11
24.39073358912196
 21
194.7545587943934
 31
0.0
 11
24.59814683162196
 21
195.0000046249934
 31
0.0
 11
24.71017103652195
 21
195.3078097298934
 31
0.0
 11
24.71019421502197
 21
195.6278042540934
 31
0.0
 11
24.59819726732195
 21
195.9356348374934
 31
0.0
 11
24.39080761092196
 21
196.1811074661934
 31
0.0
 11
24.11052263722194
 21
196.3430589529934
 31
0.0
 11
23.79345428002196
 21
196.3981299395934
 31
0.0
  0
SPLINE
  5
794
100
AcDbEntity
  8
ALPHA
  6
CONTINUOUS
 62
     7
100
AcDbSpline
210
0.0
220
0.0
230
1.0
 70
     8
 71
     3
 72
    15
 73
    11
 74
     9
 42
0.0000001
 43
0.0000001
 44
0.0000000001
 40
0.0
 40
0.0
 40
0.0
 40
0.0
 40
0.2926734209961748
 40
0.5849672313001804
 40
0.8774122715920611
 40
1.169888762260191
 40
1.462365252928266
 40
1.754810293220195
 40
2.047104103524169
 40
2.339777524520355
 40
2.339777524520355
 40
2.339777524520355
 40
2.339777524520355
 10
23.79345428002196
 20
194.7172777531934
 30
0.0
 10
23.89148562320341
 20
194.7289666424337
 30
0.0
 10
24.087421158471
 20
194.752329259895
 30
0.0
 10
24.33815363659597
 20
194.9241182070934
 30
0.0
 10
24.50281853417688
 20
195.173072361682
 30
0.0
 10
24.56377324540685
 20
195.4672777531934
 30
0.0
 10
24.50281853417686
 20
195.7614831447047
 30
0.0
 10
24.33815363659599
 20
196.0104372992934
 30
0.0
 10
24.087421158471
 20
196.1822262464918
 30
0.0
 10
23.8914856232034
 20
196.2055888639531
 30
0.0
 10
23.79345428002196
 20
196.2172777531934
 30
0.0
 11
23.79345428002196
 21
194.7172777531934
 31
0.0
 11
24.08034567022196
 21
194.7751661076934
 31
0.0
 11
24.32378436582195
 21
194.9369476672934
 31
0.0
 11
24.48552405342195
 21
195.1805957229934
 31
0.0
 11
24.54345428002196
 21
195.4672777531934
 31
0.0
 11
24.48552405342195
 21
195.7539597833934
 31
0.0
 11
24.32378436582195
 21
195.9976078390934
 31
0.0
 11
24.08034567022196
 21
196.1593893986934
 31
0.0
 11
23.79345428002196
 21
196.2172777531934
 31
0.0
  0
LINE
  5
795
100
AcDbEntity
  8
ALPHA
  6
CONTINUOUS
 62
     9
100
AcDbLine
 10
23.793454
 20
194.537596
 30
0.0
 11
23.793454
 21
194.717278
 31
0.0
  0
LINE
  5
796
100
AcDbEntity
  8
ALPHA
  6
CONTINUOUS
 62
     9
100
AcDbLine
 10
23.793454
 20
193.395789
 30
0.0
 11
23.793454
 21
193.217278
 31
0.0
  0
LINE
  5
797
100
AcDbEntity
  8
ALPHA
  6
CONTINUOUS
 62
     9
100
AcDbLine
 10
23.793454
 20
196.39813
 30
0.0
 11
23.793454
 21
196.217278
 31
0.0
  0
ENDSEC
  0
SECTION
  2
OBJECTS
  0
DICTIONARY
  5
F8
100
AcDbDictionary
  3
ACAD_GROUP
350
F9
  3
ACAD_MLINESTYLE
350
106
  3
ACDBVARIABLEDICTIONARY
350
143
  0
DICTIONARY
  5
F9
102
{ACAD_REACTORS
330
F8
102
}
100
AcDbDictionary
  0
DICTIONARY
  5
106
102
{ACAD_REACTORS
330
F8
102
}
100
AcDbDictionary
  3
STANDARD
350
107
  0
DICTIONARY
  5
143
102
{ACAD_REACTORS
330
F8
102
}
100
AcDbDictionary
  3
DIMADEC
350
144
  0
MLINESTYLE
  5
107
102
{ACAD_REACTORS
330
106
102
}
100
AcDbMlineStyle
  2
STANDARD
 70
     0
  3

 62
   256
 51
90.0
 52
90.0
 71
     2
 49
0.5
 62
   256
  6
BYLAYER
 49
-0.5
 62
   256
  6
BYLAYER
  0
DICTIONARYVAR
  5
144
102
{ACAD_REACTORS
330
143
102
}
100
DictionaryVariables
280
     0
  1
0
  0
ENDSEC
  0
EOF