0
SECTION
  2
HEADER
  9
$ACADVER
  1
AC1015
  9
$ACADMAINTVER
 70
    13
  9
$DWGCODEPAGE
  3
ANSI_1252
  9
$INSBASE
 10
0.0
 20
0.0
 30
0.0
  9
$EXTMIN
 10
-57.93019534379936
 20
-37.03992767195211
 30
-0.0015258207003583
  9
$EXTMAX
 10
45.56039174766465
 20
99.24911648865089
 30
0.0000000349246037
  9
$LIMMIN
 10
0.0
 20
0.0
  9
$LIMMAX
 10
16.5354330709
 20
11.6929133858
  9
$ORTHOMODE
 70
     1
  9
$REGENMODE
 70
     1
  9
$FILLMODE
 70
     1
  9
$QTEXTMODE
 70
     0
  9
$MIRRTEXT
 70
     1
  9
$LTSCALE
 40
0.9094488188999999
  9
$ATTMODE
 70
     1
  9
$TEXTSIZE
 40
0.2
  9
$TRACEWID
 40
0.05
  9
$TEXTSTYLE
  7
STANDARD
  9
$CLAYER
  8
0
  9
$CELTYPE
  6
BYLAYER
  9
$CECOLOR
 62
   256
  9
$CELTSCALE
 40
1.0
  9
$DISPSILH
 70
     0
  9
$DIMSCALE
 40
1.0
  9
$DIMASZ
 40
4.0
  9
$DIMEXO
 40
2.0
  9
$DIMDLI
 40
2.0
  9
$DIMRND
 40
0.0
  9
$DIMDLE
 40
0.0
  9
$DIMEXE
 40
2.0
  9
$DIMTP
 40
0.0
  9
$DIMTM
 40
0.0
  9
$DIMTXT
 40
3.0
  9
$DIMCEN
 40
0.1488188976
  9
$DIMTSZ
 40
0.0
  9
$DIMTOL
 70
     0
  9
$DIMLIM
 70
     0
  9
$DIMTIH
 70
     0
  9
$DIMTOH
 70
     0
  9
$DIMSE1
 70
     0
  9
$DIMSE2
 70
     0
  9
$DIMTAD
 70
     1
  9
$DIMZIN
 70
     0
  9
$DIMBLK
  1

  9
$DIMASO
 70
     1
  9
$DIMSHO
 70
     1
  9
$DIMPOST
  1

  9
$DIMAPOST
  1

  9
$DIMALT
 70
     0
  9
$DIMALTD
 70
     2
  9
$DIMALTF
 40
25.4
  9
$DIMLFAC
 40
1.0
  9
$DIMTOFL
 70
     0
  9
$DIMTVP
 40
0.0
  9
$DIMTIX
 70
     0
  9
$DIMSOXD
 70
     0
  9
$DIMSAH
 70
     0
  9
$DIMBLK1
  1

  9
$DIMBLK2
  1

  9
$DIMSTYLE
  2
Modular
  9
$DIMCLRD
 70
     2
  9
$DIMCLRE
 70
     2
  9
$DIMCLRT
 70
     2
  9
$DIMTFAC
 40
1.0
  9
$DIMGAP
 40
1.5
  9
$DIMJUST
 70
     0
  9
$DIMSD1
 70
     0
  9
$DIMSD2
 70
     0
  9
$DIMTOLJ
 70
     1
  9
$DIMTZIN
 70
     0
  9
$DIMALTZ
 70
     0
  9
$DIMALTTZ
 70
     0
  9
$DIMUPT
 70
     0
  9
$DIMDEC
 70
     1
  9
$DIMTDEC
 70
     1
  9
$DIMALTU
 70
     2
  9
$DIMALTTD
 70
     2
  9
$DIMTXSTY
  7
STANDARD
  9
$DIMAUNIT
 70
     0
  9
$DIMADEC
 70
     0
  9
$DIMALTRND
 40
0.0
  9
$DIMAZIN
 70
     0
  9
$DIMDSEP
 70
    46
  9
$DIMATFIT
 70
     3
  9
$DIMFRAC
 70
     0
  9
$DIMLDRBLK
  1

  9
$DIMLUNIT
 70
     2
  9
$DIMLWD
 70
    -2
  9
$DIMLWE
 70
    -2
  9
$DIMTMOVE
 70
     0
  9
$LUNITS
 70
     2
  9
$LUPREC
 70
     4
  9
$SKETCHINC
 40
0.1
  9
$FILLETRAD
 40
0.0
  9
$AUNITS
 70
     0
  9
$AUPREC
 70
     0
  9
$MENU
  1
acad
  9
$ELEVATION
 40
0.0
  9
$PELEVATION
 40
0.0
  9
$THICKNESS
 40
0.0
  9
$LIMCHECK
 70
     0
  9
$CHAMFERA
 40
0.0
  9
$CHAMFERB
 40
0.0
  9
$CHAMFERC
 40
0.0
  9
$CHAMFERD
 40
0.0
  9
$SKPOLY
 70
     0
  9
$TDCREATE
 40
2444972.083333333
  9
$TDUCREATE
 40
2444972.000000000
  9
$TDUPDATE
 40
2454026.578698449
  9
$TDUUPDATE
 40
2454026.495365116
  9
$TDINDWG
 40
0.1757951852
  9
$TDUSRTIMER
 40
0.1757951852
  9
$USRTIMER
 70
     1
  9
$ANGBASE
 50
0.0
  9
$ANGDIR
 70
     0
  9
$PDMODE
 70
     0
  9
$PDSIZE
 40
0.0
  9
$PLINEWID
 40
0.0
  9
$SPLFRAME
 70
     0
  9
$SPLINETYPE
 70
     6
  9
$SPLINESEGS
 70
     8
  9
$HANDSEED
  5
100C
  9
$SURFTAB1
 70
     6
  9
$SURFTAB2
 70
     6
  9
$SURFTYPE
 70
     6
  9
$SURFU
 70
     6
  9
$SURFV
 70
     6
  9
$UCSBASE
  2

  9
$UCSNAME
  2

  9
$UCSORG
 10
0.0
 20
0.0
 30
0.0
  9
$UCSXDIR
 10
1.0
 20
0.0
 30
0.0
  9
$UCSYDIR
 10
0.0
 20
1.0
 30
0.0
  9
$UCSORTHOREF
  2

  9
$UCSORTHOVIEW
 70
     0
  9
$UCSORGTOP
 10
0.0
 20
0.0
 30
0.0
  9
$UCSORGBOTTOM
 10
0.0
 20
0.0
 30
0.0
  9
$UCSORGLEFT
 10
0.0
 20
0.0
 30
0.0
  9
$UCSORGRIGHT
 10
0.0
 20
0.0
 30
0.0
  9
$UCSORGFRONT
 10
0.0
 20
0.0
 30
0.0
  9
$UCSORGBACK
 10
0.0
 20
0.0
 30
0.0
  9
$PUCSBASE
  2

  9
$PUCSNAME
  2

  9
$PUCSORG
 10
0.0
 20
0.0
 30
0.0
  9
$PUCSXDIR
 10
1.0
 20
0.0
 30
0.0
  9
$PUCSYDIR
 10
0.0
 20
1.0
 30
0.0
  9
$PUCSORTHOREF
  2

  9
$PUCSORTHOVIEW
 70
     0
  9
$PUCSORGTOP
 10
0.0
 20
0.0
 30
0.0
  9
$PUCSORGBOTTOM
 10
0.0
 20
0.0
 30
0.0
  9
$PUCSORGLEFT
 10
0.0
 20
0.0
 30
0.0
  9
$PUCSORGRIGHT
 10
0.0
 20
0.0
 30
0.0
  9
$PUCSORGFRONT
 10
0.0
 20
0.0
 30
0.0
  9
$PUCSORGBACK
 10
0.0
 20
0.0
 30
0.0
  9
$USERI1
 70
     0
  9
$USERI2
 70
     0
  9
$USERI3
 70
     0
  9
$USERI4
 70
     0
  9
$USERI5
 70
     0
  9
$USERR1
 40
0.0
  9
$USERR2
 40
0.0
  9
$USERR3
 40
0.0
  9
$USERR4
 40
0.0
  9
$USERR5
 40
0.0
  9
$WORLDVIEW
 70
     1
  9
$SHADEDGE
 70
     3
  9
$SHADEDIF
 70
    70
  9
$TILEMODE
 70
     1
  9
$MAXACTVP
 70
    16
  9
$PINSBASE
 10
0.0
 20
0.0
 30
0.0
  9
$PLIMCHECK
 70
     0
  9
$PEXTMIN
 10
1.000000000000000E+20
 20
1.000000000000000E+20
 30
1.000000000000000E+20
  9
$PEXTMAX
 10
-1.000000000000000E+20
 20
-1.000000000000000E+20
 30
-1.000000000000000E+20
  9
$PLIMMIN
 10
0.0
 20
0.0
  9
$PLIMMAX
 10
12.0
 20
9.0
  9
$UNITMODE
 70
     0
  9
$VISRETAIN
 70
     0
  9
$PLINEGEN
 70
     1
  9
$PSLTSCALE
 70
     0
  9
$TREEDEPTH
 70
  3020
  9
$CMLSTYLE
  2
STANDARD
  9
$CMLJUST
 70
     0
  9
$CMLSCALE
 40
1.0
  9
$PROXYGRAPHICS
 70
     1
  9
$MEASUREMENT
 70
     0
  9
$CELWEIGHT
370
    -1
  9
$ENDCAPS
280
     0
  9
$JOINSTYLE
280
     0
  9
$LWDISPLAY
290
     0
  9
$INSUNITS
 70
     0
  9
$HYPERLINKBASE
  1

  9
$STYLESHEET
  1

  9
$XEDIT
290
     1
  9
$CEPSNTYPE
380
     0
  9
$PSTYLEMODE
290
     1
  9
$FINGERPRINTGUID
  2
{744DADF6-C1BA-4EE2-8B61-0EC1637A8970}
  9
$VERSIONGUID
  2
{BCF01AB3-42C6-4AB4-833E-48ACA1790B3F}
  9
$EXTNAMES
290
     1
  9
$PSVPSCALE
 40
0.0
  9
$OLESTARTUP
290
     0
  0
ENDSEC
  0
SECTION
  2
CLASSES
  0
CLASS
  1
LWPOLYLINE
  2
AcDbPolyline
  3
AutoCAD 2000
 90
    32768
280
     0
281
     1
  0
CLASS
  1
IMAGE
  2
AcDbRasterImage
  3
ISM
 90
    32895
280
     0
281
     1
  0
CLASS
  1
OLE2FRAME
  2
AcDbOle2Frame
  3
AutoCAD 2000
 90
    32768
280
     0
281
     1
  0
CLASS
  1
HATCH
  2
AcDbHatch
  3
AutoCAD 2000
 90
    32768
280
     0
281
     1
  0
CLASS
  1
DICTIONARYVAR
  2
AcDbDictionaryVar
  3
AutoCAD 2000
 90
        0
280
     0
281
     0
  0
CLASS
  1
RASTERVARIABLES
  2
AcDbRasterVariables
  3
ISM
 90
    32768
280
     0
281
     0
  0
CLASS
  1
IMAGEDEF
  2
AcDbRasterImageDef
  3
ISM
 90
    32768
280
     0
281
     0
  0
CLASS
  1
IMAGEDEF_REACTOR
  2
AcDbRasterImageDefReactor
  3
ISM
 90
    32769
280
     0
281
     0
  0
CLASS
  1
IDBUFFER
  2
AcDbIdBuffer
  3
AutoCAD 2000
 90
    32768
280
     0
281
     0
  0
CLASS
  1
SPATIAL_FILTER
  2
AcDbSpatialFilter
  3
AutoCAD 2000
 90
    32768
280
     0
281
     0
  0
CLASS
  1
XRECORD
  2
AcDbXrecord
  3
AutoCAD 2000
 90
    32768
280
     0
281
     0
  0
CLASS
  1
SORTENTSTABLE
  2
AcDbSortentsTable
  3
AutoCAD 2000
 90
    32768
280
     0
281
     0
  0
CLASS
  1
LAYER_INDEX
  2
AcDbLayerIndex
  3
AutoCAD 2000
 90
    32768
280
     0
281
     0
  0
CLASS
  1
SPATIAL_INDEX
  2
AcDbSpatialIndex
  3
AutoCAD 2000
 90
    32768
280
     0
281
     0
  0
CLASS
  1
OBJECT_PTR
  2
CAseDLPNTableRecord
  3
ASE-LPNTableRecord
 90
    32769
280
     0
281
     0
  0
CLASS
  1
LAYOUT
  2
AcDbLayout
  3
AutoCAD 2000
 90
        0
280
     0
281
     0
  0
CLASS
  1
PLOTSETTINGS
  2
AcDbPlotSettings
  3
AutoCAD 2000
 90
    32768
280
     0
281
     0
  0
CLASS
  1
ACDBDICTIONARYWDFLT
  2
AcDbDictionaryWithDefault
  3
AutoCAD 2000
 90
        0
280
     0
281
     0
  0
CLASS
  1
ACDBPLACEHOLDER
  2
AcDbPlaceHolder
  3
AutoCAD 2000
 90
        0
280
     0
281
     0
  0
CLASS
  1
VBA_PROJECT
  2
AcDbVbaProject
  3
acadvba
 90
    32768
280
     0
281
     0
  0
CLASS
  1
WIPEOUT
  2
AcDbWipeout
  3
WipeOut|AutoCAD Express Tool|expresstools@autodesk.com
 90
    32768
280
     0
281
     1
  0
CLASS
  1
WIPEOUTVARIABLES
  2
AcDbWipeoutVariables
  3
WipeOut|AutoCAD Express Tool|expresstools@autodesk.com
 90
    32768
280
     0
281
     0
  0
CLASS
  1
RTEXT
  2
RText
  3
RText|AutoCAD Express Tool|expresstools@autodesk.com
 90
    32768
280
     0
281
     1
  0
CLASS
  1
ARCALIGNEDTEXT
  2
AcDbArcAlignedText
  3
ATEXT|AutoCAD Express Tool|expresstools@autodesk.com
 90
    32768
280
     0
281
     1
  0
ENDSEC
  0
SECTION
  2
TABLES
  0
TABLE
  2
VPORT
  5
8
330
0
100
AcDbSymbolTable
 70
     2
  0
VPORT
  5
100B
330
8
100
AcDbSymbolTableRecord
100
AcDbViewportTableRecord
  2
*Active
 70
     0
 10
0.0
 20
0.0
 11
1.0
 21
1.0
 12
-6.184901798067357
 22
31.10459440834938
 13
0.0
 23
0.0
 14
1.0
 24
1.0
 15
0.0
 25
0.0
 16
0.0
 26
0.0
 36
1.0
 17
0.0
 27
0.0
 37
0.0
 40
137.8893069100425
 41
1.76078431372549
 42
50.0
 43
0.0
 44
0.0
 50
0.0
 51
0.0
 71
     0
 72
  1000
 73
     1
 74
     1
 75
     0
 76
     0
 77
     0
 78
     0
281
     0
 65
     1
110
0.0
120
0.0
130
0.0
111
1.0
121
0.0
131
0.0
112
0.0
122
1.0
132
0.0
 79
     0
146
0.0
  0
ENDTAB
  0
TABLE
  2
LTYPE
  5
5
330
0
100
AcDbSymbolTable
 70
     3
  0
LTYPE
  5
14
330
5
100
AcDbSymbolTableRecord
100
AcDbLinetypeTableRecord
  2
BYBLOCK
 70
     0
  3

 72
    65
 73
     0
 40
0.0
  0
LTYPE
  5
15
330
5
100
AcDbSymbolTableRecord
100
AcDbLinetypeTableRecord
  2
BYLAYER
 70
     0
  3

 72
    65
 73
     0
 40
0.0
  0
LTYPE
  5
16
330
5
100
AcDbSymbolTableRecord
100
AcDbLinetypeTableRecord
  2
CONTINUOUS
 70
     0
  3
Solid line
 72
    65
 73
     0
 40
0.0
  0
LTYPE
  5
E25
330
5
100
AcDbSymbolTableRecord
100
AcDbLinetypeTableRecord
  2
AXES2
 70
     0
  3
___ _ ___ _ ___ _ ___ _ ___ _ ___ _ ___ _ ___ _
 72
    65
 73
     4
 40
1.125
 49
0.75
 74
     0
 49
-0.125
 74
     0
 49
0.125
 74
     0
 49
-0.125
 74
     0
  0
LTYPE
  5
F56
330
5
100
AcDbSymbolTableRecord
100
AcDbLinetypeTableRecord
  2
CACHE2
 70
     0
  3
_ _ _ _ _ _ _ _ _ _ _ _ _ _ _ _ _ _ _ _ _ _ _ _
 72
    65
 73
     2
 40
0.1875
 49
0.125
 74
     0
 49
-0.0625
 74
     0
  0
ENDTAB
  0
TABLE
  2
LAYER
  5
2
330
0
100
AcDbSymbolTable
 70
     4
  0
LAYER
  5
10
330
2
100
AcDbSymbolTableRecord
100
AcDbLayerTableRecord
  2
0
 70
     0
 62
     7
  6
CONTINUOUS
370
    -3
390
DAF
  0
LAYER
  5
DB7
330
2
100
AcDbSymbolTableRecord
100
AcDbLayerTableRecord
  2
Defpoints
 70
     0
 62
     7
  6
CONTINUOUS
290
     0
370
    -3
390
DAF
  0
LAYER
  5
E29
330
2
100
AcDbSymbolTableRecord
100
AcDbLayerTableRecord
  2
AXE
 70
     0
 62
    80
  6
AXES2
370
    -3
390
DAF
  0
LAYER
  5
E2A
330
2
100
AcDbSymbolTableRecord
100
AcDbLayerTableRecord
  2
COTATION1
 70
     0
 62
    50
  6
CONTINUOUS
370
    -3
390
DAF
  0
ENDTAB
  0
TABLE
  2
STYLE
  5
3
330
0
100
AcDbSymbolTable
 70
     1
  0
STYLE
  5
11
330
3
100
AcDbSymbolTableRecord
100
AcDbTextStyleTableRecord
  2
STANDARD
 70
     0
 40
0.0
 41
0.8
 50
0.0
 71
     0
 42
0.2
  3
txt
  4

  0
ENDTAB
  0
TABLE
  2
VIEW
  5
6
330
0
100
AcDbSymbolTable
 70
     0
  0
ENDTAB
  0
TABLE
  2
UCS
  5
7
330
0
100
AcDbSymbolTable
 70
     0
  0
ENDTAB
  0
TABLE
  2
APPID
  5
9
330
0
100
AcDbSymbolTable
 70
     4
  0
APPID
  5
22F
330
9
100
AcDbSymbolTableRecord
100
AcDbRegAppTableRecord
  2
ACAD
 70
     0
  0
APPID
  5
E2F
330
9
100
AcDbSymbolTableRecord
100
AcDbRegAppTableRecord
  2
AVE_RENDER
 70
     0
  0
APPID
  5
E30
330
9
100
AcDbSymbolTableRecord
100
AcDbRegAppTableRecord
  2
AVE_MATERIAL
 70
     0
  0
APPID
  5
E31
330
9
100
AcDbSymbolTableRecord
100
AcDbRegAppTableRecord
  2
DCO15
 70
     0
  0
ENDTAB
  0
TABLE
  2
DIMSTYLE
  5
A
330
0
100
AcDbSymbolTable
 70
     3
100
AcDbDimStyleTable
 71
     2
340
DD3
340
230
  0
DIMSTYLE
105
230
330
A
100
AcDbSymbolTableRecord
100
AcDbDimStyleTableRecord
  2
STANDARD
 70
     0
 41
0.1875
 47
0.01
 48
0.01
 78
     4
140
0.15625
271
     2
272
     2
284
     4
340
11
  0
DIMSTYLE
105
DD3
102
{ACAD_REACTORS
330
FAE
330
FBB
102
}
330
A
100
AcDbSymbolTableRecord
100
AcDbDimStyleTableRecord
  2
Modular
 70
     0
 41
4.0
 42
2.0
 43
2.0
 44
2.0
 73
     0
 74
     0
 77
     1
140
3.0
141
0.1488188976
147
1.5
176
     2
177
     2
178
     2
271
     1
272
     1
340
11
  0
DIMSTYLE
105
F57
330
A
100
AcDbSymbolTableRecord
100
AcDbDimStyleTableRecord
  2
OLGA
 70
     0
 41
3.0
 42
2.0
 43
2.0
 44
2.0
 47
0.01
 48
0.01
 73
     0
 74
     0
 77
     1
 78
     8
140
3.0
147
2.0
176
     2
177
     2
178
     2
271
     0
272
     0
284
     8
340
11
  0
ENDTAB
  0
TABLE
  2
BLOCK_RECORD
  5
1
330
0
100
AcDbSymbolTable
 70
     3
  0
BLOCK_RECORD
  5
1B
330
1
100
AcDbSymbolTableRecord
100
AcDbBlockTableRecord
  2
*MODEL_SPACE
340
DB2
  0
BLOCK_RECORD
  5
1C
330
1
100
AcDbSymbolTableRecord
100
AcDbBlockTableRecord
  2
*PAPER_SPACE
340
DB3
  0
BLOCK_RECORD
  5
FAF
330
1
100
AcDbSymbolTableRecord
100
AcDbBlockTableRecord
  2
*D1
340
0
  0
BLOCK_RECORD
  5
FBC
330
1
100
AcDbSymbolTableRecord
100
AcDbBlockTableRecord
  2
*D2
340
0
  0
ENDTAB
  0
ENDSEC
  0
SECTION
  2
BLOCKS
  0
BLOCK
  5
1E
330
1B
100
AcDbEntity
  8
0
100
AcDbBlockBegin
  2
*MODEL_SPACE
 70
     0
 10
0.0
 20
0.0
 30
0.0
  3
*MODEL_SPACE
  1

  0
ENDBLK
  5
1F
330
1B
100
AcDbEntity
  8
0
100
AcDbBlockEnd
  0
BLOCK
  5
20
330
1C
100
AcDbEntity
 67
     1
  8
0
100
AcDbBlockBegin
  2
*PAPER_SPACE
 70
     0
 10
0.0
 20
0.0
 30
0.0
  3
*PAPER_SPACE
  1

  0
ENDBLK
  5
21
330
1C
100
AcDbEntity
 67
     1
  8
0
100
AcDbBlockEnd
  0
BLOCK
  5
FB9
330
FAF
100
AcDbEntity
  8
0
100
AcDbBlockBegin
  2
*D1
 70
     1
 10
0.0
 20
0.0
 30
0.0
  3
*D1
  1

  0
LINE
  5
FE3
330
FAF
100
AcDbEntity
  8
COTATION1
 62
     2
370
    -2
100
AcDbLine
 10
-13.93490273946
 20
74.07258760329999
 30
0.0
 11
45.5209039707692
 21
74.07258760329998
 31
0.0
  0
LINE
  5
FE4
330
FAF
100
AcDbEntity
  8
COTATION1
 62
     2
370
    -2
100
AcDbLine
 10
-13.93490273946
 20
-15.92741239633999
 30
0.0
 11
45.52090397076919
 21
-15.92741239634
 31
0.0
  0
LINE
  5
FE5
330
FAF
100
AcDbEntity
  8
COTATION1
 62
     2
370
    -2
100
AcDbLine
 10
43.5209039707692
 20
70.07258760329998
 30
0.0
 11
43.52090397076919
 21
-11.92741239634
 31
0.0
  0
SOLID
  5
FE6
330
FAF
100
AcDbEntity
  8
COTATION1
 62
     2
100
AcDbTrace
 10
42.85423730410253
 20
70.07258760329998
 30
0.0
 11
44.18757063743586
 21
70.07258760329998
 31
0.0
 12
43.5209039707692
 22
74.07258760329998
 32
0.0
 13
43.5209039707692
 23
74.07258760329998
 33
0.0
  0
SOLID
  5
FE7
330
FAF
100
AcDbEntity
  8
COTATION1
 62
     2
100
AcDbTrace
 10
42.85423730410252
 20
-11.92741239634
 30
0.0
 11
44.18757063743585
 21
-11.92741239634
 31
0.0
 12
43.52090397076919
 22
-15.92741239634
 32
0.0
 13
43.52090397076919
 23
-15.92741239634
 33
0.0
  0
MTEXT
  5
FE8
330
FAF
100
AcDbEntity
  8
COTATION1
 62
     2
100
AcDbMText
 10
40.52090397076919
 20
29.07258760347999
 30
0.0
 40
3.0
 41
0.0
 71
     5
 72
     1
  1
\A1;90.0
 11
0.0000000000000001
 21
1.0
 31
0.0
 73
     1
 44
1.0
  0
POINT
  5
FE9
330
FAF
100
AcDbEntity
  8
Defpoints
 62
     0
100
AcDbPoint
 10
-15.93490273946001
 20
74.07258760329999
 30
0.0
  0
POINT
  5
FEA
330
FAF
100
AcDbEntity
  8
Defpoints
 62
     0
100
AcDbPoint
 10
-15.93490273946001
 20
-15.92741239633999
 30
0.0
  0
POINT
  5
FEB
330
FAF
100
AcDbEntity
  8
Defpoints
 62
     0
100
AcDbPoint
 10
43.52090397076919
 20
-15.92741239634
 30
0.0
  0
ENDBLK
  5
FBA
330
FAF
100
AcDbEntity
  8
0
100
AcDbBlockEnd
  0
BLOCK
  5
FC6
330
FBC
100
AcDbEntity
  8
0
100
AcDbBlockBegin
  2
*D2
 70
     1
 10
0.0
 20
0.0
 30
0.0
  3
*D2
  1

  0
LINE
  5
FEC
330
FBC
100
AcDbEntity
  8
COTATION1
 62
     2
370
    -2
100
AcDbLine
 10
10.76509726149998
 20
-7.097747825079994
 30
0.0
 11
10.76509726149998
 21
-37.03651612117626
 31
0.0
  0
LINE
  5
FED
330
FBC
100
AcDbEntity
  8
COTATION1
 62
     2
370
    -2
100
AcDbLine
 10
-42.63490273788
 20
-7.097747825079994
 30
0.0
 11
-42.63490273788
 21
-37.03651612117626
 31
0.0
  0
LINE
  5
FEE
330
FBC
100
AcDbEntity
  8
COTATION1
 62
     2
370
    -2
100
AcDbLine
 10
6.765097261499981
 20
-35.03651612117626
 30
0.0
 11
-38.63490273787999
 21
-35.03651612117626
 31
0.0
  0
SOLID
  5
FEF
330
FBC
100
AcDbEntity
  8
COTATION1
 62
     2
100
AcDbTrace
 10
6.765097261499981
 20
-34.3698494545096
 30
0.0
 11
6.765097261499981
 21
-35.70318278784292
 31
0.0
 12
10.76509726149998
 22
-35.03651612117626
 32
0.0
 13
10.76509726149998
 23
-35.03651612117626
 33
0.0
  0
SOLID
  5
FF0
330
FBC
100
AcDbEntity
  8
COTATION1
 62
     2
100
AcDbTrace
 10
-38.63490273787999
 20
-34.3698494545096
 30
0.0
 11
-38.63490273787999
 21
-35.70318278784292
 31
0.0
 12
-42.63490273788
 22
-35.03651612117626
 32
0.0
 13
-42.63490273788
 23
-35.03651612117626
 33
0.0
  0
MTEXT
  5
FF1
330
FBC
100
AcDbEntity
  8
COTATION1
 62
     2
100
AcDbMText
 10
-15.93490273819
 20
-32.03651612117626
 30
0.0
 40
3.0
 41
0.0
 71
     5
 72
     1
  1
\A1;53.4
 73
     1
 44
1.0
  0
POINT
  5
FF2
330
FBC
100
AcDbEntity
  8
Defpoints
 62
     0
100
AcDbPoint
 10
10.76509726149998
 20
-5.097747825079994
 30
0.0
  0
POINT
  5
FF3
330
FBC
100
AcDbEntity
  8
Defpoints
 62
     0
100
AcDbPoint
 10
-42.63490273788
 20
-5.097747825079994
 30
0.0
  0
POINT
  5
FF4
330
FBC
100
AcDbEntity
  8
Defpoints
 62
     0
100
AcDbPoint
 10
-42.63490273788
 20
-35.03651612117626
 30
0.0
  0
ENDBLK
  5
FC7
330
FBC
100
AcDbEntity
  8
0
100
AcDbBlockEnd
  0
ENDSEC
  0
SECTION
  2
ENTITIES
  0
LINE
  5
235
330
1B
100
AcDbEntity
  8
0
  6
Continuous
 62
     7
100
AcDbLine
 10
10.11509726101998
 20
-15.92741239633999
 30
0.0
 11
-41.98490273993999
 21
-15.92741239633999
 31
0.0
  0
LINE
  5
23C
330
1B
100
AcDbEntity
  8
0
  6
Continuous
 62
     7
100
AcDbLine
 10
-41.98490273993999
 20
-4.927412397399979
 30
0.0
 11
10.11509726101998
 21
-4.927412397399979
 31
0.0
  0
LINE
  5
23F
330
1B
100
AcDbEntity
  8
0
  6
Continuous
 62
     7
100
AcDbLine
 10
-22.88490273834001
 20
-3.327412396999998
 30
0.0
 11
-40.83490273869999
 21
-3.327412396999998
 31
0.0
  0
LINE
  5
247
330
1B
100
AcDbEntity
  8
0
  6
Continuous
 62
     7
100
AcDbLine
 10
-42.63490273787999
 20
-15.27741239586
 30
0.0
 11
-42.63490273787999
 21
73.42258760282003
 31
0.0
  0
LINE
  5
24B
330
1B
100
AcDbEntity
  8
0
  6
Continuous
 62
     7
100
AcDbLine
 10
-41.03490274002001
 20
-3.127412395679984
 30
0.0
 11
-41.03490274002001
 21
4.972587604440018
 31
0.0
  0
LINE
  5
255
330
1B
100
AcDbEntity
  8
0
  6
Continuous
 62
     7
100
AcDbLine
 10
-22.88490273834001
 20
5.17258760322001
 30
0.0
 11
-40.83490273869999
 21
5.17258760322001
 31
0.0
  0
LINE
  5
257
330
1B
100
AcDbEntity
  8
0
  6
Continuous
 62
     7
100
AcDbLine
 10
10.11509726101998
 20
6.572587602299999
 30
0.0
 11
-41.98490273993999
 21
6.572587602299999
 31
0.0
  0
LINE
  5
265
330
1B
100
AcDbEntity
  8
0
  6
Continuous
 62
     7
100
AcDbLine
 10
-22.68490273955999
 20
-3.127412395679984
 30
0.0
 11
-22.68490273955999
 21
4.972587604440018
 31
0.0
  0
LINE
  5
283
330
1B
100
AcDbEntity
  8
0
  6
Continuous
 62
     7
100
AcDbLine
 10
-41.98490273993999
 20
51.57258760466
 30
0.0
 11
10.11509726101998
 21
51.57258760466
 31
0.0
  0
LINE
  5
28D
330
1B
100
AcDbEntity
  8
0
  6
Continuous
 62
     7
100
AcDbLine
 10
10.76509726149999
 20
73.42258760282003
 30
0.0
 11
10.76509726149999
 21
-15.27741239586
 31
0.0
  0
LINE
  5
297
330
1B
100
AcDbEntity
  8
0
  6
Continuous
 62
     7
100
AcDbLine
 10
-41.98490273993999
 20
63.07258760436
 30
0.0
 11
10.11509726101998
 21
63.07258760436
 31
0.0
  0
LINE
  5
29A
330
1B
100
AcDbEntity
  8
0
  6
Continuous
 62
     7
100
AcDbLine
 10
-41.98490273993999
 20
74.07258760329999
 30
0.0
 11
10.11509726101998
 21
74.07258760329999
 31
0.0
  0
ARC
  5
924
330
1B
100
AcDbEntity
  8
0
  6
Continuous
 62
     7
100
AcDbCircle
 10
10.11509726101998
 20
-15.27741239586
 30
0.0
 40
0.65000000048
100
AcDbArc
 50
341.4564047714008
 51
0.0000000000007994
  0
ARC
  5
925
330
1B
100
AcDbEntity
  8
0
  6
Continuous
 62
     7
100
AcDbCircle
 10
10.11509726101998
 20
-15.27741239586
 30
0.0
 40
0.65000000048
100
AcDbArc
 50
323.0526302421007
 51
334.6509324200007
  0
ARC
  5
926
330
1B
100
AcDbEntity
  8
0
  6
Continuous
 62
     7
100
AcDbCircle
 10
10.11509726101998
 20
-15.27741239586
 30
0.0
 40
0.65000000048
100
AcDbArc
 50
287.5379500108006
 51
305.0118714929006
  0
ARC
  5
927
330
1B
100
AcDbEntity
  8
0
  6
Continuous
 62
     7
100
AcDbCircle
 10
-40.83490273869999
 20
-3.127412395679983
 30
0.0
 40
0.19999999878
100
AcDbArc
 50
180.0000000000004
 51
270.0000000000006
  0
ARC
  5
928
330
1B
100
AcDbEntity
  8
0
  6
Continuous
 62
     7
100
AcDbCircle
 10
-40.83490273869999
 20
4.972587604440018
 30
0.0
 40
0.19999999878
100
AcDbArc
 50
90.00000000000019
 51
180.0000000000004
  0
ARC
  5
929
330
1B
100
AcDbEntity
  8
0
  6
Continuous
 62
     7
100
AcDbCircle
 10
-22.88490273834001
 20
4.972587604440018
 30
0.0
 40
0.19999999878
100
AcDbArc
 50
0.0
 51
90.00000000000019
  0
ARC
  5
92A
330
1B
100
AcDbEntity
  8
0
  6
Continuous
 62
     7
100
AcDbCircle
 10
-22.88490273834001
 20
-3.127412395679983
 30
0.0
 40
0.19999999878
100
AcDbArc
 50
270.0000000000006
 51
0.0000000000007994
  0
ARC
  5
92B
330
1B
100
AcDbEntity
  8
0
  6
Continuous
 62
     7
100
AcDbCircle
 10
10.11509726101998
 20
50.92258760417998
 30
0.0
 40
0.65000000048
100
AcDbArc
 50
0.0
 51
90.00000000000019
  0
ARC
  5
92C
330
1B
100
AcDbEntity
  8
0
  6
Continuous
 62
     7
100
AcDbCircle
 10
10.11509726101998
 20
7.222587602780013
 30
0.0
 40
0.65000000048
100
AcDbArc
 50
270.0000000000006
 51
359.9999846047008
  0
ARC
  5
92D
330
1B
100
AcDbEntity
  8
0
  6
Continuous
 62
     7
100
AcDbCircle
 10
10.11509726101998
 20
-4.277412396919989
 30
0.0
 40
0.65000000048
100
AcDbArc
 50
270.0000000000006
 51
0.0000000000007994
  0
ARC
  5
92E
330
1B
100
AcDbEntity
  8
0
  6
Continuous
 62
     7
100
AcDbCircle
 10
10.11509726101998
 20
62.42258760387999
 30
0.0
 40
0.65000000048
100
AcDbArc
 50
0.0
 51
90.00000000000019
  0
ARC
  5
92F
330
1B
100
AcDbEntity
  8
0
  6
Continuous
 62
     7
100
AcDbCircle
 10
10.11509726101998
 20
73.42258760282003
 30
0.0
 40
0.65000000048
100
AcDbArc
 50
0.0
 51
90.00000000000019
  0
ARC
  5
930
330
1B
100
AcDbEntity
  8
0
  6
Continuous
 62
     7
100
AcDbCircle
 10
-41.98490273993999
 20
62.42258760387999
 30
0.0
 40
0.65000000048
100
AcDbArc
 50
90.00000000000019
 51
180.0000000000004
  0
ARC
  5
931
330
1B
100
AcDbEntity
  8
0
  6
Continuous
 62
     7
100
AcDbCircle
 10
-41.98490273993999
 20
50.92258760417998
 30
0.0
 40
0.65000000048
100
AcDbArc
 50
90.00000000000019
 51
180.0000000000004
  0
ARC
  5
932
330
1B
100
AcDbEntity
  8
0
  6
Continuous
 62
     7
100
AcDbCircle
 10
-41.98490273993999
 20
7.222587602780013
 30
0.0
 40
0.65000000048
100
AcDbArc
 50
180.0000000000004
 51
270.0000000000006
  0
ARC
  5
933
330
1B
100
AcDbEntity
  8
0
  6
Continuous
 62
     7
100
AcDbCircle
 10
-41.98490273993999
 20
-4.277412396919989
 30
0.0
 40
0.65000000048
100
AcDbArc
 50
180.0000000000004
 51
270.0000000000006
  0
ARC
  5
934
330
1B
100
AcDbEntity
  8
0
  6
Continuous
 62
     7
100
AcDbCircle
 10
-41.98490273993999
 20
-15.27741239586
 30
0.0
 40
0.65000000048
100
AcDbArc
 50
180.0000000000004
 51
270.0000000000006
  0
ARC
  5
935
330
1B
100
AcDbEntity
  8
0
  6
Continuous
 62
     7
100
AcDbCircle
 10
-41.98490273993999
 20
73.42258760282003
 30
0.0
 40
0.65000000048
100
AcDbArc
 50
90.00000000000019
 51
180.0000000000004
  0
CIRCLE
  5
936
330
1B
100
AcDbEntity
  8
0
  6
Continuous
 62
     7
100
AcDbCircle
 10
-36.0849027391
 20
66.47258760394002
 30
0.0
 40
2.100000001159999
  0
CIRCLE
  5
937
330
1B
100
AcDbEntity
  8
0
  6
Continuous
 62
     7
100
AcDbCircle
 10
-31.00490273909999
 20
66.47258760394002
 30
0.0
 40
2.100000001159999
  0
CIRCLE
  5
938
330
1B
100
AcDbEntity
  8
0
  6
Continuous
 62
     7
100
AcDbCircle
 10
3.915097260739978
 20
66.47258760394002
 30
0.0
 40
2.100000001159999
  0
CIRCLE
  5
939
330
1B
100
AcDbEntity
  8
0
  6
Continuous
 62
     7
100
AcDbCircle
 10
-1.164902739260003
 20
66.47258760394002
 30
0.0
 40
2.100000001159999
  0
CIRCLE
  5
93A
330
1B
100
AcDbEntity
  8
0
  6
Continuous
 62
     7
100
AcDbCircle
 10
-6.244902739260007
 20
66.47258760394002
 30
0.0
 40
2.100000001159999
  0
CIRCLE
  5
93B
330
1B
100
AcDbEntity
  8
0
  6
Continuous
 62
     7
100
AcDbCircle
 10
-11.32490273926001
 20
66.47258760394002
 30
0.0
 40
2.100000001159999
  0
SPLINE
  5
A0A
330
1B
100
AcDbEntity
  8
0
  6
Continuous
 62
     7
100
AcDbSpline
210
0.0
220
0.0
230
1.0
 70
     8
 71
     3
 72
     9
 73
     5
 74
     3
 42
0.0000000001
 43
0.0000000001
 44
0.0000000001
 12
-0.9624593956216232
 22
-0.271425702135335
 32
0.0
 13
-0.9350917431674325
 23
-0.3544057446770476
 33
0.0
 40
0.0
 40
0.0
 40
0.0
 40
0.0
 40
0.0248996904112102
 40
0.0564494941707182
 40
0.0564494941707182
 40
0.0564494941707182
 40
0.0564494941707182
 10
-42.16177686422001
 20
74.04807732465998
 30
0.0
 10
-42.16976517788146
 20
74.04582451934238
 30
0.0
 10
-42.18777859304888
 20
74.04036947533855
 30
0.0
 10
-42.20553955438197
 20
74.03412855013861
 30
0.0
 10
-42.21537354138
 20
74.03040140624002
 30
0.0
 11
-42.16177686422001
 21
74.04807732465998
 31
0.0
 11
-42.1856073779
 21
74.04085920854
 31
0.0
 11
-42.21537354138
 21
74.03040140624002
 31
0.0
  0
SPLINE
  5
A0B
330
1B
100
AcDbEntity
  8
0
  6
Continuous
 62
     7
100
AcDbSpline
210
0.0
220
0.0
230
1.0
 70
     8
 71
     3
 72
     9
 73
     5
 74
     3
 42
0.0000000001
 43
0.0000000001
 44
0.0000000001
 12
-0.8444036313792537
 22
-0.5357074829732451
 32
0.0
 13
-0.7898251844856139
 23
-0.6133320291263665
 33
0.0
 40
0.0
 40
0.0
 40
0.0
 40
0.0
 40
0.0409360413769688
 40
0.0614037318962402
 40
0.0614037318962402
 40
0.0614037318962402
 40
0.0614037318962402
 10
-42.33321110606001
 20
73.97145165114
 30
0.0
 10
-42.34473328672435
 20
73.96414173657702
 30
0.0
 10
-42.36167697508019
 20
73.9526273398475
 30
0.0
 10
-42.37804126569989
 20
73.94032891849924
 30
0.0
 10
-42.38342989818002
 20
73.93614442178002
 30
0.0
 11
-42.33321110606001
 21
73.97145165114
 31
0.0
 11
-42.36706747980002
 21
73.94844066592002
 31
0.0
 11
-42.38342989818002
 21
73.93614442178002
 31
0.0
  0
SPLINE
  5
A0C
330
1B
100
AcDbEntity
  8
0
  6
Continuous
 62
     7
100
AcDbSpline
210
0.0
220
0.0
230
1.0
 70
     8
 71
     3
 72
     9
 73
     5
 74
     3
 42
0.0000000001
 43
0.0000000001
 44
0.0000000001
 12
-0.6422024697857585
 22
-0.7665350532109227
 32
0.0
 13
-0.5777453578206054
 23
-0.8162170676460648
 33
0.0
 40
0.0
 40
0.0
 40
0.0
 40
0.0
 40
0.0442117634624228
 40
0.0527141410107462
 40
0.0527141410107462
 40
0.0527141410107462
 40
0.0527141410107462
 10
-42.48333247714001
 20
73.83986612055998
 30
0.0
 10
-42.49279677836973
 20
73.82856949840723
 30
0.0
 10
-42.50362930865962
 20
73.81470968618336
 30
0.0
 10
-42.51387510624701
 20
73.80043489901018
 30
0.0
 10
-42.51551250930002
 20
73.79812163712002
 30
0.0
 11
-42.48333247714001
 21
73.83986612055998
 31
0.0
 11
-42.51055470870001
 21
73.80502892582
 31
0.0
 11
-42.51551250930002
 21
73.79812163712002
 31
0.0
  0
SPLINE
  5
A0D
330
1B
100
AcDbEntity
  8
0
  6
Continuous
 62
     7
100
AcDbSpline
210
0.0
220
0.0
230
1.0
 70
     8
 71
     3
 72
     9
 73
     5
 74
     3
 42
0.0000000001
 43
0.0000000001
 44
0.0000000001
 12
0.0
 22
1.0
 32
0.0
 13
-0.3192984949337751
 23
0.9476541938560851
 33
0.0
 40
0.0
 40
0.0
 40
0.0
 40
0.0
 40
0.2029094884367578
 40
0.210561889277135
 40
0.210561889277135
 40
0.210561889277135
 40
0.210561889277135
 10
10.76509726149998
 20
73.42268660186
 30
0.0
 10
10.76509726149998
 20
73.49032309800559
 30
0.0
 10
10.75385560966264
 20
73.5613266751384
 30
0.0
 10
10.73184231703031
 20
73.62795840951683
 30
0.0
 10
10.73102785033999
 20
73.63037568609998
 30
0.0
 11
10.76509726149998
 21
73.42268660186
 31
0.0
 11
10.73342813763998
 21
73.62310947253999
 31
0.0
 11
10.73102785033999
 21
73.63037568609998
 31
0.0
  0
SPLINE
  5
A0E
330
1B
100
AcDbEntity
  8
0
  6
Continuous
 62
     7
100
AcDbSpline
210
0.0
220
0.0
230
1.0
 70
     8
 71
     3
 72
     8
 73
     4
 74
     2
 42
0.0000000001
 43
0.0000000001
 44
0.0000000001
 12
-0.603834473949757
 22
0.7971097340202416
 32
0.0
 13
-0.7110890869508383
 23
0.7031019203639137
 33
0.0
 40
0.0
 40
0.0
 40
0.0
 40
0.0
 40
0.0929087548567843
 40
0.0929087548567843
 40
0.0929087548567843
 40
0.0929087548567843
 10
10.63336912261998
 20
73.81496761561997
 30
0.0
 10
10.61466861958189
 20
73.839653773244
 30
0.0
 10
10.59414270234693
 20
73.8630544995672
 30
0.0
 10
10.57212056845998
 20
73.88482927422001
 30
0.0
 11
10.63336912261998
 21
73.81496761561997
 31
0.0
 11
10.57212056845998
 21
73.88482927422001
 31
0.0
  0
SPLINE
  5
A0F
330
1B
100
AcDbEntity
  8
0
  6
Continuous
 62
     7
100
AcDbSpline
210
0.0
220
0.0
230
1.0
 70
     8
 71
     3
 72
     9
 73
     5
 74
     3
 42
0.0000000001
 43
0.0000000001
 44
0.0000000001
 12
-0.7110890836681114
 22
0.7031019236839322
 32
0.0
 13
-0.821509437689216
 23
0.5701949173638327
 33
0.0
 40
0.0
 40
0.0
 40
0.0
 40
0.0
 40
0.0982355042443527
 40
0.1123593708815799
 40
0.1123593708815799
 40
0.1123593708815799
 40
0.1123593708815799
 10
10.57212056845998
 20
73.88482927422001
 30
0.0
 10
10.54883583689439
 20
73.90785246488943
 30
0.0
 10
10.52014638504369
 20
73.93224793418333
 30
0.0
 10
10.48961546535304
 20
73.95393592037667
 30
0.0
 10
10.48574783543999
 20
73.95662037270001
 30
0.0
 11
10.57212056845998
 21
73.88482927422001
 31
0.0
 11
10.49726200087998
 21
73.94844066592002
 31
0.0
 11
10.48574783543999
 21
73.95662037270001
 31
0.0
  0
SPLINE
  5
A10
330
1B
100
AcDbEntity
  8
0
  6
Continuous
 62
     7
100
AcDbSpline
210
0.0
220
0.0
230
1.0
 70
     8
 71
     3
 72
     9
 73
     5
 74
     3
 42
0.0000000001
 43
0.0000000001
 44
0.0000000001
 12
-0.9076661492737363
 22
0.419692937113061
 32
0.0
 13
-0.9561694520665913
 23
0.2928138981241753
 33
0.0
 40
0.0
 40
0.0
 40
0.0
 40
0.0
 40
0.0774756369783266
 40
0.0879408439384446
 40
0.0879408439384446
 40
0.0879408439384446
 40
0.0879408439384446
 10
10.38794009353996
 20
74.01260048934
 30
0.0
 10
10.36449942251375
 20
74.02343914855271
 30
0.0
 10
10.33711300546907
 20
74.03417374825131
 30
0.0
 10
10.30915607139494
 20
74.04298316231844
 30
0.0
 10
10.30582056766
 20
74.044004615
 30
0.0
 11
10.38794009353996
 21
74.01260048934
 31
0.0
 11
10.31580189897999
 21
74.04085920854
 31
0.0
 11
10.30582056766
 21
74.044004615
 31
0.0
  0
SPLINE
  5
A11
330
1B
100
AcDbEntity
  8
0
  6
Continuous
 62
     7
100
AcDbSpline
210
0.0
220
0.0
230
1.0
 70
     8
 71
     3
 72
     8
 73
     4
 74
     2
 42
0.0000000001
 43
0.0000000001
 44
0.0000000001
 12
1.0
 22
0.0
 32
0.0
 13
0.9563686238988058
 23
0.2921627204519852
 33
0.0
 40
0.0
 40
0.0
 40
0.0
 40
0.0
 40
0.1923201916705171
 40
0.1923201916705171
 40
0.1923201916705171
 40
0.1923201916705171
 10
10.11519626005999
 20
-15.92741239633999
 30
0.0
 10
10.17930299061683
 20
-15.92741239633999
 30
0.0
 10
10.24409019161468
 20
-15.91768768377875
 30
0.0
 10
10.30539985729997
 20
-15.89895808697998
 30
0.0
 11
10.11519626005999
 21
-15.92741239633999
 31
0.0
 11
10.30539985729997
 21
-15.89895808697998
 31
0.0
  0
SPLINE
  5
A12
330
1B
100
AcDbEntity
  8
0
  6
Continuous
 62
     7
100
AcDbSpline
210
0.0
220
0.0
230
1.0
 70
     8
 71
     3
 72
     9
 73
     5
 74
     3
 42
0.0000000001
 43
0.0000000001
 44
0.0000000001
 12
0.956368620134291
 22
0.2921627327747882
 32
0.0
 13
0.9488853277778186
 23
0.3156210302371843
 33
0.0
 40
0.0
 40
0.0
 40
0.0
 40
0.0
 40
0.0109051412791986
 40
0.015871992025808
 40
0.015871992025808
 40
0.015871992025808
 40
0.015871992025808
 10
10.30539985729997
 20
-15.89895808697998
 30
0.0
 10
10.30887630227249
 20
-15.89789606168751
 30
0.0
 10
10.31392322255928
 20
-15.89630758175074
 30
0.0
 10
10.3189498905604
 20
-15.89465709321654
 30
0.0
 10
10.32052088115998
 20
-15.89413454569998
 30
0.0
 11
10.30539985729997
 21
-15.89895808697998
 31
0.0
 11
10.31580189897999
 21
-15.89568400157998
 31
0.0
 11
10.32052088115998
 21
-15.89413454569998
 31
0.0
  0
SPLINE
  5
A13
330
1B
100
AcDbEntity
  8
0
  6
Continuous
 62
     7
100
AcDbSpline
210
0.0
220
0.0
230
1.0
 70
     8
 71
     3
 72
     9
 73
     5
 74
     3
 42
0.0000000001
 43
0.0000000001
 44
0.0000000001
 12
0.8214289667075057
 22
0.5703108386256041
 32
0.0
 13
0.8061491662525337
 23
0.591712364033696
 33
0.0
 40
0.0
 40
0.0
 40
0.0
 40
0.0
 40
0.0140326271700834
 40
0.0169792103780979
 40
0.0169792103780979
 40
0.0169792103780979
 40
0.0169792103780979
 10
10.48582279083996
 20
-15.81139313383999
 30
0.0
 10
10.48966505965213
 20
-15.80872548071683
 30
0.0
 10
10.49427934583241
 20
-15.80544704350401
 30
0.0
 10
10.49884956592118
 20
-15.80210853385194
 30
0.0
 10
10.49964136111999
 20
-15.80152735728
 30
0.0
 11
10.48582279083996
 21
-15.81139313383999
 31
0.0
 11
10.49726200087998
 21
-15.80326545895999
 31
0.0
 11
10.49964136111999
 21
-15.80152735728
 31
0.0
  0
SPLINE
  5
A14
330
1B
100
AcDbEntity
  8
0
  6
Continuous
 62
     7
100
AcDbSpline
210
0.0
220
0.0
230
1.0
 70
     8
 71
     3
 72
     8
 73
     4
 74
     2
 42
0.0000000001
 43
0.0000000001
 44
0.0000000001
 12
0.6974078256464011
 22
0.7166744900770218
 32
0.0
 13
0.6039651470264696
 23
0.7970107283953558
 33
0.0
 40
0.0
 40
0.0
 40
0.0
 40
0.0
 40
0.0802343571328084
 40
0.0802343571328084
 40
0.0802343571328084
 40
0.0802343571328084
 10
10.58099183341999
 20
-15.73071176612
 30
0.0
 10
10.59964385627003
 20
-15.71154446045839
 30
0.0
 10
10.61715216062586
 20
-15.69119281846023
 30
0.0
 10
10.63330507905996
 20
-15.66987693731998
 30
0.0
 11
10.58099183341999
 21
-15.73071176612
 31
0.0
 11
10.63330507905996
 21
-15.66987693731998
 31
0.0
  0
SPLINE
  5
A15
330
1B
100
AcDbEntity
  8
0
  6
Continuous
 62
     7
100
AcDbSpline
210
0.0
220
0.0
230
1.0
 70
     8
 71
     3
 72
     9
 73
     5
 74
     3
 42
0.0000000001
 43
0.0000000001
 44
0.0000000001
 12
0.6039651640066392
 22
0.797010715527987
 32
0.0
 13
0.5855795410792012
 23
0.8106149524092632
 33
0.0
 40
0.0
 40
0.0
 40
0.0
 40
0.0
 40
0.0124852027712296
 40
0.0147701443110198
 40
0.0147701443110198
 40
0.0147701443110198
 40
0.0147701443110198
 10
10.63330507905996
 20
-15.66987693731998
 30
0.0
 10
10.63581862157309
 20
-15.66655999052191
 30
0.0
 10
10.63875442167816
 20
-15.66260713286961
 30
0.0
 10
10.64164452003391
 20
-15.6586212877125
 30
0.0
 10
10.64209052504
 20
-15.65800388511999
 30
0.0
 11
10.63330507905996
 21
-15.66987693731998
 31
0.0
 11
10.64074922977997
 21
-15.65985371886
 31
0.0
 11
10.64209052504
 21
-15.65800388511999
 31
0.0
  0
SPLINE
  5
A16
330
1B
100
AcDbEntity
  8
0
  6
Continuous
 62
     7
100
AcDbSpline
210
0.0
220
0.0
230
1.0
 70
     8
 71
     3
 72
     8
 73
     4
 74
     2
 42
0.0000000001
 43
0.0000000001
 44
0.0000000001
 12
0.2110497610828592
 22
-0.9774753185359045
 32
0.0
 13
0.3079566160463898
 23
-0.9514004007951943
 33
0.0
 40
0.0
 40
0.0
 40
0.0
 40
0.0
 40
0.0652144161394975
 40
0.0652144161394975
 40
0.0652144161394975
 40
0.0652144161394975
 10
-42.6201804483
 20
-15.41492384549999
 30
0.0
 10
-42.61559261931821
 20
-15.43617233956302
 30
0.0
 10
-42.60993879995726
 20
-15.45721907385575
 30
0.0
 10
-42.60324439632
 20
-15.47790074773999
 30
0.0
 11
-42.6201804483
 21
-15.41492384549999
 31
0.0
 11
-42.60324439632
 21
-15.47790074773999
 31
0.0
  0
SPLINE
  5
A17
330
1B
100
AcDbEntity
  8
0
  6
Continuous
 62
     7
100
AcDbSpline
210
0.0
220
0.0
230
1.0
 70
     8
 71
     3
 72
     9
 73
     5
 74
     3
 42
0.0000000001
 43
0.0000000001
 44
0.0000000001
 12
0.5774978314801689
 22
-0.8163922186276046
 32
0.0
 13
0.6414907471847647
 23
-0.7671307719524311
 33
0.0
 40
0.0
 40
0.0
 40
0.0
 40
0.0
 40
0.0083612133583721
 40
0.0523116098538712
 40
0.0523116098538712
 40
0.0523116098538712
 40
0.0523116098538712
 10
-42.5156284857
 20
-15.65278251633999
 30
0.0
 10
-42.51401895817234
 20
-15.65505785951467
 30
0.0
 10
-42.50385724449516
 20
-15.66922783282195
 30
0.0
 10
-42.493117576109
 20
-15.68298945426292
 30
0.0
 10
-42.48371965188002
 20
-15.69422802145999
 30
0.0
 11
-42.5156284857
 21
-15.65278251633999
 31
0.0
 11
-42.51075580303999
 21
-15.65957713571999
 31
0.0
 11
-42.48371965188002
 21
-15.69422802145999
 31
0.0
  0
SPLINE
  5
A19
330
1B
100
AcDbEntity
  8
0
  6
Continuous
 62
     7
100
AcDbSpline
210
0.0
220
0.0
230
1.0
 70
     8
 71
     3
 72
     9
 73
     5
 74
     3
 42
0.0000000001
 43
0.0000000001
 44
0.0000000001
 12
0.9352239035680323
 22
-0.3540568459936508
 32
0.0
 13
0.9625209665497072
 23
-0.2712072804189025
 33
0.0
 40
0.0
 40
0.0
 40
0.0
 40
0.0
 40
0.0314958405463464
 40
0.0563543685610993
 40
0.0563543685610993
 40
0.0563543685610993
 40
0.0563543685610993
 10
-42.21514331578002
 20
-15.88531319682
 30
0.0
 10
-42.20532476146604
 20
-15.88903030280859
 30
0.0
 10
-42.18759169896913
 20
-15.89525483451972
 30
0.0
 10
-42.16960725023726
 20
-15.90069604524062
 30
0.0
 10
-42.1616316321
 20
-15.90294331649999
 30
0.0
 11
-42.21514331578002
 21
-15.88531319682
 31
0.0
 11
-42.18542460966
 21
-15.89574327247999
 31
0.0
 11
-42.1616316321
 21
-15.90294331649999
 31
0.0
  0
SPLINE
  5
A1A
330
1B
100
AcDbEntity
  8
0
  6
Continuous
 62
     7
100
AcDbSpline
210
0.0
220
0.0
230
1.0
 70
     8
 71
     3
 72
     8
 73
     4
 74
     2
 42
0.0000000001
 43
0.0000000001
 44
0.0000000001
 12
1.0
 22
0.0
 32
0.0
 13
0.9979707830673326
 23
0.0636735121064895
 33
0.0
 40
0.0
 40
0.0
 40
0.0
 40
0.0
 40
0.040715577545941
 40
0.040715577545941
 40
0.040715577545941
 40
0.040715577545941
 10
10.11509726101997
 20
-15.92741239633999
 30
0.0
 10
10.12866912020194
 20
-15.92741239633999
 30
0.0
 10
10.14224773496446
 20
-15.92697576169993
 30
0.0
 10
10.15579205389998
 20
-15.92611159375999
 30
0.0
 11
10.11509726101997
 21
-15.92741239633999
 31
0.0
 11
10.15579205389998
 21
-15.92611159375999
 31
0.0
  0
SPLINE
  5
A1B
330
1B
100
AcDbEntity
  8
0
  6
Continuous
 62
     7
100
AcDbSpline
210
0.0
220
0.0
230
1.0
 70
     8
 71
     3
 72
    12
 73
     8
 74
     6
 42
0.0000000001
 43
0.0000000001
 44
0.0000000001
 12
0.9979707826314482
 22
0.0636735189382113
 32
0.0
 13
0.0
 23
1.0
 33
0.0
 40
0.0
 40
0.0
 40
0.0
 40
0.0
 40
0.1419404135018627
 40
0.3390797091164503
 40
0.5458002963877391
 40
0.7589416003201168
 40
0.9763339931899089
 40
0.9763339931899089
 40
0.9763339931899089
 40
0.9763339931899089
 10
10.15579205389998
 20
-15.92611159375999
 30
0.0
 10
10.20300951574981
 20
-15.92309897855759
 30
0.0
 10
10.31530197648334
 20
-15.90349609968677
 30
0.0
 10
10.48316231792195
 20
-15.82618060471074
 30
0.0
 10
10.63672392827637
 20
-15.68403823160701
 30
0.0
 10
10.74065115724231
 20
-15.49456834149896
 30
0.0
 10
10.76509726149998
 20
-15.3498765268166
 30
0.0
 10
10.76509726149998
 20
-15.27741239586
 30
0.0
 11
10.15579205389998
 21
-15.92611159375999
 31
0.0
 11
10.29561846715996
 21
-15.90170554656
 31
0.0
 11
10.4745701819
 21
-15.81900013157999
 31
0.0
 11
10.62639343933998
 21
-15.67870366083998
 31
0.0
 11
10.72874073019999
 21
-15.49174311019998
 31
0.0
 11
10.76509726149998
 21
-15.27741239586
 31
0.0
  0
SPLINE
  5
A21
330
1B
100
AcDbEntity
  8
0
  6
Continuous
 62
     7
100
AcDbSpline
210
0.0
220
0.0
230
1.0
 70
     8
 71
     3
 72
    18
 73
    14
 74
    12
 42
0.0000000001
 43
0.0000000001
 44
0.0000000001
 12
-0.0003047489558574
 22
-0.9999999535640359
 32
0.0
 13
-0.0003047489558574
 23
0.9999999535640359
 33
0.0
 40
0.0
 40
0.0
 40
0.0
 40
0.0
 40
0.6538031476978544
 40
1.309865251161901
 40
1.961276457018958
 40
2.619323929057149
 40
3.269142727094568
 40
3.928046021934578
 40
4.577864841884769
 40
5.235912228906779
 40
5.887323443209294
 40
6.543385495983682
 40
7.19718862787321
 40
7.19718862787321
 40
7.19718862787321
 40
7.19718862787321
 10
5.364281586140005
 20
-8.327412396979983
 30
0.0
 10
5.364215170864473
 20
-8.545346769425941
 30
0.0
 10
5.301160158568889
 20
-8.984485872338549
 30
0.0
 10
5.025587432598488
 20
-9.586820858413116
 30
0.0
 10
4.590699391626656
 20
-10.08873497757798
 30
0.0
 10
4.03355470603626
 20
-10.44656669074683
 30
0.0
 10
3.396076851276076
 20
-10.6337412462104
 30
0.0
 10
2.734117540626326
 20
-10.63374122880846
 30
0.0
 10
2.096639717040858
 20
-10.44656663998194
 30
0.0
 10
1.539495063867969
 20
-10.08873491628945
 30
0.0
 10
1.104607063720614
 20
-9.586820817257498
 30
0.0
 10
0.8290343593241949
 20
-8.984485844683199
 30
0.0
 10
0.7659793520939172
 20
-8.5453467641565
 30
0.0
 10
0.7659129368199906
 20
-8.327412396979983
 30
0.0
 11
5.364281586140005
 21
-8.327412396979983
 31
0.0
 11
5.271125640880006
 21
-8.974544938120002
 31
0.0
 11
4.998350689859983
 21
-9.571211771199983
 31
0.0
 11
4.571718594179993
 21
-10.06347350448
 31
0.0
 11
4.018049825979973
 21
-10.41911007539998
 31
0.0
 11
3.394548847940009
 21
-10.60217017664
 31
0.0
 11
2.735645553099999
 21
-10.60217015885999
 31
0.0
 11
2.112144564899988
 21
-10.41911001444
 31
0.0
 11
1.558475883059975
 21
-10.06347346637999
 31
0.0
 11
1.131843794999987
 21
-9.571211715320002
 31
0.0
 11
0.8590688769999895
 21
-8.974544922880001
 31
0.0
 11
0.7659129368199906
 21
-8.327412396979983
 31
0.0
  0
SPLINE
  5
A22
330
1B
100
AcDbEntity
  8
0
  6
Continuous
 62
     7
100
AcDbSpline
210
0.0
220
0.0
230
1.0
 70
     8
 71
     3
 72
    18
 73
    14
 74
    12
 42
0.0000000001
 43
0.0000000001
 44
0.0000000001
 12
-0.0003047490109695
 22
0.9999999535640192
 32
0.0
 13
-0.0003047490109695
 23
-0.9999999535640192
 33
0.0
 40
0.0
 40
0.0
 40
0.0
 40
0.0
 40
0.6540514923327305
 40
1.310361668197733
 40
1.962025054497287
 40
2.620329115200299
 40
3.270397223072239
 40
3.929565693912216
 40
4.579633821264195
 40
5.237937796957161
 40
5.889601191708051
 40
6.545911317944296
 40
7.199962794470289
 40
7.199962794470289
 40
7.199962794470289
 40
7.199962794470289
 10
0.7659129368199906
 20
-8.327412396979983
 30
0.0
 10
0.7658464963048534
 20
-8.109395242992913
 30
0.0
 10
0.8286822005773837
 20
-7.670049411486495
 30
0.0
 10
1.104094354312872
 20
-7.067355717819022
 30
0.0
 10
1.538985649779228
 20
-6.565096835155687
 30
0.0
 10
2.096271717375196
 20
-6.206997876557641
 30
0.0
 10
2.73398484628902
 20
-6.019675912392559
 30
0.0
 10
3.396209806983556
 20
-6.019675929374158
 30
0.0
 10
4.033922903529849
 20
-6.206997927991648
 30
0.0
 10
4.591208938321451
 20
-6.565096896302394
 30
0.0
 10
5.026100192187231
 20
-7.067355759620356
 30
0.0
 10
5.301512328178512
 20
-7.67004943842265
 30
0.0
 10
5.364348026653537
 20
-8.109395248261826
 30
0.0
 10
5.364281586140005
 20
-8.327412396979983
 30
0.0
 11
0.7659129368199906
 21
-8.327412396979983
 31
0.0
 11
0.8587449990599926
 21
-7.67998242945999
 31
0.0
 11
1.131356927799995
 21
-7.082968373299997
 31
0.0
 11
1.557988716139981
 21
-6.590372711299989
 31
0.0
 11
2.111793600400006
 21
-6.234473306260003
 31
0.0
 11
2.735513087020003
 21
-6.051272468699985
 31
0.0
 11
3.39468155785998
 21
-6.051272486479986
 31
0.0
 11
4.018401052099977
 21
-6.234473367219986
 31
0.0
 11
4.572205849999972
 21
-6.590372749399992
 31
0.0
 11
4.998837630719981
 21
-7.082968429180001
 31
0.0
 11
5.271449528980004
 21
-7.679982444699991
 31
0.0
 11
5.364281586140005
 21
-8.327412396979983
 31
0.0
  0
LINE
  5
EAC
330
1B
100
AcDbEntity
  8
AXE
100
AcDbLine
 10
-42.63490274041999
 20
-25.79747066756284
 30
0.0
 11
-42.63490274041999
 21
99.2443225411856
 31
0.0
  0
MTEXT
  5
EB0
330
1B
100
AcDbEntity
  8
AXE
100
AcDbMText
 10
-46.97482207566748
 20
96.92403689763843
 30
0.0
 40
3.5
 41
3.0661
 71
     1
 72
     5
  1
{\fArial|b0|i0|c0|p34;Z}
 73
     1
 44
1.0
  0
MTEXT
  5
EB6
330
1B
100
AcDbEntity
  8
AXE
100
AcDbMText
 10
27.34304613874971
 20
32.85648423606839
 30
0.0
 40
3.5
 41
3.0661
 71
     1
 72
     5
  1
{\fArial|b0|i0|c0|p34;X}
 73
     1
 44
1.0
  0
DIMENSION
  5
FAE
330
1B
100
AcDbEntity
  8
COTATION1
100
AcDbDimension
  2
*D1
 10
43.52090397076919
 20
-15.92741239634
 30
0.0
 11
43.52090397076919
 21
29.07258760347999
 31
0.0
 70
   160
 71
     5
 42
89.99999999963998
  3
Modular
100
AcDbAlignedDimension
 13
-15.93490273946001
 23
74.07258760329999
 33
0.0
 14
-15.93490273946001
 24
-15.92741239633999
 34
0.0
 50
90.0
100
AcDbRotatedDimension
  0
DIMENSION
  5
FBB
330
1B
100
AcDbEntity
  8
COTATION1
100
AcDbDimension
  2
*D2
 10
-42.63490273788
 20
-35.03651612117626
 30
0.0
 11
-15.93490273819
 21
-32.03651612117626
 31
0.0
 70
    32
 71
     5
 42
53.39999999937997
  3
Modular
100
AcDbAlignedDimension
 13
10.76509726149998
 23
-5.097747825079994
 33
0.0
 14
-42.63490273788
 24
-5.097747825079994
 34
0.0
100
AcDbRotatedDimension
  0
LINE
  5
FDC
330
1B
100
AcDbEntity
  8
AXE
100
AcDbLine
 10
-57.89663825313141
 20
28.56822416974
 30
0.0
 11
31.2802216958922
 21
28.56822416974
 31
0.0
  0
ENDSEC
  0
SECTION
  2
OBJECTS
  0
DICTIONARY
  5
DA2
330
0
100
AcDbDictionary
281
     1
  3
ACAD_GROUP
350
DA3
  3
ACAD_LAYOUT
350
DB0
  3
ACAD_MLINESTYLE
350
DA4
  3
ACAD_PLOTSETTINGS
350
DB1
  3
ACAD_PLOTSTYLENAME
350
DAE
  3
AcDbVariableDictionary
350
E54
  3
ASE_INDEX_DICTIONARY
350
E51
  0
DICTIONARY
  5
DA3
102
{ACAD_REACTORS
330
DA2
102
}
330
DA2
100
AcDbDictionary
281
     1
  0
DICTIONARY
  5
DB0
102
{ACAD_REACTORS
330
DA2
102
}
330
DA2
100
AcDbDictionary
281
     1
  3
Layout1
350
DB3
  3
Model
350
DB2
  0
DICTIONARY
  5
DA4
102
{ACAD_REACTORS
330
DA2
102
}
330
DA2
100
AcDbDictionary
281
     1
  3
STANDARD
350
DA5
  0
DICTIONARY
  5
DB1
102
{ACAD_REACTORS
330
DA2
102
}
330
DA2
100
AcDbDictionary
281
     1
  0
ACDBDICTIONARYWDFLT
  5
DAE
102
{ACAD_REACTORS
330
DA2
102
}
330
DA2
100
AcDbDictionary
281
     1
  3
Normal
350
DAF
100
AcDbDictionaryWithDefault
340
DAF
  0
DICTIONARY
  5
E54
102
{ACAD_REACTORS
330
DA2
102
}
330
DA2
100
AcDbDictionary
281
     1
  3
DIMASSOC
350
E55
  0
DICTIONARY
  5
E51
102
{ACAD_REACTORS
330
DA2
102
}
330
DA2
100
AcDbDictionary
281
     1
  3
ASEBlockHierarchyIndexRecord
350
E52
1001
DCO15
1040
1574498895.546
  0
LAYOUT
  5
DB3
102
{ACAD_REACTORS
330
DB0
102
}
330
DB0
100
AcDbPlotSettings
  1

  2
Auto HP DeskJet 970Cse sur POLYNOTES1
  4

  6

 40
0.0
 41
0.0
 42
0.0
 43
0.0
 44
0.0
 45
0.0
 46
0.0
 47
0.0
 48
0.0
 49
0.0
140
0.0
141
0.0
142
1.0
143
1.0
 70
   688
 72
     0
 73
     0
 74
     5
  7

 75
    16
147
1.0
148
0.0
149
0.0
100
AcDbLayout
  1
Layout1
 70
     0
 71
     1
 10
0.0
 20
0.0
 11
12.0
 21
9.0
 12
0.0
 22
0.0
 32
0.0
 14
1.000000000000000E+20
 24
1.000000000000000E+20
 34
1.000000000000000E+20
 15
-1.000000000000000E+20
 25
-1.000000000000000E+20
 35
-1.000000000000000E+20
146
0.0
 13
0.0
 23
0.0
 33
0.0
 16
1.0
 26
0.0
 36
0.0
 17
0.0
 27
1.0
 37
0.0
 76
     0
330
1C
  0
LAYOUT
  5
DB2
102
{ACAD_REACTORS
330
DB0
102
}
330
DB0
100
AcDbPlotSettings
  1

  2
Auto HP DeskJet 970Cse sur POLYNOTES1
  4

  6

 40
0.0
 41
0.0
 42
0.0
 43
0.0
 44
0.0
 45
0.0
 46
0.0
 47
0.0
 48
0.0
 49
0.0
140
0.0
141
0.0
142
1.0
143
1.0
 70
  1712
 72
     0
 73
     0
 74
     0
  7

 75
     0
147
1.0
148
0.0
149
0.0
100
AcDbLayout
  1
Model
 70
     1
 71
     0
 10
0.0
 20
0.0
 11
12.0
 21
9.0
 12
0.0
 22
0.0
 32
0.0
 14
0.0
 24
0.0
 34
0.0
 15
0.0
 25
0.0
 35
0.0
146
0.0
 13
0.0
 23
0.0
 33
0.0
 16
1.0
 26
0.0
 36
0.0
 17
0.0
 27
1.0
 37
0.0
 76
     0
330
1B
  0
MLINESTYLE
  5
DA5
102
{ACAD_REACTORS
330
DA4
102
}
330
DA4
100
AcDbMlineStyle
  2
STANDARD
 70
     0
  3

 62
   256
 51
90.00000000000019
 52
90.00000000000019
 71
     2
 49
0.5
 62
   256
  6
BYLAYER
 49
-0.5
 62
   256
  6
BYLAYER
  0
ACDBPLACEHOLDER
  5
DAF
102
{ACAD_REACTORS
330
DAE
102
}
330
DAE
  0
DICTIONARYVAR
  5
E55
102
{ACAD_REACTORS
330
E54
102
}
330
E54
100
DictionaryVariables
280
     0
  1
1
  0
XRECORD
  5
E52
102
{ACAD_REACTORS
330
E51
102
}
330
E51
100
AcDbXrecord
280
     1
330
0
  0
ENDSEC
  0
EOF