0
SECTION
  2
HEADER
  9
$ACADVER
  1
AC1015
  9
$ACADMAINTVER
 70
    13
  9
$DWGCODEPAGE
  3
ANSI_1252
  9
$INSBASE
 10
0.0
 20
0.0
 30
0.0
  9
$EXTMIN
 10
-23.83083723000049
 20
-36.65935160874528
 30
-0.0015258207003583
  9
$EXTMAX
 10
69.86911888396753
 20
107.7948439063999
 30
0.0000000349246037
  9
$LIMMIN
 10
0.0
 20
0.0
  9
$LIMMAX
 10
16.5354330709
 20
11.6929133858
  9
$ORTHOMODE
 70
     1
  9
$REGENMODE
 70
     1
  9
$FILLMODE
 70
     1
  9
$QTEXTMODE
 70
     0
  9
$MIRRTEXT
 70
     1
  9
$LTSCALE
 40
0.9094488188999999
  9
$ATTMODE
 70
     1
  9
$TEXTSIZE
 40
0.2
  9
$TRACEWID
 40
0.05
  9
$TEXTSTYLE
  7
STANDARD
  9
$CLAYER
  8
0
  9
$CELTYPE
  6
BYLAYER
  9
$CECOLOR
 62
   256
  9
$CELTSCALE
 40
1.0
  9
$DISPSILH
 70
     0
  9
$DIMSCALE
 40
1.0
  9
$DIMASZ
 40
4.0
  9
$DIMEXO
 40
2.0
  9
$DIMDLI
 40
2.0
  9
$DIMRND
 40
0.0
  9
$DIMDLE
 40
0.0
  9
$DIMEXE
 40
2.0
  9
$DIMTP
 40
0.01
  9
$DIMTM
 40
0.01
  9
$DIMTXT
 40
3.0
  9
$DIMCEN
 40
0.09
  9
$DIMTSZ
 40
0.0
  9
$DIMTOL
 70
     0
  9
$DIMLIM
 70
     0
  9
$DIMTIH
 70
     0
  9
$DIMTOH
 70
     0
  9
$DIMSE1
 70
     0
  9
$DIMSE2
 70
     0
  9
$DIMTAD
 70
     1
  9
$DIMZIN
 70
     4
  9
$DIMBLK
  1

  9
$DIMASO
 70
     1
  9
$DIMSHO
 70
     1
  9
$DIMPOST
  1

  9
$DIMAPOST
  1

  9
$DIMALT
 70
     0
  9
$DIMALTD
 70
     2
  9
$DIMALTF
 40
25.4
  9
$DIMLFAC
 40
1.0
  9
$DIMTOFL
 70
     0
  9
$DIMTVP
 40
0.0
  9
$DIMTIX
 70
     0
  9
$DIMSOXD
 70
     0
  9
$DIMSAH
 70
     0
  9
$DIMBLK1
  1

  9
$DIMBLK2
  1

  9
$DIMSTYLE
  2
Modular
  9
$DIMCLRD
 70
     2
  9
$DIMCLRE
 70
     2
  9
$DIMCLRT
 70
     2
  9
$DIMTFAC
 40
1.0
  9
$DIMGAP
 40
1.5
  9
$DIMJUST
 70
     0
  9
$DIMSD1
 70
     0
  9
$DIMSD2
 70
     0
  9
$DIMTOLJ
 70
     1
  9
$DIMTZIN
 70
     4
  9
$DIMALTZ
 70
     0
  9
$DIMALTTZ
 70
     0
  9
$DIMUPT
 70
     0
  9
$DIMDEC
 70
     1
  9
$DIMTDEC
 70
     1
  9
$DIMALTU
 70
     2
  9
$DIMALTTD
 70
     2
  9
$DIMTXSTY
  7
STANDARD
  9
$DIMAUNIT
 70
     0
  9
$DIMADEC
 70
     0
  9
$DIMALTRND
 40
0.0
  9
$DIMAZIN
 70
     0
  9
$DIMDSEP
 70
    46
  9
$DIMATFIT
 70
     3
  9
$DIMFRAC
 70
     0
  9
$DIMLDRBLK
  1

  9
$DIMLUNIT
 70
     2
  9
$DIMLWD
 70
    -2
  9
$DIMLWE
 70
    -2
  9
$DIMTMOVE
 70
     0
  9
$LUNITS
 70
     2
  9
$LUPREC
 70
     4
  9
$SKETCHINC
 40
0.1
  9
$FILLETRAD
 40
0.0
  9
$AUNITS
 70
     0
  9
$AUPREC
 70
     0
  9
$MENU
  1
acad
  9
$ELEVATION
 40
0.0
  9
$PELEVATION
 40
0.0
  9
$THICKNESS
 40
0.0
  9
$LIMCHECK
 70
     0
  9
$CHAMFERA
 40
0.0
  9
$CHAMFERB
 40
0.0
  9
$CHAMFERC
 40
0.0
  9
$CHAMFERD
 40
0.0
  9
$SKPOLY
 70
     0
  9
$TDCREATE
 40
2444972.083333333
  9
$TDUCREATE
 40
2444972.000000000
  9
$TDUPDATE
 40
2454026.577545567
  9
$TDUUPDATE
 40
2454026.494212234
  9
$TDINDWG
 40
0.1674844444
  9
$TDUSRTIMER
 40
0.1674844444
  9
$USRTIMER
 70
     1
  9
$ANGBASE
 50
0.0
  9
$ANGDIR
 70
     0
  9
$PDMODE
 70
     0
  9
$PDSIZE
 40
0.0
  9
$PLINEWID
 40
0.0
  9
$SPLFRAME
 70
     0
  9
$SPLINETYPE
 70
     6
  9
$SPLINESEGS
 70
     8
  9
$HANDSEED
  5
E1C
  9
$SURFTAB1
 70
     6
  9
$SURFTAB2
 70
     6
  9
$SURFTYPE
 70
     6
  9
$SURFU
 70
     6
  9
$SURFV
 70
     6
  9
$UCSBASE
  2

  9
$UCSNAME
  2

  9
$UCSORG
 10
0.0
 20
0.0
 30
0.0
  9
$UCSXDIR
 10
1.0
 20
0.0
 30
0.0
  9
$UCSYDIR
 10
0.0
 20
1.0
 30
0.0
  9
$UCSORTHOREF
  2

  9
$UCSORTHOVIEW
 70
     0
  9
$UCSORGTOP
 10
0.0
 20
0.0
 30
0.0
  9
$UCSORGBOTTOM
 10
0.0
 20
0.0
 30
0.0
  9
$UCSORGLEFT
 10
0.0
 20
0.0
 30
0.0
  9
$UCSORGRIGHT
 10
0.0
 20
0.0
 30
0.0
  9
$UCSORGFRONT
 10
0.0
 20
0.0
 30
0.0
  9
$UCSORGBACK
 10
0.0
 20
0.0
 30
0.0
  9
$PUCSBASE
  2

  9
$PUCSNAME
  2

  9
$PUCSORG
 10
0.0
 20
0.0
 30
0.0
  9
$PUCSXDIR
 10
1.0
 20
0.0
 30
0.0
  9
$PUCSYDIR
 10
0.0
 20
1.0
 30
0.0
  9
$PUCSORTHOREF
  2

  9
$PUCSORTHOVIEW
 70
     0
  9
$PUCSORGTOP
 10
0.0
 20
0.0
 30
0.0
  9
$PUCSORGBOTTOM
 10
0.0
 20
0.0
 30
0.0
  9
$PUCSORGLEFT
 10
0.0
 20
0.0
 30
0.0
  9
$PUCSORGRIGHT
 10
0.0
 20
0.0
 30
0.0
  9
$PUCSORGFRONT
 10
0.0
 20
0.0
 30
0.0
  9
$PUCSORGBACK
 10
0.0
 20
0.0
 30
0.0
  9
$USERI1
 70
     0
  9
$USERI2
 70
     0
  9
$USERI3
 70
     0
  9
$USERI4
 70
     0
  9
$USERI5
 70
     0
  9
$USERR1
 40
0.0
  9
$USERR2
 40
0.0
  9
$USERR3
 40
0.0
  9
$USERR4
 40
0.0
  9
$USERR5
 40
0.0
  9
$WORLDVIEW
 70
     1
  9
$SHADEDGE
 70
     3
  9
$SHADEDIF
 70
    70
  9
$TILEMODE
 70
     1
  9
$MAXACTVP
 70
    16
  9
$PINSBASE
 10
0.0
 20
0.0
 30
0.0
  9
$PLIMCHECK
 70
     0
  9
$PEXTMIN
 10
1.000000000000000E+20
 20
1.000000000000000E+20
 30
1.000000000000000E+20
  9
$PEXTMAX
 10
-1.000000000000000E+20
 20
-1.000000000000000E+20
 30
-1.000000000000000E+20
  9
$PLIMMIN
 10
0.0
 20
0.0
  9
$PLIMMAX
 10
12.0
 20
9.0
  9
$UNITMODE
 70
     0
  9
$VISRETAIN
 70
     0
  9
$PLINEGEN
 70
     1
  9
$PSLTSCALE
 70
     0
  9
$TREEDEPTH
 70
  3020
  9
$CMLSTYLE
  2
STANDARD
  9
$CMLJUST
 70
     0
  9
$CMLSCALE
 40
1.0
  9
$PROXYGRAPHICS
 70
     1
  9
$MEASUREMENT
 70
     0
  9
$CELWEIGHT
370
    -1
  9
$ENDCAPS
280
     0
  9
$JOINSTYLE
280
     0
  9
$LWDISPLAY
290
     0
  9
$INSUNITS
 70
     0
  9
$HYPERLINKBASE
  1

  9
$STYLESHEET
  1

  9
$XEDIT
290
     1
  9
$CEPSNTYPE
380
     0
  9
$PSTYLEMODE
290
     1
  9
$FINGERPRINTGUID
  2
{44802166-6CC0-4E3A-9D7E-25A973C1912C}
  9
$VERSIONGUID
  2
{F88AC095-74E4-4FAB-B046-03A3248C551E}
  9
$EXTNAMES
290
     1
  9
$PSVPSCALE
 40
0.0
  9
$OLESTARTUP
290
     0
  0
ENDSEC
  0
SECTION
  2
CLASSES
  0
CLASS
  1
LWPOLYLINE
  2
AcDbPolyline
  3
AutoCAD 2000
 90
    32768
280
     0
281
     1
  0
CLASS
  1
IMAGE
  2
AcDbRasterImage
  3
ISM
 90
    32895
280
     0
281
     1
  0
CLASS
  1
OLE2FRAME
  2
AcDbOle2Frame
  3
AutoCAD 2000
 90
    32768
280
     0
281
     1
  0
CLASS
  1
HATCH
  2
AcDbHatch
  3
AutoCAD 2000
 90
    32768
280
     0
281
     1
  0
CLASS
  1
DICTIONARYVAR
  2
AcDbDictionaryVar
  3
AutoCAD 2000
 90
        0
280
     0
281
     0
  0
CLASS
  1
RASTERVARIABLES
  2
AcDbRasterVariables
  3
ISM
 90
    32768
280
     0
281
     0
  0
CLASS
  1
IMAGEDEF
  2
AcDbRasterImageDef
  3
ISM
 90
    32768
280
     0
281
     0
  0
CLASS
  1
IMAGEDEF_REACTOR
  2
AcDbRasterImageDefReactor
  3
ISM
 90
    32769
280
     0
281
     0
  0
CLASS
  1
IDBUFFER
  2
AcDbIdBuffer
  3
AutoCAD 2000
 90
    32768
280
     0
281
     0
  0
CLASS
  1
SPATIAL_FILTER
  2
AcDbSpatialFilter
  3
AutoCAD 2000
 90
    32768
280
     0
281
     0
  0
CLASS
  1
XRECORD
  2
AcDbXrecord
  3
AutoCAD 2000
 90
    32768
280
     0
281
     0
  0
CLASS
  1
SORTENTSTABLE
  2
AcDbSortentsTable
  3
AutoCAD 2000
 90
    32768
280
     0
281
     0
  0
CLASS
  1
LAYER_INDEX
  2
AcDbLayerIndex
  3
AutoCAD 2000
 90
    32768
280
     0
281
     0
  0
CLASS
  1
SPATIAL_INDEX
  2
AcDbSpatialIndex
  3
AutoCAD 2000
 90
    32768
280
     0
281
     0
  0
CLASS
  1
OBJECT_PTR
  2
CAseDLPNTableRecord
  3
ASE-LPNTableRecord
 90
    32769
280
     0
281
     0
  0
CLASS
  1
LAYOUT
  2
AcDbLayout
  3
AutoCAD 2000
 90
        0
280
     0
281
     0
  0
CLASS
  1
PLOTSETTINGS
  2
AcDbPlotSettings
  3
AutoCAD 2000
 90
    32768
280
     0
281
     0
  0
CLASS
  1
ACDBDICTIONARYWDFLT
  2
AcDbDictionaryWithDefault
  3
AutoCAD 2000
 90
        0
280
     0
281
     0
  0
CLASS
  1
ACDBPLACEHOLDER
  2
AcDbPlaceHolder
  3
AutoCAD 2000
 90
        0
280
     0
281
     0
  0
CLASS
  1
VBA_PROJECT
  2
AcDbVbaProject
  3
acadvba
 90
    32768
280
     0
281
     0
  0
CLASS
  1
WIPEOUT
  2
AcDbWipeout
  3
WipeOut|AutoCAD Express Tool|expresstools@autodesk.com
 90
    32768
280
     0
281
     1
  0
CLASS
  1
WIPEOUTVARIABLES
  2
AcDbWipeoutVariables
  3
WipeOut|AutoCAD Express Tool|expresstools@autodesk.com
 90
    32768
280
     0
281
     0
  0
CLASS
  1
RTEXT
  2
RText
  3
RText|AutoCAD Express Tool|expresstools@autodesk.com
 90
    32768
280
     0
281
     1
  0
CLASS
  1
ARCALIGNEDTEXT
  2
AcDbArcAlignedText
  3
ATEXT|AutoCAD Express Tool|expresstools@autodesk.com
 90
    32768
280
     0
281
     1
  0
ENDSEC
  0
SECTION
  2
TABLES
  0
TABLE
  2
VPORT
  5
8
330
0
100
AcDbSymbolTable
 70
     2
  0
VPORT
  5
E1B
330
8
100
AcDbSymbolTableRecord
100
AcDbViewportTableRecord
  2
*Active
 70
     0
 10
0.0
 20
0.0
 11
1.0
 21
1.0
 12
23.01914082698353
 22
35.56774614882732
 13
0.0
 23
0.0
 14
1.0
 24
1.0
 15
0.0
 25
0.0
 16
0.0
 26
0.0
 36
1.0
 17
0.0
 27
0.0
 37
0.0
 40
146.1503308832291
 41
1.76078431372549
 42
50.0
 43
0.0
 44
0.0
 50
0.0
 51
0.0
 71
     0
 72
   500
 73
     1
 74
     1
 75
     0
 76
     0
 77
     0
 78
     0
281
     0
 65
     1
110
0.0
120
0.0
130
0.0
111
1.0
121
0.0
131
0.0
112
0.0
122
1.0
132
0.0
 79
     0
146
0.0
  0
ENDTAB
  0
TABLE
  2
LTYPE
  5
5
330
0
100
AcDbSymbolTable
 70
     3
  0
LTYPE
  5
14
330
5
100
AcDbSymbolTableRecord
100
AcDbLinetypeTableRecord
  2
BYBLOCK
 70
     0
  3

 72
    65
 73
     0
 40
0.0
  0
LTYPE
  5
15
330
5
100
AcDbSymbolTableRecord
100
AcDbLinetypeTableRecord
  2
BYLAYER
 70
     0
  3

 72
    65
 73
     0
 40
0.0
  0
LTYPE
  5
16
330
5
100
AcDbSymbolTableRecord
100
AcDbLinetypeTableRecord
  2
CONTINUOUS
 70
     0
  3
Solid line
 72
    65
 73
     0
 40
0.0
  0
LTYPE
  5
C9C
330
5
100
AcDbSymbolTableRecord
100
AcDbLinetypeTableRecord
  2
AXES2
 70
     0
  3
___ _ ___ _ ___ _ ___ _ ___ _ ___ _ ___ _ ___ _
 72
    65
 73
     4
 40
1.125
 49
0.75
 74
     0
 49
-0.125
 74
     0
 49
0.125
 74
     0
 49
-0.125
 74
     0
  0
LTYPE
  5
DA3
330
5
100
AcDbSymbolTableRecord
100
AcDbLinetypeTableRecord
  2
CACHE2
 70
     0
  3
_ _ _ _ _ _ _ _ _ _ _ _ _ _ _ _ _ _ _ _ _ _ _ _
 72
    65
 73
     2
 40
0.1875
 49
0.125
 74
     0
 49
-0.0625
 74
     0
  0
ENDTAB
  0
TABLE
  2
LAYER
  5
2
330
0
100
AcDbSymbolTable
 70
     4
  0
LAYER
  5
10
330
2
100
AcDbSymbolTableRecord
100
AcDbLayerTableRecord
  2
0
 70
     0
 62
     7
  6
CONTINUOUS
370
    -3
390
C50
  0
LAYER
  5
C58
330
2
100
AcDbSymbolTableRecord
100
AcDbLayerTableRecord
  2
Defpoints
 70
     0
 62
     7
  6
CONTINUOUS
290
     0
370
    -3
390
C50
  0
LAYER
  5
CA0
330
2
100
AcDbSymbolTableRecord
100
AcDbLayerTableRecord
  2
AXE
 70
     0
 62
    80
  6
AXES2
370
    -3
390
C50
  0
LAYER
  5
CA1
330
2
100
AcDbSymbolTableRecord
100
AcDbLayerTableRecord
  2
COTATION1
 70
     0
 62
    50
  6
CONTINUOUS
370
    -3
390
C50
  0
ENDTAB
  0
TABLE
  2
STYLE
  5
3
330
0
100
AcDbSymbolTable
 70
     1
  0
STYLE
  5
11
330
3
100
AcDbSymbolTableRecord
100
AcDbTextStyleTableRecord
  2
STANDARD
 70
     0
 40
0.0
 41
0.8
 50
0.0
 71
     0
 42
0.2
  3
txt
  4

  0
ENDTAB
  0
TABLE
  2
VIEW
  5
6
330
0
100
AcDbSymbolTable
 70
     0
  0
ENDTAB
  0
TABLE
  2
UCS
  5
7
330
0
100
AcDbSymbolTable
 70
     0
  0
ENDTAB
  0
TABLE
  2
APPID
  5
9
330
0
100
AcDbSymbolTable
 70
     4
  0
APPID
  5
22D
330
9
100
AcDbSymbolTableRecord
100
AcDbRegAppTableRecord
  2
ACAD
 70
     0
  0
APPID
  5
CA6
330
9
100
AcDbSymbolTableRecord
100
AcDbRegAppTableRecord
  2
AVE_RENDER
 70
     0
  0
APPID
  5
CA7
330
9
100
AcDbSymbolTableRecord
100
AcDbRegAppTableRecord
  2
AVE_MATERIAL
 70
     0
  0
APPID
  5
CA8
330
9
100
AcDbSymbolTableRecord
100
AcDbRegAppTableRecord
  2
DCO15
 70
     0
  0
ENDTAB
  0
TABLE
  2
DIMSTYLE
  5
A
330
0
100
AcDbSymbolTable
 70
     3
100
AcDbDimStyleTable
 71
     2
340
CE7
340
22E
  0
DIMSTYLE
105
22E
330
A
100
AcDbSymbolTableRecord
100
AcDbDimStyleTableRecord
  2
STANDARD
 70
     0
 41
0.1875
 47
0.01
 48
0.01
 78
     4
140
0.15625
271
     2
272
     2
284
     4
340
11
  0
DIMSTYLE
105
CE7
102
{ACAD_REACTORS
330
E00
330
DE9
102
}
330
A
100
AcDbSymbolTableRecord
100
AcDbDimStyleTableRecord
  2
Modular
 70
     0
 41
4.0
 42
2.0
 43
2.0
 44
2.0
 47
0.01
 48
0.01
 73
     0
 74
     0
 77
     1
 78
     4
140
3.0
147
1.5
176
     2
177
     2
178
     2
271
     1
272
     1
284
     4
340
11
  0
DIMSTYLE
105
DA4
330
A
100
AcDbSymbolTableRecord
100
AcDbDimStyleTableRecord
  2
OLGA
 70
     0
 41
3.0
 42
2.0
 43
2.0
 44
2.0
 47
0.01
 48
0.01
 73
     0
 74
     0
 77
     1
 78
     8
140
3.0
147
2.0
176
     2
177
     2
178
     2
271
     0
272
     0
284
     8
340
11
  0
ENDTAB
  0
TABLE
  2
BLOCK_RECORD
  5
1
330
0
100
AcDbSymbolTable
 70
     3
  0
BLOCK_RECORD
  5
1B
330
1
100
AcDbSymbolTableRecord
100
AcDbBlockTableRecord
  2
*MODEL_SPACE
340
C53
  0
BLOCK_RECORD
  5
1C
330
1
100
AcDbSymbolTableRecord
100
AcDbBlockTableRecord
  2
*PAPER_SPACE
340
C54
  0
BLOCK_RECORD
  5
DEA
330
1
100
AcDbSymbolTableRecord
100
AcDbBlockTableRecord
  2
*D1
340
0
  0
BLOCK_RECORD
  5
E01
330
1
100
AcDbSymbolTableRecord
100
AcDbBlockTableRecord
  2
*D2
340
0
  0
ENDTAB
  0
ENDSEC
  0
SECTION
  2
BLOCKS
  0
BLOCK
  5
1E
330
1B
100
AcDbEntity
  8
0
100
AcDbBlockBegin
  2
*MODEL_SPACE
 70
     0
 10
0.0
 20
0.0
 30
0.0
  3
*MODEL_SPACE
  1

  0
ENDBLK
  5
1F
330
1B
100
AcDbEntity
  8
0
100
AcDbBlockEnd
  0
BLOCK
  5
20
330
1C
100
AcDbEntity
 67
     1
  8
0
100
AcDbBlockBegin
  2
*PAPER_SPACE
 70
     0
 10
0.0
 20
0.0
 30
0.0
  3
*PAPER_SPACE
  1

  0
ENDBLK
  5
21
330
1C
100
AcDbEntity
 67
     1
  8
0
100
AcDbBlockEnd
  0
BLOCK
  5
DF4
330
DEA
100
AcDbEntity
  8
0
100
AcDbBlockBegin
  2
*D1
 70
     1
 10
0.0
 20
0.0
 30
0.0
  3
*D1
  1

  0
LINE
  5
DF7
330
DEA
100
AcDbEntity
  8
0
 62
     2
370
    -2
100
AcDbLine
 10
24.06579155684001
 20
26.99400684761998
 30
0.0
 11
24.06579155684001
 21
-36.64776754437385
 31
0.0
  0
LINE
  5
DF8
330
DEA
100
AcDbEntity
  8
0
 62
     2
370
    -2
100
AcDbLine
 10
-11.53420844189998
 20
26.99400684761998
 30
0.0
 11
-11.53420844189998
 21
-36.64776754437385
 31
0.0
  0
LINE
  5
DF9
330
DEA
100
AcDbEntity
  8
0
 62
     2
370
    -2
100
AcDbLine
 10
20.06579155684
 20
-34.64776754437384
 30
0.0
 11
-7.534208441899988
 21
-34.64776754437384
 31
0.0
  0
SOLID
  5
DFA
330
DEA
100
AcDbEntity
  8
0
 62
     2
100
AcDbTrace
 10
20.06579155684
 20
-33.98110087770717
 30
0.0
 11
20.06579155684
 21
-35.3144342110405
 31
0.0
 12
24.06579155684001
 22
-34.64776754437384
 32
0.0
 13
24.06579155684001
 23
-34.64776754437384
 33
0.0
  0
SOLID
  5
DFB
330
DEA
100
AcDbEntity
  8
0
 62
     2
100
AcDbTrace
 10
-7.534208441899988
 20
-33.98110087770717
 30
0.0
 11
-7.534208441899988
 21
-35.3144342110405
 31
0.0
 12
-11.53420844189998
 22
-34.64776754437384
 32
0.0
 13
-11.53420844189998
 23
-34.64776754437384
 33
0.0
  0
MTEXT
  5
DFC
330
DEA
100
AcDbEntity
  8
0
 62
     2
100
AcDbMText
 10
6.265791557470009
 20
-31.64776754437384
 30
0.0
 40
3.0
 41
0.0
 71
     5
 72
     1
  1
\A1;35.6
 73
     1
 44
1.0
  0
POINT
  5
DFD
330
DEA
100
AcDbEntity
  8
Defpoints
 62
     0
100
AcDbPoint
 10
24.06579155684001
 20
28.99400684761999
 30
0.0
  0
POINT
  5
DFE
330
DEA
100
AcDbEntity
  8
Defpoints
 62
     0
100
AcDbPoint
 10
-11.53420844189998
 20
28.99400684761999
 30
0.0
  0
POINT
  5
DFF
330
DEA
100
AcDbEntity
  8
Defpoints
 62
     0
100
AcDbPoint
 10
-11.53420844189998
 20
-34.64776754437384
 30
0.0
  0
ENDBLK
  5
DF5
330
DEA
100
AcDbEntity
  8
0
100
AcDbBlockEnd
  0
BLOCK
  5
E0B
330
E01
100
AcDbEntity
  8
0
100
AcDbBlockBegin
  2
*D2
 70
     1
 10
0.0
 20
0.0
 30
0.0
  3
*D2
  1

  0
LINE
  5
E02
330
E01
100
AcDbEntity
  8
0
 62
     2
370
    -2
100
AcDbLine
 10
8.26579155747
 20
73.99400684743999
 30
0.0
 11
69.86506029886638
 21
73.99400684743998
 31
0.0
  0
LINE
  5
E03
330
E01
100
AcDbEntity
  8
0
 62
     2
370
    -2
100
AcDbLine
 10
8.265791557470002
 20
-16.0059931522
 30
0.0
 11
69.86506029886637
 21
-16.00599315220001
 31
0.0
  0
LINE
  5
E04
330
E01
100
AcDbEntity
  8
0
 62
     2
370
    -2
100
AcDbLine
 10
67.86506029886638
 20
69.99400684743998
 30
0.0
 11
67.86506029886637
 21
-12.00599315220001
 31
0.0
  0
SOLID
  5
E05
330
E01
100
AcDbEntity
  8
0
 62
     2
100
AcDbTrace
 10
67.19839363219971
 20
69.99400684743998
 30
0.0
 11
68.53172696553305
 21
69.99400684743998
 31
0.0
 12
67.86506029886638
 22
73.99400684743998
 32
0.0
 13
67.86506029886638
 23
73.99400684743998
 33
0.0
  0
SOLID
  5
E06
330
E01
100
AcDbEntity
  8
0
 62
     2
100
AcDbTrace
 10
67.19839363219969
 20
-12.00599315220001
 30
0.0
 11
68.53172696553304
 21
-12.00599315220001
 31
0.0
 12
67.86506029886637
 22
-16.00599315220001
 32
0.0
 13
67.86506029886637
 23
-16.00599315220001
 33
0.0
  0
MTEXT
  5
E07
330
E01
100
AcDbEntity
  8
0
 62
     2
100
AcDbMText
 10
64.86506029886637
 20
28.99400684761999
 30
0.0
 40
3.0
 41
0.0
 71
     5
 72
     1
  1
\A1;90.0
 11
0.0000000000000001
 21
1.0
 31
0.0
 73
     1
 44
1.0
  0
POINT
  5
E08
330
E01
100
AcDbEntity
  8
Defpoints
 62
     0
100
AcDbPoint
 10
6.265791557470002
 20
73.99400684743999
 30
0.0
  0
POINT
  5
E09
330
E01
100
AcDbEntity
  8
Defpoints
 62
     0
100
AcDbPoint
 10
6.265791557470002
 20
-16.0059931522
 30
0.0
  0
POINT
  5
E0A
330
E01
100
AcDbEntity
  8
Defpoints
 62
     0
100
AcDbPoint
 10
67.86506029886637
 20
-16.00599315220001
 30
0.0
  0
ENDBLK
  5
E0C
330
E01
100
AcDbEntity
  8
0
100
AcDbBlockEnd
  0
ENDSEC
  0
SECTION
  2
ENTITIES
  0
LINE
  5
233
330
1B
100
AcDbEntity
  8
0
  6
Continuous
 62
     7
100
AcDbLine
 10
23.41579155635999
 20
-16.0059931522
 30
0.0
 11
-10.88420844141999
 21
-16.0059931522
 31
0.0
  0
LINE
  5
238
330
1B
100
AcDbEntity
  8
0
  6
Continuous
 62
     7
100
AcDbLine
 10
23.41579155635999
 20
-5.199013252360001
 30
0.0
 11
-10.88420844141999
 21
-5.199013252360001
 31
0.0
  0
LINE
  5
23C
330
1B
100
AcDbEntity
  8
0
  6
Continuous
 62
     7
100
AcDbLine
 10
8.21579155764002
 20
-3.405993152859995
 30
0.0
 11
-9.734208442719989
 21
-3.405993152859995
 31
0.0
  0
LINE
  5
243
330
1B
100
AcDbEntity
  8
0
  6
Continuous
 62
     7
100
AcDbLine
 10
8.21579155764002
 20
5.094006847359991
 30
0.0
 11
-9.734208442719989
 21
5.094006847359991
 31
0.0
  0
LINE
  5
248
330
1B
100
AcDbEntity
  8
0
  6
Continuous
 62
     7
100
AcDbLine
 10
23.52799588618
 20
7.144006846919993
 30
0.0
 11
-10.99641277123999
 21
7.144006846919993
 31
0.0
  0
LINE
  5
24C
330
1B
100
AcDbEntity
  8
0
  6
Continuous
 62
     7
100
AcDbLine
 10
-11.53420844189998
 20
-15.35599315172
 30
0.0
 11
-11.53420844189998
 21
73.34400684695999
 31
0.0
  0
LINE
  5
250
330
1B
100
AcDbEntity
  8
0
  6
Continuous
 62
     7
100
AcDbLine
 10
-9.934208441499979
 20
-3.205993151540003
 30
0.0
 11
-9.934208441499979
 21
4.894006848579999
 31
0.0
  0
LINE
  5
25E
330
1B
100
AcDbEntity
  8
0
  6
Continuous
 62
     7
100
AcDbLine
 10
8.415791556420012
 20
-3.205993151540003
 30
0.0
 11
8.415791556420012
 21
4.894006848579999
 31
0.0
  0
LINE
  5
274
330
1B
100
AcDbEntity
  8
0
  6
Continuous
 62
     7
100
AcDbLine
 10
24.06579155684001
 20
73.34400684695999
 30
0.0
 11
24.06579155684001
 21
-15.35599315172
 31
0.0
  0
LINE
  5
279
330
1B
100
AcDbEntity
  8
0
  6
Continuous
 62
     7
100
AcDbLine
 10
-11.53420844189998
 20
50.84400684832
 30
0.0
 11
-11.53311491347999
 21
50.84404984035998
 31
0.0
  0
LINE
  5
27B
330
1B
100
AcDbEntity
  8
0
  6
Continuous
 62
     7
100
AcDbLine
 10
-10.88420844141999
 20
51.49400684625998
 30
0.0
 11
23.41579155635999
 21
51.49400684625998
 31
0.0
  0
LINE
  5
27F
330
1B
100
AcDbEntity
  8
0
  6
Continuous
 62
     7
100
AcDbLine
 10
-10.88420844141999
 20
62.99400684849999
 30
0.0
 11
23.41579155635999
 21
62.99400684849999
 31
0.0
  0
LINE
  5
282
330
1B
100
AcDbEntity
  8
0
  6
Continuous
 62
     7
100
AcDbLine
 10
-10.88420844141999
 20
73.99400684743999
 30
0.0
 11
23.41579155635999
 21
73.99400684743999
 31
0.0
  0
ARC
  5
859
330
1B
100
AcDbEntity
  8
0
  6
Continuous
 62
     7
100
AcDbCircle
 10
8.21579155764002
 20
-3.205993151540003
 30
0.0
 40
0.19999999878
100
AcDbArc
 50
270.0000000000006
 51
0.0000000000007994
  0
ARC
  5
85A
330
1B
100
AcDbEntity
  8
0
  6
Continuous
 62
     7
100
AcDbCircle
 10
8.21579155764002
 20
4.894006848579999
 30
0.0
 40
0.19999999878
100
AcDbArc
 50
0.0
 51
90.00000000000019
  0
ARC
  5
85B
330
1B
100
AcDbEntity
  8
0
  6
Continuous
 62
     7
100
AcDbCircle
 10
-9.734208442719989
 20
4.894006848579999
 30
0.0
 40
0.19999999878
100
AcDbArc
 50
90.00000000000019
 51
180.0000000000004
  0
ARC
  5
85C
330
1B
100
AcDbEntity
  8
0
  6
Continuous
 62
     7
100
AcDbCircle
 10
-9.734208442719989
 20
-3.205993151540003
 30
0.0
 40
0.19999999878
100
AcDbArc
 50
180.0000000000004
 51
270.0000000000006
  0
ARC
  5
85E
330
1B
100
AcDbEntity
  8
0
  6
Continuous
 62
     7
100
AcDbCircle
 10
-10.88420844141999
 20
50.84400684832
 30
0.0
 40
0.65000000048
100
AcDbArc
 50
90.00000000000019
 51
180.0000000000004
  0
ARC
  5
85F
330
1B
100
AcDbEntity
  8
0
  6
Continuous
 62
     7
100
AcDbCircle
 10
-10.88420844141999
 20
62.34400684802
 30
0.0
 40
0.65000000048
100
AcDbArc
 50
90.00000000000019
 51
180.0000000000004
  0
ARC
  5
860
330
1B
100
AcDbEntity
  8
0
  6
Continuous
 62
     7
100
AcDbCircle
 10
-10.88420844141999
 20
73.34400684695999
 30
0.0
 40
0.65000000048
100
AcDbArc
 50
90.00000000000019
 51
180.0000000000004
  0
ARC
  5
862
330
1B
100
AcDbEntity
  8
0
  6
Continuous
 62
     7
100
AcDbCircle
 10
-10.88420844141999
 20
-15.35599315172
 30
0.0
 40
0.65000000048
100
AcDbArc
 50
180.0000000000004
 51
270.0000000000006
  0
ARC
  5
863
330
1B
100
AcDbEntity
  8
0
  6
Continuous
 62
     7
100
AcDbCircle
 10
23.41579155635999
 20
62.34400684802
 30
0.0
 40
0.65000000048
100
AcDbArc
 50
0.0
 51
90.00000000000019
  0
ARC
  5
865
330
1B
100
AcDbEntity
  8
0
  6
Continuous
 62
     7
100
AcDbCircle
 10
23.41579155635999
 20
-15.35599315172
 30
0.0
 40
0.65000000048
100
AcDbArc
 50
270.0000000000006
 51
0.0000000000007994
  0
ARC
  5
866
330
1B
100
AcDbEntity
  8
0
  6
Continuous
 62
     7
100
AcDbCircle
 10
23.41579155635999
 20
73.34400684695999
 30
0.0
 40
0.65000000048
100
AcDbArc
 50
0.0
 51
90.00000000000019
  0
CIRCLE
  5
867
330
1B
100
AcDbEntity
  8
0
  6
Continuous
 62
     7
100
AcDbCircle
 10
-6.234208442479981
 20
66.39400684807998
 30
0.0
 40
2.100000001159999
  0
CIRCLE
  5
868
330
1B
100
AcDbEntity
  8
0
  6
Continuous
 62
     7
100
AcDbCircle
 10
-1.154208442479998
 20
66.39400684807998
 30
0.0
 40
2.100000001159999
  0
CIRCLE
  5
869
330
1B
100
AcDbEntity
  8
0
  6
Continuous
 62
     7
100
AcDbCircle
 10
18.76579155742001
 20
66.39400684807998
 30
0.0
 40
2.100000001159999
  0
CIRCLE
  5
86A
330
1B
100
AcDbEntity
  8
0
  6
Continuous
 62
     7
100
AcDbCircle
 10
13.68579155742002
 20
66.39400684807998
 30
0.0
 40
2.100000001159999
  0
ARC
  5
86B
330
1B
100
AcDbEntity
  8
0
  6
Continuous
 62
     7
100
AcDbCircle
 10
23.41579155635999
 20
50.84400684832
 30
0.0
 40
0.65000000048
100
AcDbArc
 50
0.0
 51
90.00000000000019
  0
SPLINE
  5
8FE
330
1B
100
AcDbEntity
  8
0
  6
Continuous
 62
     7
100
AcDbSpline
210
0.0
220
0.0
230
1.0
 70
     8
 71
     3
 72
     8
 73
     4
 74
     2
 42
0.0000000001
 43
0.0000000001
 44
0.0000000001
 12
1.0
 22
0.0
 32
0.0
 13
0.9562009578346922
 23
0.2927109978050312
 33
0.0
 40
0.0
 40
0.0
 40
0.0
 40
0.0
 40
0.1926839300891241
 40
0.1926839300891241
 40
0.1926839300891241
 40
0.1926839300891241
 10
23.41589055540001
 20
-16.00599315219999
 30
0.0
 10
23.48011853209639
 20
-16.00599315219999
 30
0.0
 10
23.54503100344314
 20
-15.99623162582577
 30
0.0
 10
23.60644585628
 20
-15.97743139067998
 30
0.0
 11
23.41589055540001
 21
-16.00599315219999
 31
0.0
 11
23.60644585628
 21
-15.97743139067998
 31
0.0
  0
SPLINE
  5
8FF
330
1B
100
AcDbEntity
  8
0
  6
Continuous
 62
     7
100
AcDbSpline
210
0.0
220
0.0
230
1.0
 70
     8
 71
     3
 72
     9
 73
     5
 74
     3
 42
0.0000000001
 43
0.0000000001
 44
0.0000000001
 12
0.9562009583975518
 22
0.2927109959663342
 32
0.0
 13
0.9078966608658129
 23
0.4191940519481488
 33
0.0
 40
0.0
 40
0.0
 40
0.0
 40
0.0
 40
0.0104031702915797
 40
0.0876552486322825
 40
0.0876552486322825
 40
0.0876552486322825
 40
0.0876552486322825
 10
23.60644585628
 20
-15.97743139067998
 30
0.0
 10
23.60976169674773
 20
-15.97641634990089
 30
0.0
 10
23.63762921147912
 20
-15.96763987744884
 30
0.0
 10
23.66493018404987
 20
-15.95695063106701
 30
0.0
 10
23.68830915204003
 20
-15.94615609381999
 30
0.0
 11
23.60644585628
 21
-15.97743139067998
 31
0.0
 11
23.61636850598
 21
-15.97430617467998
 31
0.0
 11
23.68830915204003
 21
-15.94615609381999
 31
0.0
  0
SPLINE
  5
900
330
1B
100
AcDbEntity
  8
0
  6
Continuous
 62
     7
100
AcDbSpline
210
0.0
220
0.0
230
1.0
 70
     8
 71
     3
 72
     9
 73
     5
 74
     3
 42
0.0000000001
 43
0.0000000001
 44
0.0000000001
 12
0.8215052832179454
 22
0.5702009028798564
 32
0.0
 13
0.7111058438113039
 23
0.7030849727432762
 33
0.0
 40
0.0
 40
0.0
 40
0.0
 40
0.0
 40
0.0141195762181104
 40
0.1123372523158703
 40
0.1123372523158703
 40
0.1123372523158703
 40
0.1123372523158703
 10
23.78644756638002
 20
-15.89002209889999
 30
0.0
 10
23.79031400186668
 20
-15.88733843386404
 30
0.0
 10
23.8208388245509
 20
-15.86565459380552
 30
0.0
 10
23.84952287970045
 20
-15.84126432441402
 30
0.0
 10
23.87280393418001
 20
-15.81824586703999
 30
0.0
 11
23.78644756638002
 21
-15.89002209889999
 31
0.0
 11
23.79795820122004
 21
-15.88184483051998
 31
0.0
 11
23.87280393418001
 21
-15.81824586703999
 31
0.0
  0
SPLINE
  5
901
330
1B
100
AcDbEntity
  8
0
  6
Continuous
 62
     7
100
AcDbSpline
210
0.0
220
0.0
230
1.0
 70
     8
 71
     3
 72
     8
 73
     4
 74
     2
 42
0.0000000001
 43
0.0000000001
 44
0.0000000001
 12
0.7111058465554741
 22
0.7030849699678003
 32
0.0
 13
0.6038257173713479
 23
0.7971163673146959
 33
0.0
 40
0.0
 40
0.0
 40
0.0
 40
0.0
 40
0.0929296385863563
 40
0.0929296385863563
 40
0.0929296385863563
 40
0.0929296385863563
 10
23.87280393418001
 20
-15.81824586703999
 30
0.0
 10
23.89483153728569
 20
-15.79646672298845
 30
0.0
 10
23.91536226187185
 20
-15.77306080421527
 30
0.0
 10
23.9340666971
 20
-15.74836889223999
 30
0.0
 11
23.87280393418001
 21
-15.81824586703999
 31
0.0
 11
23.9340666971
 21
-15.74836889223999
 31
0.0
  0
SPLINE
  5
902
330
1B
100
AcDbEntity
  8
0
  6
Continuous
 62
     7
100
AcDbSpline
210
0.0
220
0.0
230
1.0
 70
     8
 71
     3
 72
     9
 73
     5
 74
     3
 42
0.0000000001
 43
0.0000000001
 44
0.0000000001
 12
0.0
 22
-1.0
 32
0.0
 13
0.3191988906735894
 23
-0.9476877482550619
 33
0.0
 40
0.0
 40
0.0
 40
0.0
 40
0.0
 40
0.2027693578490304
 40
0.2104927524368393
 40
0.2104927524368393
 40
0.2104927524368393
 40
0.2104927524368393
 10
-11.53420844189994
 20
-15.35609215076
 30
0.0
 10
-11.53420844189994
 20
-15.42368193670968
 30
0.0
 10
-11.52297887226525
 20
-15.49466101340922
 30
0.0
 10
-11.50098343100822
 20
-15.56127428351139
 30
0.0
 10
-11.50016166468
 20
-15.56371407231999
 30
0.0
 11
-11.53420844189994
 21
-15.35609215076
 31
0.0
 11
-11.50258304921999
 21
-15.55638006107999
 31
0.0
 11
-11.50016166468
 21
-15.56371407231999
 31
0.0
  0
SPLINE
  5
903
330
1B
100
AcDbEntity
  8
0
  6
Continuous
 62
     7
100
AcDbSpline
210
0.0
220
0.0
230
1.0
 70
     8
 71
     3
 72
     8
 73
     4
 74
     2
 42
0.0000000001
 43
0.0000000001
 44
0.0000000001
 12
0.6038257173713479
 22
-0.7971163673146959
 32
0.0
 13
0.7111058465554741
 23
-0.7030849699678003
 33
0.0
 40
0.0
 40
0.0
 40
0.0
 40
0.0
 40
0.0929296385863375
 40
0.0929296385863375
 40
0.0929296385863375
 40
0.0929296385863375
 10
-11.40248358215995
 20
-15.74836889223999
 30
0.0
 10
-11.3837791469318
 20
-15.77306080421526
 30
0.0
 10
-11.36324842234567
 20
-15.79646672298846
 30
0.0
 10
-11.34122081923999
 20
-15.81824586703999
 30
0.0
 11
-11.40248358215995
 21
-15.74836889223999
 31
0.0
 11
-11.34122081923999
 21
-15.81824586703999
 31
0.0
  0
SPLINE
  5
904
330
1B
100
AcDbEntity
  8
0
  6
Continuous
 62
     7
100
AcDbSpline
210
0.0
220
0.0
230
1.0
 70
     8
 71
     3
 72
     9
 73
     5
 74
     3
 42
0.0000000001
 43
0.0000000001
 44
0.0000000001
 12
0.7111058438113039
 22
-0.7030849727432762
 32
0.0
 13
0.8215052832179454
 23
-0.5702009028798564
 33
0.0
 40
0.0
 40
0.0
 40
0.0
 40
0.0
 40
0.0982176760977815
 40
0.1123372523158688
 40
0.1123372523158688
 40
0.1123372523158688
 40
0.1123372523158688
 10
-11.34122081923999
 20
-15.81824586703999
 30
0.0
 10
-11.31793976476042
 20
-15.84126432441403
 30
0.0
 10
-11.28925570961084
 20
-15.86565459380545
 30
0.0
 10
-11.25873088692665
 20
-15.88733843386404
 30
0.0
 10
-11.25486445144
 20
-15.89002209889999
 30
0.0
 11
-11.34122081923999
 21
-15.81824586703999
 31
0.0
 11
-11.26637508627999
 21
-15.88184483051998
 31
0.0
 11
-11.25486445144
 21
-15.89002209889999
 31
0.0
  0
SPLINE
  5
905
330
1B
100
AcDbEntity
  8
0
  6
Continuous
 62
     7
100
AcDbSpline
210
0.0
220
0.0
230
1.0
 70
     8
 71
     3
 72
     9
 73
     5
 74
     3
 42
0.0000000001
 43
0.0000000001
 44
0.0000000001
 12
0.9078966608658129
 22
-0.4191940519481488
 32
0.0
 13
0.9562009583975518
 23
-0.2927109959663342
 33
0.0
 40
0.0
 40
0.0
 40
0.0
 40
0.0
 40
0.0772520783406763
 40
0.0876552486322561
 40
0.0876552486322561
 40
0.0876552486322561
 40
0.0876552486322561
 10
-11.15672603709998
 20
-15.94615609381999
 30
0.0
 10
-11.13334706910983
 20
-15.95695063106701
 30
0.0
 10
-11.1060460965391
 20
-15.96763987744884
 30
0.0
 10
-11.07817858180771
 20
-15.97641634990089
 30
0.0
 10
-11.07486274133998
 20
-15.97743139067998
 30
0.0
 11
-11.15672603709998
 21
-15.94615609381999
 31
0.0
 11
-11.08478539103998
 21
-15.97430617467998
 31
0.0
 11
-11.07486274133998
 21
-15.97743139067998
 31
0.0
  0
SPLINE
  5
906
330
1B
100
AcDbEntity
  8
0
  6
Continuous
 62
     7
100
AcDbSpline
210
0.0
220
0.0
230
1.0
 70
     8
 71
     3
 72
     8
 73
     4
 74
     2
 42
0.0000000001
 43
0.0000000001
 44
0.0000000001
 12
-1.0
 22
0.0
 32
0.0
 13
-0.9562009578346922
 23
-0.2927109978050312
 33
0.0
 40
0.0
 40
0.0
 40
0.0
 40
0.0
 40
0.1926839300891585
 40
0.1926839300891585
 40
0.1926839300891585
 40
0.1926839300891585
 10
-10.88430744045996
 20
73.99400684744003
 30
0.0
 10
-10.94853541715635
 20
73.99400684744003
 30
0.0
 10
-11.01344788850311
 20
73.98424532106578
 30
0.0
 10
-11.07486274133998
 20
73.96544508591998
 30
0.0
 11
-10.88430744045996
 21
73.99400684744003
 31
0.0
 11
-11.07486274133998
 21
73.96544508591998
 31
0.0
  0
SPLINE
  5
907
330
1B
100
AcDbEntity
  8
0
  6
Continuous
 62
     7
100
AcDbSpline
210
0.0
220
0.0
230
1.0
 70
     8
 71
     3
 72
     9
 73
     5
 74
     3
 42
0.0000000001
 43
0.0000000001
 44
0.0000000001
 12
-0.9562009583975518
 22
-0.2927109959663342
 32
0.0
 13
-0.9078966608658129
 23
-0.4191940519481488
 33
0.0
 40
0.0
 40
0.0
 40
0.0
 40
0.0
 40
0.0104031702915797
 40
0.0876552486322612
 40
0.0876552486322612
 40
0.0876552486322612
 40
0.0876552486322612
 10
-11.07486274133998
 20
73.96544508591998
 30
0.0
 10
-11.07817858180771
 20
73.9644300451409
 30
0.0
 10
-11.1060460965391
 20
73.95565357268885
 30
0.0
 10
-11.13334706910983
 20
73.94496432630699
 30
0.0
 10
-11.15672603709998
 20
73.93416978905998
 30
0.0
 11
-11.07486274133998
 21
73.96544508591998
 31
0.0
 11
-11.08478539103998
 21
73.96231986991998
 31
0.0
 11
-11.15672603709998
 21
73.93416978905998
 31
0.0
  0
SPLINE
  5
908
330
1B
100
AcDbEntity
  8
0
  6
Continuous
 62
     7
100
AcDbSpline
210
0.0
220
0.0
230
1.0
 70
     8
 71
     3
 72
     9
 73
     5
 74
     3
 42
0.0000000001
 43
0.0000000001
 44
0.0000000001
 12
-0.8215052832179454
 22
-0.5702009028798564
 32
0.0
 13
-0.7111058438113039
 23
-0.7030849727432762
 33
0.0
 40
0.0
 40
0.0
 40
0.0
 40
0.0
 40
0.014119576218079
 40
0.1123372523158605
 40
0.1123372523158605
 40
0.1123372523158605
 40
0.1123372523158605
 10
-11.25486445144
 20
73.87803579414001
 30
0.0
 10
-11.25873088692664
 20
73.87535212910406
 30
0.0
 10
-11.28925570961086
 20
73.85366828904553
 30
0.0
 10
-11.31793976476042
 20
73.82927801965405
 30
0.0
 10
-11.34122081923999
 20
73.80625956228001
 30
0.0
 11
-11.25486445144
 21
73.87803579414001
 31
0.0
 11
-11.26637508627999
 21
73.86985852576001
 31
0.0
 11
-11.34122081923999
 21
73.80625956228001
 31
0.0
  0
SPLINE
  5
909
330
1B
100
AcDbEntity
  8
0
  6
Continuous
 62
     7
100
AcDbSpline
210
0.0
220
0.0
230
1.0
 70
     8
 71
     3
 72
     8
 73
     4
 74
     2
 42
0.0000000001
 43
0.0000000001
 44
0.0000000001
 12
-0.7111058465554741
 22
-0.7030849699678003
 32
0.0
 13
-0.6038257173713479
 23
-0.7971163673146959
 33
0.0
 40
0.0
 40
0.0
 40
0.0
 40
0.0
 40
0.0929296404962653
 40
0.0929296404962653
 40
0.0929296404962653
 40
0.0929296404962653
 10
-11.34122081923999
 20
73.80625956228001
 30
0.0
 10
-11.36324842279839
 20
73.78448041778087
 30
0.0
 10
-11.38377914654738
 20
73.76107449742275
 30
0.0
 10
-11.40248358215995
 20
73.73638258494001
 30
0.0
 11
-11.34122081923999
 21
73.80625956228001
 31
0.0
 11
-11.40248358215995
 21
73.73638258494001
 31
0.0
  0
SPLINE
  5
90A
330
1B
100
AcDbEntity
  8
0
  6
Continuous
 62
     7
100
AcDbSpline
210
0.0
220
0.0
230
1.0
 70
     8
 71
     3
 72
     9
 73
     5
 74
     3
 42
0.0000000001
 43
0.0000000001
 44
0.0000000001
 12
0.0
 22
1.0
 32
0.0
 13
-0.319347088450634
 23
0.9476378195798769
 33
0.0
 40
0.0
 40
0.0
 40
0.0
 40
0.0
 40
0.2029666800563764
 40
0.210596851147286
 40
0.210596851147286
 40
0.210596851147286
 40
0.210596851147286
 10
24.06579155684002
 20
73.34410584599999
 30
0.0
 10
24.06579155684002
 20
73.41176140601878
 30
0.0
 10
24.05454452697792
 20
73.48277721457077
 30
0.0
 10
24.03252299078741
 20
73.54941852474148
 30
0.0
 10
24.03171076647999
 20
73.55182873764002
 30
0.0
 11
24.06579155684002
 21
73.34410584599999
 31
0.0
 11
24.03410457932003
 21
73.54458379657998
 31
0.0
 11
24.03171076647999
 21
73.55182873764002
 31
0.0
  0
SPLINE
  5
90B
330
1B
100
AcDbEntity
  8
0
  6
Continuous
 62
     7
100
AcDbSpline
210
0.0
220
0.0
230
1.0
 70
     8
 71
     3
 72
     9
 73
     5
 74
     3
 42
0.0000000001
 43
0.0000000001
 44
0.0000000001
 12
-0.4292440760858495
 22
0.9031885313406085
 32
0.0
 13
-0.6036336659389247
 23
0.7972618122957695
 33
0.0
 40
0.0
 40
0.0
 40
0.0
 40
0.0
 40
0.1199304613962256
 40
0.1324849195978795
 40
0.1324849195978795
 40
0.1324849195978795
 40
0.1324849195978795
 10
24.00289174868001
 20
73.62306221467997
 30
0.0
 10
23.98573193531448
 20
73.6591688204438
 30
0.0
 10
23.96300090880077
 20
73.6974592437077
 30
0.0
 10
23.93668861647605
 20
73.73291941938058
 30
0.0
 10
23.9341625186
 20
73.73625581607999
 30
0.0
 11
24.00289174868001
 21
73.62306221467997
 31
0.0
 11
23.94164323770002
 21
73.72617349181999
 31
0.0
 11
23.9341625186
 21
73.73625581607999
 31
0.0
  0
SPLINE
  5
90C
330
1B
100
AcDbEntity
  8
0
  6
Continuous
 62
     7
100
AcDbSpline
210
0.0
220
0.0
230
1.0
 70
     8
 71
     3
 72
     8
 73
     4
 74
     2
 42
0.0000000001
 43
0.0000000001
 44
0.0000000001
 12
-0.6036336719205532
 22
0.7972618077668779
 32
0.0
 13
-0.7110519370463005
 23
0.7031394903023895
 33
0.0
 40
0.0
 40
0.0
 40
0.0
 40
0.0
 40
0.0930413015901701
 40
0.0930413015901701
 40
0.0930413015901701
 40
0.0930413015901701
 10
23.9341625186
 20
73.73625581607999
 30
0.0
 10
23.91544156442695
 20
73.7609819081809
 30
0.0
 10
23.89488973188035
 20
73.78441955814093
 30
0.0
 10
23.87283733264002
 20
73.80622656259999
 30
0.0
 11
23.9341625186
 21
73.73625581607999
 31
0.0
 11
23.87283733264002
 21
73.80622656259999
 31
0.0
  0
SPLINE
  5
90D
330
1B
100
AcDbEntity
  8
0
  6
Continuous
 62
     7
100
AcDbSpline
210
0.0
220
0.0
230
1.0
 70
     8
 71
     3
 72
     9
 73
     5
 74
     3
 42
0.0000000001
 43
0.0000000001
 44
0.0000000001
 12
-0.711051937919331
 22
0.7031394894195348
 32
0.0
 13
-0.8213472144990845
 23
0.5704285697916917
 33
0.0
 40
0.0
 40
0.0
 40
0.0
 40
0.0
 40
0.0979363975967592
 40
0.1122010016518421
 40
0.1122010016518421
 40
0.1122010016518421
 40
0.1122010016518421
 10
23.87283733264002
 20
73.80622656259999
 30
0.0
 10
23.84962471087201
 20
73.82918087880058
 30
0.0
 10
23.82098349313007
 20
73.85354908780596
 30
0.0
 10
23.79050409144222
 20
73.87521850845672
 30
0.0
 10
23.78659869384003
 20
73.87793082101999
 30
0.0
 11
23.87283733264002
 21
73.80622656259999
 31
0.0
 11
23.79822433987999
 21
73.86966503109997
 31
0.0
 11
23.78659869384003
 21
73.87793082101999
 31
0.0
  0
SPLINE
  5
90E
330
1B
100
AcDbEntity
  8
0
  6
Continuous
 62
     7
100
AcDbSpline
210
0.0
220
0.0
230
1.0
 70
     8
 71
     3
 72
     9
 73
     5
 74
     3
 42
0.0000000001
 43
0.0000000001
 44
0.0000000001
 12
-0.9085765732243574
 22
0.4177183388216087
 32
0.0
 13
-0.9562472925145305
 23
0.2925595931748433
 33
0.0
 40
0.0
 40
0.0
 40
0.0
 40
0.0
 40
0.0763949424384573
 40
0.0867056883231074
 40
0.0867056883231074
 40
0.0867056883231074
 40
0.0867056883231074
 10
23.68734770870003
 20
73.93461229515998
 30
0.0
 10
23.66421082369589
 20
73.94524948464324
 30
0.0
 10
23.63719745032448
 20
73.95579604653896
 30
0.0
 10
23.60962980154533
 20
73.96447114287956
 30
0.0
 10
23.6063432606
 20
73.96547664542001
 30
0.0
 11
23.68734770870003
 21
73.93461229515998
 31
0.0
 11
23.61617846571999
 21
73.96238145222
 31
0.0
 11
23.6063432606
 21
73.96547664542001
 31
0.0
  0
SPLINE
  5
90F
330
1B
100
AcDbEntity
  8
0
  6
Continuous
 62
     7
100
AcDbSpline
210
0.0
220
0.0
230
1.0
 70
     8
 71
     3
 72
     8
 73
     4
 74
     2
 42
0.0000000001
 43
0.0000000001
 44
0.0000000001
 12
-0.9562472912396268
 22
0.2925595973419378
 32
0.0
 13
-1.0
 23
0.0
 33
0.0
 40
0.0
 40
0.0
 40
0.0
 40
0.0
 40
0.1925777903739077
 40
0.1925777903739077
 40
0.1925777903739077
 40
0.1925777903739077
 10
23.6063432606
 20
73.96547664542001
 30
0.0
 10
23.54495926380067
 20
73.98425680568961
 30
0.0
 10
23.48008315219131
 20
73.99400684744003
 30
0.0
 10
23.41589055540001
 20
73.99400684744003
 30
0.0
 11
23.6063432606
 21
73.96547664542001
 31
0.0
 11
23.41589055540001
 21
73.99400684744003
 31
0.0
  0
SPLINE
  5
91C
330
1B
100
AcDbEntity
  8
0
  6
Continuous
 62
     7
100
AcDbSpline
210
0.0
220
0.0
230
1.0
 70
     8
 71
     3
 72
    11
 73
     7
 74
     5
 42
0.0000000001
 43
0.0000000001
 44
0.0000000001
 12
-0.9999999098652176
 22
0.0004245816252623
 32
0.0
 13
-0.9999999993414686
 23
-0.0000362913627546
 33
0.0
 40
0.0
 40
0.0
 40
0.0
 40
0.0
 40
0.0392577218400164
 40
0.1522888318200161
 40
0.3253285921088727
 40
0.5377962830538269
 40
0.5377962830538269
 40
0.5377962830538269
 40
0.5377962830538269
 10
24.06579155684002
 20
7.144006846919992
 30
0.0
 10
24.05270565073951
 20
7.144012402955773
 30
0.0
 10
24.00194270879717
 20
7.144006850917876
 30
0.0
 10
23.8934997780019
 20
7.143908481668422
 30
0.0
 10
23.72732072759081
 20
7.144653287967017
 30
0.0
 10
23.59881844978168
 20
7.144009417167341
 30
0.0
 10
23.52799588618001
 20
7.144006846919992
 30
0.0
 11
24.06579155684002
 21
7.144006846919992
 31
0.0
 11
24.02653383500001
 21
7.144006849460012
 31
0.0
 11
23.91350272502001
 21
7.144006851999989
 31
0.0
 11
23.74046330224001
 21
7.144348619159998
 31
0.0
 11
23.52799588618001
 21
7.144006846919992
 31
0.0
  0
SPLINE
  5
91F
330
1B
100
AcDbEntity
  8
0
  6
Continuous
 62
     7
100
AcDbSpline
210
0.0
220
0.0
230
1.0
 70
     8
 71
     3
 72
    11
 73
     7
 74
     5
 42
0.0000000001
 43
0.0000000001
 44
0.0000000001
 12
0.0
 22
-1.0
 32
0.0
 13
1.0
 23
0.0
 33
0.0
 40
0.0
 40
0.0
 40
0.0
 40
0.0
 40
0.050234082858526
 40
0.1913284353334048
 40
0.4022609388066783
 40
0.6510111642974384
 40
0.6510111642974384
 40
0.6510111642974384
 40
0.6510111642974384
 10
-11.53420844189994
 20
-5.176328580939994
 30
0.0
 10
-11.53420844189994
 20
-5.193073275226169
 30
0.0
 10
-11.43294002750713
 20
-5.173328304613674
 30
0.0
 10
-11.33283149791641
 20
-5.202104081523481
 30
0.0
 10
-11.11549964980328
 20
-5.19473426361717
 30
0.0
 10
-10.96712518325021
 20
-5.199013252360003
 30
0.0
 10
-10.88420844141995
 20
-5.199013252360003
 30
0.0
 11
-11.53420844189994
 21
-5.176328580939994
 31
0.0
 11
-11.48473013852
 21
-5.185009627839974
 31
0.0
 11
-11.34382784984001
 21
-5.192369067019996
 31
0.0
 11
-11.13295267341999
 21
-5.197286484160002
 31
0.0
 11
-10.88420844141995
 21
-5.199013252360003
 31
0.0
  0
SPLINE
  5
924
330
1B
100
AcDbEntity
  8
0
  6
Continuous
 62
     7
100
AcDbSpline
210
0.0
220
0.0
230
1.0
 70
     8
 71
     3
 72
    11
 73
     7
 74
     5
 42
0.0000000001
 43
0.0000000001
 44
0.0000000001
 12
0.9999999099053191
 22
0.0004244871657033
 32
0.0
 13
0.9999999993414686
 23
-0.0000362913627546
 33
0.0
 40
0.0
 40
0.0
 40
0.0
 40
0.0
 40
0.0392577218399595
 40
0.1522888318199875
 40
0.3253285921188777
 40
0.537796283063832
 40
0.537796283063832
 40
0.537796283063832
 40
0.537796283063832
 10
-11.53420844189994
 20
7.144006846919992
 30
0.0
 10
-11.52112253579893
 20
7.144012401719685
 30
0.0
 10
-11.47035959385803
 20
7.144006846985305
 30
0.0
 10
-11.36191666305568
 20
7.143908474749514
 30
0.0
 10
-11.19573761265947
 20
7.144653290850328
 30
0.0
 10
-11.06723533484163
 20
7.144009417167341
 30
0.0
 10
-10.99641277123996
 20
7.144006846919992
 30
0.0
 11
-11.53420844189994
 21
7.144006846919992
 31
0.0
 11
-11.49495072005999
 21
7.144006846919992
 31
0.0
 11
-11.38191961007996
 21
7.144006846919992
 31
0.0
 11
-11.20888018729996
 21
7.144348619159998
 31
0.0
 11
-10.99641277123996
 21
7.144006846919992
 31
0.0
  0
SPLINE
  5
928
330
1B
100
AcDbEntity
  8
0
  6
Continuous
 62
     7
100
AcDbSpline
210
0.0
220
0.0
230
1.0
 70
     8
 71
     3
 72
    19
 73
    15
 74
    13
 42
0.0000000001
 43
0.0000000001
 44
0.0000000001
 12
-0.0003047490715371
 22
0.9999999535640005
 32
0.0
 13
-0.0003047490715371
 23
-0.9999999535640005
 33
0.0
 40
0.0
 40
0.0
 40
0.0
 40
0.0
 40
0.5994086459454655
 40
1.20263634311203
 40
1.798561365621679
 40
2.403076896582679
 40
2.999884737883601
 40
3.60193938358618
 40
4.203994089676101
 40
4.800801871909928
 40
5.405317362433749
 40
6.001242386352847
 40
6.60447004758342
 40
7.203878682794502
 40
7.203878682794502
 40
7.203878682794502
 40
7.203878682794502
 10
14.06660723216001
 20
-8.405993152839982
 30
0.0
 10
14.06654634241723
 20
-8.206190280136206
 30
0.0
 10
14.11927014372841
 20
-7.803341840478966
 30
0.0
 10
14.35138128546892
 20
-7.243342075932137
 30
0.0
 10
14.72137169721922
 20
-6.760797680064814
 30
0.0
 10
15.20212746264112
 20
-6.391720189421763
 30
0.0
 10
15.76376367294758
 20
-6.159042025454053
 30
0.0
 10
16.36579162056803
 20
-6.07952505710146
 30
0.0
 10
16.96781954616271
 20
-6.15904205370289
 30
0.0
 10
17.52945573140147
 20
-6.391720239751215
 30
0.0
 10
18.01021145801265
 20
-6.760797725013042
 30
0.0
 10
18.38020184626908
 20
-7.24334210682238
 30
0.0
 10
18.61231297628379
 20
-7.803341859295811
 30
0.0
 10
18.66503677122167
 20
-8.206190283714335
 30
0.0
 10
18.66497588147998
 20
-8.405993152839982
 30
0.0
 11
14.06660723216001
 21
-8.405993152839982
 31
0.0
 11
14.14456049764001
 21
-7.811675045059999
 31
0.0
 11
14.37540976415999
 21
-7.254366987720018
 31
0.0
 11
14.73805844704003
 21
-6.781490084859981
 31
0.0
 11
15.21755571512
 21
-6.413357775660003
 31
0.0
 11
15.76891950190002
 21
-6.184933665579976
 31
0.0
 11
16.36579160000002
 21
-6.106107940580017
 31
0.0
 11
16.96266375398002
 21
-6.184933703680002
 31
0.0
 11
17.51402747471999
 21
-6.413357818840012
 31
0.0
 11
17.99352469961999
 21
-6.781490117879982
 31
0.0
 11
18.35617337488002
 21
-7.254367028359993
 31
0.0
 11
18.58702262108002
 21
-7.811675055220007
 31
0.0
 11
18.66497588147998
 21
-8.405993152839982
 31
0.0
  0
SPLINE
  5
92A
330
1B
100
AcDbEntity
  8
0
  6
Continuous
 62
     7
100
AcDbSpline
210
0.0
220
0.0
230
1.0
 70
     8
 71
     3
 72
    11
 73
     7
 74
     5
 42
0.0000000001
 43
0.0000000001
 44
0.0000000001
 12
0.0
 22
-1.0
 32
0.0
 13
-1.0
 23
0.0
 33
0.0
 40
0.0
 40
0.0
 40
0.0
 40
0.0
 40
0.050234082858582
 40
0.1913284353334892
 40
0.4022609388067626
 40
0.6510111642974659
 40
0.6510111642974659
 40
0.6510111642974659
 40
0.6510111642974659
 10
24.06579155684002
 20
-5.176328580939994
 30
0.0
 10
24.06579155684002
 20
-5.193073275226188
 30
0.0
 10
23.96452314244715
 20
-5.17332830461366
 30
0.0
 10
23.86441461285641
 20
-5.202104081523485
 30
0.0
 10
23.64708276474329
 20
-5.194734263617169
 30
0.0
 10
23.49870829819024
 20
-5.199013252360003
 30
0.0
 10
23.41579155636
 20
-5.199013252360003
 30
0.0
 11
24.06579155684002
 21
-5.176328580939994
 31
0.0
 11
24.01631325346002
 21
-5.185009627839974
 31
0.0
 11
23.87541096478
 21
-5.192369067019996
 31
0.0
 11
23.66453578835998
 21
-5.197286484160002
 31
0.0
 11
23.41579155636
 21
-5.199013252360003
 31
0.0
  0
SPLINE
  5
92B
330
1B
100
AcDbEntity
  8
0
  6
Continuous
 62
     7
100
AcDbSpline
210
0.0
220
0.0
230
1.0
 70
     8
 71
     3
 72
    19
 73
    15
 74
    13
 42
0.0000000001
 43
0.0000000001
 44
0.0000000001
 12
-0.0003047488562731
 22
-0.9999999535640661
 32
0.0
 13
-0.0003047488562731
 23
0.9999999535640661
 33
0.0
 40
0.0
 40
0.0
 40
0.0
 40
0.0
 40
0.5991810351562731
 40
1.202179127035924
 40
1.797876634151428
 40
2.402153933357876
 40
2.998735690416815
 40
3.600550025978552
 40
4.202364421926
 40
4.798946122260026
 40
5.403223383039688
 40
5.998920890014421
 40
6.601918948301002
 40
7.201099970534298
 40
7.201099970534298
 40
7.201099970534298
 40
7.201099970534298
 10
18.66497588147998
 20
-8.405993152839982
 30
0.0
 10
18.6649150149016
 20
-8.605720155284229
 30
0.0
 10
18.61198634083309
 20
-9.008381768724406
 30
0.0
 10
18.37970861114406
 20
-9.568057002358504
 30
0.0
 10
18.00969082362184
 20
-10.05027834314589
 30
0.0
 10
17.5290298509783
 20
-10.41908690840857
 30
0.0
 10
16.96758180877415
 20
-10.65158515297151
 30
0.0
 10
16.36579149560565
 20
-10.73103842826027
 30
0.0
 10
15.76400120372152
 20
-10.65158512439908
 30
0.0
 10
15.2025531851834
 20
-10.41908685796472
 30
0.0
 10
14.72189224851188
 20
-10.05027829983371
 30
0.0
 10
14.35187448628574
 20
-9.568056969982521
 30
0.0
 10
14.11959677086619
 20
-9.008381748656164
 30
0.0
 10
14.06666809873708
 20
-8.605720150976571
 30
0.0
 10
14.06660723216001
 20
-8.405993152839982
 30
0.0
 11
18.66497588147998
 21
-8.405993152839982
 31
0.0
 11
18.58671979212002
 21
-9.000041886000005
 31
0.0
 11
18.35570255286
 21
-9.557031772779993
 31
0.0
 11
17.99302264068001
 21
-10.02959795997998
 31
0.0
 11
17.51361983266002
 21
-10.39746206803999
 31
0.0
 11
16.96242952534004
 21
-10.62571420488001
 31
0.0
 11
16.36579151618002
 21
-10.70447701661999
 31
0.0
 11
15.76915345114002
 21
-10.62571416677998
 31
0.0
 11
15.21796320731999
 21
-10.39746202486002
 31
0.0
 11
14.73856043994001
 21
-10.02959792696
 31
0.0
 11
14.37588053792001
 21
-9.557031732139989
 31
0.0
 11
14.14486331898001
 21
-9.000041873299977
 31
0.0
 11
14.06660723216001
 21
-8.405993152839982
 31
0.0
  0
LINE
  5
CFD
330
1B
100
AcDbEntity
  8
AXE
100
AcDbLine
 10
-11.53420844189998
 20
-32.03389974585411
 30
0.0
 11
-11.53420844189998
 21
107.3749301929299
 31
0.0
  0
MTEXT
  5
D09
330
1B
100
AcDbEntity
  8
AXE
100
AcDbMText
 10
-15.87412777714746
 20
106.8630547246975
 30
0.0
 40
3.5
 41
3.0661
 71
     1
 72
     5
  1
{\fArial|b0|i0|c0|p34;Z}
 73
     1
 44
1.0
  0
MTEXT
  5
D0F
330
1B
100
AcDbEntity
  8
AXE
100
AcDbMText
 10
35.29225961520518
 20
32.79273915539007
 30
0.0
 40
3.5
 41
3.0661
 71
     1
 72
     5
  1
{\fArial|b0|i0|c0|p34;X}
 73
     1
 44
1.0
  0
LINE
  5
DDA
330
1B
100
AcDbEntity
  8
AXE
100
AcDbLine
 10
-23.81208879848543
 20
28.50447908906
 30
0.0
 11
38.47723377788863
 21
28.50447908906
 31
0.0
  0
DIMENSION
  5
DE9
330
1B
100
AcDbEntity
  8
0
100
AcDbDimension
  2
*D1
 10
-11.53420844189998
 20
-34.64776754437384
 30
0.0
 11
6.265791557470009
 21
-31.64776754437384
 31
0.0
 70
    32
 71
     5
 42
35.59999999873999
  3
Modular
100
AcDbAlignedDimension
 13
24.06579155684001
 23
28.99400684761999
 33
0.0
 14
-11.53420844189998
 24
28.99400684761999
 34
0.0
100
AcDbRotatedDimension
  0
DIMENSION
  5
E00
330
1B
100
AcDbEntity
  8
0
100
AcDbDimension
  2
*D2
 10
67.86506029886637
 20
-16.00599315220001
 30
0.0
 11
64.86506029886637
 21
28.99400684761999
 31
0.0
 70
    32
 71
     5
 42
89.99999999963998
  3
Modular
100
AcDbAlignedDimension
 13
6.265791557470002
 23
73.99400684743999
 33
0.0
 14
6.265791557470002
 24
-16.0059931522
 34
0.0
 50
90.0
100
AcDbRotatedDimension
  0
ENDSEC
  0
SECTION
  2
OBJECTS
  0
DICTIONARY
  5
C43
330
0
100
AcDbDictionary
281
     1
  3
ACAD_GROUP
350
C44
  3
ACAD_LAYOUT
350
C51
  3
ACAD_MLINESTYLE
350
C45
  3
ACAD_PLOTSETTINGS
350
C52
  3
ACAD_PLOTSTYLENAME
350
C4F
  3
AcDbVariableDictionary
350
CCB
  3
ASE_INDEX_DICTIONARY
350
CC8
  0
DICTIONARY
  5
C44
102
{ACAD_REACTORS
330
C43
102
}
330
C43
100
AcDbDictionary
281
     1
  0
DICTIONARY
  5
C51
102
{ACAD_REACTORS
330
C43
102
}
330
C43
100
AcDbDictionary
281
     1
  3
Layout1
350
C54
  3
Model
350
C53
  0
DICTIONARY
  5
C45
102
{ACAD_REACTORS
330
C43
102
}
330
C43
100
AcDbDictionary
281
     1
  3
STANDARD
350
C46
  0
DICTIONARY
  5
C52
102
{ACAD_REACTORS
330
C43
102
}
330
C43
100
AcDbDictionary
281
     1
  0
ACDBDICTIONARYWDFLT
  5
C4F
102
{ACAD_REACTORS
330
C43
102
}
330
C43
100
AcDbDictionary
281
     1
  3
Normal
350
C50
100
AcDbDictionaryWithDefault
340
C50
  0
DICTIONARY
  5
CCB
102
{ACAD_REACTORS
330
C43
102
}
330
C43
100
AcDbDictionary
281
     1
  3
DIMASSOC
350
CCC
  0
DICTIONARY
  5
CC8
102
{ACAD_REACTORS
330
C43
102
}
330
C43
100
AcDbDictionary
281
     1
  3
ASEBlockHierarchyIndexRecord
350
CC9
1001
DCO15
1040
1574498795.937
  0
LAYOUT
  5
C54
102
{ACAD_REACTORS
330
C51
102
}
330
C51
100
AcDbPlotSettings
  1

  2
Auto HP DeskJet 970Cse sur POLYNOTES1
  4

  6

 40
0.0
 41
0.0
 42
0.0
 43
0.0
 44
0.0
 45
0.0
 46
0.0
 47
0.0
 48
0.0
 49
0.0
140
0.0
141
0.0
142
1.0
143
1.0
 70
   688
 72
     0
 73
     0
 74
     5
  7

 75
    16
147
1.0
148
0.0
149
0.0
100
AcDbLayout
  1
Layout1
 70
     0
 71
     1
 10
0.0
 20
0.0
 11
12.0
 21
9.0
 12
0.0
 22
0.0
 32
0.0
 14
1.000000000000000E+20
 24
1.000000000000000E+20
 34
1.000000000000000E+20
 15
-1.000000000000000E+20
 25
-1.000000000000000E+20
 35
-1.000000000000000E+20
146
0.0
 13
0.0
 23
0.0
 33
0.0
 16
1.0
 26
0.0
 36
0.0
 17
0.0
 27
1.0
 37
0.0
 76
     0
330
1C
  0
LAYOUT
  5
C53
102
{ACAD_REACTORS
330
C51
102
}
330
C51
100
AcDbPlotSettings
  1

  2
Auto HP DeskJet 970Cse sur POLYNOTES1
  4

  6

 40
0.0
 41
0.0
 42
0.0
 43
0.0
 44
0.0
 45
0.0
 46
0.0
 47
0.0
 48
0.0
 49
0.0
140
0.0
141
0.0
142
1.0
143
1.0
 70
  1712
 72
     0
 73
     0
 74
     0
  7

 75
     0
147
1.0
148
0.0
149
0.0
100
AcDbLayout
  1
Model
 70
     1
 71
     0
 10
0.0
 20
0.0
 11
12.0
 21
9.0
 12
0.0
 22
0.0
 32
0.0
 14
0.0
 24
0.0
 34
0.0
 15
0.0
 25
0.0
 35
0.0
146
0.0
 13
0.0
 23
0.0
 33
0.0
 16
1.0
 26
0.0
 36
0.0
 17
0.0
 27
1.0
 37
0.0
 76
     0
330
1B
  0
MLINESTYLE
  5
C46
102
{ACAD_REACTORS
330
C45
102
}
330
C45
100
AcDbMlineStyle
  2
STANDARD
 70
     0
  3

 62
   256
 51
90.00000000000019
 52
90.00000000000019
 71
     2
 49
0.5
 62
   256
  6
BYLAYER
 49
-0.5
 62
   256
  6
BYLAYER
  0
ACDBPLACEHOLDER
  5
C50
102
{ACAD_REACTORS
330
C4F
102
}
330
C4F
  0
DICTIONARYVAR
  5
CCC
102
{ACAD_REACTORS
330
CCB
102
}
330
CCB
100
DictionaryVariables
280
     0
  1
1
  0
XRECORD
  5
CC9
102
{ACAD_REACTORS
330
CC8
102
}
330
CC8
100
AcDbXrecord
280
     1
330
0
  0
ENDSEC
  0
EOF