0
SECTION
  2
HEADER
  9
$ACADVER
  1
AC1014
  9
$ACADMAINTVER
 70
     9
  9
$DWGCODEPAGE
  3
ANSI_1252
  9
$INSBASE
 10
0.0
 20
0.0
 30
0.0
  9
$EXTMIN
 10
-0.023773680941955
 20
0.0102966254856187
 30
0.0
  9
$EXTMAX
 10
131.176234319058
 20
82.01029662548561
 30
0.0
  9
$LIMMIN
 10
0.0
 20
0.0
  9
$LIMMAX
 10
16.40000099999999
 20
10.25
  9
$ORTHOMODE
 70
     0
  9
$REGENMODE
 70
     1
  9
$FILLMODE
 70
     1
  9
$QTEXTMODE
 70
     0
  9
$MIRRTEXT
 70
     1
  9
$DRAGMODE
 70
     2
  9
$LTSCALE
 40
1.0
  9
$OSMODE
 70
    39
  9
$ATTMODE
 70
     1
  9
$TEXTSIZE
 40
0.2
  9
$TRACEWID
 40
0.05
  9
$TEXTSTYLE
  7
ROMANS
  9
$CLAYER
  8
0
  9
$CELTYPE
  6
BYLAYER
  9
$CECOLOR
 62
   256
  9
$CELTSCALE
 40
1.0
  9
$DELOBJ
 70
     1
  9
$DISPSILH
 70
     0
  9
$DIMSCALE
 40
0.0
  9
$DIMASZ
 40
0.07
  9
$DIMEXO
 40
0.0625
  9
$DIMDLI
 40
0.38
  9
$DIMRND
 40
0.001
  9
$DIMDLE
 40
0.0
  9
$DIMEXE
 40
0.0625
  9
$DIMTP
 40
0.0
  9
$DIMTM
 40
0.0
  9
$DIMTXT
 40
0.1
  9
$DIMCEN
 40
0.09
  9
$DIMTSZ
 40
0.0
  9
$DIMTOL
 70
     0
  9
$DIMLIM
 70
     0
  9
$DIMTIH
 70
     1
  9
$DIMTOH
 70
     1
  9
$DIMSE1
 70
     0
  9
$DIMSE2
 70
     0
  9
$DIMTAD
 70
     0
  9
$DIMZIN
 70
     4
  9
$DIMBLK
  1
SEARROW
  9
$DIMASO
 70
     1
  9
$DIMSHO
 70
     1
  9
$DIMPOST
  1
\X
  9
$DIMAPOST
  1

  9
$DIMALT
 70
     1
  9
$DIMALTD
 70
     0
  9
$DIMALTF
 40
25.4
  9
$DIMLFAC
 40
1.0
  9
$DIMTOFL
 70
     0
  9
$DIMTVP
 40
0.0
  9
$DIMTIX
 70
     0
  9
$DIMSOXD
 70
     0
  9
$DIMSAH
 70
     0
  9
$DIMBLK1
  1

  9
$DIMBLK2
  1

  9
$DIMSTYLE
  2
SCHNEIDERELECTRIC
  9
$DIMCLRD
 70
   256
  9
$DIMCLRE
 70
   256
  9
$DIMCLRT
 70
   256
  9
$DIMTFAC
 40
1.0
  9
$DIMGAP
 40
0.04
  9
$DIMJUST
 70
     0
  9
$DIMSD1
 70
     0
  9
$DIMSD2
 70
     0
  9
$DIMTOLJ
 70
     1
  9
$DIMTZIN
 70
     0
  9
$DIMALTZ
 70
     0
  9
$DIMALTTZ
 70
     0
  9
$DIMFIT
 70
     3
  9
$DIMUPT
 70
     0
  9
$DIMUNIT
 70
     2
  9
$DIMDEC
 70
     2
  9
$DIMTDEC
 70
     2
  9
$DIMALTU
 70
     2
  9
$DIMALTTD
 70
     0
  9
$DIMTXSTY
  7
ROMANS
  9
$DIMAUNIT
 70
     0
  9
$LUNITS
 70
     2
  9
$LUPREC
 70
     4
  9
$SKETCHINC
 40
0.1
  9
$FILLETRAD
 40
0.5
  9
$AUNITS
 70
     0
  9
$AUPREC
 70
     0
  9
$MENU
  1
.
  9
$ELEVATION
 40
0.0
  9
$PELEVATION
 40
0.0
  9
$THICKNESS
 40
0.0
  9
$LIMCHECK
 70
     0
  9
$BLIPMODE
 70
     0
  9
$CHAMFERA
 40
0.5
  9
$CHAMFERB
 40
0.5
  9
$CHAMFERC
 40
1.0
  9
$CHAMFERD
 40
0.0
  9
$SKPOLY
 70
     0
  9
$TDCREATE
 40
2451764.535041909
  9
$TDUPDATE
 40
2451967.654768333
  9
$TDINDWG
 40
0.4599435880
  9
$TDUSRTIMER
 40
0.4599433565
  9
$USRTIMER
 70
     1
  9
$ANGBASE
 50
0.0
  9
$ANGDIR
 70
     0
  9
$PDMODE
 70
     0
  9
$PDSIZE
 40
0.0
  9
$PLINEWID
 40
0.0
  9
$COORDS
 70
     1
  9
$SPLFRAME
 70
     0
  9
$SPLINETYPE
 70
     6
  9
$SPLINESEGS
 70
     8
  9
$ATTDIA
 70
     0
  9
$ATTREQ
 70
     1
  9
$HANDLING
 70
-16383
  9
$HANDSEED
  5
A101
  9
$SURFTAB1
 70
     6
  9
$SURFTAB2
 70
     6
  9
$SURFTYPE
 70
     6
  9
$SURFU
 70
     6
  9
$SURFV
 70
     6
  9
$UCSNAME
  2

  9
$UCSORG
 10
0.0
 20
0.0
 30
0.0
  9
$UCSXDIR
 10
1.0
 20
0.0
 30
0.0
  9
$UCSYDIR
 10
0.0
 20
1.0
 30
0.0
  9
$PUCSNAME
  2

  9
$PUCSORG
 10
0.0
 20
0.0
 30
0.0
  9
$PUCSXDIR
 10
1.0
 20
0.0
 30
0.0
  9
$PUCSYDIR
 10
0.0
 20
1.0
 30
0.0
  9
$USERI1
 70
     0
  9
$USERI2
 70
     0
  9
$USERI3
 70
     0
  9
$USERI4
 70
     0
  9
$USERI5
 70
     0
  9
$USERR1
 40
0.0
  9
$USERR2
 40
0.0
  9
$USERR3
 40
0.0
  9
$USERR4
 40
0.0
  9
$USERR5
 40
0.0
  9
$WORLDVIEW
 70
     1
  9
$SHADEDGE
 70
     3
  9
$SHADEDIF
 70
    70
  9
$TILEMODE
 70
     1
  9
$MAXACTVP
 70
    48
  9
$PINSBASE
 10
0.0
 20
0.0
 30
0.0
  9
$PLIMCHECK
 70
     0
  9
$PEXTMIN
 10
0.0
 20
-0.1507193079929352
 30
0.0
  9
$PEXTMAX
 10
16.40000099999999
 20
10.25
 30
0.0
  9
$PLIMMIN
 10
-0.3022988315385811
 20
-0.4421500682141223
  9
$PLIMMAX
 10
16.69770068786963
 20
10.55784969148998
  9
$UNITMODE
 70
     0
  9
$VISRETAIN
 70
     1
  9
$PLINEGEN
 70
     0
  9
$PSLTSCALE
 70
     1
  9
$TREEDEPTH
 70
  3020
  9
$PICKSTYLE
 70
     1
  9
$CMLSTYLE
  2
STANDARD
  9
$CMLJUST
 70
     0
  9
$CMLSCALE
 40
1.0
  9
$PROXYGRAPHICS
 70
     1
  9
$MEASUREMENT
 70
     0
  0
ENDSEC
  0
SECTION
  2
CLASSES
  0
CLASS
  1
ACDBDICTIONARYWDFLT
  2
AcDbDictionaryWithDefault
  3
AutoCAD 2000
 90
        0
280
     0
281
     0
  0
CLASS
  1
ACDBPLACEHOLDER
  2
AcDbPlaceHolder
  3
AutoCAD 2000
 90
        0
280
     0
281
     0
  0
CLASS
  1
LAYOUT
  2
AcDbLayout
  3
AutoCAD 2000
 90
        0
280
     0
281
     0
  0
CLASS
  1
LONG_TRANSACTION
  2
AcDbLongTransaction
  3
AutoCAD 2000
 90
        0
280
     0
281
     0
  0
CLASS
  1
LWPOLYLINE
  2
AcDbPolyline
  3
AutoCAD 2000
 90
        0
280
     0
281
     1
  0
CLASS
  1
HATCH
  2
AcDbHatch
  3
AutoCAD 2000
 90
        0
280
     0
281
     1
  0
CLASS
  1
XRECORD
  2
AcDbXrecord
  3
AutoCAD 2000
 90
        0
280
     0
281
     0
  0
CLASS
  1
LONG_TRANSACTION
  2
AcDbLongTransaction
  3
AutoCAD 2000
 90
        0
280
     0
281
     0
  0
CLASS
  1
LWPOLYLINE
  2
AcDbPolyline
  3
AutoCAD 2000
 90
        0
280
     0
281
     1
  0
CLASS
  1
HATCH
  2
AcDbHatch
  3
AutoCAD 2000
 90
        0
280
     0
281
     1
  0
CLASS
  1
XRECORD
  2
AcDbXrecord
  3
AutoCAD 2000
 90
        0
280
     0
281
     0
  0
CLASS
  1
LONG_TRANSACTION
  2
AcDbLongTransaction
  3
AutoCAD 2000
 90
        0
280
     0
281
     0
  0
CLASS
  1
LWPOLYLINE
  2
AcDbPolyline
  3
AutoCAD 2000
 90
        0
280
     0
281
     1
  0
CLASS
  1
HATCH
  2
AcDbHatch
  3
AutoCAD 2000
 90
        0
280
     0
281
     1
  0
CLASS
  1
XRECORD
  2
AcDbXrecord
  3
AutoCAD 2000
 90
        0
280
     0
281
     0
  0
CLASS
  1
PLOTSETTINGS
  2
AcDbPlotSettings
  3
AutoCAD 2000
 90
        0
280
     0
281
     0
  0
CLASS
  1
ACME_DOCUMENT
  2
AcMeDbDoc
  3
AcMeServices
 90
        0
280
     0
281
     0
  0
CLASS
  1
AMGSETTINGSOBJ
  2
AmgSettingsObj
  3
"AcadM|Product Description: AutoCAD Mechanical 2000|Company: Autodesk"
 90
        0
280
     0
281
     0
  0
CLASS
  1
ACMESCOPE
  2
AcMeScope
  3
AcMeServices
 90
        0
280
     0
281
     0
  0
CLASS
  1
ACMECOMMANDHISTORY
  2
AcMeCommandHistory
  3
AcMeServices
 90
        0
280
     0
281
     0
  0
CLASS
  1
DICTIONARYVAR
  2
AcDbDictionaryVar
  3
AutoCAD 2000
 90
        0
280
     0
281
     0
  0
CLASS
  1
ACIMSYSVARMAN
  2
AcImSysVarManager
  3
AcMeServices
 90
        0
280
     0
281
     0
  0
CLASS
  1
ACIMREALSYSVAR
  2
AcImRealSysVar
  3
AcMeServices
 90
        0
280
     0
281
     0
  0
CLASS
  1
ACIMINTSYSVAR
  2
AcImIntSysVar
  3
AcMeServices
 90
        0
280
     0
281
     0
  0
CLASS
  1
ACMEDRAWINGMAN
  2
AcMeDrawingMan
  3
AcMeServices
 90
        0
280
     0
281
     0
  0
CLASS
  1
ACMEVIEW
  2
AcMeView
  3
AcMeServices
 90
        0
280
     0
281
     0
  0
CLASS
  1
ACDBENTITYCACHE
  2
AcMeEntityCache
  3
AcMeServices
 90
        0
280
     0
281
     0
  0
CLASS
  1
GSMANAGER
  2
AcMeGSManager
  3
AcMeServices
 90
        0
280
     0
281
     0
  0
CLASS
  1
AmdtInternalReactor
  2
AmdtInternalReactor
  3
AcMeServices
 90
        0
280
     0
281
     0
  0
CLASS
  1
ACMESTATEMGR
  2
AcMeStateMgr
  3
AcMeServices
 90
        0
280
     0
281
     0
  0
CLASS
  1
ACME_DATABASE
  2
AcMeDbDatabase
  3
AcMeServices
 90
        0
280
     0
281
     0
  0
CLASS
  1
ACRFINSADJUSTERMGR
  2
AcRfInsAdjusterMgr
  3
AcMeServices
 90
        0
280
     0
281
     0
  0
CLASS
  1
ACMDATADICTIONARY
  2
AcmDataDictionary
  3
"AcmSymBB|Product Description: AutoCAD Mechanical 2000|Company: Autodesk"
 90
        0
280
     0
281
     0
  0
CLASS
  1
ACMDATAENTRYBLOCK
  2
AcmDataEntryBlock
  3
"AcmSymBB|Product Description: AutoCAD Mechanical 2000|Company: Autodesk"
 90
        0
280
     0
281
     0
  0
CLASS
  1
AMGOBJPROPCFG
  2
AmgObjPropCfg
  3
"AmgLay|Product Description: AutoCAD Mechanical 2000|Company: Autodesk"
 90
        1
280
     0
281
     0
  0
CLASS
  1
ACAMGFILTERDAT
  2
AcAmgFilterDat
  3
"AcadM|Product Description: AutoCAD Mechanical 2000|Company: Autodesk"
 90
        0
280
     0
281
     0
  0
CLASS
  1
LAYER_INDEX
  2
AcDbLayerIndex
  3
AutoCAD 2000
 90
        0
280
     0
281
     0
  0
CLASS
  1
IDBUFFER
  2
AcDbIdBuffer
  3
AutoCAD 2000
 90
        0
280
     0
281
     0
  0
CLASS
  1
LONG_TRANSACTION
  2
AcDbLongTransaction
  3
AutoCAD 2000
 90
        0
280
     0
281
     0
  0
CLASS
  1
LWPOLYLINE
  2
AcDbPolyline
  3
AutoCAD 2000
 90
        0
280
     0
281
     1
  0
CLASS
  1
HATCH
  2
AcDbHatch
  3
AutoCAD 2000
 90
        0
280
     0
281
     1
  0
CLASS
  1
XRECORD
  2
AcDbXrecord
  3
AutoCAD 2000
 90
        0
280
     0
281
     0
  0
CLASS
  1
LONG_TRANSACTION
  2
AcDbLongTransaction
  3
AutoCAD 2000
 90
        0
280
     0
281
     0
  0
CLASS
  1
LWPOLYLINE
  2
AcDbPolyline
  3
AutoCAD 2000
 90
        0
280
     0
281
     1
  0
CLASS
  1
HATCH
  2
AcDbHatch
  3
AutoCAD 2000
 90
        0
280
     0
281
     1
  0
CLASS
  1
XRECORD
  2
AcDbXrecord
  3
AutoCAD 2000
 90
        0
280
     0
281
     0
  0
CLASS
  1
LONG_TRANSACTION
  2
AcDbLongTransaction
  3
AutoCAD 2000
 90
        0
280
     0
281
     0
  0
CLASS
  1
LWPOLYLINE
  2
AcDbPolyline
  3
AutoCAD 2000
 90
        0
280
     0
281
     1
  0
CLASS
  1
HATCH
  2
AcDbHatch
  3
AutoCAD 2000
 90
        0
280
     0
281
     1
  0
CLASS
  1
XRECORD
  2
AcDbXrecord
  3
AutoCAD 2000
 90
        0
280
     0
281
     0
  0
CLASS
  1
LONG_TRANSACTION
  2
AcDbLongTransaction
  3
AutoCAD 2000
 90
        0
280
     0
281
     0
  0
CLASS
  1
LWPOLYLINE
  2
AcDbPolyline
  3
AutoCAD 2000
 90
        0
280
     0
281
     1
  0
CLASS
  1
HATCH
  2
AcDbHatch
  3
AutoCAD 2000
 90
        0
280
     0
281
     1
  0
CLASS
  1
XRECORD
  2
AcDbXrecord
  3
AutoCAD 2000
 90
        0
280
     0
281
     0
  0
CLASS
  1
LONG_TRANSACTION
  2
AcDbLongTransaction
  3
AutoCAD 2000
 90
        0
280
     0
281
     0
  0
CLASS
  1
LWPOLYLINE
  2
AcDbPolyline
  3
AutoCAD 2000
 90
        0
280
     0
281
     1
  0
CLASS
  1
HATCH
  2
AcDbHatch
  3
AutoCAD 2000
 90
        0
280
     0
281
     1
  0
CLASS
  1
XRECORD
  2
AcDbXrecord
  3
AutoCAD 2000
 90
        0
280
     0
281
     0
  0
CLASS
  1
LONG_TRANSACTION
  2
AcDbLongTransaction
  3
AutoCAD 2000
 90
        0
280
     0
281
     0
  0
CLASS
  1
LWPOLYLINE
  2
AcDbPolyline
  3
AutoCAD 2000
 90
        0
280
     0
281
     1
  0
CLASS
  1
HATCH
  2
AcDbHatch
  3
AutoCAD 2000
 90
        0
280
     0
281
     1
  0
CLASS
  1
XRECORD
  2
AcDbXrecord
  3
AutoCAD 2000
 90
        0
280
     0
281
     0
  0
CLASS
  1
LONG_TRANSACTION
  2
AcDbLongTransaction
  3
AutoCAD 2000
 90
        0
280
     0
281
     0
  0
CLASS
  1
LWPOLYLINE
  2
AcDbPolyline
  3
AutoCAD 2000
 90
        0
280
     0
281
     1
  0
CLASS
  1
HATCH
  2
AcDbHatch
  3
AutoCAD 2000
 90
        0
280
     0
281
     1
  0
CLASS
  1
XRECORD
  2
AcDbXrecord
  3
AutoCAD 2000
 90
        0
280
     0
281
     0
  0
CLASS
  1
LONG_TRANSACTION
  2
AcDbLongTransaction
  3
AutoCAD 2000
 90
        0
280
     0
281
     0
  0
CLASS
  1
LWPOLYLINE
  2
AcDbPolyline
  3
AutoCAD 2000
 90
        0
280
     0
281
     1
  0
CLASS
  1
HATCH
  2
AcDbHatch
  3
AutoCAD 2000
 90
        0
280
     0
281
     1
  0
CLASS
  1
XRECORD
  2
AcDbXrecord
  3
AutoCAD 2000
 90
        0
280
     0
281
     0
  0
CLASS
  1
LONG_TRANSACTION
  2
AcDbLongTransaction
  3
AutoCAD 2000
 90
        0
280
     0
281
     0
  0
CLASS
  1
LWPOLYLINE
  2
AcDbPolyline
  3
AutoCAD 2000
 90
        0
280
     0
281
     1
  0
CLASS
  1
HATCH
  2
AcDbHatch
  3
AutoCAD 2000
 90
        0
280
     0
281
     1
  0
CLASS
  1
XRECORD
  2
AcDbXrecord
  3
AutoCAD 2000
 90
        0
280
     0
281
     0
  0
CLASS
  1
LONG_TRANSACTION
  2
AcDbLongTransaction
  3
AutoCAD 2000
 90
        0
280
     0
281
     0
  0
CLASS
  1
LWPOLYLINE
  2
AcDbPolyline
  3
AutoCAD 2000
 90
        0
280
     0
281
     1
  0
CLASS
  1
HATCH
  2
AcDbHatch
  3
AutoCAD 2000
 90
        0
280
     0
281
     1
  0
CLASS
  1
XRECORD
  2
AcDbXrecord
  3
AutoCAD 2000
 90
        0
280
     0
281
     0
  0
CLASS
  1
LONG_TRANSACTION
  2
AcDbLongTransaction
  3
AutoCAD 2000
 90
        0
280
     0
281
     0
  0
CLASS
  1
LWPOLYLINE
  2
AcDbPolyline
  3
AutoCAD 2000
 90
        0
280
     0
281
     1
  0
CLASS
  1
HATCH
  2
AcDbHatch
  3
AutoCAD 2000
 90
        0
280
     0
281
     1
  0
CLASS
  1
XRECORD
  2
AcDbXrecord
  3
AutoCAD 2000
 90
        0
280
     0
281
     0
  0
CLASS
  1
LONG_TRANSACTION
  2
AcDbLongTransaction
  3
AutoCAD 2000
 90
        0
280
     0
281
     0
  0
CLASS
  1
LWPOLYLINE
  2
AcDbPolyline
  3
AutoCAD 2000
 90
        0
280
     0
281
     1
  0
CLASS
  1
HATCH
  2
AcDbHatch
  3
AutoCAD 2000
 90
        0
280
     0
281
     1
  0
CLASS
  1
XRECORD
  2
AcDbXrecord
  3
AutoCAD 2000
 90
        0
280
     0
281
     0
  0
CLASS
  1
LONG_TRANSACTION
  2
AcDbLongTransaction
  3
AutoCAD 2000
 90
        0
280
     0
281
     0
  0
CLASS
  1
LWPOLYLINE
  2
AcDbPolyline
  3
AutoCAD 2000
 90
        0
280
     0
281
     1
  0
CLASS
  1
HATCH
  2
AcDbHatch
  3
AutoCAD 2000
 90
        0
280
     0
281
     1
  0
CLASS
  1
XRECORD
  2
AcDbXrecord
  3
AutoCAD 2000
 90
        0
280
     0
281
     0
  0
CLASS
  1
LONG_TRANSACTION
  2
AcDbLongTransaction
  3
AutoCAD 2000
 90
        0
280
     0
281
     0
  0
CLASS
  1
LWPOLYLINE
  2
AcDbPolyline
  3
AutoCAD 2000
 90
        0
280
     0
281
     1
  0
CLASS
  1
HATCH
  2
AcDbHatch
  3
AutoCAD 2000
 90
        0
280
     0
281
     1
  0
CLASS
  1
XRECORD
  2
AcDbXrecord
  3
AutoCAD 2000
 90
        0
280
     0
281
     0
  0
CLASS
  1
LONG_TRANSACTION
  2
AcDbLongTransaction
  3
AutoCAD 2000
 90
        0
280
     0
281
     0
  0
CLASS
  1
LWPOLYLINE
  2
AcDbPolyline
  3
AutoCAD 2000
 90
        0
280
     0
281
     1
  0
CLASS
  1
HATCH
  2
AcDbHatch
  3
AutoCAD 2000
 90
        0
280
     0
281
     1
  0
CLASS
  1
XRECORD
  2
AcDbXrecord
  3
AutoCAD 2000
 90
        0
280
     0
281
     0
  0
CLASS
  1
LONG_TRANSACTION
  2
AcDbLongTransaction
  3
AutoCAD 2000
 90
        0
280
     0
281
     0
  0
CLASS
  1
LWPOLYLINE
  2
AcDbPolyline
  3
AutoCAD 2000
 90
        0
280
     0
281
     1
  0
CLASS
  1
HATCH
  2
AcDbHatch
  3
AutoCAD 2000
 90
        0
280
     0
281
     1
  0
CLASS
  1
XRECORD
  2
AcDbXrecord
  3
AutoCAD 2000
 90
        0
280
     0
281
     0
  0
CLASS
  1
LONG_TRANSACTION
  2
AcDbLongTransaction
  3
AutoCAD 2000
 90
        0
280
     0
281
     0
  0
CLASS
  1
LWPOLYLINE
  2
AcDbPolyline
  3
AutoCAD 2000
 90
        0
280
     0
281
     1
  0
CLASS
  1
HATCH
  2
AcDbHatch
  3
AutoCAD 2000
 90
        0
280
     0
281
     1
  0
CLASS
  1
XRECORD
  2
AcDbXrecord
  3
AutoCAD 2000
 90
        0
280
     0
281
     0
  0
CLASS
  1
LONG_TRANSACTION
  2
AcDbLongTransaction
  3
AutoCAD 2000
 90
        0
280
     0
281
     0
  0
CLASS
  1
LWPOLYLINE
  2
AcDbPolyline
  3
AutoCAD 2000
 90
        0
280
     0
281
     1
  0
CLASS
  1
HATCH
  2
AcDbHatch
  3
AutoCAD 2000
 90
        0
280
     0
281
     1
  0
CLASS
  1
XRECORD
  2
AcDbXrecord
  3
AutoCAD 2000
 90
        0
280
     0
281
     0
  0
CLASS
  1
LONG_TRANSACTION
  2
AcDbLongTransaction
  3
AutoCAD 2000
 90
        0
280
     0
281
     0
  0
CLASS
  1
LWPOLYLINE
  2
AcDbPolyline
  3
AutoCAD 2000
 90
        0
280
     0
281
     1
  0
CLASS
  1
HATCH
  2
AcDbHatch
  3
AutoCAD 2000
 90
        0
280
     0
281
     1
  0
CLASS
  1
XRECORD
  2
AcDbXrecord
  3
AutoCAD 2000
 90
        0
280
     0
281
     0
  0
CLASS
  1
LONG_TRANSACTION
  2
AcDbLongTransaction
  3
AutoCAD 2000
 90
        0
280
     0
281
     0
  0
CLASS
  1
LWPOLYLINE
  2
AcDbPolyline
  3
AutoCAD 2000
 90
        0
280
     0
281
     1
  0
CLASS
  1
HATCH
  2
AcDbHatch
  3
AutoCAD 2000
 90
        0
280
     0
281
     1
  0
CLASS
  1
XRECORD
  2
AcDbXrecord
  3
AutoCAD 2000
 90
        0
280
     0
281
     0
  0
CLASS
  1
LONG_TRANSACTION
  2
AcDbLongTransaction
  3
AutoCAD 2000
 90
        0
280
     0
281
     0
  0
CLASS
  1
LWPOLYLINE
  2
AcDbPolyline
  3
AutoCAD 2000
 90
        0
280
     0
281
     1
  0
CLASS
  1
HATCH
  2
AcDbHatch
  3
AutoCAD 2000
 90
        0
280
     0
281
     1
  0
CLASS
  1
XRECORD
  2
AcDbXrecord
  3
AutoCAD 2000
 90
        0
280
     0
281
     0
  0
CLASS
  1
LONG_TRANSACTION
  2
AcDbLongTransaction
  3
AutoCAD 2000
 90
        0
280
     0
281
     0
  0
CLASS
  1
LWPOLYLINE
  2
AcDbPolyline
  3
AutoCAD 2000
 90
        0
280
     0
281
     1
  0
CLASS
  1
HATCH
  2
AcDbHatch
  3
AutoCAD 2000
 90
        0
280
     0
281
     1
  0
CLASS
  1
XRECORD
  2
AcDbXrecord
  3
AutoCAD 2000
 90
        0
280
     0
281
     0
  0
CLASS
  1
LONG_TRANSACTION
  2
AcDbLongTransaction
  3
AutoCAD 2000
 90
        0
280
     0
281
     0
  0
CLASS
  1
LWPOLYLINE
  2
AcDbPolyline
  3
AutoCAD 2000
 90
        0
280
     0
281
     1
  0
CLASS
  1
HATCH
  2
AcDbHatch
  3
AutoCAD 2000
 90
        0
280
     0
281
     1
  0
CLASS
  1
XRECORD
  2
AcDbXrecord
  3
AutoCAD 2000
 90
        0
280
     0
281
     0
  0
ENDSEC
  0
SECTION
  2
TABLES
  0
TABLE
  2
VPORT
  5
8
330
0
100
AcDbSymbolTable
 70
     2
  0
VPORT
  5
A0DD
330
8
100
AcDbSymbolTableRecord
100
AcDbViewportTableRecord
  2
*ACTIVE
 70
     0
 10
0.0
 20
0.0
 11
1.0
 21
1.0
 12
65.57623062453192
 22
47.35380435849458
 13
0.0
 23
0.0
 14
0.5
 24
0.5
 15
0.5
 25
0.5
 16
0.0
 26
0.0
 36
1.0
 17
0.0
 27
0.0
 37
0.0
 40
95.48116166121308
 41
1.55078125
 42
50.0
 43
0.0
 44
0.0
 50
0.0
 51
0.0
 71
     0
 72
   100
 73
     1
 74
     2
 75
     0
 76
     0
 77
     0
 78
     0
  0
ENDTAB
  0
TABLE
  2
LTYPE
  5
5
330
0
100
AcDbSymbolTable
 70
     6
  0
LTYPE
  5
14
330
5
100
AcDbSymbolTableRecord
100
AcDbLinetypeTableRecord
  2
BYBLOCK
 70
     0
  3

 72
    65
 73
     0
 40
0.0
  0
LTYPE
  5
15
330
5
100
AcDbSymbolTableRecord
100
AcDbLinetypeTableRecord
  2
BYLAYER
 70
     0
  3

 72
    65
 73
     0
 40
0.0
  0
LTYPE
  5
16
330
5
100
AcDbSymbolTableRecord
100
AcDbLinetypeTableRecord
  2
CONTINUOUS
 70
     0
  3
Solid line
 72
    65
 73
     0
 40
0.0
  0
LTYPE
  5
3D
330
5
100
AcDbSymbolTableRecord
100
AcDbLinetypeTableRecord
  2
CENTER2
 70
     0
  3
Center (.5x) ___ _ ___ _ ___ _ ___ _ ___ _ ___
 72
    65
 73
     4
 40
1.125
 49
0.75
 74
     0
 49
-0.125
 74
     0
 49
0.125
 74
     0
 49
-0.125
 74
     0
  0
LTYPE
  5
3E
330
5
100
AcDbSymbolTableRecord
100
AcDbLinetypeTableRecord
  2
DASHDOT2
 70
     0
  3
Dash dot (.5x) _._._._._._._._._._._._._._._.
 72
    65
 73
     4
 40
0.5
 49
0.25
 74
     0
 49
-0.125
 74
     0
 49
0.0
 74
     0
 49
-0.125
 74
     0
  0
LTYPE
  5
3F
330
5
100
AcDbSymbolTableRecord
100
AcDbLinetypeTableRecord
  2
DASHED2
 70
     0
  3
Dashed (.5x) _ _ _ _ _ _ _ _ _ _ _ _ _ _ _ _ _
 72
    65
 73
     2
 40
0.375
 49
0.25
 74
     0
 49
-0.125
 74
     0
  0
LTYPE
  5
40
330
5
100
AcDbSymbolTableRecord
100
AcDbLinetypeTableRecord
  2
HIDDEN2
 70
     0
  3
Hidden (.5x) _ _ _ _ _ _ _ _ _ _ _ _ _ _ _ _ _
 72
    65
 73
     2
 40
0.1875
 49
0.125
 74
     0
 49
-0.0625
 74
     0
  0
LTYPE
  5
41
330
5
100
AcDbSymbolTableRecord
100
AcDbLinetypeTableRecord
  2
PHANTOM2
 70
     0
  3
Phantom (.5x) ___ _ _ ___ _ _ ___ _ _ ___ _ _
 72
    65
 73
     6
 40
1.25
 49
0.625
 74
     0
 49
-0.125
 74
     0
 49
0.125
 74
     0
 49
-0.125
 74
     0
 49
0.125
 74
     0
 49
-0.125
 74
     0
  0
ENDTAB
  0
TABLE
  2
LAYER
  5
2
330
0
100
AcDbSymbolTable
 70
    26
  0
LAYER
  5
10
330
2
100
AcDbSymbolTableRecord
100
AcDbLayerTableRecord
  2
0
 70
     0
 62
     7
  6
CONTINUOUS
  0
LAYER
  5
42
330
2
100
AcDbSymbolTableRecord
100
AcDbLayerTableRecord
  2
BLOCKS
 70
     0
 62
     7
  6
CONTINUOUS
  0
LAYER
  5
43
330
2
100
AcDbSymbolTableRecord
100
AcDbLayerTableRecord
  2
CENTER1
 70
     0
 62
     2
  6
CENTER2
  0
LAYER
  5
44
330
2
100
AcDbSymbolTableRecord
100
AcDbLayerTableRecord
  2
CENTER2
 70
     0
 62
    50
  6
CENTER2
  0
LAYER
  5
45
330
2
100
AcDbSymbolTableRecord
100
AcDbLayerTableRecord
  2
CENTER3
 70
     0
 62
    51
  6
CENTER2
  0
LAYER
  5
46
330
2
100
AcDbSymbolTableRecord
100
AcDbLayerTableRecord
  2
CONSTRUCTION
 70
     0
 62
   241
  6
DASHED2
  0
LAYER
  5
47
330
2
100
AcDbSymbolTableRecord
100
AcDbLayerTableRecord
  2
CONTINUOUS1
 70
     0
 62
     7
  6
CONTINUOUS
  0
LAYER
  5
48
330
2
100
AcDbSymbolTableRecord
100
AcDbLayerTableRecord
  2
CONTINUOUS2
 70
     0
 62
   254
  6
CONTINUOUS
  0
LAYER
  5
49
330
2
100
AcDbSymbolTableRecord
100
AcDbLayerTableRecord
  2
CONTINUOUS3
 70
     0
 62
   253
  6
CONTINUOUS
  0
LAYER
  5
4A
330
2
100
AcDbSymbolTableRecord
100
AcDbLayerTableRecord
  2
DASHDOT1
 70
     0
 62
     1
  6
DASHDOT2
  0
LAYER
  5
4B
330
2
100
AcDbSymbolTableRecord
100
AcDbLayerTableRecord
  2
DASHDOT2
 70
     0
 62
    10
  6
DASHDOT2
  0
LAYER
  5
4C
330
2
100
AcDbSymbolTableRecord
100
AcDbLayerTableRecord
  2
DASHDOT3
 70
     0
 62
    12
  6
DASHDOT2
  0
LAYER
  5
4D
330
2
100
AcDbSymbolTableRecord
100
AcDbLayerTableRecord
  2
DIM
 70
     0
 62
     2
  6
CONTINUOUS
  0
LAYER
  5
4E
330
2
100
AcDbSymbolTableRecord
100
AcDbLayerTableRecord
  2
HIDDEN1
 70
     0
 62
     5
  6
HIDDEN2
  0
LAYER
  5
4F
330
2
100
AcDbSymbolTableRecord
100
AcDbLayerTableRecord
  2
HIDDEN2
 70
     0
 62
   160
  6
HIDDEN2
  0
LAYER
  5
50
330
2
100
AcDbSymbolTableRecord
100
AcDbLayerTableRecord
  2
HIDDEN3
 70
     0
 62
   162
  6
HIDDEN2
  0
LAYER
  5
52
330
2
100
AcDbSymbolTableRecord
100
AcDbLayerTableRecord
  2
PHANTOM1
 70
     0
 62
     6
  6
PHANTOM2
  0
LAYER
  5
53
330
2
100
AcDbSymbolTableRecord
100
AcDbLayerTableRecord
  2
PHANTOM2
 70
     0
 62
   210
  6
PHANTOM2
  0
LAYER
  5
54
330
2
100
AcDbSymbolTableRecord
100
AcDbLayerTableRecord
  2
PHANTOM3
 70
     0
 62
   212
  6
PHANTOM2
  0
LAYER
  5
55
330
2
100
AcDbSymbolTableRecord
100
AcDbLayerTableRecord
  2
TEXT1
 70
     0
 62
     3
  6
CONTINUOUS
  0
LAYER
  5
56
330
2
100
AcDbSymbolTableRecord
100
AcDbLayerTableRecord
  2
TEXT2
 70
     0
 62
    80
  6
CONTINUOUS
  0
LAYER
  5
57
330
2
100
AcDbSymbolTableRecord
100
AcDbLayerTableRecord
  2
TEXT3
 70
     0
 62
    82
  6
CONTINUOUS
  0
LAYER
  5
58
330
2
100
AcDbSymbolTableRecord
100
AcDbLayerTableRecord
  2
TITLEBLOCK
 70
     0
 62
     9
  6
CONTINUOUS
  0
LAYER
  5
59
330
2
100
AcDbSymbolTableRecord
100
AcDbLayerTableRecord
  2
VIEWPORT
 70
     0
 62
     9
  6
CONTINUOUS
  0
LAYER
  5
8B3F
330
2
100
AcDbSymbolTableRecord
100
AcDbLayerTableRecord
  2
MOUNTING
 70
     0
 62
     7
  6
CONTINUOUS
  0
LAYER
  5
8B42
330
2
100
AcDbSymbolTableRecord
100
AcDbLayerTableRecord
  2
DEFPOINTS
 70
     0
 62
     4
  6
CONTINUOUS
  0
ENDTAB
  0
TABLE
  2
STYLE
  5
3
330
0
100
AcDbSymbolTable
 70
     4
  0
STYLE
  5
11
330
3
100
AcDbSymbolTableRecord
100
AcDbTextStyleTableRecord
  2
STANDARD
 70
     0
 40
0.0
 41
1.0
 50
0.0
 71
     0
 42
0.2
  3
txt
  4

  0
STYLE
  5
36
330
3
100
AcDbSymbolTableRecord
100
AcDbTextStyleTableRecord
  2
ROMANS
 70
     0
 40
0.0
 41
1.0
 50
0.0
 71
     0
 42
0.2
  3
romans.shx
  4

  0
STYLE
  5
6CC
330
3
100
AcDbSymbolTableRecord
100
AcDbTextStyleTableRecord
  2
M_STANDARD
 70
     0
 40
0.0
 41
0.8
 50
0.0
 71
     0
 42
0.0
  3
MEDUSA.SHX
  4

  0
STYLE
  5
D51
330
3
100
AcDbSymbolTableRecord
100
AcDbTextStyleTableRecord
  2
SIMPLEX
 70
     0
 40
0.0
 41
1.0
 50
0.0
 71
     0
 42
0.25
  3
SIMPLEX.shx
  4

  0
ENDTAB
  0
TABLE
  2
VIEW
  5
6
330
0
100
AcDbSymbolTable
 70
     0
  0
ENDTAB
  0
TABLE
  2
UCS
  5
7
330
0
100
AcDbSymbolTable
 70
     0
  0
ENDTAB
  0
TABLE
  2
APPID
  5
9
330
0
100
AcDbSymbolTable
 70
    11
  0
APPID
  5
12
330
9
100
AcDbSymbolTableRecord
100
AcDbRegAppTableRecord
  2
ACAD
 70
     0
  0
APPID
  5
6B
330
9
100
AcDbSymbolTableRecord
100
AcDbRegAppTableRecord
  2
DCO15
 70
     0
  0
APPID
  5
370
330
9
100
AcDbSymbolTableRecord
100
AcDbRegAppTableRecord
  2
MCAD_NO_VIS
 70
     0
  0
APPID
  5
371
330
9
100
AcDbSymbolTableRecord
100
AcDbRegAppTableRecord
  2
ACAD_TEMP_GRAPHIC
 70
     0
  0
APPID
  5
387
330
9
100
AcDbSymbolTableRecord
100
AcDbRegAppTableRecord
  2
GENIUS_GENSCREG_15
 70
     0
  0
APPID
  5
389
330
9
100
AcDbSymbolTableRecord
100
AcDbRegAppTableRecord
  2
GENIUS_GENODEF_13
 70
     0
  0
APPID
  5
38A
330
9
100
AcDbSymbolTableRecord
100
AcDbRegAppTableRecord
  2
GENIUS_GENOBJ-N-SDF_13
 70
     0
  0
APPID
  5
38B
330
9
100
AcDbSymbolTableRecord
100
AcDbRegAppTableRecord
  2
GENIUS_GENOENT_13
 70
     0
  0
APPID
  5
38C
330
9
100
AcDbSymbolTableRecord
100
AcDbRegAppTableRecord
  2
GENIUS_GENOREF_13
 70
     0
  0
APPID
  5
38D
330
9
100
AcDbSymbolTableRecord
100
AcDbRegAppTableRecord
  2
GENIUS_GENOLIS_13
 70
     0
  0
APPID
  5
6CE
330
9
100
AcDbSymbolTableRecord
100
AcDbRegAppTableRecord
  2
MED_PRIMTYPE
 70
     0
  0
ENDTAB
  0
TABLE
  2
DIMSTYLE
  5
A
330
0
100
AcDbSymbolTable
 70
     1
  0
DIMSTYLE
105
9A27
102
{ACAD_REACTORS
330
8FDB
330
8ED4
330
8ED3
330
8ED2
330
8ED1
330
8ED0
330
8ECF
330
8ECE
330
8ECD
330
8ECC
330
8ECB
330
8EC9
330
8EC8
330
8EC7
330
8EC6
330
8EC5
330
8EC4
330
8EC3
330
8EC2
330
8EC1
330
8EC0
330
8EBF
330
8EBE
330
8EBD
330
8EBC
330
8EBB
330
8EBA
330
9EEC
102
}
330
A
100
AcDbSymbolTableRecord
100
AcDbDimStyleTableRecord
  2
SCHNEIDERELECTRIC
 70
     0
  3
\X
  4

  5
SEARROW
  6

  7

 40
0.0
 41
0.07
 42
0.0625
 43
0.38
 44
0.0625
 45
0.001
 46
0.0
 47
0.0
 48
0.0
140
0.1
141
0.09
142
0.0
143
25.4
144
1.0
145
0.0
146
1.0
147
0.04
 71
     0
 72
     0
 73
     1
 74
     1
 75
     0
 76
     0
 77
     0
 78
     4
170
     1
171
     0
172
     0
173
     0
174
     0
175
     0
176
   256
177
   256
178
   256
270
     2
271
     2
272
     2
273
     2
274
     0
340
36
275
     0
280
     0
281
     0
282
     0
283
     1
284
     0
285
     0
286
     0
287
     3
288
     0
  0
ENDTAB
  0
TABLE
  2
BLOCK_RECORD
  5
1
330
0
100
AcDbSymbolTable
 70
    34
  0
BLOCK_RECORD
  5
1F
102
{ACAD_XDICTIONARY
360
73
102
}
330
1
100
AcDbSymbolTableRecord
100
AcDbBlockTableRecord
  2
*MODEL_SPACE
  0
BLOCK_RECORD
  5
1B
102
{ACAD_XDICTIONARY
360
75
102
}
330
1
100
AcDbSymbolTableRecord
100
AcDbBlockTableRecord
  2
*PAPER_SPACE
  0
BLOCK_RECORD
  5
783
330
1
100
AcDbSymbolTableRecord
100
AcDbBlockTableRecord
  2
NEWLAYERS
1001
ACAD
1000
DesignCenter Data
1002
{
1070
     1
1070
     1
1002
}
  0
BLOCK_RECORD
  5
841
330
1
100
AcDbSymbolTableRecord
100
AcDbBlockTableRecord
  2
LOGO-PAD
1001
ACAD
1000
DesignCenter Data
1002
{
1070
     1
1070
     1
1002
}
  0
BLOCK_RECORD
  5
AE5
330
1
100
AcDbSymbolTableRecord
100
AcDbBlockTableRecord
  2
TITLE-PAD
1001
ACAD
1000
DesignCenter Data
1002
{
1070
     1
1070
     1
1002
}
  0
BLOCK_RECORD
  5
D52
330
1
100
AcDbSymbolTableRecord
100
AcDbBlockTableRecord
  2
OEM-NOTES
1001
ACAD
1000
DesignCenter Data
1002
{
1070
     1
1070
     1
1002
}
  0
BLOCK_RECORD
  5
896D
330
1
100
AcDbSymbolTableRecord
100
AcDbBlockTableRecord
  2
REF2
  0
BLOCK_RECORD
  5
8FFE
330
1
100
AcDbSymbolTableRecord
100
AcDbBlockTableRecord
  2
*D5
  0
BLOCK_RECORD
  5
900B
330
1
100
AcDbSymbolTableRecord
100
AcDbBlockTableRecord
  2
*D6
  0
BLOCK_RECORD
  5
9018
330
1
100
AcDbSymbolTableRecord
100
AcDbBlockTableRecord
  2
*D7
  0
BLOCK_RECORD
  5
9025
330
1
100
AcDbSymbolTableRecord
100
AcDbBlockTableRecord
  2
*D8
  0
BLOCK_RECORD
  5
9032
330
1
100
AcDbSymbolTableRecord
100
AcDbBlockTableRecord
  2
*D9
  0
BLOCK_RECORD
  5
903F
330
1
100
AcDbSymbolTableRecord
100
AcDbBlockTableRecord
  2
*D10
  0
BLOCK_RECORD
  5
904C
330
1
100
AcDbSymbolTableRecord
100
AcDbBlockTableRecord
  2
*D11
  0
BLOCK_RECORD
  5
9059
330
1
100
AcDbSymbolTableRecord
100
AcDbBlockTableRecord
  2
*D12
  0
BLOCK_RECORD
  5
9066
330
1
100
AcDbSymbolTableRecord
100
AcDbBlockTableRecord
  2
*D13
  0
BLOCK_RECORD
  5
9073
330
1
100
AcDbSymbolTableRecord
100
AcDbBlockTableRecord
  2
*D14
  0
BLOCK_RECORD
  5
9080
330
1
100
AcDbSymbolTableRecord
100
AcDbBlockTableRecord
  2
*D15
  0
BLOCK_RECORD
  5
908D
330
1
100
AcDbSymbolTableRecord
100
AcDbBlockTableRecord
  2
*D16
  0
BLOCK_RECORD
  5
909A
330
1
100
AcDbSymbolTableRecord
100
AcDbBlockTableRecord
  2
*D17
  0
BLOCK_RECORD
  5
90A7
330
1
100
AcDbSymbolTableRecord
100
AcDbBlockTableRecord
  2
*D18
  0
BLOCK_RECORD
  5
90B4
330
1
100
AcDbSymbolTableRecord
100
AcDbBlockTableRecord
  2
*D19
  0
BLOCK_RECORD
  5
90C1
330
1
100
AcDbSymbolTableRecord
100
AcDbBlockTableRecord
  2
*D20
  0
BLOCK_RECORD
  5
90D8
330
1
100
AcDbSymbolTableRecord
100
AcDbBlockTableRecord
  2
*D21
  0
BLOCK_RECORD
  5
90E5
330
1
100
AcDbSymbolTableRecord
100
AcDbBlockTableRecord
  2
*D22
  0
BLOCK_RECORD
  5
90F2
330
1
100
AcDbSymbolTableRecord
100
AcDbBlockTableRecord
  2
*D23
  0
BLOCK_RECORD
  5
90FF
330
1
100
AcDbSymbolTableRecord
100
AcDbBlockTableRecord
  2
*D24
  0
BLOCK_RECORD
  5
910C
330
1
100
AcDbSymbolTableRecord
100
AcDbBlockTableRecord
  2
*D25
  0
BLOCK_RECORD
  5
9119
330
1
100
AcDbSymbolTableRecord
100
AcDbBlockTableRecord
  2
*D26
  0
BLOCK_RECORD
  5
9126
330
1
100
AcDbSymbolTableRecord
100
AcDbBlockTableRecord
  2
*D27
  0
BLOCK_RECORD
  5
9133
330
1
100
AcDbSymbolTableRecord
100
AcDbBlockTableRecord
  2
*D28
  0
BLOCK_RECORD
  5
9140
330
1
100
AcDbSymbolTableRecord
100
AcDbBlockTableRecord
  2
*D29
  0
BLOCK_RECORD
  5
914D
330
1
100
AcDbSymbolTableRecord
100
AcDbBlockTableRecord
  2
*D30
  0
BLOCK_RECORD
  5
915A
330
1
100
AcDbSymbolTableRecord
100
AcDbBlockTableRecord
  2
*D31
  0
BLOCK_RECORD
  5
9A22
330
1
100
AcDbSymbolTableRecord
100
AcDbBlockTableRecord
  2
SEARROW
1001
ACAD
1000
DesignCenter Data
1002
{
1070
     1
1070
     1
1002
}
  0
BLOCK_RECORD
  5
9EED
330
1
100
AcDbSymbolTableRecord
100
AcDbBlockTableRecord
  2
*D33
  0
ENDTAB
  0
ENDSEC
  0
SECTION
  2
BLOCKS
  0
BLOCK
  5
20
330
1F
100
AcDbEntity
  8
0
100
AcDbBlockBegin
  2
*MODEL_SPACE
 70
     0
 10
0.0
 20
0.0
 30
0.0
  3
*MODEL_SPACE
  1

  0
ENDBLK
  5
21
330
1F
100
AcDbEntity
  8
0
100
AcDbBlockEnd
  0
BLOCK
  5
1C
330
1B
100
AcDbEntity
 67
     1
  8
0
100
AcDbBlockBegin
  2
*PAPER_SPACE
 70
     0
 10
0.0
 20
0.0
 30
0.0
  3
*PAPER_SPACE
  1

  0
ENDBLK
  5
1D
330
1B
100
AcDbEntity
 67
     1
  8
0
100
AcDbBlockEnd
  0
BLOCK
  5
79C
330
783
100
AcDbEntity
  8
0
100
AcDbBlockBegin
  2
NEWLAYERS
 70
     0
 10
0.0
 20
0.0
 30
0.0
  3
NEWLAYERS
  1

  0
LINE
  5
784
330
783
100
AcDbEntity
  8
PHANTOM1
100
AcDbLine
 10
0.264152010466205
 20
0.3394492053544127
 30
0.0
 11
0.264152010466205
 21
0.1923545555598593
 31
0.0
  0
LINE
  5
785
330
783
100
AcDbEntity
  8
PHANTOM2
100
AcDbLine
 10
0.3018880119612959
 20
0.3394492053544127
 30
0.0
 11
0.3018880119612959
 21
0.1923545555598593
 31
0.0
  0
LINE
  5
786
330
783
100
AcDbEntity
  8
PHANTOM3
100
AcDbLine
 10
0.3396240134565005
 20
0.3394492053544127
 30
0.0
 11
0.3396240134565005
 21
0.1923545555598593
 31
0.0
  0
LINE
  5
787
330
783
100
AcDbEntity
  8
DASHDOT2
100
AcDbLine
 10
0.0
 20
0.3394492053544127
 30
0.0
 11
0.0
 21
0.1923545555598593
 31
0.0
  0
LINE
  5
788
330
783
100
AcDbEntity
  8
DASHDOT3
100
AcDbLine
 10
0.0377360014952046
 20
0.3394492053544127
 30
0.0
 11
0.0377360014952046
 21
0.1923545555598593
 31
0.0
  0
LINE
  5
789
330
783
100
AcDbEntity
  8
DIM
100
AcDbLine
 10
0.0754720029902956
 20
0.3394492053544127
 30
0.0
 11
0.0754720029902956
 21
0.1923545555598593
 31
0.0
  0
LINE
  5
78A
330
783
100
AcDbEntity
  8
HIDDEN1
100
AcDbLine
 10
0.1132080044855002
 20
0.3394492053544127
 30
0.0
 11
0.1132080044855002
 21
0.1923545555598593
 31
0.0
  0
LINE
  5
78B
330
783
100
AcDbEntity
  8
HIDDEN2
100
AcDbLine
 10
0.1509440059807048
 20
0.3394492053544127
 30
0.0
 11
0.1509440059807048
 21
0.1923545555598593
 31
0.0
  0
LINE
  5
78C
330
783
100
AcDbEntity
  8
HIDDEN3
100
AcDbLine
 10
0.1886800074757957
 20
0.3394492053544127
 30
0.0
 11
0.1886800074757957
 21
0.1923545555598593
 31
0.0
  0
LINE
  5
78D
330
783
100
AcDbEntity
  8
TEXT1
100
AcDbLine
 10
0.0
 20
0.1470946497945533
 30
0.0
 11
0.0
 21
0.0
 31
0.0
  0
LINE
  5
78E
330
783
100
AcDbEntity
  8
TEXT2
100
AcDbLine
 10
0.0377360014952046
 20
0.1470946497945533
 30
0.0
 11
0.0377360014952046
 21
0.0
 31
0.0
  0
LINE
  5
78F
330
783
100
AcDbEntity
  8
TEXT3
100
AcDbLine
 10
0.0754720029902956
 20
0.1470946497945533
 30
0.0
 11
0.0754720029902956
 21
0.0
 31
0.0
  0
LINE
  5
790
330
783
100
AcDbEntity
  8
TITLEBLOCK
100
AcDbLine
 10
0.1132080044855002
 20
0.1470946497945533
 30
0.0
 11
0.1132080044855002
 21
0.0
 31
0.0
  0
LINE
  5
791
330
783
100
AcDbEntity
  8
VIEWPORT
100
AcDbLine
 10
0.1509440059807048
 20
0.1470946497945533
 30
0.0
 11
0.1509440059807048
 21
0.0
 31
0.0
  0
LINE
  5
792
330
783
100
AcDbEntity
  8
BLOCKS
100
AcDbLine
 10
0.0377360014952046
 20
0.5318037609142721
 30
0.0
 11
0.0377360014952046
 21
0.3847091111197187
 31
0.0
  0
LINE
  5
793
330
783
100
AcDbEntity
  8
0
100
AcDbLine
 10
0.0
 20
0.5318037609142721
 30
0.0
 11
0.0
 21
0.3847091111197187
 31
0.0
  0
LINE
  5
794
330
783
100
AcDbEntity
  8
CENTER1
100
AcDbLine
 10
0.0754720029902956
 20
0.5318037609142721
 30
0.0
 11
0.0754720029902956
 21
0.3847091111197187
 31
0.0
  0
LINE
  5
795
330
783
100
AcDbEntity
  8
CENTER2
100
AcDbLine
 10
0.1132080044855002
 20
0.5318037609142721
 30
0.0
 11
0.1132080044855002
 21
0.3847091111197187
 31
0.0
  0
LINE
  5
796
330
783
100
AcDbEntity
  8
CENTER3
100
AcDbLine
 10
0.1509440059807048
 20
0.5318037609142721
 30
0.0
 11
0.1509440059807048
 21
0.3847091111197187
 31
0.0
  0
LINE
  5
797
330
783
100
AcDbEntity
  8
CONSTRUCTION
100
AcDbLine
 10
0.1886800074757957
 20
0.5318037609142721
 30
0.0
 11
0.1886800074757957
 21
0.3847091111197187
 31
0.0
  0
LINE
  5
798
330
783
100
AcDbEntity
  8
CONTINUOUS1
100
AcDbLine
 10
0.2264160089710003
 20
0.5318037609142721
 30
0.0
 11
0.2264160089710003
 21
0.3847091111197187
 31
0.0
  0
LINE
  5
799
330
783
100
AcDbEntity
  8
CONTINUOUS2
100
AcDbLine
 10
0.264152010466205
 20
0.5318037609142721
 30
0.0
 11
0.264152010466205
 21
0.3847091111197187
 31
0.0
  0
LINE
  5
79A
330
783
100
AcDbEntity
  8
CONTINUOUS3
100
AcDbLine
 10
0.3018880119612959
 20
0.5318037609142721
 30
0.0
 11
0.3018880119612959
 21
0.3847091111197187
 31
0.0
  0
LINE
  5
79B
330
783
100
AcDbEntity
  8
DASHDOT1
100
AcDbLine
 10
0.3396240134565005
 20
0.5318037609142721
 30
0.0
 11
0.3396240134565005
 21
0.3847091111197187
 31
0.0
  0
ENDBLK
  5
79D
330
783
100
AcDbEntity
  8
0
100
AcDbBlockEnd
  0
BLOCK
  5
852
330
841
100
AcDbEntity
  8
0
100
AcDbBlockBegin
  2
LOGO-PAD
 70
     0
 10
0.0
 20
0.0
 30
0.0
  3
LOGO-PAD
  1

  0
HATCH
  5
842
330
841
100
AcDbEntity
  8
TITLEBLOCK
 62
     0
100
AcDbHatch
 10
0.0
 20
0.0
 30
0.0
210
0.0
220
0.0
230
1.0
  2
SOLID
 70
     1
 71
     0
 91
        2
 92
        1
 93
       11
 72
     2
 10
1.203771209334867
 20
0.3650136751459491
 40
0.021562648149145
 50
90.00000747299615
 51
179.9997683268519
 73
     1
 72
     1
 10
1.182208561185898
 20
0.3650137623336376
 11
1.182208392435807
 21
0.2795138227272444
 72
     2
 10
1.203771079023129
 20
0.2795136821032751
 40
0.0215626865877801
 50
179.9996263378447
 51
269.9998903896797
 73
     1
 72
     1
 10
1.203771037772394
 20
0.2579509955155343
 11
1.330521045577125
 21
0.2579511736405264
 72
     2
 10
1.330521265257171
 20
0.2795136382789064
 40
0.021562464639499
 50
269.9994162661957
 51
311.7040125634689
 73
     1
 72
     1
 10
1.344866398698837
 20
0.2634152834601535
 11
1.352083334663557
 21
0.2579511736405264
 72
     1
 10
1.352083334663557
 20
0.2579511736405264
 11
1.365099386916806
 21
0.2751416404960081
 72
     1
 10
1.365099386916806
 20
0.2751416404960081
 11
1.352083522163621
 21
0.284997066934386
 72
     1
 10
1.352083522163621
 20
0.284997066934386
 11
1.352083690913712
 21
0.3650136723335662
 72
     2
 10
1.330521042764654
 20
0.3650136751460369
 40
0.0215626481490576
 50
359.9999925267666
 51
449.9999925267678
 73
     1
 72
     1
 10
1.330521045577125
 20
0.3865763232950938
 11
1.203771206522485
 21
0.3865763232950938
 97
        0
 92
       16
 93
       10
 72
     2
 10
1.21455271481628
 20
0.3542325202904111
 40
0.0107811520434708
 50
90.00043844291294
 51
179.9999701074038
 73
     1
 72
     1
 10
1.203771562772811
 20
0.3542325259151993
 11
1.203771562772811
 21
0.2902950591455122
 72
     2
 10
1.214552849813946
 20
0.2902948416431456
 40
0.0107812870433294
 50
179.9988441113203
 51
269.9988441346395
 73
     1
 72
     1
 10
1.214552632315967
 20
0.2795135546020104
 11
1.323606134809704
 21
0.2795135546020104
 72
     1
 10
1.323606134809704
 20
0.2795135546020104
 11
1.280867956889135
 21
0.311873265117333
 72
     1
 10
1.280867956889135
 20
0.311873265117333
 11
1.293884009142384
 21
0.3290635557226322
 72
     1
 10
1.293884009142384
 20
0.3290635557226322
 11
1.330521045577125
 21
0.3013240413506308
 72
     1
 10
1.330521045577125
 20
0.3013240413506308
 11
1.330521045577125
 21
0.3542324377902786
 72
     2
 10
1.319739809158772
 20
0.3542324359152127
 40
0.0107812364183532
 50
0.0000099648460607
 51
90.00000996484372
 73
     1
 72
     1
 10
1.319739807283706
 20
0.3650136723335662
 11
1.214552632315967
 21
0.3650136723335662
 97
        0
 75
     0
 76
     1
 98
        1
 10
-7.279586802153931
 20
-0.4081141432880261
  0
HATCH
  5
843
330
841
100
AcDbEntity
  8
TITLEBLOCK
 62
     0
100
AcDbHatch
 10
0.0
 20
0.0
 30
0.0
210
0.0
220
0.0
230
1.0
  2
SOLID
 70
     1
 71
     0
 91
        1
 92
        1
 93
        4
 72
     1
 10
3.703333445713536
 20
0.1990762889281312
 11
1.018147379006204
 21
0.1990762889281312
 72
     1
 10
1.018147379006204
 20
0.1990762889281312
 11
1.018147379006204
 21
0.220706173683743
 72
     1
 10
1.018147379006204
 20
0.220706173683743
 11
3.703333445713536
 21
0.220706173683743
 72
     1
 10
3.703333445713536
 20
0.220706173683743
 11
3.703333445713536
 21
0.1990762889281312
 97
        0
 75
     0
 76
     1
 98
        1
 10
-7.279586802153931
 20
-0.4081141432880261
  0
HATCH
  5
844
330
841
100
AcDbEntity
  8
TITLEBLOCK
 62
     0
100
AcDbHatch
 10
0.0
 20
0.0
 30
0.0
210
0.0
220
0.0
230
1.0
  2
SOLID
 70
     1
 71
     0
 91
        4
 92
        1
 93
        4
 72
     1
 10
0.8306472632318495
 20
0.4814782717956759
 11
0.4556470182475714
 21
0.4814782717956759
 72
     1
 10
0.4556470182475714
 20
0.4814782717956759
 11
0.4556470182475714
 21
0.1064783844396073
 72
     1
 10
0.4556470182475714
 20
0.1064783844396073
 11
0.8306472632318495
 21
0.1064783844396073
 72
     1
 10
0.8306472632318495
 20
0.1064783844396073
 11
0.8306472632318495
 21
0.4814782717956759
 97
        0
 92
        0
 93
       10
 72
     1
 10
0.7368972019857374
 20
0.4177282462416896
 11
0.5193971779121789
 21
0.4177282462416896
 72
     1
 10
0.5193971779121789
 20
0.4177282462416896
 11
0.5193971779121789
 21
0.37460312508514
 72
     1
 10
0.5193971779121789
 20
0.37460312508514
 11
0.5531473465883146
 21
0.37460312508514
 72
     1
 10
0.5531473465883146
 20
0.37460312508514
 11
0.5531473465883146
 21
0.2133535311501431
 72
     1
 10
0.5531473465883146
 20
0.2133535311501431
 11
0.5193971779121789
 21
0.2133535311501431
 72
     1
 10
0.5193971779121789
 20
0.2133535311501431
 11
0.5193971779121789
 21
0.1702282758831428
 72
     1
 10
0.5193971779121789
 20
0.1702282758831428
 11
0.7368972019857374
 21
0.1702282758831428
 72
     1
 10
0.7368972019857374
 20
0.1702282758831428
 11
0.7668970141602749
 21
0.2002283115750982
 72
     1
 10
0.7668970141602749
 20
0.2002283115750982
 11
0.7668970141602749
 21
0.3877281658462506
 72
     1
 10
0.7668970141602749
 20
0.3877281658462506
 11
0.7368972019857374
 21
0.4177282462416896
 97
        0
 92
       16
 93
        4
 72
     1
 10
0.7987720492890098
 20
0.4496031025563197
 11
0.4875220533764768
 21
0.4496031025563197
 72
     1
 10
0.4875220533764768
 20
0.4496031025563197
 11
0.4875220533764768
 21
0.1383533301613751
 72
     1
 10
0.4875220533764768
 20
0.1383533301613751
 11
0.7987720492890098
 21
0.1383533301613751
 72
     1
 10
0.7987720492890098
 20
0.1383533301613751
 11
0.7987720492890098
 21
0.4496031025563197
 97
        0
 92
        0
 93
        4
 72
     1
 10
0.5962724677448641
 20
0.37460312508514
 11
0.5962724677448641
 21
0.2133535311501431
 72
     1
 10
0.5962724677448641
 20
0.2133535311501431
 11
0.7237719824106926
 21
0.2133535311501431
 72
     1
 10
0.7237719824106926
 20
0.2133535311501431
 11
0.7237719824106926
 21
0.37460312508514
 72
     1
 10
0.7237719824106926
 20
0.37460312508514
 11
0.5962724677448641
 21
0.37460312508514
 97
        0
 75
     0
 76
     1
 98
        1
 10
-7.279586802153931
 20
-0.313212194787444
  0
HATCH
  5
845
330
841
100
AcDbEntity
  8
TITLEBLOCK
 62
     0
100
AcDbHatch
 10
0.0
 20
0.0
 30
0.0
210
0.0
220
0.0
230
1.0
  2
SOLID
 70
     1
 71
     0
 91
        1
 92
        1
 93
       26
 72
     1
 10
1.050490193885575
 20
0.3650136723335662
 11
1.138990457951802
 21
0.3650136723335662
 72
     2
 10
1.138990281703138
 20
0.3542326140418093
 40
0.0107810582931976
 50
270.0009366709926
 51
360.0009366862294
 73
     0
 72
     1
 10
1.149771339994895
 20
0.3542324377902786
 11
1.171333797831589
 21
0.3542324377902786
 72
     1
 10
1.171333797831589
 20
0.3542324377902786
 11
1.171333797831589
 21
0.3650136723335662
 72
     2
 10
1.149771243432702
 20
0.365013768896207
 40
0.0215625543991033
 50
359.9997434148255
 51
449.9997434160159
 73
     1
 72
     1
 10
1.149771339994895
 20
0.3865763232950938
 11
1.039708786842066
 21
0.3865763232950938
 72
     2
 10
1.039709408398413
 20
0.3650142939052909
 40
0.0215620293987615
 50
90.00165163282177
 51
180.0014125206716
 73
     1
 72
     1
 10
1.018147379006204
 20
0.3650137623336376
 11
1.018147379006204
 21
0.3334199129435318
 72
     2
 10
1.039709363397143
 20
0.3334193363730153
 40
0.0215619843986475
 50
179.9984679027414
 51
269.9984679437668
 73
     1
 72
     1
 10
1.039708786842066
 20
0.3118573519820755
 11
1.138990457951802
 21
0.311857620107139
 72
     2
 10
1.138990280765661
 20
0.3010765608779043
 40
0.0107810592306907
 50
270.0009416531222
 51
360.0009416684906
 73
     0
 72
     1
 10
1.149771339994895
 20
0.3010763836888712
 11
1.149771508744986
 21
0.2902949691454408
 72
     2
 10
1.138990231076649
 20
0.2902948322713164
 40
0.0107812776692067
 50
359.9992725992319
 51
449.9997907459082
 73
     0
 72
     1
 10
1.138990270451738
 20
0.279513554602181
 11
1.050490193885575
 21
0.2795135546020104
 72
     2
 10
1.05049014888543
 20
0.2902951041454384
 40
0.0107815495435218
 50
89.99976085826782
 51
179.9997608594354
 73
     0
 72
     1
 10
1.039708599342002
 20
0.2902950591455122
 11
1.018147379006204
 21
0.2902950591455122
 72
     1
 10
1.018147379006204
 20
0.2902950591455122
 11
1.018147379006204
 21
0.2795138227272444
 72
     2
 10
1.039709273392517
 20
0.2795130680345569
 40
0.0215618943995203
 50
179.9979945776083
 51
269.9987071039827
 73
     1
 72
     1
 10
1.039708786842066
 20
0.2579511736405264
 11
1.149771339994895
 21
0.2579511736405264
 72
     2
 10
1.149771378432784
 20
0.2795135930396681
 40
0.0215624193991759
 50
269.9998978626289
 51
359.9996636967671
 73
     1
 72
     1
 10
1.171333797831589
 20
0.2795134664769192
 11
1.171333797831589
 21
0.3114825579869829
 72
     2
 10
1.149771333432362
 20
0.3114825645494808
 40
0.0215624643992288
 50
359.9999825621309
 51
449.9999825620359
 73
     1
 72
     1
 10
1.149771339994895
 20
0.3330450289487088
 11
1.050490193885575
 21
0.3330447608234748
 72
     2
 10
1.050490103885701
 20
0.3438262653667981
 40
0.0107815045436989
 50
89.99952171675776
 51
179.9999900368059
 73
     0
 72
     1
 10
1.039708599342002
 20
0.3438262634919964
 11
1.039708786842066
 21
0.3542325259151993
 72
     2
 10
1.050490107634269
 20
0.3542323515402983
 40
0.0107813207936133
 50
180.0009266903443
 51
270.0004583701697
 73
     0
 97
        0
 75
     0
 76
     1
 98
        1
 10
-7.279586802153931
 20
-0.4081141432880261
  0
HATCH
  5
846
330
841
100
AcDbEntity
  8
TITLEBLOCK
 62
     0
100
AcDbHatch
 10
0.0
 20
0.0
 30
0.0
210
0.0
220
0.0
230
1.0
  2
SOLID
 70
     1
 71
     0
 91
        1
 92
        1
 93
       18
 72
     2
 10
2.471082802883087
 20
0.3650137595211706
 40
0.021562563774099
 50
180.0000074732525
 51
269.9997683261728
 73
     0
 72
     1
 10
2.471082715695484
 20
0.3865763232950938
 11
2.586957622645552
 21
0.3865763232950938
 72
     2
 10
2.586957713583391
 20
0.3650135813961111
 40
0.0215627418991744
 50
269.9997583630888
 51
359.999758364108
 73
     0
 72
     1
 10
2.608520455482373
 20
0.3650136723335662
 11
2.608520455482373
 21
0.3542324377902786
 72
     1
 10
2.608520455482373
 20
0.3542324377902786
 11
2.586957622645552
 21
0.3542324377902786
 72
     2
 10
2.576176208103625
 20
0.3542322577916381
 40
0.0107814145434302
 50
0.0009565685814303
 51
90.00095658455173
 73
     1
 72
     1
 10
2.576176028101979
 20
0.3650136723335662
 11
2.481864141488966
 21
0.3650136723335662
 72
     2
 10
2.481864045863444
 20
0.3542323421656055
 40
0.0107813301683848
 50
89.99949181235312
 51
179.9994918168631
 73
     1
 72
     1
 10
2.471082715695484
 20
0.3542324377902786
 11
2.471082715695484
 21
0.2902950591455122
 72
     2
 10
2.481864090863785
 20
0.2902951097704553
 40
0.0107813751684203
 50
180.0002690376259
 51
270.0002690388874
 73
     1
 72
     1
 10
2.481864141488966
 20
0.2795137346021532
 11
2.576176028101979
 21
0.2795135546020104
 72
     2
 10
2.576176073102679
 20
0.2902951041456356
 40
0.010781549543719
 50
269.9997608553225
 51
359.9992825760937
 73
     1
 72
     1
 10
2.586957622645552
 20
0.2902949691454408
 11
2.608520455482373
 21
0.2902950591455122
 72
     1
 10
2.608520455482373
 20
0.2902950591455122
 11
2.608520099232048
 21
0.2795134664769192
 72
     2
 10
2.586957670458414
 20
0.2795136024145366
 40
0.0215624287740632
 50
0.0003612140281018
 51
90.00012704854281
 73
     0
 72
     1
 10
2.586957622645552
 20
0.2579511736405264
 11
2.471082715695484
 21
0.2579511736405264
 72
     2
 10
2.471082667882924
 20
0.2795136024144634
 40
0.02156242877399
 50
89.99987295225965
 51
179.9998729525419
 73
     0
 72
     1
 10
2.449520239108988
 20
0.2795135546020104
 11
2.449520239108988
 21
0.3650137623336376
 97
        0
 75
     0
 76
     1
 98
        1
 10
-7.279586802153931
 20
-0.4081141432880261
  0
HATCH
  5
847
330
841
100
AcDbEntity
  8
TITLEBLOCK
 62
     0
100
AcDbHatch
 10
0.0
 20
0.0
 30
0.0
210
0.0
220
0.0
230
1.0
  2
SOLID
 70
     1
 71
     0
 91
        1
 92
        1
 93
       12
 72
     1
 10
2.026708344139745
 20
0.3865765014202565
 11
1.890208311215626
 21
0.3865765014202565
 72
     1
 10
1.890208311215626
 20
0.3865765014202565
 11
1.890208311215626
 21
0.2579511736405264
 72
     1
 10
1.890208311215626
 20
0.2579511736405264
 11
2.026708344139745
 21
0.2579511736405264
 72
     1
 10
2.026708344139745
 20
0.2579511736405264
 11
2.026708344139745
 21
0.2795135546020104
 72
     1
 10
2.026708344139745
 20
0.2795135546020104
 11
1.911770600302059
 21
0.2795135546020104
 72
     1
 10
1.911770600302059
 20
0.2795135546020104
 11
1.911770600302059
 21
0.3114825579869829
 72
     1
 10
1.911770600302059
 20
0.3114825579869829
 11
2.026708344139745
 21
0.3114825579869829
 72
     1
 10
2.026708344139745
 20
0.3114825579869829
 11
2.026708344139745
 21
0.333044848948566
 72
     1
 10
2.026708344139745
 20
0.333044848948566
 11
1.911770600302059
 21
0.333044848948566
 72
     1
 10
1.911770600302059
 20
0.333044848948566
 11
1.911770600302059
 21
0.3650136723335662
 72
     1
 10
1.911770600302059
 20
0.3650136723335662
 11
2.026708344139745
 21
0.3650136723335662
 72
     1
 10
2.026708344139745
 20
0.3650136723335662
 11
2.026708344139745
 21
0.3865765014202565
 97
        0
 75
     0
 76
     1
 98
        1
 10
-7.279586802153931
 20
-0.4081141432880261
  0
HATCH
  5
848
330
841
100
AcDbEntity
  8
TITLEBLOCK
 62
     0
100
AcDbHatch
 10
0.0
 20
0.0
 30
0.0
210
0.0
220
0.0
230
1.0
  2
SOLID
 70
     1
 71
     0
 91
        2
 92
        1
 93
        8
 72
     1
 10
1.614830743814064
 20
0.3865765014202565
 11
1.531145595393223
 21
0.2579509955155343
 72
     1
 10
1.531145595393223
 20
0.2579509955155343
 11
1.556870855949323
 21
0.2579511736405264
 72
     1
 10
1.556870855949323
 20
0.2579511736405264
 11
1.570898996363819
 21
0.2795135546020104
 72
     1
 10
1.570898996363819
 20
0.2795135546020104
 11
1.673830432358027
 21
0.2795135546020104
 72
     1
 10
1.673830432358027
 20
0.2795135546020104
 11
1.687858760272586
 21
0.2579514417655899
 72
     1
 10
1.687858760272586
 20
0.2579514417655899
 11
1.713583120827973
 21
0.2579514417655899
 72
     1
 10
1.713583120827973
 20
0.2579514417655899
 11
1.629898141157394
 21
0.3865765014202565
 72
     1
 10
1.629898141157394
 20
0.3865765014202565
 11
1.614830743814064
 21
0.3865765014202565
 97
        0
 92
       16
 93
        3
 72
     1
 10
1.622364536235675
 20
0.3586169575295115
 11
1.659801223192726
 21
0.3010763836888712
 72
     1
 10
1.659801223192726
 20
0.3010763836888712
 11
1.584928205528949
 21
0.3010762055637086
 72
     1
 10
1.584928205528949
 20
0.3010762055637086
 11
1.622364348735612
 21
0.3586165994043766
 97
        0
 75
     0
 76
     1
 98
        1
 10
-7.279586802153931
 20
-0.4081141432880261
  0
HATCH
  5
849
330
841
100
AcDbEntity
  8
TITLEBLOCK
 62
     0
100
AcDbHatch
 10
0.0
 20
0.0
 30
0.0
210
0.0
220
0.0
230
1.0
  2
SOLID
 70
     1
 71
     0
 91
        1
 92
        1
 93
       12
 72
     1
 10
1.392021104504447
 20
0.3865765014202565
 11
1.370458815418015
 21
0.3865765014202565
 72
     1
 10
1.370458815418015
 20
0.3865765014202565
 11
1.370458627917951
 21
0.2795138227272444
 72
     2
 10
1.39202114575308
 20
0.2795135133528436
 40
0.0215625178373483
 50
179.999177932392
 51
269.9998903944058
 73
     1
 72
     1
 10
1.392021104504447
 20
0.2579509955155343
 11
1.509583287556818
 21
0.2579511736405264
 72
     2
 10
1.509583335369764
 20
0.2795136024146219
 40
0.0215624287741484
 50
269.9998729512306
 51
359.9996387857453
 73
     1
 72
     1
 10
1.531145764143484
 20
0.2795134664769192
 11
1.531146120393639
 21
0.3865765014202565
 72
     1
 10
1.531146120393639
 20
0.3865765014202565
 11
1.509583287556818
 21
0.3865765014202565
 72
     1
 10
1.509583287556818
 20
0.3865765014202565
 11
1.509583287556818
 21
0.2902950591455122
 72
     2
 10
1.498801916139266
 20
0.290294926019563
 40
0.0107813714183743
 50
359.9992925246018
 51
449.9992925333428
 73
     0
 72
     1
 10
1.49880204926357
 20
0.2795135546020104
 11
1.402802342797695
 21
0.2795135546020104
 72
     2
 10
1.402802382172719
 20
0.2902950197703451
 40
0.0107814651684066
 50
90.00020925010334
 51
180.0002092508632
 73
     0
 72
     1
 10
1.392020917004384
 20
0.2902950591455122
 11
1.392021104504447
 21
0.3865765014202565
 97
        0
 75
     0
 76
     1
 98
        1
 10
-7.279586802153931
 20
-0.4081141432880261
  0
HATCH
  5
84A
330
841
100
AcDbEntity
  8
TITLEBLOCK
 62
     0
100
AcDbHatch
 10
0.0
 20
0.0
 30
0.0
210
0.0
220
0.0
230
1.0
  2
SOLID
 70
     1
 71
     0
 91
        2
 92
        1
 93
       13
 72
     2
 10
1.851958289039648
 20
0.2899198104641797
 40
0.0215625675244637
 50
0.0002565813902296
 51
90.00070498518821
 73
     1
 72
     2
 10
1.851958289040149
 20
0.3330449455099156
 40
0.0215625675245372
 50
269.9992950134807
 51
359.9995092535441
 73
     1
 72
     1
 10
1.873520856563896
 20
0.3330447608234748
 11
1.873520856563896
 21
0.3650136657708798
 72
     2
 10
1.851957894958188
 20
0.3650135398162329
 40
0.0215629616060761
 50
0.0003346789653151
 51
89.99920945081219
 73
     1
 72
     1
 10
1.851958192477166
 20
0.3865765014202565
 11
1.720333350237904
 21
0.3865765014202565
 72
     1
 10
1.720333350237904
 20
0.3865765014202565
 11
1.720333350237904
 21
0.2579511736405264
 72
     1
 10
1.720333350237904
 20
0.2579511736405264
 11
1.741896183074725
 21
0.2579511736405264
 72
     1
 10
1.741896183074725
 20
0.2579511736405264
 11
1.741896183074725
 21
0.3007013215688856
 72
     1
 10
1.741896183074725
 20
0.3007013215688856
 11
1.841176785433827
 21
0.3007013215688856
 72
     2
 10
1.841176693559081
 20
0.2899201789011263
 40
0.0107811426681508
 50
270.0004882631974
 51
360.0004882673548
 73
     0
 72
     1
 10
1.851957836226841
 20
0.289920087025598
 11
1.851958192477166
 21
0.2579511736405264
 72
     1
 10
1.851958192477166
 20
0.2579511736405264
 11
1.873520856563896
 21
0.2579511736405264
 72
     1
 10
1.873520856563896
 20
0.2579511736405264
 11
1.873520856563896
 21
0.2899199070254552
 97
        0
 92
       16
 93
        6
 72
     2
 10
1.841176693559081
 20
0.3542325296658069
 40
0.0107811426681508
 50
270.0004882631974
 51
360.0004882673548
 73
     0
 72
     1
 10
1.851957836226841
 20
0.3542324377902786
 11
1.851958192477166
 21
0.333044848948566
 72
     2
 10
1.841176871684197
 20
0.333044935198247
 40
0.0107813207933138
 50
0.0004583615308307
 51
90.00045836519477
 73
     0
 72
     1
 10
1.841176785433827
 20
0.3222636144052784
 11
1.741896183074725
 21
0.3222638825303419
 72
     1
 10
1.741896183074725
 20
0.3222638825303419
 11
1.741896183074725
 21
0.3650136723335662
 72
     1
 10
1.741896183074725
 20
0.3650136723335662
 11
1.841176785433827
 21
0.3650136723335662
 97
        0
 75
     0
 76
     1
 98
        1
 10
-7.279586802153931
 20
-0.4081141432880261
  0
HATCH
  5
84B
330
841
100
AcDbEntity
  8
TITLEBLOCK
 62
     0
100
AcDbHatch
 10
0.0
 20
0.0
 30
0.0
210
0.0
220
0.0
230
1.0
  2
SOLID
 70
     1
 71
     0
 91
        2
 92
        1
 93
       10
 72
     1
 10
2.168832611988261
 20
0.3650136723335662
 11
2.168832611988261
 21
0.2795135546021492
 72
     1
 10
2.168832611988261
 20
0.2795135546021492
 11
2.148020079641632
 21
0.2795135546021492
 72
     1
 10
2.148020079641632
 20
0.2795135546021492
 11
2.148020079641632
 21
0.2579511736406499
 72
     1
 10
2.148020079641632
 20
0.2579511736406499
 11
2.314895263659607
 21
0.2579511736406499
 72
     2
 10
2.314895311472477
 20
0.2795136024147182
 40
0.0215624287741214
 50
269.9998729514336
 51
359.9996387859474
 73
     1
 72
     1
 10
2.336457740246171
 20
0.2795134664770916
 11
2.336457740246171
 21
0.3650136723335662
 72
     2
 10
2.314895087410214
 20
0.3650138485844006
 40
0.0215626528366775
 50
359.9995316703829
 51
449.999531674211
 73
     1
 72
     1
 10
2.314895263659607
 20
0.386576501420358
 11
2.148020079641632
 21
0.386576501420358
 72
     1
 10
2.148020079641632
 20
0.386576501420358
 11
2.148020079641632
 21
0.3650136723335662
 72
     1
 10
2.148020079641632
 20
0.3650136723335662
 11
2.168832611988261
 21
0.3650136723335662
 97
        0
 92
       16
 93
        6
 72
     1
 10
2.190395257324933
 20
0.3650136723335662
 11
2.304113856616218
 21
0.3650136723335662
 72
     2
 10
2.304113942866619
 20
0.3542323515405775
 40
0.0107813207933337
 50
269.9995416346447
 51
359.9995416383139
 73
     0
 72
     1
 10
2.314895263659607
 20
0.3542324377902877
 11
2.314895263659607
 21
0.2902949691455452
 72
     2
 10
2.304113807866077
 20
0.2902950103956483
 40
0.0107814557936096
 50
0.0002192149982456
 51
89.99974092762393
 73
     0
 72
     1
 10
2.304113856616218
 20
0.2795135546021492
 11
2.190395257324933
 21
0.2795135546021492
 72
     1
 10
2.190395257324933
 20
0.2795135546021492
 11
2.190395257324933
 21
0.3650136723335662
 97
        0
 75
     0
 76
     1
 98
        1
 10
-7.279586802153931
 20
-0.4081141432880261
  0
HATCH
  5
84C
330
841
100
AcDbEntity
  8
TITLEBLOCK
 62
     0
100
AcDbHatch
 10
0.0
 20
0.0
 30
0.0
210
0.0
220
0.0
230
1.0
  2
SOLID
 70
     1
 71
     0
 91
        2
 92
        1
 93
        8
 72
     1
 10
3.241392303571654
 20
0.3865765014202565
 11
3.157707226761072
 21
0.2579509955155343
 72
     1
 10
3.157707226761072
 20
0.2579509955155343
 11
3.183432299816939
 21
0.2579511736405264
 72
     1
 10
3.183432299816939
 20
0.2579511736405264
 11
3.197460983981823
 21
0.2795133764768478
 72
     1
 10
3.197460983981823
 20
0.2795133764768478
 11
3.30039082622498
 21
0.2795135546020104
 72
     1
 10
3.30039082622498
 20
0.2795135546020104
 11
3.314419679139785
 21
0.2579514417655899
 72
     1
 10
3.314419679139785
 20
0.2579514417655899
 11
3.340144583445731
 21
0.2579511736405264
 72
     1
 10
3.340144583445731
 20
0.2579511736405264
 11
3.256459603774981
 21
0.3865765014202565
 72
     1
 10
3.256459603774981
 20
0.3865765014202565
 11
3.241392303571654
 21
0.3865765014202565
 97
        0
 92
       16
 93
        3
 72
     1
 10
3.248925740352245
 20
0.358616778466603
 11
3.211489480646473
 21
0.3010762055637086
 72
     1
 10
3.211489480646473
 20
0.3010762055637086
 11
3.28636178580994
 21
0.3010763836888712
 72
     1
 10
3.28636178580994
 20
0.3010763836888712
 11
3.248925740352245
 21
0.358616778466603
 97
        0
 75
     0
 76
     1
 98
        1
 10
-7.279586802153931
 20
-0.4081141432880261
  0
HATCH
  5
84D
330
841
100
AcDbEntity
  8
TITLEBLOCK
 62
     0
100
AcDbHatch
 10
0.0
 20
0.0
 30
0.0
210
0.0
220
0.0
230
1.0
  2
SOLID
 70
     1
 71
     0
 91
        1
 92
        1
 93
       13
 72
     1
 10
2.838488736968525
 20
0.3865765014202565
 11
2.806145209588674
 21
0.3865765014202565
 72
     1
 10
2.806145209588674
 20
0.3865765014202565
 11
2.806145209588674
 21
0.2579511736405264
 72
     1
 10
2.806145209588674
 20
0.2579511736405264
 11
2.827707667425368
 21
0.2579511736405264
 72
     1
 10
2.827707667425368
 20
0.2579511736405264
 11
2.827707667425368
 21
0.3640633654626753
 72
     1
 10
2.827707667425368
 20
0.3640633654626753
 11
2.899718420719221
 21
0.2579514417655899
 72
     1
 10
2.899718420719221
 20
0.2579514417655899
 11
2.922570860648686
 21
0.2579511736405264
 72
     1
 10
2.922570860648686
 20
0.2579511736405264
 11
2.994582138942956
 21
0.3640642598382782
 72
     1
 10
2.994582138942956
 20
0.3640642598382782
 11
2.994582138942956
 21
0.2579511736405264
 72
     1
 10
2.994582138942956
 20
0.2579511736405264
 11
3.016144596779479
 21
0.2579511736405264
 72
     1
 10
3.016144596779479
 20
0.2579511736405264
 11
3.016144596779479
 21
0.3865765014202565
 72
     1
 10
3.016144596779479
 20
0.3865765014202565
 11
2.983801425649954
 21
0.3865765014202565
 72
     1
 10
2.983801425649954
 20
0.3865765014202565
 11
2.911144640683954
 21
0.2795135546020104
 72
     1
 10
2.911144640683954
 20
0.2795135546020104
 11
2.838488380718199
 21
0.3865765014202565
 97
        0
 75
     0
 76
     1
 98
        1
 10
-7.279586802153931
 20
-0.4081141432880261
  0
HATCH
  5
84E
330
841
100
AcDbEntity
  8
TITLEBLOCK
 62
     0
100
AcDbHatch
 10
0.0
 20
0.0
 30
0.0
210
0.0
220
0.0
230
1.0
  2
SOLID
 70
     1
 71
     0
 91
        2
 92
        1
 93
        8
 72
     1
 10
2.79358243888161
 20
0.2795134664769192
 11
2.793582795131936
 21
0.3650136723335662
 72
     2
 10
2.772020240733041
 20
0.3650137688961994
 40
0.0215625543991104
 50
359.9997434148459
 51
449.999743415997
 73
     1
 72
     1
 10
2.772020337295241
 20
0.3865763232950938
 11
2.640957676673206
 21
0.3865763232950938
 72
     2
 10
2.640957763860811
 20
0.3650137595211699
 40
0.0215625637741002
 50
90.00023167383188
 51
179.9999925267453
 73
     1
 72
     1
 10
2.61939520008671
 20
0.3650137623336376
 11
2.61939520008671
 21
0.2795135546020104
 72
     2
 10
2.640957628860649
 20
0.2795136024144641
 40
0.0215624287739915
 50
180.0001270474597
 51
270.0001270477355
 73
     1
 72
     1
 10
2.640957676673206
 20
0.2579511736405264
 11
2.772020337295241
 21
0.2579511736405264
 72
     2
 10
2.772020197607671
 20
0.2795134149140743
 40
0.0215622412740004
 50
270.000371181646
 51
360.000137014207
 73
     1
 97
        0
 92
       16
 93
        8
 72
     2
 10
2.651738913091431
 20
0.3542324359149649
 40
0.0107812364186015
 50
89.9999900344766
 51
179.999521702949
 73
     1
 72
     1
 10
2.640957676673206
 20
0.3542325259151993
 11
2.640957676673206
 21
0.2902950591455122
 72
     2
 10
2.651738958091508
 20
0.2902950160204556
 40
0.010781281418388
 50
179.9997708172488
 51
269.9997708181704
 73
     1
 72
     1
 10
2.651738914966625
 20
0.2795137346021532
 11
2.761238742751839
 21
0.2795135546020104
 72
     2
 10
2.761238956501978
 20
0.2902951041442614
 40
0.0107815495443698
 50
269.9988640797126
 51
359.9992825833961
 73
     1
 72
     1
 10
2.772020506045503
 20
0.2902949691454408
 11
2.772020337295241
 21
0.3542324377902786
 72
     2
 10
2.761239007127366
 20
0.3542323421656908
 40
0.0107813301682991
 50
0.0005081826837109
 51
90.00050818719378
 73
     1
 72
     1
 10
2.76123891150193
 20
0.3650136723335662
 11
2.651738914966625
 21
0.3650136723335662
 97
        0
 75
     0
 76
     1
 98
        1
 10
-7.279586802153931
 20
-0.4081141432880261
  0
HATCH
  5
84F
330
841
100
AcDbEntity
  8
TITLEBLOCK
 62
     0
100
AcDbHatch
 10
0.0
 20
0.0
 30
0.0
210
0.0
220
0.0
230
1.0
  2
SOLID
 70
     1
 71
     0
 91
        2
 92
        1
 93
        8
 72
     2
 10
3.162769048174736
 20
0.3650134554401196
 40
0.0215630459811904
 50
270.0005663490367
 51
359.9994236862867
 73
     0
 72
     1
 10
3.184332094154836
 20
0.3650136723335662
 11
3.184332094154836
 21
0.3222638825303419
 72
     2
 10
3.162769397256125
 20
0.3222640184675962
 40
0.0215626968991391
 50
0.0003612085718475
 51
90.00036121084693
 73
     0
 72
     1
 10
3.162769261318015
 20
0.3007013215688856
 11
3.052707420665665
 21
0.3007013215688856
 72
     1
 10
3.052707420665665
 20
0.3007013215688856
 11
3.052707420665665
 21
0.2579511736405264
 72
     1
 10
3.052707420665665
 20
0.2579511736405264
 11
3.031144250328662
 21
0.2579511736405264
 72
     1
 10
3.031144250328662
 20
0.2579511736405264
 11
3.031144250328662
 21
0.3865765014202565
 72
     1
 10
3.031144250328662
 20
0.3865765014202565
 11
3.162769261318015
 21
0.3865765014202565
 97
        0
 92
       16
 93
        6
 72
     2
 10
3.151988118650169
 20
0.3542325296657216
 40
0.0107811426682361
 50
270.0004882627443
 51
360.0004882669015
 73
     0
 72
     1
 10
3.162769261318015
 20
0.3542324377902786
 11
3.162769261318015
 21
0.333044848948566
 72
     2
 10
3.151988118650169
 20
0.333044757073123
 40
0.0107811426682367
 50
359.9995117330984
 51
449.9995117372556
 73
     0
 72
     1
 10
3.15198821052483
 20
0.3222636144052784
 11
3.052707420665665
 21
0.3222638825303419
 72
     1
 10
3.052707420665665
 20
0.3222638825303419
 11
3.052707420665665
 21
0.3650136723335662
 72
     1
 10
3.052707420665665
 20
0.3650136723335662
 11
3.15198821052483
 21
0.3650136723335662
 97
        0
 75
     0
 76
     1
 98
        1
 10
-7.279586802153931
 20
-0.4081141432880261
  0
HATCH
  5
850
330
841
100
AcDbEntity
  8
TITLEBLOCK
 62
     0
100
AcDbHatch
 10
0.0
 20
0.0
 30
0.0
210
0.0
220
0.0
230
1.0
  2
SOLID
 70
     1
 71
     0
 91
        1
 92
        1
 93
        9
 72
     1
 10
3.556847887515953
 20
0.3865763232950938
 11
3.525206566844968
 21
0.3865765014202565
 72
     1
 10
3.525206566844968
 20
0.3865765014202565
 11
3.60348814923547
 21
0.3136817019238036
 72
     1
 10
3.60348814923547
 20
0.3136817019238036
 11
3.603486349234383
 21
0.2579511736405264
 72
     1
 10
3.603486349234383
 20
0.2579511736405264
 11
3.625050607072164
 21
0.2579511736405264
 72
     1
 10
3.625050607072164
 20
0.2579511736405264
 11
3.625050607072164
 21
0.3136813437984982
 72
     1
 10
3.625050607072164
 20
0.3136813437984982
 11
3.703331833212512
 21
0.3865766795454191
 72
     1
 10
3.703331833212512
 20
0.3865766795454191
 11
3.671691225042007
 21
0.3865765014202565
 72
     1
 10
3.671691225042007
 20
0.3865765014202565
 11
3.61426955627898
 21
0.3331056458632473
 72
     1
 10
3.61426955627898
 20
0.3331056458632473
 11
3.556847887515953
 21
0.3865763232950938
 97
        0
 75
     0
 76
     1
 98
        1
 10
-7.279586802153931
 20
-0.4081141432880261
  0
HATCH
  5
851
330
841
100
AcDbEntity
  8
TITLEBLOCK
 62
     0
100
AcDbHatch
 10
0.0
 20
0.0
 30
0.0
210
0.0
220
0.0
230
1.0
  2
SOLID
 70
     1
 71
     0
 91
        1
 92
        1
 93
       10
 72
     1
 10
3.376247484495632
 20
0.3865765014202565
 11
3.345207161752892
 21
0.3865765014202565
 72
     1
 10
3.345207161752892
 20
0.3865765014202565
 11
3.345207161752892
 21
0.2579511736405264
 72
     1
 10
3.345207161752892
 20
0.2579511736405264
 11
3.366769638339558
 21
0.2579511736405264
 72
     1
 10
3.366769638339558
 20
0.2579511736405264
 11
3.366769638339558
 21
0.3659393041881229
 72
     1
 10
3.366769638339558
 20
0.3659393041881229
 11
3.48273627034943
 21
0.2579509955155343
 72
     1
 10
3.48273627034943
 20
0.2579509955155343
 11
3.515082122730785
 21
0.2579511736405264
 72
     1
 10
3.515082122730785
 20
0.2579511736405264
 11
3.515082122730785
 21
0.3865765014202565
 72
     1
 10
3.515082122730785
 20
0.3865765014202565
 11
3.49351767739277
 21
0.3865765014202565
 72
     1
 10
3.49351767739277
 20
0.3865765014202565
 11
3.49351767739277
 21
0.277374671329744
 72
     1
 10
3.49351767739277
 20
0.277374671329744
 11
3.376247484495632
 21
0.3865765014202565
 97
        0
 75
     0
 76
     1
 98
        1
 10
-7.279586802153931
 20
-0.4081141432880261
  0
ENDBLK
  5
853
330
841
100
AcDbEntity
  8
0
100
AcDbBlockEnd
  0
BLOCK
  5
AF5
330
AE5
100
AcDbEntity
  8
0
100
AcDbBlockBegin
  2
TITLE-PAD
 70
     2
 10
0.0
 20
0.0
 30
0.0
  3
TITLE-PAD
  1

  0
LWPOLYLINE
  5
B1D
330
AE5
100
AcDbEntity
  8
CONTINUOUS2
 62
     0
100
AcDbPolyline
 90
        7
 70
     1
 43
0.0
 10
16.40000099999999
 20
0.0
 10
16.40000099999999
 20
0.0
 10
16.40000099999999
 20
0.0
 10
8.002461
 20
0.0
 10
8.002461
 20
0.9120019999999993
 10
16.40000099999999
 20
0.9120019999999993
 10
16.40000099999999
 20
0.0
  0
INSERT
  5
B1E
330
AE5
100
AcDbEntity
  8
TITLEBLOCK
 62
     0
100
AcDbBlockReference
  2
LOGO-PAD
 10
12.245701
 20
0.3040000000000003
 30
0.0
  0
LINE
  5
B1F
330
AE5
100
AcDbEntity
  8
CONTINUOUS2
 62
     0
100
AcDbLine
 10
16.40000099999999
 20
0.3040000000000003
 30
0.0
 11
12.245701
 21
0.3040000000000003
 31
0.0
  0
LINE
  5
B20
330
AE5
100
AcDbEntity
  8
CONTINUOUS2
 62
     0
100
AcDbLine
 10
12.245701
 20
0.9120019999999993
 30
0.0
 11
12.245701
 21
0.0
 31
0.0
  0
TEXT
  5
B21
330
AE5
100
AcDbEntity
  8
TEXT1
  6
CONTINUOUS
 62
     0
100
AcDbText
 10
12.36897712113656
 20
0.0611566731182909
 30
0.0
 40
0.0699999951940822
  1
NO.
  7
ROMANS
 11
12.36897712113656
 21
0.096156670715332
 31
0.0
100
AcDbText
 73
     2
  0
TEXT
  5
B22
330
AE5
100
AcDbEntity
  8
TEXT1
  6
CONTINUOUS
 62
     0
100
AcDbText
 10
12.36897712113656
 20
0.1661566731182908
 30
0.0
 40
0.0699999951940822
  1
DWG#
  7
ROMANS
 11
12.36897712113656
 21
0.2011566707153319
 31
0.0
100
AcDbText
 73
     2
  0
ATTDEF
  5
B23
330
AE5
100
AcDbEntity
  8
TEXT1
 62
     0
100
AcDbText
 10
10.10183834893798
 20
0.7474460884590166
 30
0.0
 40
0.1
  1

  7
ROMANS
 72
     4
 11
10.10183834893798
 21
0.7474460884590166
 31
0.0
100
AcDbAttributeDefinition
  3
DESCRIPTION 1
  2
DESCRIPTION 1
 70
     0
  0
ATTDEF
  5
B24
330
AE5
100
AcDbEntity
  8
TEXT1
 62
     0
100
AcDbText
 10
10.10183834893798
 20
0.6017231711406717
 30
0.0
 40
0.1
  1

  7
ROMANS
 72
     4
 11
10.10183834893798
 21
0.6017231711406717
 31
0.0
100
AcDbAttributeDefinition
  3
DESCRIPTION 2
  2
DESCRIPTION 2
 70
     0
  0
ATTDEF
  5
B25
330
AE5
100
AcDbEntity
  8
TEXT1
 62
     0
100
AcDbText
 10
10.10183834893798
 20
0.4560002538223267
 30
0.0
 40
0.08
  1

  7
ROMANS
 72
     4
 11
10.10183834893798
 21
0.4560002538223267
 31
0.0
100
AcDbAttributeDefinition
  3
DESCRIPTION 3
  2
DESCRIPTION 3
 70
     0
  0
ATTDEF
  5
B26
330
AE5
100
AcDbEntity
  8
TEXT1
 62
     0
100
AcDbText
 10
10.10183834893798
 20
0.3202773365039833
 30
0.0
 40
0.08
  1

  7
ROMANS
 72
     4
 11
10.10183834893798
 21
0.3202773365039833
 31
0.0
100
AcDbAttributeDefinition
  3
DESCRIPTION 4
  2
DESCRIPTION 4
 70
     0
  0
ATTDEF
  5
B27
330
AE5
100
AcDbEntity
  8
TEXT1
 62
     0
100
AcDbText
 10
10.10183834893798
 20
0.1845544191856399
 30
0.0
 40
0.08
  1

  7
ROMANS
 72
     4
 11
10.10183834893798
 21
0.1845544191856399
 31
0.0
100
AcDbAttributeDefinition
  3
DESCRIPTION 5
  2
DESCRIPTION 5
 70
     0
  0
ATTDEF
  5
B28
330
AE5
100
AcDbEntity
  8
TEXT1
 62
     0
100
AcDbText
 10
12.74772367103195
 20
0.096540546036505
 30
0.0
 40
0.12
  1

 41
0.9512024731840066
  7
M_STANDARD
 11
12.74772367103195
 21
0.156540546036505
 31
0.0
100
AcDbAttributeDefinition
  3
DRAWING NUMBER
  2
DWGNO
 70
     0
 74
     2
  0
ATTDEF
  5
B29
330
AE5
100
AcDbEntity
  8
TEXT1
 62
     0
100
AcDbText
 10
16.35506454949325
 20
-0.1507193079929352
 30
0.0
 40
0.08
  1

  7
ROMANS
 72
     2
 11
16.35506454949325
 21
-0.1107193079929352
 31
0.0
100
AcDbAttributeDefinition
  3
REF DWG #
  2
REF
 70
     0
 74
     2
  0
ATTDEF
  5
B2A
330
AE5
100
AcDbEntity
  8
TEXT1
 62
     0
100
AcDbText
 10
0.0266402374038712
 20
-0.1507193079929352
 30
0.0
 40
0.08
  1

  7
ROMANS
 11
0.0266402374038712
 21
-0.1107193079929352
 31
0.0
100
AcDbAttributeDefinition
  3
DATE MODIFIED
  2
DATE
 70
     0
 74
     2
  0
LWPOLYLINE
  5
B2B
330
AE5
100
AcDbEntity
  8
CONTINUOUS3
 62
     0
100
AcDbPolyline
 90
        4
 70
   129
 43
0.0
 10
0.0
 20
0.0
 10
16.40000099999999
 20
0.0
 10
16.40000099999999
 20
10.25
 10
0.0
 20
10.25
  0
ENDBLK
  5
AF6
330
AE5
100
AcDbEntity
  8
0
100
AcDbBlockEnd
  0
BLOCK
  5
D84
330
D52
100
AcDbEntity
  8
0
100
AcDbBlockBegin
  2
OEM-NOTES
 70
     0
 10
0.0
 20
0.0
 30
0.0
  3
OEM-NOTES
  1

  0
LWPOLYLINE
  5
D53
330
D52
100
AcDbEntity
  8
TITLEBLOCK
100
AcDbPolyline
 90
        2
 70
     0
 43
0.0128
 10
8.625
 20
1.599999999999996
 10
0.0
 20
1.6
  0
TEXT
  5
D57
330
D52
100
AcDbEntity
  8
TITLEBLOCK
100
AcDbText
 10
0.3131249999999959
 20
0.7406249999999998
 30
0.0
 40
0.13125
  1
BE USED ONLY IN CONFORMANCE WITH INSTRUCTIONS ISSUED BY SQUARE D COMPANY.
 41
0.9
  7
SIMPLEX
 72
     4
 11
4.3125
 21
0.7999999999999999
 31
0.0
100
AcDbText
  0
TEXT
  5
D58
330
D52
100
AcDbEntity
  8
TITLEBLOCK
100
AcDbText
 10
0.2540625000000007
 20
1.045625000000001
 30
0.0
 40
0.13125
  1
HEREON. THIS INFORMATION REMAINS THE PROPERTY OF SQUARE D COMPANY AND MAY
 41
0.9
  7
SIMPLEX
 72
     4
 11
4.3125
 21
1.105000000000001
 31
0.0
100
AcDbText
  0
TEXT
  5
D59
330
D52
100
AcDbEntity
  8
TITLEBLOCK
100
AcDbText
 10
0.3046875
 20
1.338124999999997
 30
0.0
 40
0.13125
  1
"THE SQUARE D COMPANY HAS PROPRIETARY RIGHTS TO THE INFORMATION CONTAINED
 41
0.9
  7
SIMPLEX
 72
     4
 11
4.3125
 21
1.409999999999997
 31
0.0
100
AcDbText
  0
TEXT
  5
D5A
330
D52
100
AcDbEntity
  8
TITLEBLOCK
100
AcDbText
 10
0.6309374999999977
 20
0.4387499999999984
 30
0.0
 40
0.13125
  1
USER SHOULD VERIFY DRAWINGS ARE TO THE LATEST/CURRENT REVISION PRIOR
 41
0.9
  7
SIMPLEX
 72
     4
 11
4.3125
 21
0.4949999999999984
 31
0.0
100
AcDbText
  0
TEXT
  5
D5B
330
D52
100
AcDbEntity
  8
TITLEBLOCK
100
AcDbText
 10
2.5490625
 20
0.1368749999999972
 30
0.0
 40
0.13125
  1
TO INCORPORATING IN A DESIGN FILE."
 41
0.9
  7
SIMPLEX
 72
     4
 11
4.3125
 21
0.2149999999999972
 31
0.0
100
AcDbText
  0
TEXT
  5
D5C
330
D52
100
AcDbEntity
  8
TITLEBLOCK
100
AcDbText
 10
9.046378855339687
 20
0.2629426489623099
 30
0.0
 40
0.112
  1
UNLESS OTHERWISE SPECIFIED DIMENSIONS ARE IN INCHES
 41
0.8
  7
SIMPLEX
 72
     4
 11
11.06451218867302
 21
0.3189426489623099
 31
0.0
100
AcDbText
  0
LWPOLYLINE
  5
D5D
330
D52
100
AcDbEntity
  8
TITLEBLOCK
100
AcDbPolyline
 90
        2
 70
     0
 43
0.0128
 10
8.625
 20
0.9599999999999964
 10
16.00492200000007
 20
0.9599999999999964
  0
TEXT
  5
D61
330
D52
100
AcDbEntity
  8
TITLEBLOCK
100
AcDbText
 10
8.7837120071254
 20
0.5472199999999967
 30
0.0
 40
0.2433162500000002
  1
%%uDO NOT SCALE DRAWING
  7
SIMPLEX
 72
     1
 11
11.06451218867302
 21
0.5472199999999967
 31
0.0
100
AcDbText
  0
LWPOLYLINE
  5
D62
330
D52
100
AcDbEntity
  8
TITLEBLOCK
100
AcDbPolyline
 90
        2
 70
     0
 43
0.0128
 10
8.625
 20
0.9599999999999964
 10
8.625
 20
0.0000000000000009
  0
LWPOLYLINE
  5
D66
330
D52
100
AcDbEntity
  8
TITLEBLOCK
100
AcDbPolyline
 90
        2
 70
     0
 43
0.0128
 10
8.625
 20
0.0000000000000009
 10
8.625
 20
1.6
  0
LWPOLYLINE
  5
D6A
330
D52
100
AcDbEntity
  8
TITLEBLOCK
100
AcDbPolyline
 90
        2
 70
     0
 43
0.0128
 10
13.49242200000007
 20
1.599999999999995
 10
13.49242200000007
 20
0.0000000000000009
  0
TEXT
  5
D6E
330
D52
100
AcDbEntity
  8
TITLEBLOCK
100
AcDbText
 10
13.77242200000007
 20
0.2099999999999964
 30
0.0
 40
0.1
  1
2 PLACE DECIMALS
  7
SIMPLEX
100
AcDbText
  0
TEXT
  5
D6F
330
D52
100
AcDbEntity
  8
TITLEBLOCK
100
AcDbText
 10
13.62242200000007
 20
0.4474999999999972
 30
0.0
 40
0.1
  1
UNLESS OTHERWISE SPECIFIED
  7
SIMPLEX
100
AcDbText
  0
TEXT
  5
D70
330
D52
100
AcDbEntity
  8
TITLEBLOCK
100
AcDbText
 10
15.57242200000007
 20
0.2099999999999964
 30
0.0
 40
0.1
  1
.01
  7
SIMPLEX
100
AcDbText
  0
LINE
  5
D71
330
D52
100
AcDbEntity
  8
TITLEBLOCK
100
AcDbLine
 10
15.35492200000008
 20
0.2187499999999973
 30
0.0
 11
15.45492200000008
 21
0.2187499999999973
 31
0.0
  0
TEXT
  5
D72
330
D52
100
AcDbEntity
  8
TITLEBLOCK
100
AcDbText
 10
15.35992200000007
 20
0.2474999999999961
 30
0.0
 40
0.1
  1
+
  7
SIMPLEX
100
AcDbText
  0
LWPOLYLINE
  5
D73
330
D52
100
AcDbEntity
  8
TITLEBLOCK
100
AcDbPolyline
 90
        2
 70
     0
 43
0.0128
 10
16.00492200000007
 20
1.599999999999995
 10
13.49242200000007
 20
1.599999999999995
  0
TEXT
  5
D77
330
D52
100
AcDbEntity
  8
TITLEBLOCK
100
AcDbText
 10
13.62242200000007
 20
1.147499999999996
 30
0.0
 40
0.1
  1
PROJECTION
  7
SIMPLEX
100
AcDbText
  0
TEXT
  5
D78
330
D52
100
AcDbEntity
  8
TITLEBLOCK
100
AcDbText
 10
13.55992200000007
 20
1.347499999999997
 30
0.0
 40
0.1
  1
THIRD ANGLE
  7
SIMPLEX
100
AcDbText
  0
LINE
  5
D79
330
D52
100
AcDbEntity
  8
TITLEBLOCK
100
AcDbLine
 10
14.69692486880008
 20
1.300351715199997
 30
0.0
 11
15.91292523520008
 21
1.300351715199997
 31
0.0
  0
TEXT
  5
D7A
330
D52
100
AcDbEntity
  8
TITLEBLOCK
100
AcDbText
 10
14.04742200000008
 20
0.6974999999999972
 30
0.0
 40
0.15
  1
%%uTOLERANCES
  7
SIMPLEX
100
AcDbText
  0
LINE
  5
D7B
330
D52
100
AcDbEntity
  8
TITLEBLOCK
100
AcDbLine
 10
14.95292615040008
 20
1.396354294399999
 30
0.0
 11
14.95292615040008
 21
1.524354553599997
 31
0.0
  0
CIRCLE
  5
D7C
330
D52
100
AcDbEntity
  8
TITLEBLOCK
100
AcDbCircle
 10
14.95292615040008
 20
1.300352668799996
 30
0.0
 40
0.1279999615999998
  0
CIRCLE
  5
D7D
330
D52
100
AcDbEntity
  8
TITLEBLOCK
100
AcDbCircle
 10
14.95292615040008
 20
1.300352668799996
 30
0.0
 40
0.064000004799999
  0
LINE
  5
D7E
330
D52
100
AcDbEntity
  8
TITLEBLOCK
100
AcDbLine
 10
14.95292615040008
 20
1.332351302399996
 30
0.0
 11
14.95292615040008
 21
1.268351172799996
 31
0.0
  0
LINE
  5
D7F
330
D52
100
AcDbEntity
  8
TITLEBLOCK
100
AcDbLine
 10
14.95292615040008
 20
1.204351996799997
 30
0.0
 11
14.95292615040008
 21
1.076351737599998
 31
0.0
  0
LINE
  5
D80
330
D52
100
AcDbEntity
  8
TITLEBLOCK
100
AcDbLine
 10
15.78492230560007
 20
1.172351455999998
 30
0.0
 11
15.33692425760007
 21
1.236351585599996
 31
0.0
  0
LINE
  5
D81
330
D52
100
AcDbEntity
  8
TITLEBLOCK
100
AcDbLine
 10
15.33692425760007
 20
1.364351844799998
 30
0.0
 11
15.78492230560007
 21
1.428351020799996
 31
0.0
  0
LINE
  5
D82
330
D52
100
AcDbEntity
  8
TITLEBLOCK
100
AcDbLine
 10
15.33692425760007
 20
1.236351585599996
 30
0.0
 11
15.33692425760007
 21
1.364351844799998
 31
0.0
  0
LINE
  5
D83
330
D52
100
AcDbEntity
  8
TITLEBLOCK
100
AcDbLine
 10
15.78492230560007
 20
1.428351020799996
 30
0.0
 11
15.78492230560007
 21
1.172351455999998
 31
0.0
  0
ENDBLK
  5
D85
330
D52
100
AcDbEntity
  8
0
100
AcDbBlockEnd
  0
BLOCK
  5
8980
330
896D
100
AcDbEntity
  8
0
100
AcDbBlockBegin
  2
REF2
 70
     2
 10
0.0
 20
0.0
 30
0.0
  3
REF2
  1

  0
ATTDEF
  5
896E
330
896D
100
AcDbEntity
  8
TEXT1
100
AcDbText
 10
2.0
 20
0.2204373050885353
 30
0.0
 40
0.125
  1

100
AcDbAttributeDefinition
  3
Mounting Hardware?
  2
MOUNTING_HWD
 70
     0
  0
ATTDEF
  5
896F
330
896D
100
AcDbEntity
  8
TEXT1
100
AcDbText
 10
2.0
 20
0.4484790897328286
 30
0.0
 40
0.125
  1

100
AcDbAttributeDefinition
  3
Terminal Torque
  2
TERM_TORQUE
 70
     0
  0
ATTDEF
  5
8970
330
896D
100
AcDbEntity
  8
TEXT1
100
AcDbText
 10
2.0
 20
0.6579373050885362
 30
0.0
 40
0.125
  1

100
AcDbAttributeDefinition
  3
Wire Size?
  2
WIRE_SIZE
 70
     0
  0
ATTDEF
  5
8971
330
896D
100
AcDbEntity
  8
TEXT1
100
AcDbText
 10
2.0
 20
0.8564164127663897
 30
0.0
 40
0.125
  1

100
AcDbAttributeDefinition
  3
Weight?
  2
WEIGHT
 70
     0
  0
ATTDEF
  5
8972
330
896D
100
AcDbEntity
  8
TEXT1
100
AcDbText
 10
2.0
 20
1.0625
 30
0.0
 40
0.125
  1

100
AcDbAttributeDefinition
  3
Meets Standards
  2
STANDARDS
 70
     0
  0
ATTDEF
  5
8973
330
896D
100
AcDbEntity
  8
TEXT1
100
AcDbText
 10
2.0
 20
1.293916394821363
 30
0.0
 40
0.125
  1

100
AcDbAttributeDefinition
  3
CSA File/Guide
  2
CSA
 70
     0
  0
ATTDEF
  5
8974
330
896D
100
AcDbEntity
  8
TEXT1
100
AcDbText
 10
2.010983301335642
 20
1.5
 30
0.0
 40
0.125
  1

100
AcDbAttributeDefinition
  3
UL File/Guide?
  2
UL
 70
     0
  0
ATTDEF
  5
8975
330
896D
100
AcDbEntity
  8
TEXT1
100
AcDbText
 10
2.0
 20
1.720437305088535
 30
0.0
 40
0.125
  1

100
AcDbAttributeDefinition
  3
Ratings?
  2
RATING
 70
     0
  0
ATTDEF
  5
8976
330
896D
100
AcDbEntity
  8
TEXT1
100
AcDbText
 10
2.0
 20
1.9375
 30
0.0
 40
0.125
  1

100
AcDbAttributeDefinition
  3
Catalog Number?
  2
CATALOG
 70
     0
  0
TEXT
  5
8977
330
896D
100
AcDbEntity
  8
TEXT1
100
AcDbText
 10
0.1875
 20
0.223214285714286
 30
0.0
 40
0.125
  1
Mounting Hwd.:
100
AcDbText
  0
TEXT
  5
8978
330
896D
100
AcDbEntity
  8
TEXT1
100
AcDbText
 10
0.1875
 20
0.4375000000000005
 30
0.0
 40
0.125
  1
Terminal torque:
100
AcDbText
  0
TEXT
  5
8979
330
896D
100
AcDbEntity
  8
TEXT1
100
AcDbText
 10
0.1875
 20
0.6517857142857145
 30
0.0
 40
0.125
  1
Wire Size:
100
AcDbText
  0
TEXT
  5
897A
330
896D
100
AcDbEntity
  8
TEXT1
100
AcDbText
 10
0.1875
 20
0.8660714285714288
 30
0.0
 40
0.125
  1
Weight:
100
AcDbText
  0
TEXT
  5
897B
330
896D
100
AcDbEntity
  8
TEXT1
100
AcDbText
 10
0.1875
 20
1.080357142857143
 30
0.0
 40
0.125
  1
Meets Standards:
100
AcDbText
  0
TEXT
  5
897C
330
896D
100
AcDbEntity
  8
TEXT1
100
AcDbText
 10
0.1875
 20
1.294642857142857
 30
0.0
 40
0.125
  1
CSA File/Class:
100
AcDbText
  0
TEXT
  5
897D
330
896D
100
AcDbEntity
  8
TEXT1
100
AcDbText
 10
0.1875
 20
1.508928571428571
 30
0.0
 40
0.125
  1
UL File/CCN:
100
AcDbText
  0
TEXT
  5
897E
330
896D
100
AcDbEntity
  8
TEXT1
100
AcDbText
 10
0.1875
 20
1.723214285714286
 30
0.0
 40
0.125
  1
Ratings:
100
AcDbText
  0
TEXT
  5
897F
330
896D
100
AcDbEntity
  8
TEXT1
100
AcDbText
 10
0.1875
 20
1.9375
 30
0.0
 40
0.125
  1
Catalog Number:
100
AcDbText
  0
ENDBLK
  5
8981
330
896D
100
AcDbEntity
  8
0
100
AcDbBlockEnd
  0
BLOCK
  5
9009
330
8FFE
100
AcDbEntity
  8
0
100
AcDbBlockBegin
  2
*D5
 70
     1
 10
0.0
 20
0.0
 30
0.0
  3
*D5
  1

  0
LINE
  5
9F47
330
8FFE
100
AcDbEntity
  8
DIM
100
AcDbLine
 10
51.05153121538034
 20
28.41226055358941
 30
0.0
 11
51.05153121538034
 21
21.91484048633944
 31
0.0
  0
LINE
  5
9F48
330
8FFE
100
AcDbEntity
  8
DIM
100
AcDbLine
 10
64.59153121538034
 20
28.41226055358941
 30
0.0
 11
64.59153121538034
 21
21.91484048633944
 31
0.0
  0
LINE
  5
9F49
330
8FFE
100
AcDbEntity
  8
DIM
100
AcDbLine
 10
51.61153121538035
 20
22.41484048633944
 30
0.0
 11
55.59676931061844
 21
22.41484048633944
 31
0.0
  0
LINE
  5
9F4A
330
8FFE
100
AcDbEntity
  8
DIM
100
AcDbLine
 10
64.03153121538034
 20
22.41484048633944
 30
0.0
 11
60.04629312014225
 21
22.41484048633944
 31
0.0
  0
INSERT
  5
9F4B
330
8FFE
100
AcDbEntity
  8
DIM
100
AcDbBlockReference
  2
SEARROW
 10
51.05153121538034
 20
22.41484048633944
 30
0.0
 41
0.5600000000000001
 42
0.5600000000000001
 43
0.5600000000000001
 50
180.0
  0
INSERT
  5
9F4C
330
8FFE
100
AcDbEntity
  8
DIM
100
AcDbBlockReference
  2
SEARROW
 10
64.59153121538034
 20
22.41484048633944
 30
0.0
 41
0.5600000000000001
 42
0.5600000000000001
 43
0.5600000000000001
  0
MTEXT
  5
9F4D
330
8FFE
100
AcDbEntity
  8
DIM
100
AcDbMText
 10
57.82153121538034
 20
22.41484048633944
 30
0.0
 40
0.8
 41
0.0
 71
     5
 72
     1
  1
\A1;\P13.54\P [344]
  7
ROMANS
1001
ACAD
1000
MTEXTBEGIN
1070
    73
1070
     1
1070
    44
1040
1.0
1070
    74
1070
     0
1000
MTEXTEND
1000
MTEXTBEGIN
1070
    73
1070
     1
1070
    44
1040
1.0
1070
    74
1070
     0
1000
MTEXTEND
  0
POINT
  5
9F4E
330
8FFE
100
AcDbEntity
  8
DEFPOINTS
 62
     0
100
AcDbPoint
 10
51.05153121538034
 20
28.91226055358941
 30
0.0
  0
POINT
  5
9F4F
330
8FFE
100
AcDbEntity
  8
DEFPOINTS
 62
     0
100
AcDbPoint
 10
64.59153121538034
 20
28.91226055358941
 30
0.0
  0
POINT
  5
9F50
330
8FFE
100
AcDbEntity
  8
DEFPOINTS
 62
     0
100
AcDbPoint
 10
64.59153121538034
 20
22.41484048633944
 30
0.0
  0
ENDBLK
  5
900A
330
8FFE
100
AcDbEntity
  8
0
100
AcDbBlockEnd
  0
BLOCK
  5
9016
330
900B
100
AcDbEntity
  8
0
100
AcDbBlockBegin
  2
*D6
 70
     1
 10
0.0
 20
0.0
 30
0.0
  3
*D6
  1

  0
LINE
  5
9F51
330
900B
100
AcDbEntity
  8
DIM
100
AcDbLine
 10
90.0670838227926
 20
28.66226055358941
 30
0.0
 11
90.0670838227926
 21
25.1311050367731
 31
0.0
  0
LINE
  5
9F52
330
900B
100
AcDbEntity
  8
DIM
100
AcDbLine
 10
98.19708382279259
 20
30.50726055358942
 30
0.0
 11
98.19708382279259
 21
25.1311050367731
 31
0.0
  0
LINE
  5
9F53
330
900B
100
AcDbEntity
  8
DIM
100
AcDbLine
 10
90.62708382279259
 20
25.6311050367731
 30
0.0
 11
91.90732191803069
 21
25.6311050367731
 31
0.0
  0
LINE
  5
9F54
330
900B
100
AcDbEntity
  8
DIM
100
AcDbLine
 10
97.6370838227926
 20
25.6311050367731
 30
0.0
 11
96.35684572755451
 21
25.6311050367731
 31
0.0
  0
INSERT
  5
9F55
330
900B
100
AcDbEntity
  8
DIM
100
AcDbBlockReference
  2
SEARROW
 10
90.0670838227926
 20
25.6311050367731
 30
0.0
 41
0.5600000000000001
 42
0.5600000000000001
 43
0.5600000000000001
 50
180.0
  0
INSERT
  5
9F56
330
900B
100
AcDbEntity
  8
DIM
100
AcDbBlockReference
  2
SEARROW
 10
98.19708382279259
 20
25.6311050367731
 30
0.0
 41
0.5600000000000001
 42
0.5600000000000001
 43
0.5600000000000001
  0
MTEXT
  5
9F57
330
900B
100
AcDbEntity
  8
DIM
100
AcDbMText
 10
94.13208382279259
 20
25.6311050367731
 30
0.0
 40
0.8
 41
0.0
 71
     5
 72
     1
  1
\A1;\P8.13\P [207]
  7
ROMANS
1001
ACAD
1000
MTEXTBEGIN
1070
    73
1070
     1
1070
    44
1040
1.0
1070
    74
1070
     0
1000
MTEXTEND
1000
MTEXTBEGIN
1070
    73
1070
     1
1070
    44
1040
1.0
1070
    74
1070
     0
1000
MTEXTEND
  0
POINT
  5
9F58
330
900B
100
AcDbEntity
  8
DEFPOINTS
 62
     0
100
AcDbPoint
 10
90.0670838227926
 20
29.16226055358942
 30
0.0
  0
POINT
  5
9F59
330
900B
100
AcDbEntity
  8
DEFPOINTS
 62
     0
100
AcDbPoint
 10
98.19708382279259
 20
31.00726055358942
 30
0.0
  0
POINT
  5
9F5A
330
900B
100
AcDbEntity
  8
DEFPOINTS
 62
     0
100
AcDbPoint
 10
98.19708382279259
 20
25.6311050367731
 30
0.0
  0
ENDBLK
  5
9017
330
900B
100
AcDbEntity
  8
0
100
AcDbBlockEnd
  0
BLOCK
  5
9023
330
9018
100
AcDbEntity
  8
0
100
AcDbBlockBegin
  2
*D7
 70
     1
 10
0.0
 20
0.0
 30
0.0
  3
*D7
  1

  0
LINE
  5
9F5B
330
9018
100
AcDbEntity
  8
DIM
100
AcDbLine
 10
51.05153121538034
 20
28.41226055358941
 30
0.0
 11
51.05153121538034
 21
25.71052567610081
 31
0.0
  0
LINE
  5
9F5C
330
9018
100
AcDbEntity
  8
DIM
100
AcDbLine
 10
52.45153121538034
 20
29.01476055358942
 30
0.0
 11
52.45153121538034
 21
25.71052567610081
 31
0.0
  0
LINE
  5
9F5D
330
9018
100
AcDbEntity
  8
DIM
100
AcDbLine
 10
50.49153121538034
 20
26.21052567610081
 30
0.0
 11
49.93153121538035
 21
26.21052567610081
 31
0.0
  0
LINE
  5
9F5E
330
9018
100
AcDbEntity
  8
DIM
100
AcDbLine
 10
53.01153121538034
 20
26.21052567610081
 30
0.0
 11
53.57153121538034
 21
26.21052567610081
 31
0.0
  0
INSERT
  5
9F5F
330
9018
100
AcDbEntity
  8
DIM
100
AcDbBlockReference
  2
SEARROW
 10
51.05153121538034
 20
26.21052567610081
 30
0.0
 41
0.5600000000000001
 42
0.5600000000000001
 43
0.5600000000000001
  0
INSERT
  5
9F60
330
9018
100
AcDbEntity
  8
DIM
100
AcDbBlockReference
  2
SEARROW
 10
52.45153121538034
 20
26.21052567610081
 30
0.0
 41
0.5600000000000001
 42
0.5600000000000001
 43
0.5600000000000001
 50
180.0
  0
MTEXT
  5
9F61
330
9018
100
AcDbEntity
  8
DIM
100
AcDbMText
 10
55.41534073918986
 20
26.21052567610081
 30
0.0
 40
0.8
 41
0.0
 71
     5
 72
     1
  1
\A1;\P1.40\P [36]
  7
ROMANS
1001
ACAD
1000
MTEXTBEGIN
1070
    73
1070
     1
1070
    44
1040
1.0
1070
    74
1070
     0
1000
MTEXTEND
1000
MTEXTBEGIN
1070
    73
1070
     1
1070
    44
1040
1.0
1070
    74
1070
     0
1000
MTEXTEND
  0
POINT
  5
9F62
330
9018
100
AcDbEntity
  8
DEFPOINTS
 62
     0
100
AcDbPoint
 10
51.05153121538034
 20
28.91226055358941
 30
0.0
  0
POINT
  5
9F63
330
9018
100
AcDbEntity
  8
DEFPOINTS
 62
     0
100
AcDbPoint
 10
52.45153121538034
 20
29.51476055358941
 30
0.0
  0
POINT
  5
9F64
330
9018
100
AcDbEntity
  8
DEFPOINTS
 62
     0
100
AcDbPoint
 10
52.45153121538034
 20
26.21052567610081
 30
0.0
  0
ENDBLK
  5
9024
330
9018
100
AcDbEntity
  8
0
100
AcDbBlockEnd
  0
BLOCK
  5
9030
330
9025
100
AcDbEntity
  8
0
100
AcDbBlockBegin
  2
*D8
 70
     1
 10
0.0
 20
0.0
 30
0.0
  3
*D8
  1

  0
LINE
  5
9F65
330
9025
100
AcDbEntity
  8
DIM
100
AcDbLine
 10
51.05153121538034
 20
54.41226055358942
 30
0.0
 11
51.05153121538034
 21
61.48391878728475
 31
0.0
  0
LINE
  5
9F66
330
9025
100
AcDbEntity
  8
DIM
100
AcDbLine
 10
52.45153121538034
 20
53.81476055358943
 30
0.0
 11
52.45153121538034
 21
61.48391878728475
 31
0.0
  0
LINE
  5
9F67
330
9025
100
AcDbEntity
  8
DIM
100
AcDbLine
 10
53.01153121538034
 20
60.98391878728474
 30
0.0
 11
53.57153121538034
 21
60.98391878728474
 31
0.0
  0
LINE
  5
9F68
330
9025
100
AcDbEntity
  8
DIM
100
AcDbLine
 10
50.49153121538034
 20
60.98391878728474
 30
0.0
 11
49.6140881287091
 21
60.98391878728474
 31
0.0
  0
INSERT
  5
9F69
330
9025
100
AcDbEntity
  8
DIM
100
AcDbBlockReference
  2
SEARROW
 10
52.45153121538034
 20
60.98391878728474
 30
0.0
 41
0.5600000000000001
 42
0.5600000000000001
 43
0.5600000000000001
 50
180.0
  0
INSERT
  5
9F6A
330
9025
100
AcDbEntity
  8
DIM
100
AcDbBlockReference
  2
SEARROW
 10
51.05153121538034
 20
60.98391878728474
 30
0.0
 41
0.5600000000000001
 42
0.5600000000000001
 43
0.5600000000000001
  0
MTEXT
  5
9F6B
330
9025
100
AcDbEntity
  8
DIM
100
AcDbMText
 10
47.77027860489957
 20
60.98391878728474
 30
0.0
 40
0.8
 41
0.0
 71
     5
 72
     1
  1
\A1;\P1.40\P [36]
  7
ROMANS
1001
ACAD
1000
MTEXTBEGIN
1070
    73
1070
     1
1070
    44
1040
1.0
1070
    74
1070
     0
1000
MTEXTEND
1000
MTEXTBEGIN
1070
    73
1070
     1
1070
    44
1040
1.0
1070
    74
1070
     0
1000
MTEXTEND
  0
POINT
  5
9F6C
330
9025
100
AcDbEntity
  8
DEFPOINTS
 62
     0
100
AcDbPoint
 10
51.05153121538034
 20
53.91226055358942
 30
0.0
  0
POINT
  5
9F6D
330
9025
100
AcDbEntity
  8
DEFPOINTS
 62
     0
100
AcDbPoint
 10
52.45153121538034
 20
53.31476055358943
 30
0.0
  0
POINT
  5
9F6E
330
9025
100
AcDbEntity
  8
DEFPOINTS
 62
     0
100
AcDbPoint
 10
52.45153121538034
 20
60.98391878728474
 30
0.0
  0
ENDBLK
  5
9031
330
9025
100
AcDbEntity
  8
0
100
AcDbBlockEnd
  0
BLOCK
  5
903D
330
9032
100
AcDbEntity
  8
0
100
AcDbBlockBegin
  2
*D9
 70
     1
 10
0.0
 20
0.0
 30
0.0
  3
*D9
  1

  0
LINE
  5
9F6F
330
9032
100
AcDbEntity
  8
DIM
100
AcDbLine
 10
51.95153121538034
 20
53.31476055358943
 30
0.0
 11
47.5290690162384
 21
53.31476055358944
 31
0.0
  0
LINE
  5
9F70
330
9032
100
AcDbEntity
  8
DIM
100
AcDbLine
 10
63.46153121538034
 20
48.53476055358942
 30
0.0
 11
47.5290690162384
 21
48.53476055358942
 31
0.0
  0
LINE
  5
9F71
330
9032
100
AcDbEntity
  8
DIM
100
AcDbLine
 10
48.02906901623841
 20
52.75476055358943
 30
0.0
 11
48.02906901623841
 21
52.52095102977989
 31
0.0
  0
LINE
  5
9F72
330
9032
100
AcDbEntity
  8
DIM
100
AcDbLine
 10
48.02906901623841
 20
49.09476055358942
 30
0.0
 11
48.02906901623841
 21
49.32857007739893
 31
0.0
  0
INSERT
  5
9F73
330
9032
100
AcDbEntity
  8
DIM
100
AcDbBlockReference
  2
SEARROW
 10
48.02906901623841
 20
53.31476055358943
 30
0.0
 41
0.5600000000000001
 42
0.5600000000000001
 43
0.5600000000000001
 50
90.0
  0
INSERT
  5
9F74
330
9032
100
AcDbEntity
  8
DIM
100
AcDbBlockReference
  2
SEARROW
 10
48.02906901623841
 20
48.53476055358942
 30
0.0
 41
0.5600000000000001
 42
0.5600000000000001
 43
0.5600000000000001
 50
270.0
  0
MTEXT
  5
9F75
330
9032
100
AcDbEntity
  8
DIM
100
AcDbMText
 10
48.02906901623839
 20
50.92476055358942
 30
0.0
 40
0.8
 41
0.0
 71
     5
 72
     1
  1
\A1;4.78\P [121]
  7
ROMANS
1001
ACAD
1000
MTEXTBEGIN
1070
    73
1070
     1
1070
    44
1040
1.0
1070
    74
1070
     0
1000
MTEXTEND
1000
MTEXTBEGIN
1070
    73
1070
     1
1070
    44
1040
1.0
1070
    74
1070
     0
1000
MTEXTEND
  0
POINT
  5
9F76
330
9032
100
AcDbEntity
  8
DEFPOINTS
 62
     0
100
AcDbPoint
 10
52.45153121538034
 20
53.31476055358943
 30
0.0
  0
POINT
  5
9F77
330
9032
100
AcDbEntity
  8
DEFPOINTS
 62
     0
100
AcDbPoint
 10
63.96153121538034
 20
48.53476055358942
 30
0.0
  0
POINT
  5
9F78
330
9032
100
AcDbEntity
  8
DEFPOINTS
 62
     0
100
AcDbPoint
 10
48.02906901623841
 20
48.53476055358942
 30
0.0
  0
ENDBLK
  5
903E
330
9032
100
AcDbEntity
  8
0
100
AcDbBlockEnd
  0
BLOCK
  5
904A
330
903F
100
AcDbEntity
  8
0
100
AcDbBlockBegin
  2
*D10
 70
     1
 10
0.0
 20
0.0
 30
0.0
  3
*D10
  1

  0
LINE
  5
9F79
330
903F
100
AcDbEntity
  8
DIM
100
AcDbLine
 10
64.46153121538036
 20
40.03476055358942
 30
0.0
 11
75.40493814983853
 21
40.03476055358942
 31
0.0
  0
LINE
  5
9F7A
330
903F
100
AcDbEntity
  8
DIM
100
AcDbLine
 10
64.46153121538035
 20
48.53476055358942
 30
0.0
 11
75.40493814983853
 21
48.53476055358942
 31
0.0
  0
LINE
  5
9F7B
330
903F
100
AcDbEntity
  8
DIM
100
AcDbLine
 10
74.90493814983853
 20
40.59476055358942
 30
0.0
 11
74.90493814983853
 21
42.68857007739893
 31
0.0
  0
LINE
  5
9F7C
330
903F
100
AcDbEntity
  8
DIM
100
AcDbLine
 10
74.90493814983853
 20
47.97476055358941
 30
0.0
 11
74.90493814983853
 21
45.88095102977989
 31
0.0
  0
INSERT
  5
9F7D
330
903F
100
AcDbEntity
  8
DIM
100
AcDbBlockReference
  2
SEARROW
 10
74.90493814983853
 20
40.03476055358942
 30
0.0
 41
0.5600000000000001
 42
0.5600000000000001
 43
0.5600000000000001
 50
270.0
  0
INSERT
  5
9F7E
330
903F
100
AcDbEntity
  8
DIM
100
AcDbBlockReference
  2
SEARROW
 10
74.90493814983853
 20
48.53476055358942
 30
0.0
 41
0.5600000000000001
 42
0.5600000000000001
 43
0.5600000000000001
 50
90.0
  0
MTEXT
  5
9F7F
330
903F
100
AcDbEntity
  8
DIM
100
AcDbMText
 10
74.90493814983851
 20
44.28476055358942
 30
0.0
 40
0.8
 41
0.0
 71
     5
 72
     1
  1
\A1;8.50\P [216]
  7
ROMANS
1001
ACAD
1000
MTEXTBEGIN
1070
    73
1070
     1
1070
    44
1040
1.0
1070
    74
1070
     0
1000
MTEXTEND
1000
MTEXTBEGIN
1070
    73
1070
     1
1070
    44
1040
1.0
1070
    74
1070
     0
1000
MTEXTEND
  0
POINT
  5
9F80
330
903F
100
AcDbEntity
  8
DEFPOINTS
 62
     0
100
AcDbPoint
 10
63.96153121538034
 20
40.03476055358942
 30
0.0
  0
POINT
  5
9F81
330
903F
100
AcDbEntity
  8
DEFPOINTS
 62
     0
100
AcDbPoint
 10
63.96153121538034
 20
48.53476055358942
 30
0.0
  0
POINT
  5
9F82
330
903F
100
AcDbEntity
  8
DEFPOINTS
 62
     0
100
AcDbPoint
 10
74.90493814983853
 20
48.53476055358942
 30
0.0
  0
ENDBLK
  5
904B
330
903F
100
AcDbEntity
  8
0
100
AcDbBlockEnd
  0
BLOCK
  5
9057
330
904C
100
AcDbEntity
  8
0
100
AcDbBlockBegin
  2
*D11
 70
     1
 10
0.0
 20
0.0
 30
0.0
  3
*D11
  1

  0
LINE
  5
9F83
330
904C
100
AcDbEntity
  8
DIM
100
AcDbLine
 10
64.83653121538035
 20
48.03476055358942
 30
0.0
 11
71.19336580967838
 21
48.03476055358942
 31
0.0
  0
LINE
  5
9F84
330
904C
100
AcDbEntity
  8
DIM
100
AcDbLine
 10
64.83653121538035
 20
40.53476055358942
 30
0.0
 11
71.19336580967838
 21
40.53476055358942
 31
0.0
  0
LINE
  5
9F85
330
904C
100
AcDbEntity
  8
DIM
100
AcDbLine
 10
70.69336580967839
 20
47.47476055358942
 30
0.0
 11
70.69336580967839
 21
45.88095102977989
 31
0.0
  0
LINE
  5
9F86
330
904C
100
AcDbEntity
  8
DIM
100
AcDbLine
 10
70.69336580967839
 20
41.09476055358942
 30
0.0
 11
70.69336580967839
 21
42.68857007739893
 31
0.0
  0
INSERT
  5
9F87
330
904C
100
AcDbEntity
  8
DIM
100
AcDbBlockReference
  2
SEARROW
 10
70.69336580967839
 20
48.03476055358942
 30
0.0
 41
0.5600000000000001
 42
0.5600000000000001
 43
0.5600000000000001
 50
90.0
  0
INSERT
  5
9F88
330
904C
100
AcDbEntity
  8
DIM
100
AcDbBlockReference
  2
SEARROW
 10
70.69336580967839
 20
40.53476055358942
 30
0.0
 41
0.5600000000000001
 42
0.5600000000000001
 43
0.5600000000000001
 50
270.0
  0
MTEXT
  5
9F89
330
904C
100
AcDbEntity
  8
DIM
100
AcDbMText
 10
70.69336580967837
 20
44.28476055358942
 30
0.0
 40
0.8
 41
0.0
 71
     5
 72
     1
  1
\A1;7.50\P [191]
  7
ROMANS
1001
ACAD
1000
MTEXTBEGIN
1070
    73
1070
     1
1070
    44
1040
1.0
1070
    74
1070
     0
1000
MTEXTEND
1000
MTEXTBEGIN
1070
    73
1070
     1
1070
    44
1040
1.0
1070
    74
1070
     0
1000
MTEXTEND
  0
POINT
  5
9F8A
330
904C
100
AcDbEntity
  8
DEFPOINTS
 62
     0
100
AcDbPoint
 10
64.33653121538035
 20
48.03476055358942
 30
0.0
  0
POINT
  5
9F8B
330
904C
100
AcDbEntity
  8
DEFPOINTS
 62
     0
100
AcDbPoint
 10
64.33653121538035
 20
40.53476055358942
 30
0.0
  0
POINT
  5
9F8C
330
904C
100
AcDbEntity
  8
DEFPOINTS
 62
     0
100
AcDbPoint
 10
70.69336580967839
 20
40.53476055358942
 30
0.0
  0
ENDBLK
  5
9058
330
904C
100
AcDbEntity
  8
0
100
AcDbBlockEnd
  0
BLOCK
  5
9064
330
9059
100
AcDbEntity
  8
0
100
AcDbBlockBegin
  2
*D12
 70
     1
 10
0.0
 20
0.0
 30
0.0
  3
*D12
  1

  0
LINE
  5
9F8D
330
9059
100
AcDbEntity
  8
DIM
100
AcDbLine
 10
64.46153121538035
 20
48.53476055358942
 30
0.0
 11
69.50294385552919
 21
48.53476055358942
 31
0.0
  0
LINE
  5
9F8E
330
9059
100
AcDbEntity
  8
DIM
100
AcDbLine
 10
64.83653121538035
 20
48.03476055358942
 30
0.0
 11
69.50294385552919
 21
48.03476055358942
 31
0.0
  0
LINE
  5
9F8F
330
9059
100
AcDbEntity
  8
DIM
100
AcDbLine
 10
69.00294385552919
 20
49.09476055358942
 30
0.0
 11
69.00294385552919
 21
49.65476055358942
 31
0.0
  0
LINE
  5
9F90
330
9059
100
AcDbEntity
  8
DIM
100
AcDbLine
 10
69.00294385552919
 20
47.47476055358942
 30
0.0
 11
69.00294385552919
 21
45.97106314901739
 31
0.0
  0
LINE
  5
9F91
330
9059
100
AcDbEntity
  8
DIM
100
AcDbLine
 10
69.00294385552919
 20
45.97106314901739
 30
0.0
 11
68.44294385552919
 21
45.97106314901739
 31
0.0
  0
INSERT
  5
9F92
330
9059
100
AcDbEntity
  8
DIM
100
AcDbBlockReference
  2
SEARROW
 10
69.00294385552919
 20
48.53476055358942
 30
0.0
 41
0.5600000000000001
 42
0.5600000000000001
 43
0.5600000000000001
 50
270.0
  0
INSERT
  5
9F93
330
9059
100
AcDbEntity
  8
DIM
100
AcDbBlockReference
  2
SEARROW
 10
69.00294385552919
 20
48.03476055358942
 30
0.0
 41
0.5600000000000001
 42
0.5600000000000001
 43
0.5600000000000001
 50
90.0
  0
MTEXT
  5
9F94
330
9059
100
AcDbEntity
  8
DIM
100
AcDbMText
 10
66.59913433171965
 20
45.97106314901739
 30
0.0
 40
0.8
 41
0.0
 71
     5
 72
     1
  1
\A1;\P.50\P [13]
  7
ROMANS
1001
ACAD
1000
MTEXTBEGIN
1070
    73
1070
     1
1070
    44
1040
1.0
1070
    74
1070
     0
1000
MTEXTEND
1000
MTEXTBEGIN
1070
    73
1070
     1
1070
    44
1040
1.0
1070
    74
1070
     0
1000
MTEXTEND
  0
POINT
  5
9F95
330
9059
100
AcDbEntity
  8
DEFPOINTS
 62
     0
100
AcDbPoint
 10
63.96153121538034
 20
48.53476055358942
 30
0.0
  0
POINT
  5
9F96
330
9059
100
AcDbEntity
  8
DEFPOINTS
 62
     0
100
AcDbPoint
 10
64.33653121538035
 20
48.03476055358942
 30
0.0
  0
POINT
  5
9F97
330
9059
100
AcDbEntity
  8
DEFPOINTS
 62
     0
100
AcDbPoint
 10
69.00294385552919
 20
48.03476055358942
 30
0.0
  0
ENDBLK
  5
9065
330
9059
100
AcDbEntity
  8
0
100
AcDbBlockEnd
  0
BLOCK
  5
9071
330
9066
100
AcDbEntity
  8
0
100
AcDbBlockBegin
  2
*D13
 70
     1
 10
0.0
 20
0.0
 30
0.0
  3
*D13
  1

  0
LINE
  5
9F98
330
9066
100
AcDbEntity
  8
DIM
100
AcDbLine
 10
52.45153121538034
 20
53.81476055358943
 30
0.0
 11
52.45153121538034
 21
58.21642529689598
 31
0.0
  0
LINE
  5
9F99
330
9066
100
AcDbEntity
  8
DIM
100
AcDbLine
 10
63.96153121538034
 20
49.03476055358942
 30
0.0
 11
63.96153121538034
 21
58.21642529689598
 31
0.0
  0
LINE
  5
9F9A
330
9066
100
AcDbEntity
  8
DIM
100
AcDbLine
 10
53.01153121538034
 20
57.71642529689598
 30
0.0
 11
55.98176931061844
 21
57.71642529689598
 31
0.0
  0
LINE
  5
9F9B
330
9066
100
AcDbEntity
  8
DIM
100
AcDbLine
 10
63.40153121538034
 20
57.71642529689598
 30
0.0
 11
60.43129312014225
 21
57.71642529689598
 31
0.0
  0
INSERT
  5
9F9C
330
9066
100
AcDbEntity
  8
DIM
100
AcDbBlockReference
  2
SEARROW
 10
52.45153121538034
 20
57.71642529689598
 30
0.0
 41
0.5600000000000001
 42
0.5600000000000001
 43
0.5600000000000001
 50
180.0
  0
INSERT
  5
9F9D
330
9066
100
AcDbEntity
  8
DIM
100
AcDbBlockReference
  2
SEARROW
 10
63.96153121538034
 20
57.71642529689598
 30
0.0
 41
0.5600000000000001
 42
0.5600000000000001
 43
0.5600000000000001
  0
MTEXT
  5
9F9E
330
9066
100
AcDbEntity
  8
DIM
100
AcDbMText
 10
58.20653121538034
 20
57.71642529689598
 30
0.0
 40
0.8
 41
0.0
 71
     5
 72
     1
  1
\A1;\P11.51\P [292]
  7
ROMANS
1001
ACAD
1000
MTEXTBEGIN
1070
    73
1070
     1
1070
    44
1040
1.0
1070
    74
1070
     0
1000
MTEXTEND
1000
MTEXTBEGIN
1070
    73
1070
     1
1070
    44
1040
1.0
1070
    74
1070
     0
1000
MTEXTEND
  0
POINT
  5
9F9F
330
9066
100
AcDbEntity
  8
DEFPOINTS
 62
     0
100
AcDbPoint
 10
52.45153121538034
 20
53.31476055358943
 30
0.0
  0
POINT
  5
9FA0
330
9066
100
AcDbEntity
  8
DEFPOINTS
 62
     0
100
AcDbPoint
 10
63.96153121538034
 20
48.53476055358942
 30
0.0
  0
POINT
  5
9FA1
330
9066
100
AcDbEntity
  8
DEFPOINTS
 62
     0
100
AcDbPoint
 10
63.96153121538034
 20
57.71642529689598
 30
0.0
  0
ENDBLK
  5
9072
330
9066
100
AcDbEntity
  8
0
100
AcDbBlockEnd
  0
BLOCK
  5
907E
330
9073
100
AcDbEntity
  8
0
100
AcDbBlockBegin
  2
*D14
 70
     1
 10
0.0
 20
0.0
 30
0.0
  3
*D14
  1

  0
LINE
  5
9FA2
330
9073
100
AcDbEntity
  8
DIM
100
AcDbLine
 10
64.33653121538035
 20
40.03476055358942
 30
0.0
 11
64.33653121538035
 21
36.08871333147567
 31
0.0
  0
LINE
  5
9FA3
330
9073
100
AcDbEntity
  8
DIM
100
AcDbLine
 10
63.58653121538034
 20
40.03476055358942
 30
0.0
 11
63.58653121538034
 21
36.08871333147567
 31
0.0
  0
LINE
  5
9FA4
330
9073
100
AcDbEntity
  8
DIM
100
AcDbLine
 10
64.89653121538035
 20
36.58871333147567
 30
0.0
 11
65.45653121538035
 21
36.58871333147567
 31
0.0
  0
LINE
  5
9FA5
330
9073
100
AcDbEntity
  8
DIM
100
AcDbLine
 10
63.02653121538034
 20
36.58871333147567
 30
0.0
 11
58.84468293968417
 21
36.58871333147567
 31
0.0
  0
INSERT
  5
9FA6
330
9073
100
AcDbEntity
  8
DIM
100
AcDbBlockReference
  2
SEARROW
 10
64.33653121538035
 20
36.58871333147567
 30
0.0
 41
0.5600000000000001
 42
0.5600000000000001
 43
0.5600000000000001
 50
180.0
  0
INSERT
  5
9FA7
330
9073
100
AcDbEntity
  8
DIM
100
AcDbBlockReference
  2
SEARROW
 10
63.58653121538034
 20
36.58871333147567
 30
0.0
 41
0.5600000000000001
 42
0.5600000000000001
 43
0.5600000000000001
  0
MTEXT
  5
9FA8
330
9073
100
AcDbEntity
  8
DIM
100
AcDbMText
 10
57.00087341587465
 20
36.58871333147567
 30
0.0
 40
0.8
 41
0.0
 71
     5
 72
     1
  1
\A1;\P.75\P [19]
  7
ROMANS
1001
ACAD
1000
MTEXTBEGIN
1070
    73
1070
     1
1070
    44
1040
1.0
1070
    74
1070
     0
1000
MTEXTEND
1000
MTEXTBEGIN
1070
    73
1070
     1
1070
    44
1040
1.0
1070
    74
1070
     0
1000
MTEXTEND
  0
POINT
  5
9FA9
330
9073
100
AcDbEntity
  8
DEFPOINTS
 62
     0
100
AcDbPoint
 10
64.33653121538035
 20
40.53476055358942
 30
0.0
  0
POINT
  5
9FAA
330
9073
100
AcDbEntity
  8
DEFPOINTS
 62
     0
100
AcDbPoint
 10
63.58653121538034
 20
40.53476055358942
 30
0.0
  0
POINT
  5
9FAB
330
9073
100
AcDbEntity
  8
DEFPOINTS
 62
     0
100
AcDbPoint
 10
63.58653121538034
 20
36.58871333147567
 30
0.0
  0
ENDBLK
  5
907F
330
9073
100
AcDbEntity
  8
0
100
AcDbBlockEnd
  0
BLOCK
  5
908B
330
9080
100
AcDbEntity
  8
0
100
AcDbBlockBegin
  2
*D15
 70
     1
 10
0.0
 20
0.0
 30
0.0
  3
*D15
  1

  0
LINE
  5
9FAC
330
9080
100
AcDbEntity
  8
DIM
100
AcDbLine
 10
64.46153121538035
 20
48.53476055358942
 30
0.0
 11
75.40493814983853
 21
48.53476055358942
 31
0.0
  0
LINE
  5
9FAD
330
9080
100
AcDbEntity
  8
DIM
100
AcDbLine
 10
65.09153121538034
 20
53.91226055358941
 30
0.0
 11
75.40493814983853
 21
53.91226055358941
 31
0.0
  0
LINE
  5
9FAE
330
9080
100
AcDbEntity
  8
DIM
100
AcDbLine
 10
74.90493814983853
 20
49.09476055358942
 30
0.0
 11
74.90493814983853
 21
49.62732007739893
 31
0.0
  0
LINE
  5
9FAF
330
9080
100
AcDbEntity
  8
DIM
100
AcDbLine
 10
74.90493814983853
 20
53.35226055358941
 30
0.0
 11
74.90493814983853
 21
52.81970102977989
 31
0.0
  0
INSERT
  5
9FB0
330
9080
100
AcDbEntity
  8
DIM
100
AcDbBlockReference
  2
SEARROW
 10
74.90493814983853
 20
48.53476055358942
 30
0.0
 41
0.5600000000000001
 42
0.5600000000000001
 43
0.5600000000000001
 50
270.0
  0
INSERT
  5
9FB1
330
9080
100
AcDbEntity
  8
DIM
100
AcDbBlockReference
  2
SEARROW
 10
74.90493814983853
 20
53.91226055358941
 30
0.0
 41
0.5600000000000001
 42
0.5600000000000001
 43
0.5600000000000001
 50
90.0
  0
MTEXT
  5
9FB2
330
9080
100
AcDbEntity
  8
DIM
100
AcDbMText
 10
74.90493814983851
 20
51.22351055358942
 30
0.0
 40
0.8
 41
0.0
 71
     5
 72
     1
  1
\A1;5.38\P [137]
  7
ROMANS
1001
ACAD
1000
MTEXTBEGIN
1070
    73
1070
     1
1070
    44
1040
1.0
1070
    74
1070
     0
1000
MTEXTEND
1000
MTEXTBEGIN
1070
    73
1070
     1
1070
    44
1040
1.0
1070
    74
1070
     0
1000
MTEXTEND
  0
POINT
  5
9FB3
330
9080
100
AcDbEntity
  8
DEFPOINTS
 62
     0
100
AcDbPoint
 10
63.96153121538034
 20
48.53476055358942
 30
0.0
  0
POINT
  5
9FB4
330
9080
100
AcDbEntity
  8
DEFPOINTS
 62
     0
100
AcDbPoint
 10
64.59153121538034
 20
53.91226055358941
 30
0.0
  0
POINT
  5
9FB5
330
9080
100
AcDbEntity
  8
DEFPOINTS
 62
     0
100
AcDbPoint
 10
74.90493814983853
 20
53.91226055358941
 30
0.0
  0
ENDBLK
  5
908C
330
9080
100
AcDbEntity
  8
0
100
AcDbBlockEnd
  0
BLOCK
  5
9098
330
908D
100
AcDbEntity
  8
0
100
AcDbBlockBegin
  2
*D16
 70
     1
 10
0.0
 20
0.0
 30
0.0
  3
*D16
  1

  0
LINE
  5
9FB6
330
908D
100
AcDbEntity
  8
DIM
100
AcDbLine
 10
63.96153121538034
 20
39.53476055358942
 30
0.0
 11
63.96153121538034
 21
34.2793808730064
 31
0.0
  0
LINE
  5
9FB7
330
908D
100
AcDbEntity
  8
DIM
100
AcDbLine
 10
62.46153121538035
 20
36.63545854895282
 30
0.0
 11
62.46153121538035
 21
34.2793808730064
 31
0.0
  0
LINE
  5
9FB8
330
908D
100
AcDbEntity
  8
DIM
100
AcDbLine
 10
61.90153121538035
 20
34.7793808730064
 30
0.0
 11
61.34153121538035
 21
34.7793808730064
 31
0.0
  0
LINE
  5
9FB9
330
908D
100
AcDbEntity
  8
DIM
100
AcDbLine
 10
64.52153121538035
 20
34.7793808730064
 30
0.0
 11
67.61315561344303
 21
34.7793808730064
 31
0.0
  0
INSERT
  5
9FBA
330
908D
100
AcDbEntity
  8
DIM
100
AcDbBlockReference
  2
SEARROW
 10
62.46153121538035
 20
34.7793808730064
 30
0.0
 41
0.5600000000000001
 42
0.5600000000000001
 43
0.5600000000000001
  0
INSERT
  5
9FBB
330
908D
100
AcDbEntity
  8
DIM
100
AcDbBlockReference
  2
SEARROW
 10
63.96153121538034
 20
34.7793808730064
 30
0.0
 41
0.5600000000000001
 42
0.5600000000000001
 43
0.5600000000000001
 50
180.0
  0
MTEXT
  5
9FBC
330
908D
100
AcDbEntity
  8
DIM
100
AcDbMText
 10
69.45696513725255
 20
34.7793808730064
 30
0.0
 40
0.8
 41
0.0
 71
     5
 72
     1
  1
\A1;\P1.50\P [38]
  7
ROMANS
1001
ACAD
1000
MTEXTBEGIN
1070
    73
1070
     1
1070
    44
1040
1.0
1070
    74
1070
     0
1000
MTEXTEND
1000
MTEXTBEGIN
1070
    73
1070
     1
1070
    44
1040
1.0
1070
    74
1070
     0
1000
MTEXTEND
  0
POINT
  5
9FBD
330
908D
100
AcDbEntity
  8
DEFPOINTS
 62
     0
100
AcDbPoint
 10
63.96153121538034
 20
40.03476055358942
 30
0.0
  0
POINT
  5
9FBE
330
908D
100
AcDbEntity
  8
DEFPOINTS
 62
     0
100
AcDbPoint
 10
62.46153121538035
 20
37.13545854895282
 30
0.0
  0
POINT
  5
9FBF
330
908D
100
AcDbEntity
  8
DEFPOINTS
 62
     0
100
AcDbPoint
 10
62.46153121538035
 20
34.7793808730064
 30
0.0
  0
ENDBLK
  5
9099
330
908D
100
AcDbEntity
  8
0
100
AcDbBlockEnd
  0
BLOCK
  5
90A5
330
909A
100
AcDbEntity
  8
0
100
AcDbBlockBegin
  2
*D17
 70
     1
 10
0.0
 20
0.0
 30
0.0
  3
*D17
  1

  0
LINE
  5
9FC0
330
909A
100
AcDbEntity
  8
DIM
100
AcDbLine
 10
52.45153121538034
 20
53.81476055358943
 30
0.0
 11
52.45153121538034
 21
61.48391878728475
 31
0.0
  0
LINE
  5
9FC1
330
909A
100
AcDbEntity
  8
DIM
100
AcDbLine
 10
65.4606698292332
 20
57.80474344616344
 30
0.0
 11
65.4606698292332
 21
61.48391878728475
 31
0.0
  0
LINE
  5
9FC2
330
909A
100
AcDbEntity
  8
DIM
100
AcDbLine
 10
53.01153121538034
 20
60.98391878728474
 30
0.0
 11
56.73133861754486
 21
60.98391878728474
 31
0.0
  0
LINE
  5
9FC3
330
909A
100
AcDbEntity
  8
DIM
100
AcDbLine
 10
64.9006698292332
 20
60.98391878728474
 30
0.0
 11
61.18086242706867
 21
60.98391878728474
 31
0.0
  0
INSERT
  5
9FC4
330
909A
100
AcDbEntity
  8
DIM
100
AcDbBlockReference
  2
SEARROW
 10
52.45153121538034
 20
60.98391878728474
 30
0.0
 41
0.5600000000000001
 42
0.5600000000000001
 43
0.5600000000000001
 50
180.0
  0
INSERT
  5
9FC5
330
909A
100
AcDbEntity
  8
DIM
100
AcDbBlockReference
  2
SEARROW
 10
65.4606698292332
 20
60.98391878728474
 30
0.0
 41
0.5600000000000001
 42
0.5600000000000001
 43
0.5600000000000001
  0
MTEXT
  5
9FC6
330
909A
100
AcDbEntity
  8
DIM
100
AcDbMText
 10
58.95610052230677
 20
60.98391878728474
 30
0.0
 40
0.8
 41
0.0
 71
     5
 72
     1
  1
\A1;\P13.01\P [330]
  7
ROMANS
1001
ACAD
1000
MTEXTBEGIN
1070
    73
1070
     1
1070
    44
1040
1.0
1070
    74
1070
     0
1000
MTEXTEND
1000
MTEXTBEGIN
1070
    73
1070
     1
1070
    44
1040
1.0
1070
    74
1070
     0
1000
MTEXTEND
  0
POINT
  5
9FC7
330
909A
100
AcDbEntity
  8
DEFPOINTS
 62
     0
100
AcDbPoint
 10
52.45153121538034
 20
53.31476055358943
 30
0.0
  0
POINT
  5
9FC8
330
909A
100
AcDbEntity
  8
DEFPOINTS
 62
     0
100
AcDbPoint
 10
65.4606698292332
 20
57.30474344616344
 30
0.0
  0
POINT
  5
9FC9
330
909A
100
AcDbEntity
  8
DEFPOINTS
 62
     0
100
AcDbPoint
 10
65.4606698292332
 20
60.98391878728474
 30
0.0
  0
ENDBLK
  5
90A6
330
909A
100
AcDbEntity
  8
0
100
AcDbBlockEnd
  0
BLOCK
  5
90B2
330
90A7
100
AcDbEntity
  8
0
100
AcDbBlockBegin
  2
*D18
 70
     1
 10
0.0
 20
0.0
 30
0.0
  3
*D18
  1

  0
LINE
  5
9FCA
330
90A7
100
AcDbEntity
  8
DIM
100
AcDbLine
 10
63.96153121538034
 20
39.53476055358942
 30
0.0
 11
63.96153121538034
 21
38.19960126392075
 31
0.0
  0
LINE
  5
9FCB
330
90A7
100
AcDbEntity
  8
DIM
100
AcDbLine
 10
63.58653121538034
 20
40.03476055358942
 30
0.0
 11
63.58653121538034
 21
38.19960126392075
 31
0.0
  0
LINE
  5
9FCC
330
90A7
100
AcDbEntity
  8
DIM
100
AcDbLine
 10
64.52153121538035
 20
38.69960126392075
 30
0.0
 11
65.08153121538035
 21
38.69960126392075
 31
0.0
  0
LINE
  5
9FCD
330
90A7
100
AcDbEntity
  8
DIM
100
AcDbLine
 10
63.02653121538034
 20
38.69960126392075
 30
0.0
 11
62.12074778117621
 21
38.69960126392075
 31
0.0
  0
INSERT
  5
9FCE
330
90A7
100
AcDbEntity
  8
DIM
100
AcDbBlockReference
  2
SEARROW
 10
63.96153121538034
 20
38.69960126392075
 30
0.0
 41
0.5600000000000001
 42
0.5600000000000001
 43
0.5600000000000001
 50
180.0
  0
INSERT
  5
9FCF
330
90A7
100
AcDbEntity
  8
DIM
100
AcDbBlockReference
  2
SEARROW
 10
63.58653121538034
 20
38.69960126392075
 30
0.0
 41
0.5600000000000001
 42
0.5600000000000001
 43
0.5600000000000001
  0
MTEXT
  5
9FD0
330
90A7
100
AcDbEntity
  8
DIM
100
AcDbMText
 10
60.27693825736668
 20
38.69960126392075
 30
0.0
 40
0.8
 41
0.0
 71
     5
 72
     1
  1
\A1;\P.38\P [10]
  7
ROMANS
1001
ACAD
1000
MTEXTBEGIN
1070
    73
1070
     1
1070
    44
1040
1.0
1070
    74
1070
     0
1000
MTEXTEND
1000
MTEXTBEGIN
1070
    73
1070
     1
1070
    44
1040
1.0
1070
    74
1070
     0
1000
MTEXTEND
  0
POINT
  5
9FD1
330
90A7
100
AcDbEntity
  8
DEFPOINTS
 62
     0
100
AcDbPoint
 10
63.96153121538034
 20
40.03476055358942
 30
0.0
  0
POINT
  5
9FD2
330
90A7
100
AcDbEntity
  8
DEFPOINTS
 62
     0
100
AcDbPoint
 10
63.58653121538034
 20
40.53476055358942
 30
0.0
  0
POINT
  5
9FD3
330
90A7
100
AcDbEntity
  8
DEFPOINTS
 62
     0
100
AcDbPoint
 10
63.58653121538034
 20
38.69960126392075
 30
0.0
  0
ENDBLK
  5
90B3
330
90A7
100
AcDbEntity
  8
0
100
AcDbBlockEnd
  0
BLOCK
  5
90BF
330
90B4
100
AcDbEntity
  8
0
100
AcDbBlockBegin
  2
*D19
 70
     1
 10
0.0
 20
0.0
 30
0.0
  3
*D19
  1

  0
LINE
  5
9FD4
330
90B4
100
AcDbEntity
  8
DIM
100
AcDbLine
 10
64.46153121538035
 20
48.53476055358942
 30
0.0
 11
69.50619278996704
 21
48.53476055358942
 31
0.0
  0
LINE
  5
9FD5
330
90B4
100
AcDbEntity
  8
DIM
100
AcDbLine
 10
66.08653121538035
 20
64.59476055358942
 30
0.0
 11
69.50619278996704
 21
64.59476055358942
 31
0.0
  0
LINE
  5
9FD6
330
90B4
100
AcDbEntity
  8
DIM
100
AcDbLine
 10
69.00619278996704
 20
49.09476055358942
 30
0.0
 11
69.00619278996704
 21
56.24109140004378
 31
0.0
  0
LINE
  5
9FD7
330
90B4
100
AcDbEntity
  8
DIM
100
AcDbLine
 10
69.00619278996704
 20
64.03476055358942
 30
0.0
 11
69.00619278996704
 21
59.01442473337713
 31
0.0
  0
INSERT
  5
9FD8
330
90B4
100
AcDbEntity
  8
DIM
100
AcDbBlockReference
  2
SEARROW
 10
69.00619278996704
 20
48.53476055358942
 30
0.0
 41
0.5600000000000001
 42
0.5600000000000001
 43
0.5600000000000001
 50
270.0
  0
INSERT
  5
9FD9
330
90B4
100
AcDbEntity
  8
DIM
100
AcDbBlockReference
  2
SEARROW
 10
69.00619278996704
 20
64.59476055358942
 30
0.0
 41
0.5600000000000001
 42
0.5600000000000001
 43
0.5600000000000001
 50
90.0
  0
MTEXT
  5
9FDA
330
90B4
100
AcDbEntity
  8
DIM
100
AcDbMText
 10
69.00619278996703
 20
57.62775806671046
 30
0.0
 40
0.8
 41
0.0
 71
     5
 72
     1
  1
\A1;13.25 \PMIN.
  7
ROMANS
1001
ACAD
1000
MTEXTBEGIN
1070
    73
1070
     1
1070
    44
1040
1.0
1070
    74
1070
     0
1000
MTEXTEND
1000
MTEXTBEGIN
1070
    73
1070
     1
1070
    44
1040
1.0
1070
    74
1070
     0
1000
MTEXTEND
  0
POINT
  5
9FDB
330
90B4
100
AcDbEntity
  8
DEFPOINTS
 62
     0
100
AcDbPoint
 10
63.96153121538034
 20
48.53476055358942
 30
0.0
  0
POINT
  5
9FDC
330
90B4
100
AcDbEntity
  8
DEFPOINTS
 62
     0
100
AcDbPoint
 10
65.58653121538035
 20
64.59476055358942
 30
0.0
  0
POINT
  5
9FDD
330
90B4
100
AcDbEntity
  8
DEFPOINTS
 62
     0
100
AcDbPoint
 10
69.00619278996704
 20
64.59476055358942
 30
0.0
  0
ENDBLK
  5
90C0
330
90B4
100
AcDbEntity
  8
0
100
AcDbBlockEnd
  0
BLOCK
  5
90CC
330
90C1
100
AcDbEntity
  8
0
100
AcDbBlockBegin
  2
*D20
 70
     1
 10
0.0
 20
0.0
 30
0.0
  3
*D20
  1

  0
LINE
  5
9FDE
330
90C1
100
AcDbEntity
  8
DIM
100
AcDbLine
 10
65.46153121538032
 20
64.96976055358942
 30
0.0
 11
65.46153121538032
 21
67.96748226736034
 31
0.0
  0
LINE
  5
9FDF
330
90C1
100
AcDbEntity
  8
DIM
100
AcDbLine
 10
62.46153121538035
 20
63.59476055358943
 30
0.0
 11
62.46153121538035
 21
67.96748226736034
 31
0.0
  0
LINE
  5
9FE0
330
90C1
100
AcDbEntity
  8
DIM
100
AcDbLine
 10
64.90153121538032
 20
67.46748226736034
 30
0.0
 11
63.02153121538035
 21
67.46748226736034
 31
0.0
  0
LINE
  5
9FE1
330
90C1
100
AcDbEntity
  8
DIM
100
AcDbLine
 10
62.46153121538035
 20
67.46748226736034
 30
0.0
 11
61.90153121538035
 21
67.46748226736034
 31
0.0
  0
INSERT
  5
9FE2
330
90C1
100
AcDbEntity
  8
DIM
100
AcDbBlockReference
  2
SEARROW
 10
65.46153121538032
 20
67.46748226736034
 30
0.0
 41
0.5600000000000001
 42
0.5600000000000001
 43
0.5600000000000001
  0
INSERT
  5
9FE3
330
90C1
100
AcDbEntity
  8
DIM
100
AcDbBlockReference
  2
SEARROW
 10
62.46153121538035
 20
67.46748226736034
 30
0.0
 41
0.5600000000000001
 42
0.5600000000000001
 43
0.5600000000000001
 50
180.0
  0
MTEXT
  5
9FE4
330
90C1
100
AcDbEntity
  8
DIM
100
AcDbMText
 10
60.05772169157083
 20
67.46748226736034
 30
0.0
 40
0.8
 41
0.0
 71
     5
 72
     1
  1
\A1;\P3.00\P [76]
  7
ROMANS
1001
ACAD
1000
MTEXTBEGIN
1070
    73
1070
     1
1070
    44
1040
1.0
1070
    74
1070
     0
1000
MTEXTEND
1000
MTEXTBEGIN
1070
    73
1070
     1
1070
    44
1040
1.0
1070
    74
1070
     0
1000
MTEXTEND
  0
POINT
  5
9FE5
330
90C1
100
AcDbEntity
  8
DEFPOINTS
 62
     0
100
AcDbPoint
 10
65.46153121538032
 20
64.46976055358942
 30
0.0
  0
POINT
  5
9FE6
330
90C1
100
AcDbEntity
  8
DEFPOINTS
 62
     0
100
AcDbPoint
 10
62.46153121538035
 20
63.09476055358943
 30
0.0
  0
POINT
  5
9FE7
330
90C1
100
AcDbEntity
  8
DEFPOINTS
 62
     0
100
AcDbPoint
 10
62.46153121538035
 20
67.46748226736034
 30
0.0
  0
ENDBLK
  5
90CD
330
90C1
100
AcDbEntity
  8
0
100
AcDbBlockEnd
  0
BLOCK
  5
90E3
330
90D8
100
AcDbEntity
  8
0
100
AcDbBlockBegin
  2
*D21
 70
     1
 10
0.0
 20
0.0
 30
0.0
  3
*D21
  1

  0
LINE
  5
9FE8
330
90D8
100
AcDbEntity
  8
DIM
100
AcDbLine
 10
51.95153121538034
 20
29.51476055358941
 30
0.0
 11
44.20553568730644
 21
29.51476055358941
 31
0.0
  0
LINE
  5
9FE9
330
90D8
100
AcDbEntity
  8
DIM
100
AcDbLine
 10
51.95153121538034
 20
53.31476055358943
 30
0.0
 11
44.20553568730645
 21
53.31476055358944
 31
0.0
  0
LINE
  5
9FEA
330
90D8
100
AcDbEntity
  8
DIM
100
AcDbLine
 10
44.70553568730644
 20
30.07476055358941
 30
0.0
 11
44.70553568730645
 21
52.75476055358943
 31
0.0
  0
INSERT
  5
9FEB
330
90D8
100
AcDbEntity
  8
DIM
100
AcDbBlockReference
  2
SEARROW
 10
44.70553568730644
 20
29.51476055358941
 30
0.0
 41
0.5600000000000001
 42
0.5600000000000001
 43
0.5600000000000001
 50
270.0
  0
INSERT
  5
9FEC
330
90D8
100
AcDbEntity
  8
DIM
100
AcDbBlockReference
  2
SEARROW
 10
44.70553568730645
 20
53.31476055358944
 30
0.0
 41
0.5600000000000001
 42
0.5600000000000001
 43
0.5600000000000001
 50
90.0
  0
MTEXT
  5
9FED
330
90D8
100
AcDbEntity
  8
DIM
100
AcDbMText
 10
43.98553568730643
 20
41.41476055358943
 30
0.0
 40
0.8
 41
0.0
 71
     5
 72
     1
  1
\A1;23.80
  7
ROMANS
 11
0.0000000000000001
 21
1.0
 31
0.0
1001
ACAD
1000
MTEXTBEGIN
1070
    73
1070
     1
1070
    44
1040
1.0
1070
    74
1070
     0
1000
MTEXTEND
1000
MTEXTBEGIN
1070
    73
1070
     1
1070
    44
1040
1.0
1070
    74
1070
     0
1000
MTEXTEND
  0
MTEXT
  5
9FEE
330
90D8
100
AcDbEntity
  8
DIM
100
AcDbMText
 10
45.63505949683024
 20
41.41476055358943
 30
0.0
 40
0.8
 41
0.0
 71
     5
 72
     1
  1
\A1;[605]
  7
ROMANS
 11
0.0000000000000001
 21
1.0
 31
0.0
1001
ACAD
1000
MTEXTBEGIN
1070
    73
1070
     1
1070
    44
1040
1.0
1070
    74
1070
     0
1000
MTEXTEND
1000
MTEXTBEGIN
1070
    73
1070
     1
1070
    44
1040
1.0
1070
    74
1070
     0
1000
MTEXTEND
  0
POINT
  5
9FEF
330
90D8
100
AcDbEntity
  8
DEFPOINTS
 62
     0
100
AcDbPoint
 10
52.45153121538034
 20
29.51476055358941
 30
0.0
  0
POINT
  5
9FF0
330
90D8
100
AcDbEntity
  8
DEFPOINTS
 62
     0
100
AcDbPoint
 10
52.45153121538034
 20
53.31476055358943
 30
0.0
  0
POINT
  5
9FF1
330
90D8
100
AcDbEntity
  8
DEFPOINTS
 62
     0
100
AcDbPoint
 10
44.70553568730645
 20
53.31476055358944
 30
0.0
  0
ENDBLK
  5
90E4
330
90D8
100
AcDbEntity
  8
0
100
AcDbBlockEnd
  0
BLOCK
  5
90F0
330
90E5
100
AcDbEntity
  8
0
100
AcDbBlockBegin
  2
*D22
 70
     1
 10
0.0
 20
0.0
 30
0.0
  3
*D22
  1

  0
LINE
  5
9FF2
330
90E5
100
AcDbEntity
  8
DIM
100
AcDbLine
 10
90.34708382279259
 20
29.41226055358942
 30
0.0
 11
84.68501557418893
 21
29.41226055358942
 31
0.0
  0
LINE
  5
9FF3
330
90E5
100
AcDbEntity
  8
DIM
100
AcDbLine
 10
90.34708382279259
 20
53.41226055358943
 30
0.0
 11
84.68501557418894
 21
53.41226055358943
 31
0.0
  0
LINE
  5
9FF4
330
90E5
100
AcDbEntity
  8
DIM
100
AcDbLine
 10
85.18501557418892
 20
29.97226055358942
 30
0.0
 11
85.18501557418893
 21
39.81607007739894
 31
0.0
  0
LINE
  5
9FF5
330
90E5
100
AcDbEntity
  8
DIM
100
AcDbLine
 10
85.18501557418893
 20
52.85226055358942
 30
0.0
 11
85.18501557418893
 21
43.0084510297799
 31
0.0
  0
INSERT
  5
9FF6
330
90E5
100
AcDbEntity
  8
DIM
100
AcDbBlockReference
  2
SEARROW
 10
85.18501557418892
 20
29.41226055358942
 30
0.0
 41
0.5600000000000001
 42
0.5600000000000001
 43
0.5600000000000001
 50
270.0
  0
INSERT
  5
9FF7
330
90E5
100
AcDbEntity
  8
DIM
100
AcDbBlockReference
  2
SEARROW
 10
85.18501557418893
 20
53.41226055358943
 30
0.0
 41
0.5600000000000001
 42
0.5600000000000001
 43
0.5600000000000001
 50
90.0
  0
MTEXT
  5
9FF8
330
90E5
100
AcDbEntity
  8
DIM
100
AcDbMText
 10
85.18501557418892
 20
41.41226055358943
 30
0.0
 40
0.8
 41
0.0
 71
     5
 72
     1
  1
\A1;24.00\P [610]
  7
ROMANS
1001
ACAD
1000
MTEXTBEGIN
1070
    73
1070
     1
1070
    44
1040
1.0
1070
    74
1070
     0
1000
MTEXTEND
1000
MTEXTBEGIN
1070
    73
1070
     1
1070
    44
1040
1.0
1070
    74
1070
     0
1000
MTEXTEND
  0
POINT
  5
9FF9
330
90E5
100
AcDbEntity
  8
DEFPOINTS
 62
     0
100
AcDbPoint
 10
90.84708382279258
 20
29.41226055358942
 30
0.0
  0
POINT
  5
9FFA
330
90E5
100
AcDbEntity
  8
DEFPOINTS
 62
     0
100
AcDbPoint
 10
90.84708382279258
 20
53.41226055358943
 30
0.0
  0
POINT
  5
9FFB
330
90E5
100
AcDbEntity
  8
DEFPOINTS
 62
     0
100
AcDbPoint
 10
85.18501557418893
 20
53.41226055358943
 30
0.0
  0
ENDBLK
  5
90F1
330
90E5
100
AcDbEntity
  8
0
100
AcDbBlockEnd
  0
BLOCK
  5
90FD
330
90F2
100
AcDbEntity
  8
0
100
AcDbBlockBegin
  2
*D23
 70
     1
 10
0.0
 20
0.0
 30
0.0
  3
*D23
  1

  0
LINE
  5
9FFC
330
90F2
100
AcDbEntity
  8
DIM
100
AcDbLine
 10
90.84708382279258
 20
53.91226055358942
 30
0.0
 11
90.84708382279258
 21
59.86391878728475
 31
0.0
  0
LINE
  5
9FFD
330
90F2
100
AcDbEntity
  8
DIM
100
AcDbLine
 10
96.34708382279256
 20
53.91226055358942
 30
0.0
 11
96.34708382279256
 21
59.86391878728475
 31
0.0
  0
LINE
  5
9FFE
330
90F2
100
AcDbEntity
  8
DIM
100
AcDbLine
 10
90.28708382279258
 20
59.36391878728475
 30
0.0
 11
89.72708382279257
 21
59.36391878728475
 31
0.0
  0
LINE
  5
9FFF
330
90F2
100
AcDbEntity
  8
DIM
100
AcDbLine
 10
96.90708382279257
 20
59.36391878728475
 30
0.0
 11
97.46708382279258
 21
59.36391878728475
 31
0.0
  0
INSERT
  5
A000
330
90F2
100
AcDbEntity
  8
DIM
100
AcDbBlockReference
  2
SEARROW
 10
90.84708382279258
 20
59.36391878728475
 30
0.0
 41
0.5600000000000001
 42
0.5600000000000001
 43
0.5600000000000001
  0
INSERT
  5
A001
330
90F2
100
AcDbEntity
  8
DIM
100
AcDbBlockReference
  2
SEARROW
 10
96.34708382279256
 20
59.36391878728475
 30
0.0
 41
0.5600000000000001
 42
0.5600000000000001
 43
0.5600000000000001
 50
180.0
  0
MTEXT
  5
A002
330
90F2
100
AcDbEntity
  8
DIM
100
AcDbMText
 10
93.58216885008536
 20
59.36391878728475
 30
0.0
 40
0.8
 41
0.0
 71
     5
 72
     1
  1
\A1;\P5.50\P [140]
  7
ROMANS
1001
ACAD
1000
MTEXTBEGIN
1070
    73
1070
     1
1070
    44
1040
1.0
1070
    74
1070
     0
1000
MTEXTEND
1000
MTEXTBEGIN
1070
    73
1070
     1
1070
    44
1040
1.0
1070
    74
1070
     0
1000
MTEXTEND
  0
POINT
  5
A003
330
90F2
100
AcDbEntity
  8
DEFPOINTS
 62
     0
100
AcDbPoint
 10
90.84708382279258
 20
53.41226055358943
 30
0.0
  0
POINT
  5
A004
330
90F2
100
AcDbEntity
  8
DEFPOINTS
 62
     0
100
AcDbPoint
 10
96.34708382279256
 20
53.41226055358943
 30
0.0
  0
POINT
  5
A005
330
90F2
100
AcDbEntity
  8
DEFPOINTS
 62
     0
100
AcDbPoint
 10
96.34708382279256
 20
59.36391878728475
 30
0.0
  0
ENDBLK
  5
90FE
330
90F2
100
AcDbEntity
  8
0
100
AcDbBlockEnd
  0
BLOCK
  5
910A
330
90FF
100
AcDbEntity
  8
0
100
AcDbBlockBegin
  2
*D24
 70
     1
 10
0.0
 20
0.0
 30
0.0
  3
*D24
  1

  0
LINE
  5
A006
330
90FF
100
AcDbEntity
  8
DIM
100
AcDbLine
 10
64.83653121538035
 20
40.53476055358942
 30
0.0
 11
71.17423347379539
 21
40.53476055358942
 31
0.0
  0
LINE
  5
A007
330
90FF
100
AcDbEntity
  8
DIM
100
AcDbLine
 10
64.46153121538036
 20
40.03476055358942
 30
0.0
 11
71.17423347379539
 21
40.03476055358942
 31
0.0
  0
LINE
  5
A008
330
90FF
100
AcDbEntity
  8
DIM
100
AcDbLine
 10
70.6742334737954
 20
41.09476055358942
 30
0.0
 11
70.6742334737954
 21
41.65476055358942
 31
0.0
  0
LINE
  5
A009
330
90FF
100
AcDbEntity
  8
DIM
100
AcDbLine
 10
70.6742334737954
 20
39.47476055358942
 30
0.0
 11
70.6742334737954
 21
38.91476055358942
 31
0.0
  0
LINE
  5
A00A
330
90FF
100
AcDbEntity
  8
DIM
100
AcDbLine
 10
70.6742334737954
 20
38.91476055358942
 30
0.0
 11
70.11423347379539
 21
38.91476055358942
 31
0.0
  0
INSERT
  5
A00B
330
90FF
100
AcDbEntity
  8
DIM
100
AcDbBlockReference
  2
SEARROW
 10
70.6742334737954
 20
40.53476055358942
 30
0.0
 41
0.5600000000000001
 42
0.5600000000000001
 43
0.5600000000000001
 50
270.0
  0
INSERT
  5
A00C
330
90FF
100
AcDbEntity
  8
DIM
100
AcDbBlockReference
  2
SEARROW
 10
70.6742334737954
 20
40.03476055358942
 30
0.0
 41
0.5600000000000001
 42
0.5600000000000001
 43
0.5600000000000001
 50
90.0
  0
MTEXT
  5
A00D
330
90FF
100
AcDbEntity
  8
DIM
100
AcDbMText
 10
68.27042394998585
 20
38.91476055358943
 30
0.0
 40
0.8
 41
0.0
 71
     5
 72
     1
  1
\A1;\P.50\P [13]
  7
ROMANS
1001
ACAD
1000
MTEXTBEGIN
1070
    73
1070
     1
1070
    44
1040
1.0
1070
    74
1070
     0
1000
MTEXTEND
1000
MTEXTBEGIN
1070
    73
1070
     1
1070
    44
1040
1.0
1070
    74
1070
     0
1000
MTEXTEND
  0
POINT
  5
A00E
330
90FF
100
AcDbEntity
  8
DEFPOINTS
 62
     0
100
AcDbPoint
 10
64.33653121538035
 20
40.53476055358942
 30
0.0
  0
POINT
  5
A00F
330
90FF
100
AcDbEntity
  8
DEFPOINTS
 62
     0
100
AcDbPoint
 10
63.96153121538034
 20
40.03476055358942
 30
0.0
  0
POINT
  5
A010
330
90FF
100
AcDbEntity
  8
DEFPOINTS
 62
     0
100
AcDbPoint
 10
70.6742334737954
 20
40.03476055358942
 30
0.0
  0
ENDBLK
  5
910B
330
90FF
100
AcDbEntity
  8
0
100
AcDbBlockEnd
  0
BLOCK
  5
9117
330
910C
100
AcDbEntity
  8
0
100
AcDbBlockBegin
  2
*D25
 70
     1
 10
0.0
 20
0.0
 30
0.0
  3
*D25
  1

  0
LINE
  5
A011
330
910C
100
AcDbEntity
  8
DIM
100
AcDbLine
 10
51.95153121538034
 20
53.31476055358943
 30
0.0
 11
44.18989885842786
 21
53.31476055358944
 31
0.0
  0
LINE
  5
A012
330
910C
100
AcDbEntity
  8
DIM
100
AcDbLine
 10
50.55153121538034
 20
53.91226055358942
 30
0.0
 11
44.18989885842786
 21
53.91226055358943
 31
0.0
  0
LINE
  5
A013
330
910C
100
AcDbEntity
  8
DIM
100
AcDbLine
 10
44.68989885842786
 20
52.75476055358943
 30
0.0
 11
44.68989885842786
 21
52.19476055358944
 31
0.0
  0
LINE
  5
A014
330
910C
100
AcDbEntity
  8
DIM
100
AcDbLine
 10
44.68989885842786
 20
54.47226055358943
 30
0.0
 11
44.68989885842786
 21
56.75694124934829
 31
0.0
  0
LINE
  5
A015
330
910C
100
AcDbEntity
  8
DIM
100
AcDbLine
 10
44.68989885842786
 20
56.75694124934829
 30
0.0
 11
45.24989885842786
 21
56.75694124934829
 31
0.0
  0
INSERT
  5
A016
330
910C
100
AcDbEntity
  8
DIM
100
AcDbBlockReference
  2
SEARROW
 10
44.68989885842786
 20
53.31476055358944
 30
0.0
 41
0.5600000000000001
 42
0.5600000000000001
 43
0.5600000000000001
 50
90.0
  0
INSERT
  5
A017
330
910C
100
AcDbEntity
  8
DIM
100
AcDbBlockReference
  2
SEARROW
 10
44.68989885842786
 20
53.91226055358943
 30
0.0
 41
0.5600000000000001
 42
0.5600000000000001
 43
0.5600000000000001
 50
270.0
  0
MTEXT
  5
A018
330
910C
100
AcDbEntity
  8
DIM
100
AcDbMText
 10
47.09370838223736
 20
56.7569412493483
 30
0.0
 40
0.8
 41
0.0
 71
     5
 72
     1
  1
\A1;\P.60\P [15]
  7
ROMANS
1001
ACAD
1000
MTEXTBEGIN
1070
    73
1070
     1
1070
    44
1040
1.0
1070
    74
1070
     0
1000
MTEXTEND
1000
MTEXTBEGIN
1070
    73
1070
     1
1070
    44
1040
1.0
1070
    74
1070
     0
1000
MTEXTEND
  0
POINT
  5
A019
330
910C
100
AcDbEntity
  8
DEFPOINTS
 62
     0
100
AcDbPoint
 10
52.45153121538034
 20
53.31476055358943
 30
0.0
  0
POINT
  5
A01A
330
910C
100
AcDbEntity
  8
DEFPOINTS
 62
     0
100
AcDbPoint
 10
51.05153121538034
 20
53.91226055358942
 30
0.0
  0
POINT
  5
A01B
330
910C
100
AcDbEntity
  8
DEFPOINTS
 62
     0
100
AcDbPoint
 10
44.68989885842786
 20
53.91226055358943
 30
0.0
  0
ENDBLK
  5
9118
330
910C
100
AcDbEntity
  8
0
100
AcDbBlockEnd
  0
BLOCK
  5
9124
330
9119
100
AcDbEntity
  8
0
100
AcDbBlockBegin
  2
*D26
 70
     1
 10
0.0
 20
0.0
 30
0.0
  3
*D26
  1

  0
LINE
  5
A01C
330
9119
100
AcDbEntity
  8
DIM
100
AcDbLine
 10
51.95153121538034
 20
29.51476055358941
 30
0.0
 11
44.20553568730644
 21
29.51476055358941
 31
0.0
  0
LINE
  5
A01D
330
9119
100
AcDbEntity
  8
DIM
100
AcDbLine
 10
50.55153121538034
 20
28.91226055358941
 30
0.0
 11
44.20553568730644
 21
28.91226055358941
 31
0.0
  0
LINE
  5
A01E
330
9119
100
AcDbEntity
  8
DIM
100
AcDbLine
 10
44.70553568730644
 20
30.07476055358941
 30
0.0
 11
44.70553568730644
 21
30.63476055358941
 31
0.0
  0
LINE
  5
A01F
330
9119
100
AcDbEntity
  8
DIM
100
AcDbLine
 10
44.70553568730644
 20
28.35226055358941
 30
0.0
 11
44.70553568730644
 21
25.84940341073226
 31
0.0
  0
LINE
  5
A020
330
9119
100
AcDbEntity
  8
DIM
100
AcDbLine
 10
44.70553568730644
 20
25.84940341073226
 30
0.0
 11
44.14553568730644
 21
25.84940341073226
 31
0.0
  0
INSERT
  5
A021
330
9119
100
AcDbEntity
  8
DIM
100
AcDbBlockReference
  2
SEARROW
 10
44.70553568730644
 20
29.51476055358941
 30
0.0
 41
0.5600000000000001
 42
0.5600000000000001
 43
0.5600000000000001
 50
270.0
  0
INSERT
  5
A022
330
9119
100
AcDbEntity
  8
DIM
100
AcDbBlockReference
  2
SEARROW
 10
44.70553568730644
 20
28.91226055358941
 30
0.0
 41
0.5600000000000001
 42
0.5600000000000001
 43
0.5600000000000001
 50
90.0
  0
MTEXT
  5
A023
330
9119
100
AcDbEntity
  8
DIM
100
AcDbMText
 10
42.30172616349691
 20
25.84940341073227
 30
0.0
 40
0.8
 41
0.0
 71
     5
 72
     1
  1
\A1;\P.60\P [15]
  7
ROMANS
1001
ACAD
1000
MTEXTBEGIN
1070
    73
1070
     1
1070
    44
1040
1.0
1070
    74
1070
     0
1000
MTEXTEND
1000
MTEXTBEGIN
1070
    73
1070
     1
1070
    44
1040
1.0
1070
    74
1070
     0
1000
MTEXTEND
  0
POINT
  5
A024
330
9119
100
AcDbEntity
  8
DEFPOINTS
 62
     0
100
AcDbPoint
 10
52.45153121538034
 20
29.51476055358941
 30
0.0
  0
POINT
  5
A025
330
9119
100
AcDbEntity
  8
DEFPOINTS
 62
     0
100
AcDbPoint
 10
51.05153121538034
 20
28.91226055358941
 30
0.0
  0
POINT
  5
A026
330
9119
100
AcDbEntity
  8
DEFPOINTS
 62
     0
100
AcDbPoint
 10
44.70553568730644
 20
28.91226055358941
 30
0.0
  0
ENDBLK
  5
9125
330
9119
100
AcDbEntity
  8
0
100
AcDbBlockEnd
  0
BLOCK
  5
9131
330
9126
100
AcDbEntity
  8
0
100
AcDbBlockBegin
  2
*D27
 70
     1
 10
0.0
 20
0.0
 30
0.0
  3
*D27
  1

  0
LINE
  5
A027
330
9126
100
AcDbEntity
  8
DIM
100
AcDbLine
 10
90.84708382279258
 20
53.91226055358942
 30
0.0
 11
90.84708382279258
 21
57.09642529689599
 31
0.0
  0
LINE
  5
A028
330
9126
100
AcDbEntity
  8
DIM
100
AcDbLine
 10
90.06708382279258
 20
54.41226055358942
 30
0.0
 11
90.06708382279258
 21
57.09642529689599
 31
0.0
  0
LINE
  5
A029
330
9126
100
AcDbEntity
  8
DIM
100
AcDbLine
 10
91.40708382279258
 20
56.59642529689598
 30
0.0
 11
91.96708382279259
 21
56.59642529689598
 31
0.0
  0
LINE
  5
A02A
330
9126
100
AcDbEntity
  8
DIM
100
AcDbLine
 10
89.50708382279257
 20
56.59642529689598
 30
0.0
 11
88.94708382279258
 21
56.59642529689598
 31
0.0
  0
INSERT
  5
A02B
330
9126
100
AcDbEntity
  8
DIM
100
AcDbBlockReference
  2
SEARROW
 10
90.84708382279258
 20
56.59642529689598
 30
0.0
 41
0.5600000000000001
 42
0.5600000000000001
 43
0.5600000000000001
 50
180.0
  0
INSERT
  5
A02C
330
9126
100
AcDbEntity
  8
DIM
100
AcDbBlockReference
  2
SEARROW
 10
90.06708382279258
 20
56.59642529689598
 30
0.0
 41
0.5600000000000001
 42
0.5600000000000001
 43
0.5600000000000001
  0
MTEXT
  5
A02D
330
9126
100
AcDbEntity
  8
DIM
100
AcDbMText
 10
87.10327429898304
 20
56.59642529689598
 30
0.0
 40
0.8
 41
0.0
 71
     5
 72
     1
  1
\A1;\P.78\P [20]
  7
ROMANS
1001
ACAD
1000
MTEXTBEGIN
1070
    73
1070
     1
1070
    44
1040
1.0
1070
    74
1070
     0
1000
MTEXTEND
1000
MTEXTBEGIN
1070
    73
1070
     1
1070
    44
1040
1.0
1070
    74
1070
     0
1000
MTEXTEND
  0
POINT
  5
A02E
330
9126
100
AcDbEntity
  8
DEFPOINTS
 62
     0
100
AcDbPoint
 10
90.84708382279258
 20
53.41226055358943
 30
0.0
  0
POINT
  5
A02F
330
9126
100
AcDbEntity
  8
DEFPOINTS
 62
     0
100
AcDbPoint
 10
90.06708382279258
 20
53.91226055358942
 30
0.0
  0
POINT
  5
A030
330
9126
100
AcDbEntity
  8
DEFPOINTS
 62
     0
100
AcDbPoint
 10
90.06708382279258
 20
56.59642529689598
 30
0.0
  0
ENDBLK
  5
9132
330
9126
100
AcDbEntity
  8
0
100
AcDbBlockEnd
  0
BLOCK
  5
913E
330
9133
100
AcDbEntity
  8
0
100
AcDbBlockBegin
  2
*D28
 70
     1
 10
0.0
 20
0.0
 30
0.0
  3
*D28
  1

  0
LINE
  5
A031
330
9133
100
AcDbEntity
  8
DIM
100
AcDbLine
 10
96.34708382279256
 20
53.91226055358942
 30
0.0
 11
96.34708382279256
 21
57.09642529689599
 31
0.0
  0
LINE
  5
A032
330
9133
100
AcDbEntity
  8
DIM
100
AcDbLine
 10
98.19708382279259
 20
52.31726055358941
 30
0.0
 11
98.19708382279259
 21
57.09642529689599
 31
0.0
  0
LINE
  5
A033
330
9133
100
AcDbEntity
  8
DIM
100
AcDbLine
 10
96.90708382279257
 20
56.59642529689598
 30
0.0
 11
97.6370838227926
 21
56.59642529689598
 31
0.0
  0
LINE
  5
A034
330
9133
100
AcDbEntity
  8
DIM
100
AcDbLine
 10
98.19708382279259
 20
56.59642529689598
 30
0.0
 11
98.7570838227926
 21
56.59642529689598
 31
0.0
  0
INSERT
  5
A035
330
9133
100
AcDbEntity
  8
DIM
100
AcDbBlockReference
  2
SEARROW
 10
96.34708382279256
 20
56.59642529689598
 30
0.0
 41
0.5600000000000001
 42
0.5600000000000001
 43
0.5600000000000001
 50
180.0
  0
INSERT
  5
A036
330
9133
100
AcDbEntity
  8
DIM
100
AcDbBlockReference
  2
SEARROW
 10
98.19708382279259
 20
56.59642529689598
 30
0.0
 41
0.5600000000000001
 42
0.5600000000000001
 43
0.5600000000000001
  0
MTEXT
  5
A037
330
9133
100
AcDbEntity
  8
DIM
100
AcDbMText
 10
100.6008933466021
 20
56.59642529689598
 30
0.0
 40
0.8
 41
0.0
 71
     5
 72
     1
  1
\A1;\P1.85\P [47]
  7
ROMANS
1001
ACAD
1000
MTEXTBEGIN
1070
    73
1070
     1
1070
    44
1040
1.0
1070
    74
1070
     0
1000
MTEXTEND
1000
MTEXTBEGIN
1070
    73
1070
     1
1070
    44
1040
1.0
1070
    74
1070
     0
1000
MTEXTEND
  0
POINT
  5
A038
330
9133
100
AcDbEntity
  8
DEFPOINTS
 62
     0
100
AcDbPoint
 10
96.34708382279256
 20
53.41226055358943
 30
0.0
  0
POINT
  5
A039
330
9133
100
AcDbEntity
  8
DEFPOINTS
 62
     0
100
AcDbPoint
 10
98.19708382279259
 20
51.81726055358941
 30
0.0
  0
POINT
  5
A03A
330
9133
100
AcDbEntity
  8
DEFPOINTS
 62
     0
100
AcDbPoint
 10
98.19708382279259
 20
56.59642529689598
 30
0.0
  0
ENDBLK
  5
913F
330
9133
100
AcDbEntity
  8
0
100
AcDbBlockEnd
  0
BLOCK
  5
914B
330
9140
100
AcDbEntity
  8
0
100
AcDbBlockBegin
  2
*D29
 70
     1
 10
0.0
 20
0.0
 30
0.0
  3
*D29
  1

  0
LINE
  5
A03B
330
9140
100
AcDbEntity
  8
DIM
100
AcDbLine
 10
98.57208382279258
 20
53.91226055358942
 30
0.0
 11
103.706401453733
 21
53.91226055358942
 31
0.0
  0
LINE
  5
A03C
330
9140
100
AcDbEntity
  8
DIM
100
AcDbLine
 10
96.84708382279257
 20
53.41226055358943
 30
0.0
 11
103.706401453733
 21
53.41226055358943
 31
0.0
  0
LINE
  5
A03D
330
9140
100
AcDbEntity
  8
DIM
100
AcDbLine
 10
103.206401453733
 20
54.47226055358942
 30
0.0
 11
103.206401453733
 21
55.03226055358942
 31
0.0
  0
LINE
  5
A03E
330
9140
100
AcDbEntity
  8
DIM
100
AcDbLine
 10
103.206401453733
 20
52.85226055358942
 30
0.0
 11
103.206401453733
 21
49.02052506756202
 31
0.0
  0
LINE
  5
A03F
330
9140
100
AcDbEntity
  8
DIM
100
AcDbLine
 10
103.206401453733
 20
49.02052506756202
 30
0.0
 11
102.646401453733
 21
49.02052506756202
 31
0.0
  0
INSERT
  5
A040
330
9140
100
AcDbEntity
  8
DIM
100
AcDbBlockReference
  2
SEARROW
 10
103.206401453733
 20
53.91226055358942
 30
0.0
 41
0.5600000000000001
 42
0.5600000000000001
 43
0.5600000000000001
 50
270.0
  0
INSERT
  5
A041
330
9140
100
AcDbEntity
  8
DIM
100
AcDbBlockReference
  2
SEARROW
 10
103.206401453733
 20
53.41226055358943
 30
0.0
 41
0.5600000000000001
 42
0.5600000000000001
 43
0.5600000000000001
 50
90.0
  0
MTEXT
  5
A042
330
9140
100
AcDbEntity
  8
DIM
100
AcDbMText
 10
100.8025919299234
 20
49.02052506756203
 30
0.0
 40
0.8
 41
0.0
 71
     5
 72
     1
  1
\A1;\P.50\P [13]
  7
ROMANS
1001
ACAD
1000
MTEXTBEGIN
1070
    73
1070
     1
1070
    44
1040
1.0
1070
    74
1070
     0
1000
MTEXTEND
1000
MTEXTBEGIN
1070
    73
1070
     1
1070
    44
1040
1.0
1070
    74
1070
     0
1000
MTEXTEND
  0
POINT
  5
A043
330
9140
100
AcDbEntity
  8
DEFPOINTS
 62
     0
100
AcDbPoint
 10
98.07208382279258
 20
53.91226055358942
 30
0.0
  0
POINT
  5
A044
330
9140
100
AcDbEntity
  8
DEFPOINTS
 62
     0
100
AcDbPoint
 10
96.34708382279256
 20
53.41226055358943
 30
0.0
  0
POINT
  5
A045
330
9140
100
AcDbEntity
  8
DEFPOINTS
 62
     0
100
AcDbPoint
 10
103.206401453733
 20
53.41226055358943
 30
0.0
  0
ENDBLK
  5
914C
330
9140
100
AcDbEntity
  8
0
100
AcDbBlockEnd
  0
BLOCK
  5
9158
330
914D
100
AcDbEntity
  8
0
100
AcDbBlockBegin
  2
*D30
 70
     1
 10
0.0
 20
0.0
 30
0.0
  3
*D30
  1

  0
LINE
  5
A046
330
914D
100
AcDbEntity
  8
DIM
100
AcDbLine
 10
98.5720838227926
 20
53.91226055358942
 30
0.0
 11
105.5909549460436
 21
53.91226055358942
 31
0.0
  0
LINE
  5
A047
330
914D
100
AcDbEntity
  8
DIM
100
AcDbLine
 10
98.5720838227926
 20
28.91226055358941
 30
0.0
 11
105.5909549460436
 21
28.91226055358941
 31
0.0
  0
LINE
  5
A048
330
914D
100
AcDbEntity
  8
DIM
100
AcDbLine
 10
105.0909549460436
 20
53.35226055358942
 30
0.0
 11
105.0909549460436
 21
43.0084510297799
 31
0.0
  0
LINE
  5
A049
330
914D
100
AcDbEntity
  8
DIM
100
AcDbLine
 10
105.0909549460436
 20
29.47226055358941
 30
0.0
 11
105.0909549460436
 21
39.81607007739894
 31
0.0
  0
INSERT
  5
A04A
330
914D
100
AcDbEntity
  8
DIM
100
AcDbBlockReference
  2
SEARROW
 10
105.0909549460436
 20
53.91226055358942
 30
0.0
 41
0.5600000000000001
 42
0.5600000000000001
 43
0.5600000000000001
 50
90.0
  0
INSERT
  5
A04B
330
914D
100
AcDbEntity
  8
DIM
100
AcDbBlockReference
  2
SEARROW
 10
105.0909549460436
 20
28.91226055358941
 30
0.0
 41
0.5600000000000001
 42
0.5600000000000001
 43
0.5600000000000001
 50
270.0
  0
MTEXT
  5
A04C
330
914D
100
AcDbEntity
  8
DIM
100
AcDbMText
 10
105.0909549460436
 20
41.41226055358943
 30
0.0
 40
0.8
 41
0.0
 71
     5
 72
     1
  1
\A1;25.00\P [635]
  7
ROMANS
1001
ACAD
1000
MTEXTBEGIN
1070
    73
1070
     1
1070
    44
1040
1.0
1070
    74
1070
     0
1000
MTEXTEND
1000
MTEXTBEGIN
1070
    73
1070
     1
1070
    44
1040
1.0
1070
    74
1070
     0
1000
MTEXTEND
  0
POINT
  5
A04D
330
914D
100
AcDbEntity
  8
DEFPOINTS
 62
     0
100
AcDbPoint
 10
98.07208382279259
 20
53.91226055358942
 30
0.0
  0
POINT
  5
A04E
330
914D
100
AcDbEntity
  8
DEFPOINTS
 62
     0
100
AcDbPoint
 10
98.07208382279259
 20
28.91226055358941
 30
0.0
  0
POINT
  5
A04F
330
914D
100
AcDbEntity
  8
DEFPOINTS
 62
     0
100
AcDbPoint
 10
105.0909549460436
 20
28.91226055358941
 30
0.0
  0
ENDBLK
  5
9159
330
914D
100
AcDbEntity
  8
0
100
AcDbBlockEnd
  0
BLOCK
  5
9165
330
915A
100
AcDbEntity
  8
0
100
AcDbBlockBegin
  2
*D31
 70
     1
 10
0.0
 20
0.0
 30
0.0
  3
*D31
  1

  0
LINE
  5
A050
330
915A
100
AcDbEntity
  8
DIM
100
AcDbLine
 10
50.55153121538034
 20
28.91226055358941
 30
0.0
 11
46.88741981287939
 21
28.91226055358941
 31
0.0
  0
LINE
  5
A051
330
915A
100
AcDbEntity
  8
DIM
100
AcDbLine
 10
52.77953037450988
 20
32.86578697999203
 30
0.0
 11
46.88741981287939
 21
32.86578697999203
 31
0.0
  0
LINE
  5
A052
330
915A
100
AcDbEntity
  8
DIM
100
AcDbLine
 10
47.38741981287939
 20
29.47226055358941
 30
0.0
 11
47.38741981287939
 21
30.29783742585805
 31
0.0
  0
LINE
  5
A053
330
915A
100
AcDbEntity
  8
DIM
100
AcDbLine
 10
47.38741981287939
 20
32.30578697999203
 30
0.0
 11
47.38741981287939
 21
31.73783742585805
 31
0.0
  0
INSERT
  5
A054
330
915A
100
AcDbEntity
  8
DIM
100
AcDbBlockReference
  2
SEARROW
 10
47.38741981287939
 20
28.91226055358941
 30
0.0
 41
0.5600000000000001
 42
0.5600000000000001
 43
0.5600000000000001
 50
270.0
  0
INSERT
  5
A055
330
915A
100
AcDbEntity
  8
DIM
100
AcDbBlockReference
  2
SEARROW
 10
47.38741981287939
 20
32.86578697999203
 30
0.0
 41
0.5600000000000001
 42
0.5600000000000001
 43
0.5600000000000001
 50
90.0
  0
MTEXT
  5
A056
330
915A
100
AcDbEntity
  8
DIM
100
AcDbMText
 10
47.38741981287938
 20
31.01783742585806
 30
0.0
 40
0.8
 41
0.0
 71
     5
 72
     1
  1
\A1;X
  7
ROMANS
1001
ACAD
1000
MTEXTBEGIN
1070
    73
1070
     1
1070
    44
1040
1.0
1070
    74
1070
     0
1000
MTEXTEND
1000
MTEXTBEGIN
1070
    73
1070
     1
1070
    44
1040
1.0
1070
    74
1070
     0
1000
MTEXTEND
  0
POINT
  5
A057
330
915A
100
AcDbEntity
  8
DEFPOINTS
 62
     0
100
AcDbPoint
 10
51.05153121538034
 20
28.91226055358941
 30
0.0
  0
POINT
  5
A058
330
915A
100
AcDbEntity
  8
DEFPOINTS
 62
     0
100
AcDbPoint
 10
53.27953037450988
 20
32.86578697999203
 30
0.0
  0
POINT
  5
A059
330
915A
100
AcDbEntity
  8
DEFPOINTS
 62
     0
100
AcDbPoint
 10
47.38741981287939
 20
32.86578697999203
 30
0.0
  0
ENDBLK
  5
9166
330
915A
100
AcDbEntity
  8
0
100
AcDbBlockEnd
  0
BLOCK
  5
9A24
330
9A22
100
AcDbEntity
  8
0
100
AcDbBlockBegin
  2
SEARROW
 70
     0
 10
0.0
 20
0.0
 30
0.0
  3
SEARROW
  1

  0
LWPOLYLINE
  5
9A23
330
9A22
100
AcDbEntity
  8
0
  6
BYBLOCK
100
AcDbPolyline
 90
        2
 70
     0
 10
0.0
 20
0.0
 40
0.0
 41
0.5000000001500001
 10
-1.000000000300019
 20
0.0
 40
0.5000000001500001
 41
0.5000000001500001
  0
ENDBLK
  5
9A25
330
9A22
100
AcDbEntity
  8
0
100
AcDbBlockEnd
  0
BLOCK
  5
9EF6
330
9EED
100
AcDbEntity
  8
0
100
AcDbBlockBegin
  2
*D33
 70
     1
 10
0.0
 20
0.0
 30
0.0
  3
*D33
  1

  0
LINE
  5
A05A
330
9EED
100
AcDbEntity
  8
DIM
100
AcDbLine
 10
72.20526209170023
 20
36.45468859073408
 30
0.0
 11
66.13708890780867
 21
36.45468859073409
 31
0.0
  0
LINE
  5
A05B
330
9EED
100
AcDbEntity
  8
DIM
100
AcDbLine
 10
66.13708890780867
 20
36.45468859073409
 30
0.0
 11
64.26335321892972
 21
39.38305781014453
 31
0.0
  0
MTEXT
  5
A05C
330
9EED
100
AcDbEntity
  8
DIM
100
AcDbMText
 10
72.52526209170024
 20
36.45468859073409
 30
0.0
 40
0.8
 41
0.0
 71
     4
 72
     1
  1
\A1;\P%%C.34\P [9]
  7
ROMANS
1001
ACAD
1000
MTEXTBEGIN
1070
    73
1070
     1
1070
    44
1040
1.0
1070
    74
1070
     0
1000
MTEXTEND
1000
MTEXTBEGIN
1070
    73
1070
     1
1070
    44
1040
1.0
1070
    74
1070
     0
1000
MTEXTEND
  0
INSERT
  5
A05D
330
9EED
100
AcDbEntity
  8
DIM
100
AcDbBlockReference
  2
SEARROW
 10
63.96153121538034
 20
39.85476055358942
 30
0.0
 41
0.5600000000000001
 42
0.5600000000000001
 43
0.5600000000000001
 50
122.6134044484145
  0
LINE
  5
A05E
330
9EED
100
AcDbEntity
  8
DIM
100
AcDbLine
 10
63.16305236545636
 20
39.97741128274835
 30
0.0
 11
64.60305236545635
 21
39.97741128274835
 31
0.0
  0
LINE
  5
A05F
330
9EED
100
AcDbEntity
  8
DIM
100
AcDbLine
 10
63.88305236545637
 20
39.25741128274837
 30
0.0
 11
63.88305236545636
 21
40.69741128274836
 31
0.0
  0
POINT
  5
A060
330
9EED
100
AcDbEntity
  8
DEFPOINTS
 62
     0
100
AcDbPoint
 10
63.96153121538034
 20
39.85476055358942
 30
0.0
  0
POINT
  5
A061
330
9EED
100
AcDbEntity
  8
DEFPOINTS
 62
     0
100
AcDbPoint
 10
63.80457351553237
 20
40.10006201190729
 30
0.0
  0
ENDBLK
  5
9EF7
330
9EED
100
AcDbEntity
  8
0
100
AcDbBlockEnd
  0
ENDSEC
  0
SECTION
  2
ENTITIES
  0
INSERT
  5
79E
330
1F
100
AcDbEntity
  8
0
100
AcDbBlockReference
  2
NEWLAYERS
 10
0.0
 20
0.0475228887496178
 30
0.0
 41
0.01
 42
0.01
 43
0.01
  0
LWPOLYLINE
  5
BF7
330
1F
100
AcDbEntity
  8
VIEWPORT
100
AcDbPolyline
 90
        6
 70
     1
 43
0.0
 10
131.176234319058
 20
82.01029662548561
 10
131.176234319058
 20
7.306312625485613
 10
63.99591431905804
 20
7.306312625485613
 10
63.99591431905804
 20
0.0102966254856187
 10
-0.023773680941955
 20
0.0102966254856187
 10
-0.023773680941955
 20
82.01029662548561
1001
GENIUS_GENOREF_13
1005
0
1005
0
1005
0
1005
0
1005
0
1005
0
1005
0
  0
VIEWPORT
  5
BF8
330
1F
100
AcDbEntity
  8
VIEWPORT
100
AcDbViewport
 10
65.57623031905804
 20
41.01029662548562
 30
0.0
 40
131.200008
 41
82.0
 69
     0
1001
ACAD
1000
MVIEW
1002
{
1070
    16
1010
0.0
1020
0.0
1030
0.0
1010
0.0
1020
0.0
1030
1.0
1040
0.0
1040
82.0
1040
65.56961595422113
1040
41.0316270954002
1040
50.0
1040
0.0
1040
0.0
1070
     0
1070
   100
1070
     1
1070
     2
1070
     0
1070
     0
1070
     0
1070
     0
1040
0.0
1040
0.0
1040
0.0
1040
0.5
1040
0.5
1040
0.5
1040
0.5
1070
     0
1002
{
1002
}
1002
}
1001
GENIUS_GENOREF_13
1005
0
1005
0
1005
0
1005
0
1005
0
1005
0
1005
0
1001
GENIUS_GENSCREG_15
1000
PF
1040
0.0
1000
DF
1040
0.0
1000
MIN
1011
-0.023773680941955
1021
0.0102966254856187
1031
0.0
1000
MAX
1011
131.176234319058
1021
82.01029662548561
1031
0.0
1000
FLAGS
1070
     2
  0
INSERT
  5
8DB0
330
1F
100
AcDbEntity
  8
TEXT1
100
AcDbBlockReference
 66
     1
  2
REF2
 10
0.9269017718060439
 20
9.53001710078448
 30
0.0
 41
6.399987199999999
 42
6.399987199999999
 43
6.399987199999999
  0
ATTRIB
  5
8DB1
330
8DB0
100
AcDbEntity
  8
TEXT1
100
AcDbText
 10
14.57596330872452
 20
10.94081303175358
 30
0.0
 40
0.7999983999999999
  1
 (6) 5/16-18 screws
100
AcDbAttribute
  2
MOUNTING_HWD
 70
     0
  0
ATTRIB
  5
8DB2
330
8DB0
100
AcDbEntity
  8
TEXT1
100
AcDbText
 10
14.57596330872452
 20
12.40027753454224
 30
0.0
 40
0.7999983999999999
  1
 -
100
AcDbAttribute
  2
TERM_TORQUE
 70
     0
  0
ATTRIB
  5
8DB3
330
8DB0
100
AcDbEntity
  8
TEXT1
100
AcDbText
 10
14.57596330872452
 20
13.7408074317536
 30
0.0
 40
0.7999983999999999
  1
 #4-500 KcmiL Cu
100
AcDbAttribute
  2
WIRE_SIZE
 70
     0
  0
ATTRIB
  5
8DB4
330
8DB0
100
AcDbEntity
  8
TEXT1
100
AcDbText
 10
14.57596330872452
 20
15.0110711803593
 30
0.0
 40
0.7999983999999999
  1
 63 lbs
100
AcDbAttribute
  2
WEIGHT
 70
     0
  0
ATTRIB
  5
8DB5
330
8DB0
100
AcDbEntity
  8
TEXT1
100
AcDbText
 10
14.57596330872452
 20
16.33000350078446
 30
0.0
 40
0.7999983999999999
  1
 -
100
AcDbAttribute
  2
STANDARDS
 70
     0
  0
ATTRIB
  5
8DB6
330
8DB0
100
AcDbEntity
  8
TEXT1
100
AcDbText
 10
14.57596330872452
 20
17.81106546551137
 30
0.0
 40
0.7999983999999999
  1
 LR44199/4652 04
100
AcDbAttribute
  2
CSA
 70
     0
  0
ATTRIB
  5
8DB7
330
8DB0
100
AcDbEntity
  8
TEXT1
100
AcDbText
 10
14.57596330872452
 20
19.12999790078448
 30
0.0
 40
0.7999983999999999
  1
 E52369/WHTY2
100
AcDbAttribute
  2
UL
 70
     0
  0
ATTRIB
  5
8DB8
330
8DB0
100
AcDbEntity
  8
TEXT1
100
AcDbText
 10
14.57596330872452
 20
20.54079383175359
 30
0.0
 40
0.7999983999999999
  1
 400A
100
AcDbAttribute
  2
RATING
 70
     0
  0
ATTRIB
  5
8DB9
330
8DB0
100
AcDbEntity
  8
TEXT1
100
AcDbText
 10
14.57596330872452
 20
21.92999230078449
 30
0.0
 40
0.7999983999999999
  1
 9422-TG2
100
AcDbAttribute
  2
CATALOG
 70
     0
  0
SEQEND
  5
8DBA
330
8DB0
100
AcDbEntity
  8
MOUNTING
  0
TEXT
  5
8DC0
330
1F
100
AcDbEntity
  8
TEXT1
100
AcDbText
 10
1.848293358646194
 20
65.6097710295455
 30
0.0
 40
0.7999999999999999
  1
MOUNTING SURFACE TO SURFACE OF FLANGE
100
AcDbText
  0
TEXT
  5
8DC1
330
1F
100
AcDbEntity
  8
TEXT1
100
AcDbText
 10
1.848293358646194
 20
67.0234259058312
 30
0.0
 40
0.7999999999999999
  1
MOUNTING DEPTH MEASURED FROM SWITCH
100
AcDbText
  0
LINE
  5
8DC2
330
1F
100
AcDbEntity
  8
CONTINUOUS1
100
AcDbLine
 10
1.976226319058046
 20
78.33029662548563
 30
0.0
 11
1.976226319058046
 21
68.64347556632042
 31
0.0
  0
LINE
  5
8DC3
330
1F
100
AcDbEntity
  8
CONTINUOUS1
100
AcDbLine
 10
26.76069469956134
 20
78.33029662548563
 30
0.0
 11
26.76069469956129
 21
68.64347556632042
 31
0.0
  0
LINE
  5
8DC4
330
1F
100
AcDbEntity
  8
CONTINUOUS1
100
AcDbLine
 10
19.080663366415
 20
76.63255877055303
 30
0.0
 11
19.08066336641497
 21
68.64347556632042
 31
0.0
  0
TEXT
  5
8DC5
330
1F
100
AcDbEntity
  8
TEXT1
100
AcDbText
 10
3.058776976692022
 20
71.89061170463074
 30
0.0
 40
0.7999999999999999
  1
208
100
AcDbText
  0
TEXT
  5
8DC6
330
1F
100
AcDbEntity
  8
TEXT1
100
AcDbText
 10
19.97076834279535
 20
75.32785812271439
 30
0.0
 40
0.7999999999999999
  1
DC USING
100
AcDbText
  0
TEXT
  5
8DC7
330
1F
100
AcDbEntity
  8
TEXT1
100
AcDbText
 10
20.19329432146347
 20
74.08218348092647
 30
0.0
 40
0.7999999999999999
  1
2 POLES
100
AcDbText
  0
LINE
  5
8DC8
330
1F
100
AcDbEntity
  8
CONTINUOUS1
100
AcDbLine
 10
1.976226319058046
 20
70.22562690057381
 30
0.0
 11
19.080663366415
 21
70.22562690057381
 31
0.0
  0
LINE
  5
8DC9
330
1F
100
AcDbEntity
  8
CONTINUOUS1
100
AcDbLine
 10
1.976226319058046
 20
73.23708306068792
 30
0.0
 11
19.080663366415
 21
73.23708306068792
 31
0.0
  0
TEXT
  5
8DCA
330
1F
100
AcDbEntity
  8
TEXT1
100
AcDbText
 10
3.288055416561449
 20
69.02562690057381
 30
0.0
 40
0.7999999999999999
  1
75
100
AcDbText
  0
TEXT
  5
8DCB
330
1F
100
AcDbEntity
  8
TEXT1
100
AcDbText
 10
2.412630157225744
 20
61.92421991392551
 30
0.0
 40
0.7999999999999999
  1
OPERATING HANDLES 9422-A7 OR A8 IS TO BE
100
AcDbText
  0
TEXT
  5
8DCC
330
1F
100
AcDbEntity
  8
TEXT1
100
AcDbText
 10
3.81194342013044
 20
75.41146589640634
 30
0.0
 40
0.7999999999999999
  1
AC SYSTEMS VOLTS
100
AcDbText
  0
LINE
  5
8DCD
330
1F
100
AcDbEntity
  8
CONTINUOUS1
100
AcDbLine
 10
1.976226319058046
 20
76.63255877055303
 30
0.0
 11
26.76069469956134
 21
76.63255877055303
 31
0.0
  0
TEXT
  5
8DCE
330
1F
100
AcDbEntity
  8
TEXT1
100
AcDbText
 10
21.8860755618567
 20
70.2425216275123
 30
0.0
 40
0.7999999999999999
  1
50
100
AcDbText
  0
LINE
  5
8DCF
330
1F
100
AcDbEntity
  8
CONTINUOUS1
100
AcDbLine
 10
1.976226319058055
 20
68.64347556632042
 30
0.0
 11
35.06307029772219
 21
68.64347556632042
 31
0.0
  0
LINE
  5
8DD0
330
1F
100
AcDbEntity
  8
CONTINUOUS2
100
AcDbLine
 10
64.59153121538034
 20
28.91226055358941
 30
0.0
 11
64.59153121538034
 21
53.91226055358941
 31
0.0
  0
LINE
  5
8DD1
330
1F
100
AcDbEntity
  8
CONTINUOUS1
100
AcDbLine
 10
64.50153121538034
 20
28.91226055358941
 30
0.0
 11
64.50153121538034
 21
53.91226055358941
 31
0.0
  0
LINE
  5
8DD2
330
1F
100
AcDbEntity
  8
CONTINUOUS1
100
AcDbLine
 10
52.63903121538034
 20
53.16762001053096
 30
0.0
 11
52.63903121538034
 21
53.31476055358942
 31
0.0
  0
LINE
  5
8DD3
330
1F
100
AcDbEntity
  8
CONTINUOUS1
100
AcDbLine
 10
52.26403121538034
 20
53.16762001053096
 30
0.0
 11
52.26403121538034
 21
53.31476055358942
 31
0.0
  0
ARC
  5
8DD4
330
1F
100
AcDbEntity
  8
CONTINUOUS1
100
AcDbCircle
 10
52.45153121538034
 20
53.31476055358942
 30
0.0
 40
0.1875000000000027
100
AcDbArc
 50
0.0
 51
180.0
  0
ARC
  5
8DD5
330
1F
100
AcDbEntity
  8
CONTINUOUS1
100
AcDbCircle
 10
52.45153121538034
 20
53.00226055358941
 30
0.0
 40
0.25
100
AcDbArc
 50
138.590377890729
 51
41.40962210927096
  0
ARC
  5
8DD6
330
1F
100
AcDbEntity
  8
CONTINUOUS2
100
AcDbCircle
 10
52.45153121538034
 20
29.51476055358941
 30
0.0
 40
0.1874999999999991
100
AcDbArc
 50
0.0
 51
180.0
  0
LINE
  5
8DD7
330
1F
100
AcDbEntity
  8
CONTINUOUS2
100
AcDbLine
 10
52.63903121538034
 20
28.91226055358941
 30
0.0
 11
52.63903121538034
 21
29.51476055358941
 31
0.0
  0
LINE
  5
8DD8
330
1F
100
AcDbEntity
  8
CONTINUOUS2
100
AcDbLine
 10
52.26403121538034
 20
28.91226055358941
 30
0.0
 11
52.26403121538034
 21
29.51476055358941
 31
0.0
  0
LINE
  5
8DD9
330
1F
100
AcDbEntity
  8
CONTINUOUS2
100
AcDbLine
 10
51.05153121538034
 20
28.91226055358941
 30
0.0
 11
52.26403121538034
 21
28.91226055358941
 31
0.0
  0
LINE
  5
8DDA
330
1F
100
AcDbEntity
  8
CONTINUOUS2
100
AcDbLine
 10
51.05153121538034
 20
28.91226055358941
 30
0.0
 11
51.05153121538034
 21
53.91226055358941
 31
0.0
  0
LINE
  5
8DDB
330
1F
100
AcDbEntity
  8
CONTINUOUS1
100
AcDbLine
 10
51.14153121538034
 20
28.91226055358941
 30
0.0
 11
51.14153121538034
 21
48.03890796041933
 31
0.0
  0
LINE
  5
8DDC
330
1F
100
AcDbEntity
  8
CONTINUOUS2
100
AcDbLine
 10
51.05153121538034
 20
53.91226055358941
 30
0.0
 11
54.08142033595261
 21
53.91226055358941
 31
0.0
  0
LINE
  5
8DDD
330
1F
100
AcDbEntity
  8
CONTINUOUS2
100
AcDbLine
 10
52.63903121538034
 20
28.91226055358941
 30
0.0
 11
53.76892033595261
 21
28.91226055358941
 31
0.0
  0
LINE
  5
8DDE
330
1F
100
AcDbEntity
  8
CONTINUOUS1
100
AcDbLine
 10
96.53458382279257
 20
53.26512001053096
 30
0.0
 11
96.53458382279257
 21
53.41226055358943
 31
0.0
  0
LINE
  5
8DDF
330
1F
100
AcDbEntity
  8
CONTINUOUS1
100
AcDbLine
 10
96.15958382279258
 20
53.26512001053096
 30
0.0
 11
96.15958382279258
 21
53.41226055358943
 31
0.0
  0
ARC
  5
8DE0
330
1F
100
AcDbEntity
  8
CONTINUOUS1
100
AcDbCircle
 10
96.34708382279256
 20
53.09976055358942
 30
0.0
 40
0.25
100
AcDbArc
 50
138.590377890729
 51
41.40962210927096
  0
ARC
  5
8DE1
330
1F
100
AcDbEntity
  8
CONTINUOUS1
100
AcDbCircle
 10
96.34708382279256
 20
53.41226055358943
 30
0.0
 40
0.1875000000000027
100
AcDbArc
 50
0.0
 51
180.0
  0
LINE
  5
8DE2
330
1F
100
AcDbEntity
  8
CONTINUOUS1
100
AcDbLine
 10
98.07208382279259
 20
51.94226055358943
 30
0.0
 11
98.19708382279259
 21
51.81726055358943
 31
0.0
  0
LINE
  5
8DE3
330
1F
100
AcDbEntity
  8
CONTINUOUS1
100
AcDbLine
 10
98.07208382279259
 20
47.94226055358942
 30
0.0
 11
98.19708382279259
 21
48.06726055358942
 31
0.0
  0
LINE
  5
8DE4
330
1F
100
AcDbEntity
  8
CONTINUOUS1
100
AcDbLine
 10
98.07208382279259
 20
43.41226055358942
 30
0.0
 11
98.19708382279259
 21
43.28726055358941
 31
0.0
  0
LINE
  5
8DE5
330
1F
100
AcDbEntity
  8
CONTINUOUS1
100
AcDbLine
 10
98.07208382279259
 20
39.41226055358942
 30
0.0
 11
98.19708382279259
 21
39.53726055358941
 31
0.0
  0
LINE
  5
8DE6
330
1F
100
AcDbEntity
  8
CONTINUOUS1
100
AcDbLine
 10
98.19708382279259
 20
43.28726055358941
 30
0.0
 11
98.19708382279259
 21
39.53726055358941
 31
0.0
  0
LINE
  5
8DE7
330
1F
100
AcDbEntity
  8
CONTINUOUS1
100
AcDbLine
 10
98.19708382279259
 20
48.06726055358942
 30
0.0
 11
98.19708382279259
 21
51.81726055358943
 31
0.0
  0
LINE
  5
8DE8
330
1F
100
AcDbEntity
  8
CONTINUOUS1
100
AcDbLine
 10
91.03458382279258
 20
53.26512001053096
 30
0.0
 11
91.03458382279258
 21
53.41226055358943
 31
0.0
  0
LINE
  5
8DE9
330
1F
100
AcDbEntity
  8
CONTINUOUS1
100
AcDbLine
 10
90.65958382279259
 20
53.26512001053096
 30
0.0
 11
90.65958382279259
 21
53.41226055358943
 31
0.0
  0
ARC
  5
8DEA
330
1F
100
AcDbEntity
  8
CONTINUOUS1
100
AcDbCircle
 10
90.84708382279258
 20
53.09976055358942
 30
0.0
 40
0.25
100
AcDbArc
 50
138.590377890729
 51
41.40962210927096
  0
ARC
  5
8DEB
330
1F
100
AcDbEntity
  8
CONTINUOUS1
100
AcDbCircle
 10
90.84708382279258
 20
53.41226055358943
 30
0.0
 40
0.1875000000000027
100
AcDbArc
 50
0.0
 51
180.0
  0
LINE
  5
8DEC
330
1F
100
AcDbEntity
  8
CONTINUOUS1
100
AcDbLine
 10
90.06708382279258
 20
53.91226055358943
 30
0.0
 11
98.07208382279259
 21
53.91226055358943
 31
0.0
  0
LINE
  5
8DED
330
1F
100
AcDbEntity
  8
CONTINUOUS1
100
AcDbLine
 10
98.07208382279259
 20
34.88226055358941
 30
0.0
 11
98.19708382279259
 21
34.75726055358942
 31
0.0
  0
LINE
  5
8DEE
330
1F
100
AcDbEntity
  8
CONTINUOUS1
100
AcDbLine
 10
98.07208382279259
 20
30.88226055358942
 30
0.0
 11
98.19708382279259
 21
31.00726055358942
 31
0.0
  0
ARC
  5
8DEF
330
1F
100
AcDbEntity
  8
CONTINUOUS1
100
AcDbCircle
 10
96.3470838227926
 20
29.41226055358942
 30
0.0
 40
0.1874999999999991
100
AcDbArc
 50
0.0
 51
180.0
  0
LINE
  5
8DF0
330
1F
100
AcDbEntity
  8
CONTINUOUS1
100
AcDbLine
 10
96.15958382279259
 20
28.91226055358941
 30
0.0
 11
96.15958382279259
 21
29.41226055358942
 31
0.0
  0
LINE
  5
8DF1
330
1F
100
AcDbEntity
  8
CONTINUOUS1
100
AcDbLine
 10
96.53458382279261
 20
28.91226055358941
 30
0.0
 11
96.53458382279261
 21
29.41226055358942
 31
0.0
  0
LINE
  5
8DF2
330
1F
100
AcDbEntity
  8
CONTINUOUS1
100
AcDbLine
 10
96.53458382279261
 20
28.91226055358941
 30
0.0
 11
98.07208382279259
 21
28.91226055358941
 31
0.0
  0
LINE
  5
8DF3
330
1F
100
AcDbEntity
  8
CONTINUOUS1
100
AcDbLine
 10
98.19708382279259
 20
34.75726055358942
 30
0.0
 11
98.19708382279259
 21
31.00726055358942
 31
0.0
  0
LINE
  5
8DF4
330
1F
100
AcDbEntity
  8
CONTINUOUS1
100
AcDbLine
 10
91.03458382279258
 20
28.91226055358941
 30
0.0
 11
91.0345838227926
 21
29.41226055358942
 31
0.0
  0
LINE
  5
8DF5
330
1F
100
AcDbEntity
  8
CONTINUOUS1
100
AcDbLine
 10
90.3170838227926
 20
28.91226055358941
 30
0.0
 11
90.6595838227926
 21
28.91226055358941
 31
0.0
  0
LINE
  5
8DF6
330
1F
100
AcDbEntity
  8
CONTINUOUS1
100
AcDbLine
 10
90.6595838227926
 20
28.91226055358941
 30
0.0
 11
90.6595838227926
 21
29.41226055358942
 31
0.0
  0
LINE
  5
8DF7
330
1F
100
AcDbEntity
  8
CONTINUOUS1
100
AcDbLine
 10
90.3170838227926
 20
28.91226055358941
 30
0.0
 11
90.0670838227926
 21
29.16226055358942
 31
0.0
  0
ARC
  5
8DF8
330
1F
100
AcDbEntity
  8
CONTINUOUS1
100
AcDbCircle
 10
90.84708382279259
 20
29.41226055358942
 30
0.0
 40
0.1874999999999991
100
AcDbArc
 50
0.0
 51
180.0
  0
LINE
  5
8DF9
330
1F
100
AcDbEntity
  8
CONTINUOUS1
100
AcDbLine
 10
91.03458382279258
 20
28.91226055358941
 30
0.0
 11
96.15958382279259
 21
28.91226055358941
 31
0.0
  0
LINE
  5
8DFA
330
1F
100
AcDbEntity
  8
CONTINUOUS1
100
AcDbLine
 10
90.06708382279258
 20
53.91226055358943
 30
0.0
 11
90.0670838227926
 21
29.16226055358942
 31
0.0
  0
LINE
  5
8DFB
330
1F
100
AcDbEntity
  8
CONTINUOUS1
100
AcDbLine
 10
98.07208382279259
 20
53.91226055358943
 30
0.0
 11
98.07208382279259
 21
28.91226055358941
 31
0.0
  0
LINE
  5
8DFC
330
1F
100
AcDbEntity
  8
PHANTOM1
100
AcDbLine
 10
49.57903121538034
 20
63.09476055358943
 30
0.0
 11
62.46153121538035
 21
63.09476055358943
 31
0.0
  0
LINE
  5
8DFD
330
1F
100
AcDbEntity
  8
PHANTOM1
100
AcDbLine
 10
49.48063465917257
 20
64.46976055358942
 30
0.0
 11
65.46153121538032
 21
64.46976055358942
 31
0.0
  0
LINE
  5
8DFE
330
1F
100
AcDbEntity
  8
PHANTOM1
100
AcDbLine
 10
49.57903121538034
 20
64.59476055358942
 30
0.0
 11
65.58653121538035
 21
64.59476055358942
 31
0.0
  0
LINE
  5
8DFF
330
1F
100
AcDbEntity
  8
CONTINUOUS2
100
AcDbLine
 10
52.63903121538034
 20
28.91226055358941
 30
0.0
 11
53.76892033595261
 21
28.91226055358941
 31
0.0
  0
LINE
  5
8E00
330
1F
100
AcDbEntity
  8
CONTINUOUS2
100
AcDbLine
 10
51.05153121538034
 20
53.91226055358942
 30
0.0
 11
54.08142033595261
 21
53.91226055358942
 31
0.0
  0
LINE
  5
8E01
330
1F
100
AcDbEntity
  8
CONTINUOUS2
100
AcDbLine
 10
51.05153121538034
 20
28.91226055358941
 30
0.0
 11
51.05153121538034
 21
53.91226055358942
 31
0.0
  0
LINE
  5
8E02
330
1F
100
AcDbEntity
  8
CONTINUOUS2
100
AcDbLine
 10
51.05153121538034
 20
28.91226055358941
 30
0.0
 11
52.26403121538034
 21
28.91226055358941
 31
0.0
  0
LINE
  5
8E03
330
1F
100
AcDbEntity
  8
CONTINUOUS2
100
AcDbLine
 10
52.26403121538034
 20
28.91226055358941
 30
0.0
 11
52.26403121538034
 21
29.51476055358941
 31
0.0
  0
LINE
  5
8E04
330
1F
100
AcDbEntity
  8
CONTINUOUS2
100
AcDbLine
 10
52.63903121538034
 20
28.91226055358941
 30
0.0
 11
52.63903121538034
 21
29.51476055358941
 31
0.0
  0
LINE
  5
8E05
330
1F
100
AcDbEntity
  8
CENTER2
100
AcDbLine
 10
52.27153121538034
 20
29.51476055358941
 30
0.0
 11
52.63153121538034
 21
29.51476055358941
 31
0.0
  0
LINE
  5
8E06
330
1F
100
AcDbEntity
  8
CENTER2
100
AcDbLine
 10
52.45153121538034
 20
29.33476055358942
 30
0.0
 11
52.45153121538034
 21
29.69476055358942
 31
0.0
  0
ARC
  5
8E07
330
1F
100
AcDbEntity
  8
CONTINUOUS2
100
AcDbCircle
 10
52.45153121538034
 20
29.51476055358941
 30
0.0
 40
0.1874999999999991
100
AcDbArc
 50
0.0
 51
180.0
  0
LINE
  5
8E08
330
1F
100
AcDbEntity
  8
CENTER2
100
AcDbLine
 10
52.45153121538034
 20
53.13476055358942
 30
0.0
 11
52.45153121538034
 21
53.49476055358942
 31
0.0
  0
LINE
  5
8E09
330
1F
100
AcDbEntity
  8
CONTINUOUS2
100
AcDbLine
 10
52.63903121538034
 20
53.16762001053096
 30
0.0
 11
52.63903121538034
 21
53.31476055358943
 31
0.0
  0
LINE
  5
8E0A
330
1F
100
AcDbEntity
  8
CONTINUOUS2
100
AcDbLine
 10
52.26403121538034
 20
53.16762001053096
 30
0.0
 11
52.26403121538034
 21
53.31476055358943
 31
0.0
  0
ARC
  5
8E0B
330
1F
100
AcDbEntity
  8
CONTINUOUS2
100
AcDbCircle
 10
52.45153121538034
 20
53.00226055358941
 30
0.0
 40
0.25
100
AcDbArc
 50
138.590377890729
 51
41.40962210927096
  0
LINE
  5
8E0C
330
1F
100
AcDbEntity
  8
CENTER2
100
AcDbLine
 10
52.27153121538034
 20
53.31476055358943
 30
0.0
 11
52.63153121538034
 21
53.31476055358943
 31
0.0
  0
ARC
  5
8E0D
330
1F
100
AcDbEntity
  8
CONTINUOUS2
100
AcDbCircle
 10
52.45153121538034
 20
53.31476055358943
 30
0.0
 40
0.1875000000000027
100
AcDbArc
 50
0.0
 51
180.0
  0
POLYLINE
  5
8E0E
330
1F
100
AcDbEntity
  8
PHANTOM1
100
AcDb2dPolyline
 66
     1
 10
0.0
 20
0.0
 30
0.0
 70
     4
 75
     6
  0
VERTEX
  5
8E0F
330
8E0E
100
AcDbEntity
  8
PHANTOM1
100
AcDbVertex
100
AcDb2dVertex
 10
49.57903121538034
 20
64.59476055358942
 30
0.0
 70
    16
  0
VERTEX
  5
8E10
330
8E0E
100
AcDbEntity
  8
PHANTOM1
100
AcDbVertex
100
AcDb2dVertex
 10
49.57903121538034
 20
64.59476055358944
 30
0.0
 70
     8
  0
VERTEX
  5
8E11
330
8E0E
100
AcDbEntity
  8
PHANTOM1
100
AcDbVertex
100
AcDb2dVertex
 10
49.48486502409093
 20
64.48303936218318
 30
0.0
 70
     8
  0
VERTEX
  5
8E12
330
8E0E
100
AcDbEntity
  8
PHANTOM1
100
AcDbVertex
100
AcDb2dVertex
 10
49.45106021613972
 20
64.37692852233943
 30
0.0
 70
     8
  0
VERTEX
  5
8E13
330
8E0E
100
AcDbEntity
  8
PHANTOM1
100
AcDbVertex
100
AcDb2dVertex
 10
49.46480846890697
 20
64.27688213562068
 30
0.0
 70
     8
  0
VERTEX
  5
8E14
330
8E0E
100
AcDbEntity
  8
PHANTOM1
100
AcDbVertex
100
AcDb2dVertex
 10
49.51330145977292
 20
64.18335430358943
 30
0.0
 70
     8
  0
VERTEX
  5
8E15
330
8E0E
100
AcDbEntity
  8
PHANTOM1
100
AcDbVertex
100
AcDb2dVertex
 10
49.58373086611783
 20
64.09679912780818
 30
0.0
 70
     8
  0
VERTEX
  5
8E16
330
8E0E
100
AcDbEntity
  8
PHANTOM1
100
AcDbVertex
100
AcDb2dVertex
 10
49.66328836532198
 20
64.01767070983942
 30
0.0
 70
     8
  0
VERTEX
  5
8E17
330
8E0E
100
AcDbEntity
  8
PHANTOM1
100
AcDbVertex
100
AcDb2dVertex
 10
49.73916563476562
 20
63.94642315124568
 30
0.0
 70
     8
  0
VERTEX
  5
8E18
330
8E0E
100
AcDbEntity
  8
PHANTOM1
100
AcDbVertex
100
AcDb2dVertex
 10
49.798554351829
 20
63.88351055358943
 30
0.0
 70
     8
  0
VERTEX
  5
8E19
330
8E0E
100
AcDbEntity
  8
PHANTOM1
100
AcDbVertex
100
AcDb2dVertex
 10
49.83136074831337
 20
63.82900615905818
 30
0.0
 70
     8
  0
VERTEX
  5
8E1A
330
8E0E
100
AcDbEntity
  8
PHANTOM1
100
AcDbVertex
100
AcDb2dVertex
 10
49.83834927370399
 20
63.78145977233943
 30
0.0
 70
     8
  0
VERTEX
  5
8E1B
330
8E0E
100
AcDbEntity
  8
PHANTOM1
100
AcDbVertex
100
AcDb2dVertex
 10
49.82299893190712
 20
63.73904033874568
 30
0.0
 70
     8
  0
VERTEX
  5
8E1C
330
8E0E
100
AcDbEntity
  8
PHANTOM1
100
AcDbVertex
100
AcDb2dVertex
 10
49.788788726829
 20
63.69991680358943
 30
0.0
 70
     8
  0
VERTEX
  5
8E1D
330
8E0E
100
AcDbEntity
  8
PHANTOM1
100
AcDbVertex
100
AcDb2dVertex
 10
49.73919766237587
 20
63.66225811218318
 30
0.0
 70
     8
  0
VERTEX
  5
8E1E
330
8E0E
100
AcDbEntity
  8
PHANTOM1
100
AcDbVertex
100
AcDb2dVertex
 10
49.677704742454
 20
63.62423320983943
 30
0.0
 70
     8
  0
VERTEX
  5
8E1F
330
8E0E
100
AcDbEntity
  8
PHANTOM1
100
AcDbVertex
100
AcDb2dVertex
 10
49.60778897096962
 20
63.58401104187068
 30
0.0
 70
     8
  0
VERTEX
  5
8E20
330
8E0E
100
AcDbEntity
  8
PHANTOM1
100
AcDbVertex
100
AcDb2dVertex
 10
49.532929351829
 20
63.53976055358943
 30
0.0
 70
     8
  0
VERTEX
  5
8E21
330
8E0E
100
AcDbEntity
  8
PHANTOM1
100
AcDbVertex
100
AcDb2dVertex
 10
49.45739683593749
 20
63.49018535827693
 30
0.0
 70
     8
  0
VERTEX
  5
8E22
330
8E0E
100
AcDbEntity
  8
PHANTOM1
100
AcDbVertex
100
AcDb2dVertex
 10
49.38863016219698
 20
63.43612774108943
 30
0.0
 70
     8
  0
VERTEX
  5
8E23
330
8E0E
100
AcDbEntity
  8
PHANTOM1
100
AcDbVertex
100
AcDb2dVertex
 10
49.33486001650845
 20
63.37896465515193
 30
0.0
 70
     8
  0
VERTEX
  5
8E24
330
8E0E
100
AcDbEntity
  8
PHANTOM1
100
AcDbVertex
100
AcDb2dVertex
 10
49.30431708477291
 20
63.32007305358943
 30
0.0
 70
     8
  0
VERTEX
  5
8E25
330
8E0E
100
AcDbEntity
  8
PHANTOM1
100
AcDbVertex
100
AcDb2dVertex
 10
49.30523205289134
 20
63.26082988952693
 30
0.0
 70
     8
  0
VERTEX
  5
8E26
330
8E0E
100
AcDbEntity
  8
PHANTOM1
100
AcDbVertex
100
AcDb2dVertex
 10
49.34583560676472
 20
63.20261211608944
 30
0.0
 70
     8
  0
VERTEX
  5
8E27
330
8E0E
100
AcDbEntity
  8
PHANTOM1
100
AcDbVertex
100
AcDb2dVertex
 10
49.43435843229406
 20
63.14679668640193
 30
0.0
 70
     8
  0
VERTEX
  5
8E28
330
8E0E
100
AcDbEntity
  8
PHANTOM1
100
AcDbVertex
100
AcDb2dVertex
 10
49.57903121538034
 20
63.09476055358944
 30
0.0
 70
     8
  0
VERTEX
  5
8E29
330
8E0E
100
AcDbEntity
  8
PHANTOM1
100
AcDbVertex
100
AcDb2dVertex
 10
49.23605435182899
 20
64.28976055358941
 30
0.0
 70
    16
  0
VERTEX
  5
8E2A
330
8E0E
100
AcDbEntity
  8
PHANTOM1
100
AcDbVertex
100
AcDb2dVertex
 10
50.111054351829
 20
63.78976055358942
 30
0.0
 70
    16
  0
VERTEX
  5
8E2B
330
8E0E
100
AcDbEntity
  8
PHANTOM1
100
AcDbVertex
100
AcDb2dVertex
 10
49.54855435182899
 20
63.60226055358943
 30
0.0
 70
    16
  0
VERTEX
  5
8E2C
330
8E0E
100
AcDbEntity
  8
PHANTOM1
100
AcDbVertex
100
AcDb2dVertex
 10
49.111054351829
 20
63.22726055358942
 30
0.0
 70
    16
  0
VERTEX
  5
8E2D
330
8E0E
100
AcDbEntity
  8
PHANTOM1
100
AcDbVertex
100
AcDb2dVertex
 10
49.57903121538034
 20
63.09476055358943
 30
0.0
 70
    16
  0
SEQEND
  5
8E2E
330
8E0E
100
AcDbEntity
  8
PHANTOM1
  0
LINE
  5
8E2F
330
1F
100
AcDbEntity
  8
PHANTOM1
100
AcDbLine
 10
63.58653121538034
 20
40.53476055358942
 30
0.0
 11
63.58653121538034
 21
48.03476055358942
 31
0.0
  0
LINE
  5
8E30
330
1F
100
AcDbEntity
  8
PHANTOM1
100
AcDbLine
 10
64.33653121538035
 20
40.53476055358942
 30
0.0
 11
64.33653121538035
 21
48.03476055358942
 31
0.0
  0
LINE
  5
8E31
330
1F
100
AcDbEntity
  8
PHANTOM1
100
AcDbLine
 10
62.46153121538035
 20
24.60226055358941
 30
0.0
 11
62.46153121538035
 21
63.09476055358943
 31
0.0
  0
LINE
  5
8E32
330
1F
100
AcDbEntity
  8
PHANTOM1
100
AcDbLine
 10
65.46153121538035
 20
24.70529092598507
 30
0.0
 11
65.46153121538032
 21
64.46976055358942
 31
0.0
  0
LINE
  5
8E33
330
1F
100
AcDbEntity
  8
PHANTOM1
100
AcDbLine
 10
65.58653121538035
 20
24.60226055358941
 30
0.0
 11
65.58653121538035
 21
64.59476055358942
 31
0.0
  0
LINE
  5
8E34
330
1F
100
AcDbEntity
  8
CONTINUOUS1
100
AcDbLine
 10
98.19708382279259
 20
43.28726055358941
 30
0.0
 11
98.19708382279261
 21
39.53726055358941
 31
0.0
  0
LINE
  5
8E35
330
1F
100
AcDbEntity
  8
CONTINUOUS1
100
AcDbLine
 10
90.06708382279258
 20
53.91226055358943
 30
0.0
 11
90.06708382279258
 21
29.16226055358942
 31
0.0
  0
LINE
  5
8E36
330
1F
100
AcDbEntity
  8
CONTINUOUS2
100
AcDbLine
 10
64.59153121538034
 20
28.91226055358941
 30
0.0
 11
64.59153121538034
 21
53.91226055358942
 31
0.0
  0
POLYLINE
  5
8E37
330
1F
100
AcDbEntity
  8
PHANTOM1
100
AcDb2dPolyline
 66
     1
 10
0.0
 20
0.0
 30
0.0
 70
     4
 75
     6
  0
VERTEX
  5
8E38
330
8E37
100
AcDbEntity
  8
PHANTOM1
100
AcDbVertex
100
AcDb2dVertex
 10
62.46153121538035
 20
24.60226055358941
 30
0.0
 70
    16
  0
VERTEX
  5
8E39
330
8E37
100
AcDbEntity
  8
PHANTOM1
100
AcDbVertex
100
AcDb2dVertex
 10
62.46153121538035
 20
24.60226055358941
 30
0.0
 70
     8
  0
VERTEX
  5
8E3A
330
8E37
100
AcDbEntity
  8
PHANTOM1
100
AcDbVertex
100
AcDb2dVertex
 10
62.68164155403884
 20
24.71559266621962
 30
0.0
 70
     8
  0
VERTEX
  5
8E3B
330
8E37
100
AcDbEntity
  8
PHANTOM1
100
AcDbVertex
100
AcDb2dVertex
 10
62.85933495572304
 20
24.74133932963108
 30
0.0
 70
     8
  0
VERTEX
  5
8E3C
330
8E37
100
AcDbEntity
  8
PHANTOM1
100
AcDbVertex
100
AcDb2dVertex
 10
63.00136852750071
 20
24.70031353210504
 30
0.0
 70
     8
  0
VERTEX
  5
8E3D
330
8E37
100
AcDbEntity
  8
PHANTOM1
100
AcDbVertex
100
AcDb2dVertex
 10
63.11449937643957
 20
24.61332826192275
 30
0.0
 70
     8
  0
VERTEX
  5
8E3E
330
8E37
100
AcDbEntity
  8
PHANTOM1
100
AcDbVertex
100
AcDb2dVertex
 10
63.20548460960742
 20
24.50119650736545
 30
0.0
 70
     8
  0
VERTEX
  5
8E3F
330
8E37
100
AcDbEntity
  8
PHANTOM1
100
AcDbVertex
100
AcDb2dVertex
 10
63.28108133407198
 20
24.38473125671441
 30
0.0
 70
     8
  0
VERTEX
  5
8E40
330
8E37
100
AcDbEntity
  8
PHANTOM1
100
AcDbVertex
100
AcDb2dVertex
 10
63.34804665690104
 20
24.28474549825087
 30
0.0
 70
     8
  0
VERTEX
  5
8E41
330
8E37
100
AcDbEntity
  8
PHANTOM1
100
AcDbVertex
100
AcDb2dVertex
 10
63.41313768516233
 20
24.22205222025608
 30
0.0
 70
     8
  0
VERTEX
  5
8E42
330
8E37
100
AcDbEntity
  8
PHANTOM1
100
AcDbVertex
100
AcDb2dVertex
 10
63.48188361615191
 20
24.21201193705295
 30
0.0
 70
     8
  0
VERTEX
  5
8E43
330
8E37
100
AcDbEntity
  8
PHANTOM1
100
AcDbVertex
100
AcDb2dVertex
 10
63.55490200807899
 20
24.24817526713108
 30
0.0
 70
     8
  0
VERTEX
  5
8E44
330
8E37
100
AcDbEntity
  8
PHANTOM1
100
AcDbVertex
100
AcDb2dVertex
 10
63.63158250938107
 20
24.31864035502171
 30
0.0
 70
     8
  0
VERTEX
  5
8E45
330
8E37
100
AcDbEntity
  8
PHANTOM1
100
AcDbVertex
100
AcDb2dVertex
 10
63.71131476849566
 20
24.41150534525608
 30
0.0
 70
     8
  0
VERTEX
  5
8E46
330
8E37
100
AcDbEntity
  8
PHANTOM1
100
AcDbVertex
100
AcDb2dVertex
 10
63.79348843386025
 20
24.51486838236546
 30
0.0
 70
     8
  0
VERTEX
  5
8E47
330
8E37
100
AcDbEntity
  8
PHANTOM1
100
AcDbVertex
100
AcDb2dVertex
 10
63.87749315391233
 20
24.61682761088108
 30
0.0
 70
     8
  0
VERTEX
  5
8E48
330
8E37
100
AcDbEntity
  8
PHANTOM1
100
AcDbVertex
100
AcDb2dVertex
 10
63.96271857708941
 20
24.7054811753342
 30
0.0
 70
     8
  0
VERTEX
  5
8E49
330
8E37
100
AcDbEntity
  8
PHANTOM1
100
AcDbVertex
100
AcDb2dVertex
 10
64.04855435182899
 20
24.76892722025608
 30
0.0
 70
     8
  0
VERTEX
  5
8E4A
330
8E37
100
AcDbEntity
  8
PHANTOM1
100
AcDbVertex
100
AcDb2dVertex
 10
64.13439012656858
 20
24.79868185892796
 30
0.0
 70
     8
  0
VERTEX
  5
8E4B
330
8E37
100
AcDbEntity
  8
PHANTOM1
100
AcDbVertex
100
AcDb2dVertex
 10
64.21961554974567
 20
24.79993307963108
 30
0.0
 70
     8
  0
VERTEX
  5
8E4C
330
8E37
100
AcDbEntity
  8
PHANTOM1
100
AcDbVertex
100
AcDb2dVertex
 10
64.30362026979775
 20
24.78128683939671
 30
0.0
 70
     8
  0
VERTEX
  5
8E4D
330
8E37
100
AcDbEntity
  8
PHANTOM1
100
AcDbVertex
100
AcDb2dVertex
 10
64.38579393516232
 20
24.75134909525608
 30
0.0
 70
     8
  0
VERTEX
  5
8E4E
330
8E37
100
AcDbEntity
  8
PHANTOM1
100
AcDbVertex
100
AcDb2dVertex
 10
64.46552619427691
 20
24.71872580424046
 30
0.0
 70
     8
  0
VERTEX
  5
8E4F
330
8E37
100
AcDbEntity
  8
PHANTOM1
100
AcDbVertex
100
AcDb2dVertex
 10
64.542206695579
 20
24.69202292338108
 30
0.0
 70
     8
  0
VERTEX
  5
8E50
330
8E37
100
AcDbEntity
  8
PHANTOM1
100
AcDbVertex
100
AcDb2dVertex
 10
64.61522508750608
 20
24.6798464097092
 30
0.0
 70
     8
  0
VERTEX
  5
8E51
330
8E37
100
AcDbEntity
  8
PHANTOM1
100
AcDbVertex
100
AcDb2dVertex
 10
64.68397101849567
 20
24.69080222025608
 30
0.0
 70
     8
  0
VERTEX
  5
8E52
330
8E37
100
AcDbEntity
  8
PHANTOM1
100
AcDbVertex
100
AcDb2dVertex
 10
64.7489662532552
 20
24.72950868184462
 30
0.0
 70
     8
  0
VERTEX
  5
8E53
330
8E37
100
AcDbEntity
  8
PHANTOM1
100
AcDbVertex
100
AcDb2dVertex
 10
64.81526102157198
 20
24.78463360046442
 30
0.0
 70
     8
  0
VERTEX
  5
8E54
330
8E37
100
AcDbEntity
  8
PHANTOM1
100
AcDbVertex
100
AcDb2dVertex
 10
64.88903766950326
 20
24.8408571518967
 30
0.0
 70
     8
  0
VERTEX
  5
8E55
330
8E37
100
AcDbEntity
  8
PHANTOM1
100
AcDbVertex
100
AcDb2dVertex
 10
64.97647854310625
 20
24.88285951192275
 30
0.0
 70
     8
  0
VERTEX
  5
8E56
330
8E37
100
AcDbEntity
  8
PHANTOM1
100
AcDbVertex
100
AcDb2dVertex
 10
65.08376598843821
 20
24.89532085632379
 30
0.0
 70
     8
  0
VERTEX
  5
8E57
330
8E37
100
AcDbEntity
  8
PHANTOM1
100
AcDbVertex
100
AcDb2dVertex
 10
65.2170823515564
 20
24.86292136088108
 30
0.0
 70
     8
  0
VERTEX
  5
8E58
330
8E37
100
AcDbEntity
  8
PHANTOM1
100
AcDbVertex
100
AcDb2dVertex
 10
65.38260997851802
 20
24.77034120137587
 30
0.0
 70
     8
  0
VERTEX
  5
8E59
330
8E37
100
AcDbEntity
  8
PHANTOM1
100
AcDbVertex
100
AcDb2dVertex
 10
65.58653121538035
 20
24.60226055358941
 30
0.0
 70
     8
  0
VERTEX
  5
8E5A
330
8E37
100
AcDbEntity
  8
PHANTOM1
100
AcDbVertex
100
AcDb2dVertex
 10
63.11105435182899
 20
25.03976055358942
 30
0.0
 70
    16
  0
VERTEX
  5
8E5B
330
8E37
100
AcDbEntity
  8
PHANTOM1
100
AcDbVertex
100
AcDb2dVertex
 10
63.36105435182899
 20
23.60226055358941
 30
0.0
 70
    16
  0
VERTEX
  5
8E5C
330
8E37
100
AcDbEntity
  8
PHANTOM1
100
AcDbVertex
100
AcDb2dVertex
 10
64.04855435182899
 20
25.16476055358941
 30
0.0
 70
    16
  0
VERTEX
  5
8E5D
330
8E37
100
AcDbEntity
  8
PHANTOM1
100
AcDbVertex
100
AcDb2dVertex
 10
64.736054351829
 20
24.35226055358941
 30
0.0
 70
    16
  0
VERTEX
  5
8E5E
330
8E37
100
AcDbEntity
  8
PHANTOM1
100
AcDbVertex
100
AcDb2dVertex
 10
64.98605435182899
 20
25.16476055358941
 30
0.0
 70
    16
  0
VERTEX
  5
8E5F
330
8E37
100
AcDbEntity
  8
PHANTOM1
100
AcDbVertex
100
AcDb2dVertex
 10
65.58653121538035
 20
24.60226055358941
 30
0.0
 70
    16
  0
SEQEND
  5
8E60
330
8E37
100
AcDbEntity
  8
PHANTOM1
  0
LINE
  5
8E61
330
1F
100
AcDbEntity
  8
CONTINUOUS2
100
AcDbLine
 10
65.37153121538034
 20
30.37976055358942
 30
0.0
 11
65.37153121538034
 21
31.28976055358942
 31
0.0
  0
LINE
  5
8E62
330
1F
100
AcDbEntity
  8
CONTINUOUS2
100
AcDbLine
 10
64.60153121538034
 20
30.37976055358942
 30
0.0
 11
65.37153121538034
 21
30.37976055358942
 31
0.0
  0
LINE
  5
8E63
330
1F
100
AcDbEntity
  8
CONTINUOUS2
100
AcDbLine
 10
64.69153121538035
 20
30.28976055358941
 30
0.0
 11
65.46153121538035
 21
30.28976055358941
 31
0.0
  0
LINE
  5
8E64
330
1F
100
AcDbEntity
  8
CONTINUOUS2
100
AcDbLine
 10
64.68153121538034
 20
30.28976055358941
 30
0.0
 11
64.68153121538034
 21
28.72726055358942
 31
0.0
  0
LINE
  5
8E65
330
1F
100
AcDbEntity
  8
CONTINUOUS2
100
AcDbLine
 10
64.59153121538034
 20
30.37976055358941
 30
0.0
 11
64.59153121538034
 21
28.72726055358942
 31
0.0
  0
LINE
  5
8E66
330
1F
100
AcDbEntity
  8
CONTINUOUS2
100
AcDbLine
 10
64.59153121538034
 20
28.72726055358942
 30
0.0
 11
64.68153121538034
 21
28.72726055358942
 31
0.0
  0
LINE
  5
8E67
330
1F
100
AcDbEntity
  8
CONTINUOUS2
100
AcDbLine
 10
65.37153121538034
 20
31.28976055358942
 30
0.0
 11
65.46153121538035
 21
31.28976055358942
 31
0.0
  0
LINE
  5
8E68
330
1F
100
AcDbEntity
  8
PHANTOM1
100
AcDbLine
 10
63.78153121538034
 20
40.03476055358942
 30
0.0
 11
64.14153121538034
 21
40.03476055358942
 31
0.0
  0
CIRCLE
  5
8E69
330
1F
100
AcDbEntity
  8
PHANTOM1
100
AcDbCircle
 10
63.96153121538034
 20
40.03476055358942
 30
0.0
 40
0.17
  0
LINE
  5
8E6A
330
1F
100
AcDbEntity
  8
PHANTOM1
100
AcDbLine
 10
63.96153121538034
 20
39.85476055358942
 30
0.0
 11
63.96153121538034
 21
40.21476055358942
 31
0.0
  0
LINE
  5
8E6B
330
1F
100
AcDbEntity
  8
PHANTOM1
100
AcDbLine
 10
63.58653121538034
 20
40.53476055358942
 30
0.0
 11
64.33653121538035
 21
40.53476055358942
 31
0.0
  0
LINE
  5
8E6C
330
1F
100
AcDbEntity
  8
CONTINUOUS1
100
AcDbLine
 10
98.19708382279259
 20
34.75726055358942
 30
0.0
 11
98.19708382279259
 21
31.00726055358942
 31
0.0
  0
LINE
  5
8E6D
330
1F
100
AcDbEntity
  8
CONTINUOUS1
100
AcDbLine
 10
91.03458382279258
 20
28.91226055358941
 30
0.0
 11
96.15958382279259
 21
28.91226055358941
 31
0.0
  0
LINE
  5
8E6E
330
1F
100
AcDbEntity
  8
CONTINUOUS1
100
AcDbLine
 10
90.31708382279258
 20
28.91226055358941
 30
0.0
 11
90.06708382279258
 21
29.16226055358942
 31
0.0
  0
LINE
  5
8E6F
330
1F
100
AcDbEntity
  8
CONTINUOUS1
100
AcDbLine
 10
91.03458382279258
 20
28.91226055358941
 30
0.0
 11
91.0345838227926
 21
29.41226055358942
 31
0.0
  0
LINE
  5
8E70
330
1F
100
AcDbEntity
  8
CONTINUOUS1
100
AcDbLine
 10
90.65958382279259
 20
28.91226055358941
 30
0.0
 11
90.6595838227926
 21
29.41226055358942
 31
0.0
  0
LINE
  5
8E71
330
1F
100
AcDbEntity
  8
CONTINUOUS1
100
AcDbLine
 10
90.31708382279258
 20
28.91226055358941
 30
0.0
 11
90.65958382279259
 21
28.91226055358941
 31
0.0
  0
LINE
  5
8E72
330
1F
100
AcDbEntity
  8
CENTER1
100
AcDbLine
 10
90.84708382279259
 20
29.23226055358941
 30
0.0
 11
90.84708382279259
 21
29.59226055358941
 31
0.0
  0
LINE
  5
8E73
330
1F
100
AcDbEntity
  8
CENTER1
100
AcDbLine
 10
90.66708382279259
 20
29.41226055358942
 30
0.0
 11
91.0270838227926
 21
29.41226055358942
 31
0.0
  0
ARC
  5
8E74
330
1F
100
AcDbEntity
  8
CONTINUOUS1
100
AcDbCircle
 10
90.84708382279259
 20
29.41226055358942
 30
0.0
 40
0.1874999999999991
100
AcDbArc
 50
0.0
 51
180.0
  0
LINE
  5
8E75
330
1F
100
AcDbEntity
  8
CONTINUOUS1
100
AcDbLine
 10
98.07208382279259
 20
30.88226055358942
 30
0.0
 11
98.07208382279259
 21
28.91226055358941
 31
0.0
  0
LINE
  5
8E76
330
1F
100
AcDbEntity
  8
CONTINUOUS1
100
AcDbLine
 10
96.53458382279259
 20
28.91226055358941
 30
0.0
 11
98.07208382279259
 21
28.91226055358941
 31
0.0
  0
LINE
  5
8E77
330
1F
100
AcDbEntity
  8
CONTINUOUS1
100
AcDbLine
 10
96.53458382279259
 20
28.91226055358941
 30
0.0
 11
96.53458382279261
 21
29.41226055358942
 31
0.0
  0
LINE
  5
8E78
330
1F
100
AcDbEntity
  8
CONTINUOUS1
100
AcDbLine
 10
96.15958382279259
 20
28.91226055358941
 30
0.0
 11
96.15958382279259
 21
29.41226055358942
 31
0.0
  0
LINE
  5
8E79
330
1F
100
AcDbEntity
  8
CENTER1
100
AcDbLine
 10
96.16708382279259
 20
29.41226055358942
 30
0.0
 11
96.52708382279261
 21
29.41226055358942
 31
0.0
  0
ARC
  5
8E7A
330
1F
100
AcDbEntity
  8
CONTINUOUS1
100
AcDbCircle
 10
96.3470838227926
 20
29.41226055358942
 30
0.0
 40
0.1874999999999991
100
AcDbArc
 50
0.0
 51
180.0
  0
LINE
  5
8E7B
330
1F
100
AcDbEntity
  8
CENTER1
100
AcDbLine
 10
96.3470838227926
 20
29.23226055358941
 30
0.0
 11
96.3470838227926
 21
29.59226055358941
 31
0.0
  0
LINE
  5
8E7C
330
1F
100
AcDbEntity
  8
CONTINUOUS1
100
AcDbLine
 10
98.07208382279259
 20
30.88226055358942
 30
0.0
 11
98.19708382279259
 21
31.00726055358942
 31
0.0
  0
LINE
  5
8E7D
330
1F
100
AcDbEntity
  8
CONTINUOUS1
100
AcDbLine
 10
98.07208382279261
 20
39.41226055358942
 30
0.0
 11
98.07208382279259
 21
34.88226055358941
 31
0.0
  0
LINE
  5
8E7E
330
1F
100
AcDbEntity
  8
CONTINUOUS1
100
AcDbLine
 10
98.07208382279259
 20
34.88226055358941
 30
0.0
 11
98.19708382279259
 21
34.75726055358942
 31
0.0
  0
LINE
  5
8E7F
330
1F
100
AcDbEntity
  8
CONTINUOUS1
100
AcDbLine
 10
98.07208382279261
 20
39.41226055358942
 30
0.0
 11
98.19708382279261
 21
39.53726055358941
 31
0.0
  0
LINE
  5
8E80
330
1F
100
AcDbEntity
  8
CENTER1
100
AcDbLine
 10
63.78153121538034
 20
48.53476055358942
 30
0.0
 11
64.14153121538034
 21
48.53476055358942
 31
0.0
  0
CIRCLE
  5
8E81
330
1F
100
AcDbEntity
  8
PHANTOM1
100
AcDbCircle
 10
63.96153121538034
 20
48.53476055358942
 30
0.0
 40
0.17
  0
LINE
  5
8E82
330
1F
100
AcDbEntity
  8
PHANTOM1
100
AcDbLine
 10
63.58653121538034
 20
48.03476055358942
 30
0.0
 11
64.33653121538035
 21
48.03476055358942
 31
0.0
  0
LINE
  5
8E83
330
1F
100
AcDbEntity
  8
CENTER1
100
AcDbLine
 10
63.96153121538034
 20
48.35476055358942
 30
0.0
 11
63.96153121538034
 21
48.71476055358942
 31
0.0
  0
LINE
  5
8E84
330
1F
100
AcDbEntity
  8
CONTINUOUS2
100
AcDbLine
 10
64.60153121538034
 20
52.82476055358942
 30
0.0
 11
64.60153121538034
 21
54.47726055358942
 31
0.0
  0
LINE
  5
8E85
330
1F
100
AcDbEntity
  8
CONTINUOUS2
100
AcDbLine
 10
64.69153121538035
 20
52.91476055358942
 30
0.0
 11
64.69153121538035
 21
54.47726055358942
 31
0.0
  0
LINE
  5
8E86
330
1F
100
AcDbEntity
  8
CONTINUOUS2
100
AcDbLine
 10
64.69153121538035
 20
52.91476055358942
 30
0.0
 11
65.46153121538035
 21
52.91476055358942
 31
0.0
  0
LINE
  5
8E87
330
1F
100
AcDbEntity
  8
CONTINUOUS2
100
AcDbLine
 10
64.60153121538034
 20
52.82476055358942
 30
0.0
 11
65.37153121538034
 21
52.82476055358942
 31
0.0
  0
LINE
  5
8E88
330
1F
100
AcDbEntity
  8
CONTINUOUS2
100
AcDbLine
 10
65.37153121538034
 20
52.82476055358942
 30
0.0
 11
65.37153121538034
 21
51.91476055358942
 31
0.0
  0
LINE
  5
8E89
330
1F
100
AcDbEntity
  8
CONTINUOUS2
100
AcDbLine
 10
65.37153121538034
 20
51.91476055358942
 30
0.0
 11
65.46153121538035
 21
51.91476055358942
 31
0.0
  0
LINE
  5
8E8A
330
1F
100
AcDbEntity
  8
CONTINUOUS2
100
AcDbLine
 10
64.60153121538034
 20
54.47726055358942
 30
0.0
 11
64.69153121538035
 21
54.47726055358942
 31
0.0
  0
LINE
  5
8E8B
330
1F
100
AcDbEntity
  8
CONTINUOUS1
100
AcDbLine
 10
98.19708382279259
 20
48.06726055358942
 30
0.0
 11
98.19708382279259
 21
51.81726055358943
 31
0.0
  0
LINE
  5
8E8C
330
1F
100
AcDbEntity
  8
CONTINUOUS1
100
AcDbLine
 10
98.07208382279259
 20
47.94226055358942
 30
0.0
 11
98.07208382279259
 21
43.41226055358942
 31
0.0
  0
LINE
  5
8E8D
330
1F
100
AcDbEntity
  8
CONTINUOUS1
100
AcDbLine
 10
98.07208382279259
 20
43.41226055358942
 30
0.0
 11
98.19708382279259
 21
43.28726055358941
 31
0.0
  0
LINE
  5
8E8E
330
1F
100
AcDbEntity
  8
CONTINUOUS1
100
AcDbLine
 10
98.07208382279259
 20
47.94226055358942
 30
0.0
 11
98.19708382279259
 21
48.06726055358942
 31
0.0
  0
LINE
  5
8E8F
330
1F
100
AcDbEntity
  8
CONTINUOUS1
100
AcDbLine
 10
90.06708382279258
 20
53.91226055358943
 30
0.0
 11
98.07208382279258
 21
53.91226055358943
 31
0.0
  0
ARC
  5
8E90
330
1F
100
AcDbEntity
  8
CONTINUOUS1
100
AcDbCircle
 10
90.84708382279258
 20
53.09976055358942
 30
0.0
 40
0.25
100
AcDbArc
 50
138.590377890729
 51
41.40962210927096
  0
LINE
  5
8E91
330
1F
100
AcDbEntity
  8
CENTER1
100
AcDbLine
 10
90.84708382279258
 20
53.23226055358943
 30
0.0
 11
90.84708382279258
 21
53.59226055358942
 31
0.0
  0
LINE
  5
8E92
330
1F
100
AcDbEntity
  8
CENTER1
100
AcDbLine
 10
90.66708382279257
 20
53.41226055358943
 30
0.0
 11
91.02708382279258
 21
53.41226055358943
 31
0.0
  0
LINE
  5
8E93
330
1F
100
AcDbEntity
  8
CONTINUOUS1
100
AcDbLine
 10
91.03458382279258
 20
53.26512001053096
 30
0.0
 11
91.03458382279258
 21
53.41226055358943
 31
0.0
  0
LINE
  5
8E94
330
1F
100
AcDbEntity
  8
CONTINUOUS1
100
AcDbLine
 10
90.65958382279259
 20
53.26512001053096
 30
0.0
 11
90.65958382279259
 21
53.41226055358943
 31
0.0
  0
ARC
  5
8E95
330
1F
100
AcDbEntity
  8
CONTINUOUS1
100
AcDbCircle
 10
90.84708382279258
 20
53.41226055358943
 30
0.0
 40
0.1875000000000027
100
AcDbArc
 50
0.0
 51
180.0
  0
LINE
  5
8E96
330
1F
100
AcDbEntity
  8
CONTINUOUS1
100
AcDbLine
 10
98.07208382279258
 20
53.91226055358943
 30
0.0
 11
98.07208382279259
 21
51.94226055358945
 31
0.0
  0
ARC
  5
8E97
330
1F
100
AcDbEntity
  8
CONTINUOUS1
100
AcDbCircle
 10
96.34708382279256
 20
53.09976055358942
 30
0.0
 40
0.25
100
AcDbArc
 50
138.590377890729
 51
41.40962210927096
  0
LINE
  5
8E98
330
1F
100
AcDbEntity
  8
CONTINUOUS1
100
AcDbLine
 10
98.07208382279259
 20
51.94226055358943
 30
0.0
 11
98.19708382279259
 21
51.81726055358943
 31
0.0
  0
LINE
  5
8E99
330
1F
100
AcDbEntity
  8
CENTER1
100
AcDbLine
 10
96.16708382279256
 20
53.41226055358943
 30
0.0
 11
96.52708382279257
 21
53.41226055358943
 31
0.0
  0
ARC
  5
8E9A
330
1F
100
AcDbEntity
  8
CONTINUOUS1
100
AcDbCircle
 10
96.34708382279256
 20
53.41226055358943
 30
0.0
 40
0.1875000000000027
100
AcDbArc
 50
0.0
 51
180.0
  0
LINE
  5
8E9B
330
1F
100
AcDbEntity
  8
CENTER1
100
AcDbLine
 10
96.34708382279256
 20
53.23226055358943
 30
0.0
 11
96.34708382279256
 21
53.59226055358942
 31
0.0
  0
LINE
  5
8E9C
330
1F
100
AcDbEntity
  8
CONTINUOUS1
100
AcDbLine
 10
96.15958382279258
 20
53.26512001053096
 30
0.0
 11
96.15958382279258
 21
53.41226055358943
 31
0.0
  0
LINE
  5
8E9D
330
1F
100
AcDbEntity
  8
CONTINUOUS1
100
AcDbLine
 10
96.53458382279257
 20
53.26512001053096
 30
0.0
 11
96.53458382279257
 21
53.41226055358943
 31
0.0
  0
TEXT
  5
8E9E
330
1F
100
AcDbEntity
  8
TEXT1
100
AcDbText
 10
4.161202000700799
 20
77.10920375133889
 30
0.0
 40
0.7999999999999999
  1
MAXIMUM HORSEPOWER RATINGS
100
AcDbText
  0
LINE
  5
8E9F
330
1F
100
AcDbEntity
  8
CONTINUOUS1
100
AcDbLine
 10
1.976226319058046
 20
78.3302966254856
 30
0.0
 11
35.06307029772223
 21
78.3302966254856
 31
0.0
  0
TEXT
  5
8EA0
330
1F
100
AcDbEntity
  8
TEXT1
100
AcDbText
 10
2.569219292768215
 20
70.69467805254994
 30
0.0
 40
0.7999999999999999
  1
(200)
 11
2.569219292768215
 21
71.49467805254994
 31
0.0
100
AcDbText
 73
     3
  0
LINE
  5
8EA1
330
1F
100
AcDbEntity
  8
CONTINUOUS1
100
AcDbLine
 10
6.263154254636614
 20
73.23708306068792
 30
0.0
 11
6.263154254636614
 21
68.64347556632042
 31
0.0
  0
TEXT
  5
8EA2
330
1F
100
AcDbEntity
  8
TEXT1
100
AcDbText
 10
6.856147228346783
 20
70.69467805254994
 30
0.0
 40
0.7999999999999999
  1
(230)
 11
6.856147228346783
 21
71.49467805254994
 31
0.0
100
AcDbText
 73
     3
  0
TEXT
  5
8EA3
330
1F
100
AcDbEntity
  8
TEXT1
100
AcDbText
 10
7.345704912270591
 20
71.89061170463074
 30
0.0
 40
0.7999999999999999
  1
240
100
AcDbText
  0
TEXT
  5
8EA4
330
1F
100
AcDbEntity
  8
TEXT1
100
AcDbText
 10
7.34524075954966
 20
69.02562690057381
 30
0.0
 40
0.7999999999999999
  1
125
100
AcDbText
  0
TEXT
  5
8EA5
330
1F
100
AcDbEntity
  8
TEXT1
100
AcDbText
 10
19.79274702900697
 20
72.70304385898734
 30
0.0
 40
0.7999999999999999
  1
250V MAX.
100
AcDbText
  0
LINE
  5
8EA6
330
1F
100
AcDbEntity
  8
CONTINUOUS1
100
AcDbLine
 10
10.55008219021518
 20
73.23708306068792
 30
0.0
 11
10.55008219021518
 21
68.64347556632042
 31
0.0
  0
TEXT
  5
8EA7
330
1F
100
AcDbEntity
  8
TEXT1
100
AcDbText
 10
11.14307516392535
 20
70.69467805254994
 30
0.0
 40
0.7999999999999999
  1
(460)
 11
11.14307516392535
 21
71.49467805254994
 31
0.0
100
AcDbText
 73
     3
  0
TEXT
  5
8EA8
330
1F
100
AcDbEntity
  8
TEXT1
100
AcDbText
 10
11.63263284784916
 20
71.89061170463074
 30
0.0
 40
0.7999999999999999
  1
480
100
AcDbText
  0
TEXT
  5
8EA9
330
1F
100
AcDbEntity
  8
TEXT1
100
AcDbText
 10
11.63216869512823
 20
69.02562690057381
 30
0.0
 40
0.7999999999999999
  1
250
100
AcDbText
  0
TEXT
  5
8EAA
330
1F
100
AcDbEntity
  8
TEXT1
100
AcDbText
 10
5.121663163625994
 20
73.94871850077527
 30
0.0
 40
0.7999999999999999
  1
(MOTOR VOLTS)
100
AcDbText
  0
LINE
  5
8EAB
330
1F
100
AcDbEntity
  8
CONTINUOUS1
100
AcDbLine
 10
14.83701012579375
 20
73.23708306068792
 30
0.0
 11
14.83701012579375
 21
68.64347556632042
 31
0.0
  0
TEXT
  5
8EAC
330
1F
100
AcDbEntity
  8
TEXT1
100
AcDbText
 10
15.43000309950392
 20
70.69467805254994
 30
0.0
 40
0.7999999999999999
  1
(575)
 11
15.43000309950392
 21
71.49467805254994
 31
0.0
100
AcDbText
 73
     3
  0
TEXT
  5
8EAD
330
1F
100
AcDbEntity
  8
TEXT1
100
AcDbText
 10
15.91956078342773
 20
71.89061170463074
 30
0.0
 40
0.7999999999999999
  1
600
100
AcDbText
  0
TEXT
  5
8EAE
330
1F
100
AcDbEntity
  8
TEXT1
100
AcDbText
 10
15.9190966307068
 20
69.02562690057381
 30
0.0
 40
0.7999999999999999
  1
350
100
AcDbText
  0
LINE
  5
8EAF
330
1F
100
AcDbEntity
  8
CONTINUOUS1
100
AcDbLine
 10
19.08066336641498
 20
72.29363853655302
 30
0.0
 11
26.76069469956132
 21
72.29363853655297
 31
0.0
  0
TEXT
  5
8EB0
330
1F
100
AcDbEntity
  8
TEXT1
100
AcDbText
 10
2.304975814534234
 20
60.65128052297827
 30
0.0
 40
0.8
  1
USED WITH THIS DISCONNECT SWITCH 9422-TG2.
  7
SIMPLEX
 11
2.304975814534234
 21
60.38461385631161
 31
0.0
100
AcDbText
 73
     1
  0
TEXT
  5
8EB1
330
1F
100
AcDbEntity
  8
TEXT1
100
AcDbText
 10
2.310937810600678
 20
58.8821826890811
 30
0.0
 40
0.8
  1
9422-TG-2 DISCONNECT SWITCH IS:
  7
SIMPLEX
 11
2.310937810600678
 21
58.61551602241443
 31
0.0
100
AcDbText
 73
     1
  0
LINE
  5
8EB2
330
1F
100
AcDbEntity
  8
CONTINUOUS1
100
AcDbLine
 10
35.06307029772223
 20
78.33029662548563
 30
0.0
 11
35.06307029772219
 21
68.64347556632042
 31
0.0
  0
TEXT
  5
8EB3
330
1F
100
AcDbEntity
  8
TEXT1
100
AcDbText
 10
27.85942380857921
 20
76.69339213818287
 30
0.0
 40
0.7999999999999999
  1
MOUNTING
100
AcDbText
  0
TEXT
  5
8EB4
330
1F
100
AcDbEntity
  8
TEXT1
100
AcDbText
 10
29.05645813086061
 20
75.57618816055397
 30
0.0
 40
0.7999999999999999
  1
DEPTH
100
AcDbText
  0
LINE
  5
8EB6
330
1F
100
AcDbEntity
  8
CONTINUOUS1
100
AcDbLine
 10
26.76069469956134
 20
74.69938350336002
 30
0.0
 11
35.06307029772223
 21
74.69938350335995
 31
0.0
  0
TEXT
  5
8EB7
330
1F
100
AcDbEntity
  8
TEXT1
100
AcDbText
 10
27.27535663892403
 20
72.38317802165005
 30
0.0
 40
0.7999999999999999
  1
15.87-19.00
100
AcDbText
  0
TEXT
  5
8EB8
330
1F
100
AcDbEntity
  8
TEXT1
100
AcDbText
 10
28.77747505598787
 20
71.01174945022148
 30
0.0
 40
0.7999999999999999
  1
INCHES
100
AcDbText
  0
TEXT
  5
8EB9
330
1F
100
AcDbEntity
  8
TEXT1
100
AcDbText
 10
2.350853243791376
 20
57.68517837166966
 30
0.0
 40
0.8
  1
FUSIBLE AND ADJUSTABLE DEPTH.
  7
SIMPLEX
100
AcDbText
  0
DIMENSION
  5
8EBA
330
1F
100
AcDbEntity
  8
DIM
100
AcDbDimension
  2
*D5
 10
64.59153121538034
 20
22.41484048633944
 30
0.0
 11
57.82153121538034
 21
22.41484048633944
 31
0.0
 70
   160
  1
\P<>
  3
SCHNEIDERELECTRIC
100
AcDbAlignedDimension
 13
51.05153121538034
 23
28.91226055358941
 33
0.0
 14
64.59153121538034
 24
28.91226055358941
 34
0.0
100
AcDbRotatedDimension
1001
ACAD
1000
DSTYLE
1002
{
1070
    40
1040
8.0
1002
}
  0
DIMENSION
  5
8EBB
330
1F
100
AcDbEntity
  8
DIM
100
AcDbDimension
  2
*D6
 10
98.19708382279259
 20
25.6311050367731
 30
0.0
 11
94.13208382279259
 21
25.6311050367731
 31
0.0
 70
   160
  1
\P<>
  3
SCHNEIDERELECTRIC
100
AcDbAlignedDimension
 13
90.0670838227926
 23
29.16226055358942
 33
0.0
 14
98.19708382279259
 24
31.00726055358942
 34
0.0
100
AcDbRotatedDimension
1001
ACAD
1000
DSTYLE
1002
{
1070
    40
1040
8.0
1002
}
  0
DIMENSION
  5
8EBC
330
1F
100
AcDbEntity
  8
DIM
100
AcDbDimension
  2
*D7
 10
52.45153121538034
 20
26.21052567610081
 30
0.0
 11
55.41534073918986
 21
26.21052567610081
 31
0.0
 70
   160
  1
\P<>
  3
SCHNEIDERELECTRIC
100
AcDbAlignedDimension
 13
51.05153121538034
 23
28.91226055358941
 33
0.0
 14
52.45153121538034
 24
29.51476055358941
 34
0.0
100
AcDbRotatedDimension
1001
ACAD
1000
DSTYLE
1002
{
1070
    40
1040
8.0
1002
}
  0
DIMENSION
  5
8EBD
330
1F
100
AcDbEntity
  8
DIM
100
AcDbDimension
  2
*D8
 10
52.45153121538034
 20
60.98391878728474
 30
0.0
 11
47.77027860489957
 21
60.98391878728474
 31
0.0
 70
   160
  1
\P<>
  3
SCHNEIDERELECTRIC
100
AcDbAlignedDimension
 13
51.05153121538034
 23
53.91226055358942
 33
0.0
 14
52.45153121538034
 24
53.31476055358943
 34
0.0
100
AcDbRotatedDimension
1001
ACAD
1000
DSTYLE
1002
{
1070
    40
1040
8.0
1002
}
  0
DIMENSION
  5
8EBE
330
1F
100
AcDbEntity
  8
DIM
100
AcDbDimension
  2
*D9
 10
48.02906901623841
 20
48.53476055358942
 30
0.0
 11
48.02906901623839
 21
50.92476055358942
 31
0.0
 70
   160
  3
SCHNEIDERELECTRIC
100
AcDbAlignedDimension
 13
52.45153121538034
 23
53.31476055358943
 33
0.0
 14
63.96153121538034
 24
48.53476055358942
 34
0.0
 50
90.0
100
AcDbRotatedDimension
1001
ACAD
1000
DSTYLE
1002
{
1070
    40
1040
8.0
1002
}
  0
DIMENSION
  5
8EBF
330
1F
100
AcDbEntity
  8
DIM
100
AcDbDimension
  2
*D10
 10
74.90493814983853
 20
48.53476055358942
 30
0.0
 11
74.90493814983851
 21
44.28476055358942
 31
0.0
 70
   160
  3
SCHNEIDERELECTRIC
100
AcDbAlignedDimension
 13
63.96153121538034
 23
40.03476055358942
 33
0.0
 14
63.96153121538034
 24
48.53476055358942
 34
0.0
 50
90.0
100
AcDbRotatedDimension
1001
ACAD
1000
DSTYLE
1002
{
1070
    40
1040
8.0
1002
}
  0
DIMENSION
  5
8EC0
330
1F
100
AcDbEntity
  8
DIM
100
AcDbDimension
  2
*D11
 10
70.69336580967839
 20
40.53476055358942
 30
0.0
 11
70.69336580967837
 21
44.28476055358942
 31
0.0
 70
   160
  3
SCHNEIDERELECTRIC
100
AcDbAlignedDimension
 13
64.33653121538035
 23
48.03476055358942
 33
0.0
 14
64.33653121538035
 24
40.53476055358942
 34
0.0
 50
90.0
100
AcDbRotatedDimension
1001
ACAD
1000
DSTYLE
1002
{
1070
    40
1040
8.0
1002
}
  0
DIMENSION
  5
8EC1
330
1F
100
AcDbEntity
  8
DIM
100
AcDbDimension
  2
*D12
 10
69.00294385552919
 20
48.03476055358942
 30
0.0
 11
66.59913433171965
 21
45.97106314901739
 31
0.0
 70
   160
  1
\P<>
  3
SCHNEIDERELECTRIC
100
AcDbAlignedDimension
 13
63.96153121538034
 23
48.53476055358942
 33
0.0
 14
64.33653121538035
 24
48.03476055358942
 34
0.0
 50
90.0
100
AcDbRotatedDimension
1001
ACAD
1000
DSTYLE
1002
{
1070
    40
1040
8.0
1002
}
  0
DIMENSION
  5
8EC2
330
1F
100
AcDbEntity
  8
DIM
100
AcDbDimension
  2
*D13
 10
63.96153121538034
 20
57.71642529689598
 30
0.0
 11
58.20653121538034
 21
57.71642529689598
 31
0.0
 70
   160
  1
\P<>
  3
SCHNEIDERELECTRIC
100
AcDbAlignedDimension
 13
52.45153121538034
 23
53.31476055358943
 33
0.0
 14
63.96153121538034
 24
48.53476055358942
 34
0.0
100
AcDbRotatedDimension
1001
ACAD
1000
DSTYLE
1002
{
1070
    40
1040
8.0
1002
}
  0
DIMENSION
  5
8EC3
330
1F
100
AcDbEntity
  8
DIM
100
AcDbDimension
  2
*D14
 10
63.58653121538034
 20
36.58871333147567
 30
0.0
 11
57.00087341587465
 21
36.58871333147567
 31
0.0
 70
   160
  1
\P<>
  3
SCHNEIDERELECTRIC
100
AcDbAlignedDimension
 13
64.33653121538035
 23
40.53476055358942
 33
0.0
 14
63.58653121538034
 24
40.53476055358942
 34
0.0
100
AcDbRotatedDimension
1001
ACAD
1000
DSTYLE
1002
{
1070
    40
1040
8.0
1002
}
  0
DIMENSION
  5
8EC4
330
1F
100
AcDbEntity
  8
DIM
100
AcDbDimension
  2
*D15
 10
74.90493814983853
 20
53.91226055358941
 30
0.0
 11
74.90493814983851
 21
51.22351055358942
 31
0.0
 70
   160
  3
SCHNEIDERELECTRIC
100
AcDbAlignedDimension
 13
63.96153121538034
 23
48.53476055358942
 33
0.0
 14
64.59153121538034
 24
53.91226055358941
 34
0.0
 50
90.0
100
AcDbRotatedDimension
1001
ACAD
1000
DSTYLE
1002
{
1070
    40
1040
8.0
1002
}
  0
DIMENSION
  5
8EC5
330
1F
100
AcDbEntity
  8
DIM
100
AcDbDimension
  2
*D16
 10
62.46153121538035
 20
34.7793808730064
 30
0.0
 11
69.45696513725255
 21
34.7793808730064
 31
0.0
 70
   160
  1
\P<>
  3
SCHNEIDERELECTRIC
100
AcDbAlignedDimension
 13
63.96153121538034
 23
40.03476055358942
 33
0.0
 14
62.46153121538035
 24
37.13545854895282
 34
0.0
100
AcDbRotatedDimension
1001
ACAD
1000
DSTYLE
1002
{
1070
    40
1040
8.0
1002
}
  0
DIMENSION
  5
8EC6
330
1F
100
AcDbEntity
  8
DIM
100
AcDbDimension
  2
*D17
 10
65.4606698292332
 20
60.98391878728474
 30
0.0
 11
58.95610052230677
 21
60.98391878728474
 31
0.0
 70
   160
  1
\P<>
  3
SCHNEIDERELECTRIC
100
AcDbAlignedDimension
 13
52.45153121538034
 23
53.31476055358943
 33
0.0
 14
65.4606698292332
 24
57.30474344616344
 34
0.0
100
AcDbRotatedDimension
1001
ACAD
1000
DSTYLE
1002
{
1070
    40
1040
8.0
1002
}
  0
DIMENSION
  5
8EC7
330
1F
100
AcDbEntity
  8
DIM
100
AcDbDimension
  2
*D18
 10
63.58653121538034
 20
38.69960126392075
 30
0.0
 11
60.27693825736668
 21
38.69960126392075
 31
0.0
 70
   160
  1
\P<>
  3
SCHNEIDERELECTRIC
100
AcDbAlignedDimension
 13
63.96153121538034
 23
40.03476055358942
 33
0.0
 14
63.58653121538034
 24
40.53476055358942
 34
0.0
100
AcDbRotatedDimension
1001
ACAD
1000
DSTYLE
1002
{
1070
    40
1040
8.0
1002
}
  0
DIMENSION
  5
8EC8
330
1F
100
AcDbEntity
  8
DIM
100
AcDbDimension
  2
*D19
 10
69.00619278996704
 20
64.59476055358942
 30
0.0
 11
69.00619278996703
 21
57.62775806671046
 31
0.0
 70
   160
  1
13.25 \PMIN.
  3
SCHNEIDERELECTRIC
100
AcDbAlignedDimension
 13
63.96153121538034
 23
48.53476055358942
 33
0.0
 14
65.58653121538035
 24
64.59476055358942
 34
0.0
 50
90.0
100
AcDbRotatedDimension
1001
ACAD
1000
DSTYLE
1002
{
1070
    40
1040
8.0
1002
}
  0
DIMENSION
  5
8EC9
330
1F
100
AcDbEntity
  8
DIM
100
AcDbDimension
  2
*D20
 10
62.46153121538035
 20
67.46748226736034
 30
0.0
 11
60.05772169157083
 21
67.46748226736034
 31
0.0
 70
   160
  1
\P<>
  3
SCHNEIDERELECTRIC
100
AcDbAlignedDimension
 13
65.46153121538032
 23
64.46976055358942
 33
0.0
 14
62.46153121538035
 24
63.09476055358943
 34
0.0
100
AcDbRotatedDimension
1001
ACAD
1000
DSTYLE
1002
{
1070
    40
1040
8.0
1002
}
  0
DIMENSION
  5
8ECB
330
1F
100
AcDbEntity
  8
DIM
100
AcDbDimension
  2
*D21
 10
44.70553568730645
 20
53.31476055358944
 30
0.0
 11
44.70553568730643
 21
41.41476055358943
 31
0.0
 70
    32
  3
SCHNEIDERELECTRIC
100
AcDbAlignedDimension
 13
52.45153121538034
 23
29.51476055358941
 33
0.0
 14
52.45153121538034
 24
53.31476055358943
 34
0.0
 50
90.0
100
AcDbRotatedDimension
1001
ACAD
1000
DSTYLE
1002
{
1070
    40
1040
8.0
1002
}
  0
DIMENSION
  5
8ECC
330
1F
100
AcDbEntity
  8
DIM
100
AcDbDimension
  2
*D22
 10
85.18501557418893
 20
53.41226055358943
 30
0.0
 11
85.18501557418892
 21
41.41226055358943
 31
0.0
 70
   160
  3
SCHNEIDERELECTRIC
100
AcDbAlignedDimension
 13
90.84708382279258
 23
29.41226055358942
 33
0.0
 14
90.84708382279258
 24
53.41226055358943
 34
0.0
 50
90.0
100
AcDbRotatedDimension
1001
ACAD
1000
DSTYLE
1002
{
1070
    40
1040
8.0
1002
}
  0
DIMENSION
  5
8ECD
330
1F
100
AcDbEntity
  8
DIM
100
AcDbDimension
  2
*D23
 10
96.34708382279256
 20
59.36391878728475
 30
0.0
 11
93.58216885008536
 21
59.36391878728475
 31
0.0
 70
   160
  1
\P<>
  3
SCHNEIDERELECTRIC
100
AcDbAlignedDimension
 13
90.84708382279258
 23
53.41226055358943
 33
0.0
 14
96.34708382279256
 24
53.41226055358943
 34
0.0
100
AcDbRotatedDimension
1001
ACAD
1000
DSTYLE
1002
{
1070
    40
1040
8.0
1002
}
  0
DIMENSION
  5
8ECE
330
1F
100
AcDbEntity
  8
DIM
100
AcDbDimension
  2
*D24
 10
70.6742334737954
 20
40.03476055358942
 30
0.0
 11
68.27042394998585
 21
38.91476055358943
 31
0.0
 70
   160
  1
\P<>
  3
SCHNEIDERELECTRIC
100
AcDbAlignedDimension
 13
64.33653121538035
 23
40.53476055358942
 33
0.0
 14
63.96153121538034
 24
40.03476055358942
 34
0.0
 50
90.0
100
AcDbRotatedDimension
1001
ACAD
1000
DSTYLE
1002
{
1070
    40
1040
8.0
1002
}
  0
DIMENSION
  5
8ECF
330
1F
100
AcDbEntity
  8
DIM
100
AcDbDimension
  2
*D25
 10
44.68989885842786
 20
53.91226055358943
 30
0.0
 11
47.09370838223736
 21
56.7569412493483
 31
0.0
 70
   160
  1
\P<>
  3
SCHNEIDERELECTRIC
100
AcDbAlignedDimension
 13
52.45153121538034
 23
53.31476055358943
 33
0.0
 14
51.05153121538034
 24
53.91226055358942
 34
0.0
 50
90.0
100
AcDbRotatedDimension
1001
ACAD
1000
DSTYLE
1002
{
1070
    40
1040
8.0
1002
}
  0
DIMENSION
  5
8ED0
330
1F
100
AcDbEntity
  8
DIM
100
AcDbDimension
  2
*D26
 10
44.70553568730644
 20
28.91226055358941
 30
0.0
 11
42.30172616349691
 21
25.84940341073227
 31
0.0
 70
   160
  1
\P<>
  3
SCHNEIDERELECTRIC
100
AcDbAlignedDimension
 13
52.45153121538034
 23
29.51476055358941
 33
0.0
 14
51.05153121538034
 24
28.91226055358941
 34
0.0
 50
90.0
100
AcDbRotatedDimension
1001
ACAD
1000
DSTYLE
1002
{
1070
    40
1040
8.0
1002
}
  0
DIMENSION
  5
8ED1
330
1F
100
AcDbEntity
  8
DIM
100
AcDbDimension
  2
*D27
 10
90.06708382279258
 20
56.59642529689598
 30
0.0
 11
87.10327429898304
 21
56.59642529689598
 31
0.0
 70
   160
  1
\P<>
  3
SCHNEIDERELECTRIC
100
AcDbAlignedDimension
 13
90.84708382279258
 23
53.41226055358943
 33
0.0
 14
90.06708382279258
 24
53.91226055358942
 34
0.0
100
AcDbRotatedDimension
1001
ACAD
1000
DSTYLE
1002
{
1070
    40
1040
8.0
1002
}
  0
DIMENSION
  5
8ED2
330
1F
100
AcDbEntity
  8
DIM
100
AcDbDimension
  2
*D28
 10
98.19708382279259
 20
56.59642529689598
 30
0.0
 11
100.6008933466021
 21
56.59642529689598
 31
0.0
 70
   160
  1
\P<>
  3
SCHNEIDERELECTRIC
100
AcDbAlignedDimension
 13
96.34708382279256
 23
53.41226055358943
 33
0.0
 14
98.19708382279259
 24
51.81726055358941
 34
0.0
100
AcDbRotatedDimension
1001
ACAD
1000
DSTYLE
1002
{
1070
    40
1040
8.0
1002
}
  0
DIMENSION
  5
8ED3
330
1F
100
AcDbEntity
  8
DIM
100
AcDbDimension
  2
*D29
 10
103.206401453733
 20
53.41226055358943
 30
0.0
 11
100.8025919299234
 21
49.02052506756203
 31
0.0
 70
   160
  1
\P<>
  3
SCHNEIDERELECTRIC
100
AcDbAlignedDimension
 13
98.07208382279258
 23
53.91226055358942
 33
0.0
 14
96.34708382279256
 24
53.41226055358943
 34
0.0
 50
90.0
100
AcDbRotatedDimension
1001
ACAD
1000
DSTYLE
1002
{
1070
    40
1040
8.0
1002
}
  0
DIMENSION
  5
8ED4
330
1F
100
AcDbEntity
  8
DIM
100
AcDbDimension
  2
*D30
 10
105.0909549460436
 20
28.91226055358941
 30
0.0
 11
105.0909549460436
 21
41.41226055358943
 31
0.0
 70
   160
  3
SCHNEIDERELECTRIC
100
AcDbAlignedDimension
 13
98.07208382279259
 23
53.91226055358942
 33
0.0
 14
98.07208382279259
 24
28.91226055358941
 34
0.0
 50
90.0
100
AcDbRotatedDimension
1001
ACAD
1000
DSTYLE
1002
{
1070
    40
1040
8.0
1002
}
  0
LINE
  5
8ED5
330
1F
100
AcDbEntity
  8
CONTINUOUS1
100
AcDbLine
 10
53.5106012972043
 20
52.97748381878916
 30
0.0
 11
53.30940186206188
 21
52.97748381878916
 31
0.0
  0
LINE
  5
8ED6
330
1F
100
AcDbEntity
  8
CONTINUOUS1
100
AcDbLine
 10
53.30940186206188
 20
52.97748381878916
 30
0.0
 11
53.30940186206188
 21
41.71602347313833
 31
0.0
  0
LINE
  5
8ED7
330
1F
100
AcDbEntity
  8
CONTINUOUS1
100
AcDbLine
 10
53.30940186206188
 20
41.71602347313833
 30
0.0
 11
55.12019778037444
 21
41.71602347313833
 31
0.0
  0
LINE
  5
8ED8
330
1F
100
AcDbEntity
  8
CONTINUOUS1
100
AcDbLine
 10
55.12019778037444
 20
41.71602347313833
 30
0.0
 11
55.12019778037444
 21
48.90953451193738
 31
0.0
  0
LINE
  5
8ED9
330
1F
100
AcDbEntity
  8
CONTINUOUS1
100
AcDbLine
 10
55.12019778037444
 20
48.90953451193738
 30
0.0
 11
55.87469624667647
 21
49.7139244931375
 31
0.0
  0
LINE
  5
8EDA
330
1F
100
AcDbEntity
  8
CONTINUOUS1
100
AcDbLine
 10
55.87469624667647
 20
40.40888963191831
 30
0.0
 11
55.87469624667647
 21
53.91226055358941
 31
0.0
  0
LINE
  5
8EDB
330
1F
100
AcDbEntity
  8
CONTINUOUS1
100
AcDbLine
 10
55.99691344279818
 20
40.40888963191831
 30
0.0
 11
55.99691344279818
 21
53.91226055358941
 31
0.0
  0
LINE
  5
8EDC
330
1F
100
AcDbEntity
  8
CONTINUOUS1
100
AcDbLine
 10
55.87469624667647
 20
40.40888963191831
 30
0.0
 11
55.99691344279818
 21
40.40888963191831
 31
0.0
  0
LINE
  5
8EDD
330
1F
100
AcDbEntity
  8
CONTINUOUS1
100
AcDbLine
 10
53.5106012972043
 20
53.18874909382873
 30
0.0
 11
54.08142033595261
 21
53.18874909382873
 31
0.0
  0
LINE
  5
8EDE
330
1F
100
AcDbEntity
  8
CONTINUOUS1
100
AcDbLine
 10
53.5106012972043
 20
52.61793005508042
 30
0.0
 11
54.08142033595261
 21
52.61793005508042
 31
0.0
  0
LINE
  5
8EDF
330
1F
100
AcDbEntity
  8
CONTINUOUS1
100
AcDbLine
 10
53.5106012972043
 20
51.98170187192232
 30
0.0
 11
55.0441426403367
 21
51.98170187192232
 31
0.0
  0
LINE
  5
8EE0
330
1F
100
AcDbEntity
  8
CONTINUOUS1
100
AcDbLine
 10
53.5106012972043
 20
51.98170187192232
 30
0.0
 11
53.5106012972043
 21
53.18874909382873
 31
0.0
  0
LINE
  5
8EE1
330
1F
100
AcDbEntity
  8
CONTINUOUS1
100
AcDbLine
 10
54.08142033595261
 20
51.98170187192232
 30
0.0
 11
54.08142033595261
 21
53.18874909382873
 31
0.0
  0
CIRCLE
  5
8EE2
330
1F
100
AcDbEntity
  8
CONTINUOUS1
100
AcDbCircle
 10
53.79601081657845
 20
52.90333957445458
 30
0.0
 40
0.2015186237047057
  0
LWPOLYLINE
  5
8EE3
330
1F
100
AcDbEntity
  8
CONTINUOUS1
100
AcDbPolyline
 90
        6
 70
     1
 43
0.0
 10
53.8795760292031
 20
52.75860038044341
 10
53.96314124182774
 20
52.90333957445458
 10
53.8795760292031
 20
53.04807876846576
 10
53.71244560395382
 20
53.04807876846576
 10
53.62888039132918
 20
52.90333957445458
 10
53.71244560395382
 20
52.75860038044341
  0
LWPOLYLINE
  5
8EE4
330
1F
100
AcDbEntity
  8
CONTINUOUS1
100
AcDbPolyline
 90
        6
 70
     1
 43
0.0
 10
53.8795760292031
 20
52.12237219728532
 10
53.96314124182774
 20
52.26711139129649
 10
53.8795760292031
 20
52.41185058530766
 10
53.71244560395382
 20
52.41185058530766
 10
53.62888039132918
 20
52.26711139129649
 10
53.71244560395382
 20
52.12237219728532
  0
CIRCLE
  5
8EE5
330
1F
100
AcDbEntity
  8
CONTINUOUS1
100
AcDbCircle
 10
53.79601081657845
 20
52.26711139129649
 30
0.0
 40
0.2015186237047057
  0
LINE
  5
8EE6
330
1F
100
AcDbEntity
  8
CONTINUOUS1
100
AcDbLine
 10
53.5106012972043
 20
52.55252091067064
 30
0.0
 11
54.08142033595261
 21
52.55252091067064
 31
0.0
  0
LINE
  5
8EE7
330
1F
100
AcDbEntity
  8
CONTINUOUS1
100
AcDbLine
 10
54.08142033595261
 20
52.5867785410646
 30
0.0
 11
55.0441426403367
 21
52.5867785410646
 31
0.0
  0
LINE
  5
8EE8
330
1F
100
AcDbEntity
  8
CONTINUOUS1
100
AcDbLine
 10
55.0441426403367
 20
51.98170187192232
 30
0.0
 11
55.0441426403367
 21
53.91226055358941
 31
0.0
  0
LINE
  5
8EE9
330
1F
100
AcDbEntity
  8
CONTINUOUS2
100
AcDbLine
 10
55.0441426403367
 20
53.91226055358941
 30
0.0
 11
55.0441426403367
 21
54.29226055358942
 31
0.0
  0
LINE
  5
8EEA
330
1F
100
AcDbEntity
  8
CONTINUOUS2
100
AcDbLine
 10
55.0441426403367
 20
54.29226055358942
 30
0.0
 11
54.08142033595261
 21
54.29226055358942
 31
0.0
  0
LINE
  5
8EEB
330
1F
100
AcDbEntity
  8
CONTINUOUS1
100
AcDbLine
 10
54.08142033595261
 20
53.91226055358941
 30
0.0
 11
54.08142033595261
 21
53.18874909382873
 31
0.0
  0
LINE
  5
8EEC
330
1F
100
AcDbEntity
  8
CONTINUOUS2
100
AcDbLine
 10
55.0441426403367
 20
53.91226055358941
 30
0.0
 11
59.81476002655933
 21
53.91226055358941
 31
0.0
  0
CIRCLE
  5
8EED
330
1F
100
AcDbEntity
  8
CONTINUOUS1
100
AcDbCircle
 10
54.56278148814465
 20
52.85520719556974
 30
0.0
 40
0.1676022608198977
  0
LWPOLYLINE
  5
8EEE
330
1F
100
AcDbEntity
  8
CONTINUOUS1
100
AcDbPolyline
 90
        6
 70
     1
 43
0.0
 10
54.67783207645516
 20
52.92163168370122
 10
54.56278148814465
 20
52.98805617183272
 10
54.44773089983415
 20
52.92163168370122
 10
54.44773089983415
 20
52.78878270743824
 10
54.56278148814465
 20
52.72235821930674
 10
54.67783207645516
 20
52.78878270743824
  0
CIRCLE
  5
8EEF
330
1F
100
AcDbEntity
  8
CONTINUOUS1
100
AcDbCircle
 10
54.56278148814465
 20
53.52451986682251
 30
0.0
 40
0.1676022608198977
  0
LWPOLYLINE
  5
8EF0
330
1F
100
AcDbEntity
  8
CONTINUOUS1
100
AcDbPolyline
 90
        6
 70
     1
 43
0.0
 10
54.67783207645516
 20
53.590944354954
 10
54.56278148814465
 20
53.6573688430855
 10
54.44773089983415
 20
53.590944354954
 10
54.44773089983415
 20
53.45809537869103
 10
54.56278148814465
 20
53.39167089055953
 10
54.67783207645516
 20
53.45809537869103
  0
CIRCLE
  5
8EF1
330
1F
100
AcDbEntity
  8
CONTINUOUS1
100
AcDbCircle
 10
54.56278148814465
 20
52.28686635822697
 30
0.0
 40
0.2408455354170975
  0
LWPOLYLINE
  5
8EF2
330
1F
100
AcDbEntity
  8
CONTINUOUS1
100
AcDbPolyline
 90
        6
 70
     1
 43
0.0
 10
54.39032589112665
 20
52.18729907286537
 10
54.56278148814465
 20
52.08773178750377
 10
54.73523708516267
 20
52.18729907286537
 10
54.73523708516267
 20
52.38643364358857
 10
54.56278148814465
 20
52.48600092895017
 10
54.39032589112665
 20
52.38643364358857
  0
LINE
  5
8EF3
330
1F
100
AcDbEntity
  8
CONTINUOUS1
100
AcDbLine
 10
55.0441426403367
 20
51.98170187192232
 30
0.0
 11
55.0441426403367
 21
52.08997290795224
 31
0.0
  0
LINE
  5
8EF4
330
1F
100
AcDbEntity
  8
CONTINUOUS1
100
AcDbLine
 10
55.0441426403367
 20
52.08997290795224
 30
0.0
 11
55.87469624667647
 21
52.08997290795224
 31
0.0
  0
LINE
  5
8EF5
330
1F
100
AcDbEntity
  8
CONTINUOUS1
100
AcDbLine
 10
53.30940186206188
 20
51.70164579475837
 30
0.0
 11
53.73960725415677
 21
51.70164579475837
 31
0.0
  0
LINE
  5
8EF6
330
1F
100
AcDbEntity
  8
CONTINUOUS1
100
AcDbLine
 10
53.88960725415676
 20
51.85862912951775
 30
0.0
 11
55.02797370748449
 21
51.85862912951776
 31
0.0
  0
LINE
  5
8EF7
330
1F
100
AcDbEntity
  8
CONTINUOUS1
100
AcDbLine
 10
55.17797370748449
 20
51.70862912951776
 30
0.0
 11
55.17797370748449
 21
49.63983084713198
 31
0.0
  0
LINE
  5
8EF8
330
1F
100
AcDbEntity
  8
CONTINUOUS1
100
AcDbLine
 10
55.17797370748449
 20
49.63983084713198
 30
0.0
 11
54.67382078014249
 21
49.63983084713198
 31
0.0
  0
LINE
  5
8EF9
330
1F
100
AcDbEntity
  8
CONTINUOUS1
100
AcDbLine
 10
54.67382078014249
 20
49.63983084713198
 30
0.0
 11
54.67382078014249
 21
50.09916827278901
 31
0.0
  0
LINE
  5
8EFA
330
1F
100
AcDbEntity
  8
CONTINUOUS1
100
AcDbLine
 10
54.26389381943399
 20
50.09916827278901
 30
0.0
 11
54.26389381943399
 21
49.63983084713198
 31
0.0
  0
LINE
  5
8EFB
330
1F
100
AcDbEntity
  8
CONTINUOUS1
100
AcDbLine
 10
54.26389381943399
 20
49.63983084713198
 30
0.0
 11
53.73960725415676
 21
49.63983084713198
 31
0.0
  0
LINE
  5
8EFC
330
1F
100
AcDbEntity
  8
CONTINUOUS1
100
AcDbLine
 10
53.73960725415676
 20
49.63983084713198
 30
0.0
 11
53.73960725415677
 21
51.70862912951776
 31
0.0
  0
ARC
  5
8EFD
330
1F
100
AcDbEntity
  8
CONTINUOUS1
100
AcDbCircle
 10
54.46885729978824
 20
50.11119666108656
 30
0.0
 40
0.2053161230979331
100
AcDbArc
 50
356.6414195260268
 51
183.3585804739732
  0
LWPOLYLINE
  5
8EFE
330
1F
100
AcDbEntity
  8
CONTINUOUS1
100
AcDbPolyline
 90
        4
 70
     1
 43
0.0
 10
54.40226174805101
 20
50.09179109195116
 10
54.40226174805101
 20
44.29140834815616
 10
54.53545285152545
 20
44.29140834815616
 10
54.53545285152545
 20
50.09179109195116
  0
LWPOLYLINE
  5
8EFF
330
1F
100
AcDbEntity
  8
CONTINUOUS1
100
AcDbPolyline
 90
        4
 70
     1
 43
0.0
 10
54.03540624641735
 20
44.29140834815616
 10
54.03540624641735
 20
45.22252003798426
 10
54.1437301184395
 20
45.22252003798426
 10
54.1437301184395
 20
44.29140834815616
  0
LWPOLYLINE
  5
8F00
330
1F
100
AcDbEntity
  8
CONTINUOUS1
100
AcDbPolyline
 90
        4
 70
     1
 43
0.0
 10
57.26709487089104
 20
50.09179109195116
 10
57.26709487089104
 20
44.29140834815616
 10
57.40028597436548
 20
44.29140834815616
 10
57.40028597436548
 20
50.09179109195116
  0
ARC
  5
8F01
330
1F
100
AcDbEntity
  8
CONTINUOUS1
100
AcDbCircle
 10
57.33369042262826
 20
50.11119666108656
 30
0.0
 40
0.2053161230979331
100
AcDbArc
 50
356.6414195260268
 51
183.3585804739732
  0
LINE
  5
8F02
330
1F
100
AcDbEntity
  8
CONTINUOUS1
100
AcDbLine
 10
57.12872694227401
 20
50.09916827278901
 30
0.0
 11
57.12872694227401
 21
49.63983084713198
 31
0.0
  0
LINE
  5
8F03
330
1F
100
AcDbEntity
  8
CONTINUOUS1
100
AcDbLine
 10
57.53865390298251
 20
49.63983084713198
 30
0.0
 11
57.53865390298251
 21
50.09916827278901
 31
0.0
  0
LINE
  5
8F04
330
1F
100
AcDbEntity
  8
CONTINUOUS1
100
AcDbLine
 10
58.04280683032452
 20
51.70862912951776
 30
0.0
 11
58.04280683032452
 21
49.63983084713198
 31
0.0
  0
LINE
  5
8F05
330
1F
100
AcDbEntity
  8
CONTINUOUS1
100
AcDbLine
 10
56.60444037699679
 20
49.63983084713198
 30
0.0
 11
56.60444037699678
 21
51.70862912951776
 31
0.0
  0
LINE
  5
8F06
330
1F
100
AcDbEntity
  8
CONTINUOUS1
100
AcDbLine
 10
57.12872694227401
 20
49.63983084713198
 30
0.0
 11
56.60444037699679
 21
49.63983084713198
 31
0.0
  0
LINE
  5
8F07
330
1F
100
AcDbEntity
  8
CONTINUOUS1
100
AcDbLine
 10
58.04280683032452
 20
49.63983084713198
 30
0.0
 11
57.53865390298251
 21
49.63983084713198
 31
0.0
  0
LINE
  5
8F08
330
1F
100
AcDbEntity
  8
CONTINUOUS1
100
AcDbLine
 10
56.75444037699678
 20
51.85862912951776
 30
0.0
 11
57.89280683032452
 21
51.85862912951776
 31
0.0
  0
LINE
  5
8F09
330
1F
100
AcDbEntity
  8
CONTINUOUS1
100
AcDbLine
 10
56.17423498490191
 20
51.70164579475837
 30
0.0
 11
56.60444037699679
 21
51.70164579475837
 31
0.0
  0
LINE
  5
8F0A
330
1F
100
AcDbEntity
  8
CONTINUOUS1
100
AcDbLine
 10
58.86174656563821
 20
40.40888963191831
 30
0.0
 11
58.86174656563821
 21
53.91226055358941
 31
0.0
  0
LINE
  5
8F0B
330
1F
100
AcDbEntity
  8
CONTINUOUS1
100
AcDbLine
 10
58.7395293695165
 20
40.40888963191831
 30
0.0
 11
58.7395293695165
 21
53.91226055358941
 31
0.0
  0
LINE
  5
8F0C
330
1F
100
AcDbEntity
  8
CONTINUOUS1
100
AcDbLine
 10
56.17423498490191
 20
53.13573928282925
 30
0.0
 11
56.17423498490191
 21
41.71602347313833
 31
0.0
  0
LWPOLYLINE
  5
8F0D
330
1F
100
AcDbEntity
  8
CONTINUOUS1
100
AcDbPolyline
 90
        4
 70
     1
 43
0.0
 10
56.90023936925737
 20
44.29140834815616
 10
56.90023936925737
 20
45.22252003798426
 10
57.00856324127953
 20
45.22252003798426
 10
57.00856324127953
 20
44.29140834815616
  0
LINE
  5
8F0E
330
1F
100
AcDbEntity
  8
CONTINUOUS1
100
AcDbLine
 10
57.98503090321448
 20
41.71602347313833
 30
0.0
 11
57.98503090321448
 21
48.90953451193738
 31
0.0
  0
LINE
  5
8F0F
330
1F
100
AcDbEntity
  8
CONTINUOUS1
100
AcDbLine
 10
57.98503090321448
 20
48.90953451193738
 30
0.0
 11
58.7395293695165
 21
49.7139244931375
 31
0.0
  0
LINE
  5
8F10
330
1F
100
AcDbEntity
  8
CONTINUOUS1
100
AcDbLine
 10
56.17423498490191
 20
41.71602347313833
 30
0.0
 11
57.98503090321448
 21
41.71602347313833
 31
0.0
  0
LINE
  5
8F11
330
1F
100
AcDbEntity
  8
CONTINUOUS1
100
AcDbLine
 10
57.90897576317673
 20
52.08997290795224
 30
0.0
 11
58.7395293695165
 21
52.08997290795224
 31
0.0
  0
LINE
  5
8F12
330
1F
100
AcDbEntity
  8
CONTINUOUS1
100
AcDbLine
 10
60.8498640260545
 20
41.71602347313833
 30
0.0
 11
60.8498640260545
 21
48.90953451193738
 31
0.0
  0
LINE
  5
8F13
330
1F
100
AcDbEntity
  8
CONTINUOUS1
100
AcDbLine
 10
62.18967807774828
 20
44.36807754756614
 30
0.0
 11
62.18967807774827
 21
52.53927613535925
 31
0.0
  0
LINE
  5
8F14
330
1F
100
AcDbEntity
  8
CONTINUOUS1
100
AcDbLine
 10
59.03906810774194
 20
41.71602347313833
 30
0.0
 11
60.8498640260545
 21
41.71602347313833
 31
0.0
  0
LINE
  5
8F15
330
1F
100
AcDbEntity
  8
CONTINUOUS1
100
AcDbLine
 10
60.8498640260545
 20
48.90953451193738
 30
0.0
 11
61.90836825747189
 21
50.03803276188509
 31
0.0
  0
LWPOLYLINE
  5
8F16
330
1F
100
AcDbEntity
  8
CONTINUOUS1
100
AcDbPolyline
 90
        4
 70
     1
 43
0.0
 10
60.13192799373108
 20
50.09179109195116
 10
60.13192799373108
 20
44.29140834815616
 10
60.26511909720551
 20
44.29140834815616
 10
60.26511909720551
 20
50.09179109195116
  0
LWPOLYLINE
  5
8F17
330
1F
100
AcDbEntity
  8
CONTINUOUS1
100
AcDbPolyline
 90
        4
 70
     1
 43
0.0
 10
59.7650724920974
 20
44.29140834815616
 10
59.7650724920974
 20
45.22252003798426
 10
59.87339636411956
 20
45.22252003798426
 10
59.87339636411956
 20
44.29140834815616
  0
LINE
  5
8F18
330
1F
100
AcDbEntity
  8
CONTINUOUS1
100
AcDbLine
 10
59.61927349983681
 20
51.85862912951776
 30
0.0
 11
60.75763995316455
 21
51.85862912951776
 31
0.0
  0
LINE
  5
8F19
330
1F
100
AcDbEntity
  8
CONTINUOUS1
100
AcDbLine
 10
60.90763995316454
 20
49.63983084713198
 30
0.0
 11
60.40348702582254
 21
49.63983084713198
 31
0.0
  0
LINE
  5
8F1A
330
1F
100
AcDbEntity
  8
CONTINUOUS1
100
AcDbLine
 10
59.46927349983681
 20
49.63983084713198
 30
0.0
 11
59.46927349983681
 21
51.70862912951776
 31
0.0
  0
LINE
  5
8F1B
330
1F
100
AcDbEntity
  8
CONTINUOUS1
100
AcDbLine
 10
60.40348702582254
 20
49.63983084713198
 30
0.0
 11
60.40348702582254
 21
50.09916827278901
 31
0.0
  0
LINE
  5
8F1C
330
1F
100
AcDbEntity
  8
CONTINUOUS1
100
AcDbLine
 10
59.99356006511404
 20
50.09916827278901
 30
0.0
 11
59.99356006511404
 21
49.63983084713198
 31
0.0
  0
ARC
  5
8F1D
330
1F
100
AcDbEntity
  8
CONTINUOUS1
100
AcDbCircle
 10
60.19852354546829
 20
50.11119666108656
 30
0.0
 40
0.2053161230979331
100
AcDbArc
 50
356.6414195260268
 51
183.3585804739732
  0
LINE
  5
8F1E
330
1F
100
AcDbEntity
  8
CONTINUOUS1
100
AcDbLine
 10
59.99356006511404
 20
49.63983084713198
 30
0.0
 11
59.46927349983681
 21
49.63983084713198
 31
0.0
  0
LINE
  5
8F1F
330
1F
100
AcDbEntity
  8
CONTINUOUS1
100
AcDbLine
 10
59.03906810774194
 20
51.70164579475837
 30
0.0
 11
59.46927349983681
 21
51.70164579475837
 31
0.0
  0
LINE
  5
8F20
330
1F
100
AcDbEntity
  8
CONTINUOUS1
100
AcDbLine
 10
60.90763995316454
 20
51.70862912951776
 30
0.0
 11
60.90763995316454
 21
49.63983084713198
 31
0.0
  0
LINE
  5
8F21
330
1F
100
AcDbEntity
  8
CONTINUOUS1
100
AcDbLine
 10
60.77380888601677
 20
52.08997290795224
 30
0.0
 11
61.9858210899091
 21
52.08997290795224
 31
0.0
  0
LINE
  5
8F22
330
1F
100
AcDbEntity
  8
CONTINUOUS1
100
AcDbLine
 10
59.03906810774194
 20
53.13573928282925
 30
0.0
 11
59.03906810774194
 21
41.71602347313833
 31
0.0
  0
ARC
  5
8F23
330
1F
100
AcDbEntity
  8
CONTINUOUS1
100
AcDbCircle
 10
53.88960725415676
 20
51.70862912951776
 30
0.0
 40
0.15
100
AcDbArc
 50
90.0000000000003
 51
179.9999999999998
  0
ARC
  5
8F24
330
1F
100
AcDbEntity
  8
CONTINUOUS1
100
AcDbCircle
 10
55.02797370748449
 20
51.70862912951776
 30
0.0
 40
0.15
100
AcDbArc
 50
0.0
 51
90.0000000000003
  0
ARC
  5
8F25
330
1F
100
AcDbEntity
  8
CONTINUOUS1
100
AcDbCircle
 10
56.75444037699678
 20
51.70862912951776
 30
0.0
 40
0.15
100
AcDbArc
 50
90.0
 51
180.0
  0
ARC
  5
8F26
330
1F
100
AcDbEntity
  8
CONTINUOUS1
100
AcDbCircle
 10
57.89280683032452
 20
51.70862912951776
 30
0.0
 40
0.15
100
AcDbArc
 50
0.0
 51
90.0
  0
ARC
  5
8F27
330
1F
100
AcDbEntity
  8
CONTINUOUS1
100
AcDbCircle
 10
59.61927349983681
 20
51.70862912951776
 30
0.0
 40
0.15
100
AcDbArc
 50
90.0
 51
180.0
  0
ARC
  5
8F28
330
1F
100
AcDbEntity
  8
CONTINUOUS1
100
AcDbCircle
 10
60.75763995316455
 20
51.70862912951776
 30
0.0
 40
0.15
100
AcDbArc
 50
0.0
 51
90.0
  0
LINE
  5
8F29
330
1F
100
AcDbEntity
  8
CONTINUOUS1
100
AcDbLine
 10
56.17423498490191
 20
53.13573928282925
 30
0.0
 11
56.9499269037193
 21
53.13573928282925
 31
0.0
  0
LINE
  5
8F2A
330
1F
100
AcDbEntity
  8
CONTINUOUS1
100
AcDbLine
 10
56.9499269037193
 20
53.13573928282925
 30
0.0
 11
56.9499269037193
 21
51.97453816545408
 31
0.0
  0
LINE
  5
8F2B
330
1F
100
AcDbEntity
  8
CONTINUOUS1
100
AcDbLine
 10
56.9499269037193
 20
51.97453816545408
 30
0.0
 11
56.17423498490191
 21
51.97453816545408
 31
0.0
  0
LINE
  5
8F2C
330
1F
100
AcDbEntity
  8
CONTINUOUS1
100
AcDbLine
 10
56.9499269037193
 20
53.13573928282925
 30
0.0
 11
56.9499269037193
 21
53.59969982136763
 31
0.0
  0
LINE
  5
8F2D
330
1F
100
AcDbEntity
  8
CONTINUOUS1
100
AcDbLine
 10
56.9499269037193
 20
53.59969982136763
 30
0.0
 11
57.87906197058634
 21
53.59969982136763
 31
0.0
  0
LINE
  5
8F2E
330
1F
100
AcDbEntity
  8
CONTINUOUS1
100
AcDbLine
 10
57.87906197058634
 20
53.59969982136763
 30
0.0
 11
57.87906197058634
 21
51.97453816545408
 31
0.0
  0
LINE
  5
8F2F
330
1F
100
AcDbEntity
  8
CONTINUOUS1
100
AcDbLine
 10
57.87906197058634
 20
51.97453816545408
 30
0.0
 11
56.9499269037193
 21
51.97453816545408
 31
0.0
  0
LINE
  5
8F30
330
1F
100
AcDbEntity
  8
CONTINUOUS1
100
AcDbLine
 10
56.9499269037193
 20
51.97453816545408
 30
0.0
 11
56.9499269037193
 21
52.85160950631937
 31
0.0
  0
LINE
  5
8F31
330
1F
100
AcDbEntity
  8
CONTINUOUS1
100
AcDbLine
 10
56.9499269037193
 20
52.85160950631937
 30
0.0
 11
57.87906197058633
 21
52.85160950631937
 31
0.0
  0
CIRCLE
  5
8F32
330
1F
100
AcDbEntity
  8
CONTINUOUS1
100
AcDbCircle
 10
57.41449443715282
 20
52.43570183097518
 30
0.0
 40
0.3553543459364903
  0
LWPOLYLINE
  5
8F33
330
1F
100
AcDbEntity
  8
CONTINUOUS1
100
AcDbPolyline
 90
        6
 70
     1
 43
0.0
 10
56.6771315326211
 20
52.5337575542275
 10
56.56208094431061
 20
52.60018204235899
 10
56.44703035600011
 20
52.5337575542275
 10
56.44703035600011
 20
52.40090857796452
 10
56.56208094431061
 20
52.33448408983303
 10
56.6771315326211
 20
52.40090857796452
  0
CIRCLE
  5
8F34
330
1F
100
AcDbEntity
  8
CONTINUOUS1
100
AcDbCircle
 10
56.56208094431061
 20
52.46733306609601
 30
0.0
 40
0.1676022608198977
  0
LWPOLYLINE
  5
8F35
330
1F
100
AcDbEntity
  8
CONTINUOUS1
100
AcDbPolyline
 90
        6
 70
     1
 43
0.0
 10
57.49805964977746
 20
53.06526524464119
 10
57.58162486240211
 20
53.21000443865236
 10
57.49805964977746
 20
53.35474363266353
 10
57.33092922452819
 20
53.35474363266353
 10
57.24736401190354
 20
53.21000443865236
 10
57.33092922452819
 20
53.06526524464119
  0
CIRCLE
  5
8F36
330
1F
100
AcDbEntity
  8
CONTINUOUS1
100
AcDbCircle
 10
57.41449443715282
 20
53.21000443865236
 30
0.0
 40
0.2015186237047057
  0
LWPOLYLINE
  5
8F37
330
1F
100
AcDbEntity
  8
CONTINUOUS1
100
AcDbPolyline
 90
        6
 70
     1
 43
0.0
 10
57.26661731003945
 20
52.69183252841287
 10
57.11874018292608
 20
52.43570183097518
 10
57.26661731003945
 20
52.1795711335375
 10
57.5623715642662
 20
52.1795711335375
 10
57.71024869137957
 20
52.43570183097518
 10
57.5623715642662
 20
52.69183252841287
  0
LINE
  5
8F38
330
1F
100
AcDbEntity
  8
CONTINUOUS1
100
AcDbLine
 10
59.03906810774194
 20
53.13573928282925
 30
0.0
 11
59.81476002655933
 21
53.13573928282925
 31
0.0
  0
LINE
  5
8F39
330
1F
100
AcDbEntity
  8
CONTINUOUS1
100
AcDbLine
 10
59.81476002655933
 20
53.13573928282925
 30
0.0
 11
59.81476002655933
 21
51.97453816545408
 31
0.0
  0
LINE
  5
8F3A
330
1F
100
AcDbEntity
  8
CONTINUOUS1
100
AcDbLine
 10
59.81476002655933
 20
52.85160950631937
 30
0.0
 11
60.74389509342636
 21
52.85160950631937
 31
0.0
  0
LINE
  5
8F3B
330
1F
100
AcDbEntity
  8
CONTINUOUS1
100
AcDbLine
 10
59.81476002655933
 20
51.97453816545408
 30
0.0
 11
59.81476002655933
 21
52.85160950631937
 31
0.0
  0
LINE
  5
8F3C
330
1F
100
AcDbEntity
  8
CONTINUOUS1
100
AcDbLine
 10
60.74389509342637
 20
53.91226055358941
 30
0.0
 11
60.74389509342637
 21
51.97453816545408
 31
0.0
  0
LINE
  5
8F3D
330
1F
100
AcDbEntity
  8
CONTINUOUS2
100
AcDbLine
 10
59.81476002655933
 20
54.66646828556608
 30
0.0
 11
60.74389509342637
 21
54.66646828556608
 31
0.0
  0
LINE
  5
8F3E
330
1F
100
AcDbEntity
  8
CONTINUOUS1
100
AcDbLine
 10
59.81476002655933
 20
53.13573928282925
 30
0.0
 11
59.81476002655933
 21
53.91226055358941
 31
0.0
  0
LINE
  5
8F3F
330
1F
100
AcDbEntity
  8
CONTINUOUS1
100
AcDbLine
 10
60.74389509342637
 20
51.97453816545408
 30
0.0
 11
59.81476002655933
 21
51.97453816545408
 31
0.0
  0
LINE
  5
8F40
330
1F
100
AcDbEntity
  8
CONTINUOUS1
100
AcDbLine
 10
59.81476002655933
 20
51.97453816545408
 30
0.0
 11
59.03906810774194
 21
51.97453816545408
 31
0.0
  0
LWPOLYLINE
  5
8F41
330
1F
100
AcDbEntity
  8
CONTINUOUS1
100
AcDbPolyline
 90
        6
 70
     1
 43
0.0
 10
59.54196465546114
 20
52.5337575542275
 10
59.42691406715063
 20
52.60018204235899
 10
59.31186347884014
 20
52.5337575542275
 10
59.31186347884014
 20
52.40090857796452
 10
59.42691406715063
 20
52.33448408983303
 10
59.54196465546114
 20
52.40090857796452
  0
CIRCLE
  5
8F42
330
1F
100
AcDbEntity
  8
CONTINUOUS1
100
AcDbCircle
 10
59.42691406715063
 20
52.46733306609601
 30
0.0
 40
0.1676022608198977
  0
LWPOLYLINE
  5
8F43
330
1F
100
AcDbEntity
  8
CONTINUOUS1
100
AcDbPolyline
 90
        6
 70
     1
 43
0.0
 10
60.13145043287948
 20
52.69183252841287
 10
59.9835733057661
 20
52.43570183097518
 10
60.13145043287948
 20
52.1795711335375
 10
60.42720468710623
 20
52.1795711335375
 10
60.5750818142196
 20
52.43570183097518
 10
60.42720468710623
 20
52.69183252841287
  0
CIRCLE
  5
8F44
330
1F
100
AcDbEntity
  8
CONTINUOUS1
100
AcDbCircle
 10
60.27932755999285
 20
52.43570183097518
 30
0.0
 40
0.3553543459364903
  0
LWPOLYLINE
  5
8F45
330
1F
100
AcDbEntity
  8
CONTINUOUS1
100
AcDbPolyline
 90
        4
 70
     1
 43
0.0
 10
52.56356912515608
 20
52.60205395578829
 10
52.56356912515608
 20
41.36481910642828
 10
52.68918854986687
 20
41.36481910642828
 10
52.68918854986687
 20
52.60205395578829
  0
LINE
  5
8F46
330
1F
100
AcDbEntity
  8
CONTINUOUS1
100
AcDbLine
 10
51.3387798594796
 20
41.52176371838578
 30
0.0
 11
52.56356912515608
 21
41.52176371838578
 31
0.0
  0
LINE
  5
8F47
330
1F
100
AcDbEntity
  8
CONTINUOUS1
100
AcDbLine
 10
55.17797370748449
 20
51.70164579475837
 30
0.0
 11
55.87469624667647
 21
51.70164579475837
 31
0.0
  0
LINE
  5
8F48
330
1F
100
AcDbEntity
  8
CONTINUOUS1
100
AcDbLine
 10
58.04280683032452
 20
51.70164579475837
 30
0.0
 11
58.7395293695165
 21
51.70164579475837
 31
0.0
  0
LINE
  5
8F49
330
1F
100
AcDbEntity
  8
CONTINUOUS1
100
AcDbLine
 10
60.90763995316454
 20
51.70164579475837
 30
0.0
 11
62.18967807774827
 21
51.70164579475837
 31
0.0
  0
LINE
  5
8F4A
330
1F
100
AcDbEntity
  8
CONTINUOUS1
100
AcDbLine
 10
53.30940186206188
 20
50.03803276188509
 30
0.0
 11
53.73960725415677
 21
50.03803276188509
 31
0.0
  0
LINE
  5
8F4B
330
1F
100
AcDbEntity
  8
CONTINUOUS1
100
AcDbLine
 10
55.17797370748449
 20
50.03803276188509
 30
0.0
 11
55.87469624667647
 21
50.03803276188509
 31
0.0
  0
LINE
  5
8F4C
330
1F
100
AcDbEntity
  8
CONTINUOUS1
100
AcDbLine
 10
56.17423498490191
 20
50.03803276188509
 30
0.0
 11
56.60444037699679
 21
50.03803276188509
 31
0.0
  0
LINE
  5
8F4D
330
1F
100
AcDbEntity
  8
CONTINUOUS1
100
AcDbLine
 10
58.04280683032452
 20
50.03803276188509
 30
0.0
 11
58.7395293695165
 21
50.03803276188509
 31
0.0
  0
LINE
  5
8F4E
330
1F
100
AcDbEntity
  8
CONTINUOUS1
100
AcDbLine
 10
59.03906810774194
 20
50.03803276188509
 30
0.0
 11
59.46927349983681
 21
50.03803276188509
 31
0.0
  0
LINE
  5
8F4F
330
1F
100
AcDbEntity
  8
CONTINUOUS1
100
AcDbLine
 10
60.90763995316454
 20
50.03803276188509
 30
0.0
 11
62.18967807774828
 21
50.03803276188509
 31
0.0
  0
LINE
  5
8F50
330
1F
100
AcDbEntity
  8
CONTINUOUS1
100
AcDbLine
 10
61.9858210899091
 20
51.70164579475837
 30
0.0
 11
61.9858210899091
 21
53.91226055358941
 31
0.0
  0
LINE
  5
8F51
330
1F
100
AcDbEntity
  8
CONTINUOUS1
100
AcDbLine
 10
61.90836825747189
 20
50.03803276188509
 30
0.0
 11
61.9858210899091
 21
50.03803276188509
 31
0.0
  0
LINE
  5
8F52
330
1F
100
AcDbEntity
  8
CONTINUOUS1
100
AcDbLine
 10
61.9858210899091
 20
50.03803276188509
 30
0.0
 11
61.9858210899091
 21
41.52176371838578
 31
0.0
  0
LINE
  5
8F53
330
1F
100
AcDbEntity
  8
CONTINUOUS1
100
AcDbLine
 10
62.18967807774827
 20
52.53927613535925
 30
0.0
 11
62.31843786699813
 21
52.53927613535925
 31
0.0
  0
LINE
  5
8F54
330
1F
100
AcDbEntity
  8
CONTINUOUS1
100
AcDbLine
 10
62.31843786699813
 20
52.53927613535925
 30
0.0
 11
62.31843786699813
 21
44.36807754756614
 31
0.0
  0
LINE
  5
8F55
330
1F
100
AcDbEntity
  8
CONTINUOUS1
100
AcDbLine
 10
62.31843786699813
 20
44.36807754756614
 30
0.0
 11
62.18967807774828
 21
44.36807754756614
 31
0.0
  0
LINE
  5
8F56
330
1F
100
AcDbEntity
  8
CONTINUOUS1
100
AcDbLine
 10
52.56452873665583
 20
48.73214827898997
 30
0.0
 11
51.05153121538034
 21
48.73214827898997
 31
0.0
  0
LINE
  5
8F57
330
1F
100
AcDbEntity
  8
CONTINUOUS1
100
AcDbLine
 10
51.05153121538034
 20
48.03890796041933
 30
0.0
 11
52.56356912515608
 21
48.03890796041933
 31
0.0
  0
LINE
  5
8F58
330
1F
100
AcDbEntity
  8
CONTINUOUS1
100
AcDbLine
 10
51.14153121538034
 20
48.73214827898997
 30
0.0
 11
51.14153121538034
 21
53.91226055358941
 31
0.0
  0
LINE
  5
8F59
330
1F
100
AcDbEntity
  8
CONTINUOUS1
100
AcDbLine
 10
51.3387798594796
 20
41.52176371838578
 30
0.0
 11
51.3387798594796
 21
42.34856080719589
 31
0.0
  0
LINE
  5
8F5A
330
1F
100
AcDbEntity
  8
CONTINUOUS1
100
AcDbLine
 10
51.3387798594796
 20
48.73214827898997
 30
0.0
 11
51.3387798594796
 21
53.91226055358941
 31
0.0
  0
LINE
  5
8F5B
330
1F
100
AcDbEntity
  8
CONTINUOUS1
100
AcDbLine
 10
52.56452873665583
 20
45.98807226659456
 30
0.0
 11
51.3387798594796
 21
45.98807226659456
 31
0.0
  0
LINE
  5
8F5C
330
1F
100
AcDbEntity
  8
CONTINUOUS1
100
AcDbLine
 10
51.3387798594796
 20
45.98807226659456
 30
0.0
 11
51.3387798594796
 21
45.38148700306648
 31
0.0
  0
LINE
  5
8F5D
330
1F
100
AcDbEntity
  8
CONTINUOUS1
100
AcDbLine
 10
51.3387798594796
 20
45.38148700306648
 30
0.0
 11
52.56356912515606
 21
45.38148700306648
 31
0.0
  0
LINE
  5
8F5E
330
1F
100
AcDbEntity
  8
CONTINUOUS1
100
AcDbLine
 10
52.56356912515608
 20
45.38148700306648
 30
0.0
 11
52.56356912515608
 21
45.19746687224565
 31
0.0
  0
LINE
  5
8F5F
330
1F
100
AcDbEntity
  8
CONTINUOUS1
100
AcDbLine
 10
52.56356912515608
 20
45.19746687224565
 30
0.0
 11
51.14153121538034
 21
45.19746687224565
 31
0.0
  0
LINE
  5
8F60
330
1F
100
AcDbEntity
  8
CONTINUOUS1
100
AcDbLine
 10
51.14153121538034
 20
45.19746687224565
 30
0.0
 11
51.14153121538034
 21
44.29067224961094
 31
0.0
  0
LINE
  5
8F61
330
1F
100
AcDbEntity
  8
CONTINUOUS1
100
AcDbLine
 10
51.14153121538034
 20
44.29067224961094
 30
0.0
 11
52.56356912515608
 21
44.29067224961094
 31
0.0
  0
LINE
  5
8F62
330
1F
100
AcDbEntity
  8
CONTINUOUS1
100
AcDbLine
 10
51.3387798594796
 20
45.19746687224565
 30
0.0
 11
51.3387798594796
 21
48.03890796041933
 31
0.0
  0
LINE
  5
8F63
330
1F
100
AcDbEntity
  8
CONTINUOUS1
100
AcDbLine
 10
51.05153121538034
 20
42.34856080719589
 30
0.0
 11
52.56356912515608
 21
42.34856080719589
 31
0.0
  0
LINE
  5
8F64
330
1F
100
AcDbEntity
  8
CONTINUOUS1
100
AcDbLine
 10
52.56452873665583
 20
43.04180112576652
 30
0.0
 11
51.05153121538034
 21
43.04180112576652
 31
0.0
  0
LINE
  5
8F65
330
1F
100
AcDbEntity
  8
CONTINUOUS1
100
AcDbLine
 10
51.3387798594796
 20
43.04180112576652
 30
0.0
 11
51.3387798594796
 21
44.29067224961094
 31
0.0
  0
LINE
  5
8F66
330
1F
100
AcDbEntity
  8
CONTINUOUS2
100
AcDbLine
 10
55.0441426403367
 20
28.53532060475037
 30
0.0
 11
53.76892033595261
 21
28.53532060475037
 31
0.0
210
0.0
220
0.0
230
-1.0
  0
LINE
  5
8F67
330
1F
100
AcDbEntity
  8
CONTINUOUS1
100
AcDbLine
 10
53.76892033595261
 20
28.91226055358941
 30
0.0
 11
53.76892033595261
 21
30.78792826330367
 31
0.0
210
0.0
220
0.0
230
-1.0
  0
LINE
  5
8F68
330
1F
100
AcDbEntity
  8
CONTINUOUS1
100
AcDbLine
 10
55.0441426403367
 20
33.92781676035483
 30
0.0
 11
55.0441426403367
 21
28.91226055358941
 31
0.0
210
0.0
220
0.0
230
-1.0
  0
LINE
  5
8F69
330
1F
100
AcDbEntity
  8
CONTINUOUS1
100
AcDbLine
 10
53.76892033595261
 20
31.27545969473521
 30
0.0
 11
55.0441426403367
 21
31.27545969473521
 31
0.0
210
0.0
220
0.0
230
-1.0
  0
LINE
  5
8F6A
330
1F
100
AcDbEntity
  8
CONTINUOUS1
100
AcDbLine
 10
53.01060129720429
 20
31.29915644646176
 30
0.0
 11
53.76892033595261
 21
31.29915644646176
 31
0.0
210
0.0
220
0.0
230
-1.0
  0
LWPOLYLINE
  5
8F6B
330
1F
100
AcDbEntity
  8
CONTINUOUS1
100
AcDbPolyline
 90
        6
 70
     1
 43
0.0
 10
-53.4420760292031
 20
31.79180515984709
 10
-53.52564124182774
 20
31.64706596583592
 10
-53.4420760292031
 20
31.50232677182474
 10
-53.27494560395382
 20
31.50232677182474
 10
-53.19138039132917
 20
31.64706596583592
 10
-53.27494560395382
 20
31.79180515984709
210
0.0
220
0.0
230
-1.0
  0
CIRCLE
  5
8F6C
330
1F
100
AcDbEntity
  8
CONTINUOUS1
100
AcDbCircle
 10
-53.35851081657846
 20
31.64706596583592
 30
0.0
 40
0.2015186237047057
210
0.0
220
0.0
230
-1.0
  0
LWPOLYLINE
  5
8F6D
330
1F
100
AcDbEntity
  8
CONTINUOUS1
100
AcDbPolyline
 90
        6
 70
     1
 43
0.0
 10
-53.4420760292031
 20
30.968076976689
 10
-53.52564124182774
 20
30.82333778267782
 10
-53.4420760292031
 20
30.67859858866665
 10
-53.27494560395382
 20
30.67859858866665
 10
-53.19138039132917
 20
30.82333778267782
 10
-53.27494560395382
 20
30.968076976689
210
0.0
220
0.0
230
-1.0
  0
CIRCLE
  5
8F6E
330
1F
100
AcDbEntity
  8
CONTINUOUS1
100
AcDbCircle
 10
-53.35851081657846
 20
30.82333778267782
 30
0.0
 40
0.2015186237047057
210
0.0
220
0.0
230
-1.0
  0
LINE
  5
8F6F
330
1F
100
AcDbEntity
  8
CONTINUOUS1
100
AcDbLine
 10
53.0106012972043
 20
31.23374730205199
 30
0.0
 11
53.76892033595261
 21
31.23374730205199
 31
0.0
210
0.0
220
0.0
230
-1.0
  0
LINE
  5
8F70
330
1F
100
AcDbEntity
  8
CONTINUOUS1
100
AcDbLine
 10
53.0106012972043
 20
30.47542826330367
 30
0.0
 11
53.76892033595261
 21
30.47542826330367
 31
0.0
210
0.0
220
0.0
230
-1.0
  0
LINE
  5
8F71
330
1F
100
AcDbEntity
  8
CONTINUOUS1
100
AcDbLine
 10
53.76892033595261
 20
31.99497548521008
 30
0.0
 11
53.76892033595261
 21
30.78792826330367
 31
0.0
210
0.0
220
0.0
230
-1.0
  0
LWPOLYLINE
  5
8F72
330
1F
100
AcDbEntity
  8
CONTINUOUS1
100
AcDbPolyline
 90
        6
 70
     1
 43
0.0
 10
-54.26532589112665
 20
31.72687828426703
 10
-54.43778148814466
 20
31.82644556962864
 10
-54.61023708516266
 20
31.72687828426703
 10
-54.61023708516266
 20
31.52774371354383
 10
-54.43778148814466
 20
31.42817642818223
 10
-54.26532589112665
 20
31.52774371354383
210
0.0
220
0.0
230
-1.0
  0
CIRCLE
  5
8F73
330
1F
100
AcDbEntity
  8
CONTINUOUS1
100
AcDbCircle
 10
-54.43778148814466
 20
31.62731099890543
 30
0.0
 40
0.2408455354170975
210
0.0
220
0.0
230
-1.0
  0
LINE
  5
8F74
330
1F
100
AcDbEntity
  8
CONTINUOUS1
100
AcDbLine
 10
53.0106012972043
 20
31.99497548521008
 30
0.0
 11
55.0441426403367
 21
31.99497548521008
 31
0.0
210
0.0
220
0.0
230
-1.0
  0
LINE
  5
8F75
330
1F
100
AcDbEntity
  8
CONTINUOUS1
100
AcDbLine
 10
53.0106012972043
 20
31.99497548521008
 30
0.0
 11
53.0106012972043
 21
30.47542826330367
 31
0.0
210
0.0
220
0.0
230
-1.0
  0
LINE
  5
8F76
330
1F
100
AcDbEntity
  8
CONTINUOUS1
100
AcDbLine
 10
56.17423498490191
 20
28.91226055358941
 30
0.0
 11
56.17423498490191
 21
32.00213919167833
 31
0.0
210
0.0
220
0.0
230
-1.0
  0
LINE
  5
8F77
330
1F
100
AcDbEntity
  8
CONTINUOUS1
100
AcDbLine
 10
56.17423498490191
 20
30.84093807430316
 30
0.0
 11
56.9499269037193
 21
30.84093807430316
 31
0.0
210
0.0
220
0.0
230
-1.0
  0
LWPOLYLINE
  5
8F78
330
1F
100
AcDbEntity
  8
CONTINUOUS1
100
AcDbPolyline
 90
        6
 70
     1
 43
0.0
 10
-56.6771315326211
 20
31.44291980290491
 10
-56.56208094431061
 20
31.37649531477341
 10
-56.44703035600011
 20
31.44291980290491
 10
-56.44703035600011
 20
31.57576877916788
 10
-56.56208094431061
 20
31.64219326729938
 10
-56.6771315326211
 20
31.57576877916788
210
0.0
220
0.0
230
-1.0
  0
CIRCLE
  5
8F79
330
1F
100
AcDbEntity
  8
CONTINUOUS1
100
AcDbCircle
 10
-56.56208094431061
 20
31.5093442910364
 30
0.0
 40
0.1676022608198977
210
0.0
220
0.0
230
-1.0
  0
LINE
  5
8F7A
330
1F
100
AcDbEntity
  8
CONTINUOUS1
100
AcDbLine
 10
56.9499269037193
 20
30.84093807430316
 30
0.0
 11
56.9499269037193
 21
32.00213919167833
 31
0.0
210
0.0
220
0.0
230
-1.0
  0
LINE
  5
8F7B
330
1F
100
AcDbEntity
  8
CONTINUOUS1
100
AcDbLine
 10
58.12906197058634
 20
30.37697753576478
 30
0.0
 11
58.12906197058634
 21
32.00213919167833
 31
0.0
210
0.0
220
0.0
230
-1.0
  0
LWPOLYLINE
  5
8F7C
330
1F
100
AcDbEntity
  8
CONTINUOUS1
100
AcDbPolyline
 90
        6
 70
     1
 43
0.0
 10
-57.32911731003945
 20
31.28484482871954
 10
-57.18124018292607
 20
31.54097552615722
 10
-57.32911731003945
 20
31.79710622359491
 10
-57.6248715642662
 20
31.79710622359491
 10
-57.77274869137958
 20
31.54097552615722
 10
-57.6248715642662
 20
31.28484482871954
210
0.0
220
0.0
230
-1.0
  0
CIRCLE
  5
8F7D
330
1F
100
AcDbEntity
  8
CONTINUOUS1
100
AcDbCircle
 10
-57.47699443715283
 20
31.54097552615722
 30
0.0
 40
0.3553543459364903
210
0.0
220
0.0
230
-1.0
  0
LINE
  5
8F7E
330
1F
100
AcDbEntity
  8
CONTINUOUS1
100
AcDbLine
 10
56.9499269037193
 20
31.12506785081304
 30
0.0
 11
58.12906197058634
 21
31.12506785081304
 31
0.0
210
0.0
220
0.0
230
-1.0
  0
LINE
  5
8F7F
330
1F
100
AcDbEntity
  8
CONTINUOUS1
100
AcDbLine
 10
56.9499269037193
 20
32.00213919167833
 30
0.0
 11
56.9499269037193
 21
31.12506785081304
 31
0.0
210
0.0
220
0.0
230
-1.0
  0
LWPOLYLINE
  5
8F80
330
1F
100
AcDbEntity
  8
CONTINUOUS1
100
AcDbPolyline
 90
        6
 70
     1
 43
0.0
 10
-57.56055964977747
 20
30.91141211249122
 10
-57.6441248624021
 20
30.76667291848004
 10
-57.56055964977747
 20
30.62193372446887
 10
-57.39342922452818
 20
30.62193372446887
 10
-57.30986401190354
 20
30.76667291848004
 10
-57.39342922452818
 20
30.91141211249122
210
0.0
220
0.0
230
-1.0
  0
CIRCLE
  5
8F81
330
1F
100
AcDbEntity
  8
CONTINUOUS1
100
AcDbCircle
 10
-57.47699443715283
 20
30.76667291848004
 30
0.0
 40
0.2015186237047057
210
0.0
220
0.0
230
-1.0
  0
LINE
  5
8F82
330
1F
100
AcDbEntity
  8
CONTINUOUS1
100
AcDbLine
 10
56.9499269037193
 20
30.08795969473521
 30
0.0
 11
58.12906197058634
 21
30.08795969473521
 31
0.0
210
0.0
220
0.0
230
-1.0
  0
LINE
  5
8F83
330
1F
100
AcDbEntity
  8
CONTINUOUS1
100
AcDbLine
 10
56.9499269037193
 20
30.84093807430316
 30
0.0
 11
56.9499269037193
 21
30.08795969473521
 31
0.0
210
0.0
220
0.0
230
-1.0
  0
LINE
  5
8F84
330
1F
100
AcDbEntity
  8
CONTINUOUS1
100
AcDbLine
 10
56.9499269037193
 20
32.00213919167833
 30
0.0
 11
56.17423498490191
 21
32.00213919167833
 31
0.0
210
0.0
220
0.0
230
-1.0
  0
LINE
  5
8F85
330
1F
100
AcDbEntity
  8
CONTINUOUS1
100
AcDbLine
 10
58.12906197058634
 20
32.00213919167833
 30
0.0
 11
56.9499269037193
 21
32.00213919167833
 31
0.0
210
0.0
220
0.0
230
-1.0
  0
LINE
  5
8F86
330
1F
100
AcDbEntity
  8
CONTINUOUS1
100
AcDbLine
 10
59.03906810774194
 20
30.59093807430316
 30
0.0
 11
59.81476002655933
 21
30.59093807430316
 31
0.0
210
0.0
220
0.0
230
-1.0
  0
LINE
  5
8F87
330
1F
100
AcDbEntity
  8
CONTINUOUS1
100
AcDbLine
 10
59.81476002655933
 20
30.59093807430316
 30
0.0
 11
59.81476002655933
 21
28.91226055358941
 31
0.0
210
0.0
220
0.0
230
-1.0
  0
LINE
  5
8F88
330
1F
100
AcDbEntity
  8
CONTINUOUS1
100
AcDbLine
 10
61.11889509342637
 20
28.91226055358941
 30
0.0
 11
61.11889509342637
 21
32.00213919167833
 31
0.0
210
0.0
220
0.0
230
-1.0
  0
LINE
  5
8F89
330
1F
100
AcDbEntity
  8
CONTINUOUS2
100
AcDbLine
 10
59.81476002655933
 20
28.16111287277372
 30
0.0
 11
61.11889509342637
 21
28.16111287277372
 31
0.0
210
0.0
220
0.0
230
-1.0
  0
LINE
  5
8F8A
330
1F
100
AcDbEntity
  8
CONTINUOUS1
100
AcDbLine
 10
59.81476002655933
 20
30.59093807430316
 30
0.0
 11
59.81476002655933
 21
32.00213919167833
 31
0.0
210
0.0
220
0.0
230
-1.0
  0
CIRCLE
  5
8F8B
330
1F
100
AcDbEntity
  8
CONTINUOUS1
100
AcDbCircle
 10
-60.40432755999285
 20
31.54097552615722
 30
0.0
 40
0.3553543459364903
210
0.0
220
0.0
230
-1.0
  0
LWPOLYLINE
  5
8F8C
330
1F
100
AcDbEntity
  8
CONTINUOUS1
100
AcDbPolyline
 90
        6
 70
     1
 43
0.0
 10
-60.25645043287948
 20
31.28484482871954
 10
-60.10857330576611
 20
31.54097552615722
 10
-60.25645043287948
 20
31.79710622359491
 10
-60.55220468710622
 20
31.79710622359491
 10
-60.7000818142196
 20
31.54097552615722
 10
-60.55220468710622
 20
31.28484482871954
210
0.0
220
0.0
230
-1.0
  0
LINE
  5
8F8D
330
1F
100
AcDbEntity
  8
CONTINUOUS1
100
AcDbLine
 10
59.81476002655933
 20
31.06256785081304
 30
0.0
 11
61.11889509342636
 21
31.06256785081304
 31
0.0
210
0.0
220
0.0
230
-1.0
  0
LINE
  5
8F8E
330
1F
100
AcDbEntity
  8
CONTINUOUS1
100
AcDbLine
 10
59.81476002655933
 20
32.00213919167833
 30
0.0
 11
59.81476002655933
 21
31.06256785081304
 31
0.0
210
0.0
220
0.0
230
-1.0
  0
LINE
  5
8F8F
330
1F
100
AcDbEntity
  8
CONTINUOUS1
100
AcDbLine
 10
59.81476002655933
 20
32.00213919167833
 30
0.0
 11
59.03906810774194
 21
32.00213919167833
 31
0.0
210
0.0
220
0.0
230
-1.0
  0
LINE
  5
8F90
330
1F
100
AcDbEntity
  8
CONTINUOUS1
100
AcDbLine
 10
61.11889509342637
 20
32.00213919167833
 30
0.0
 11
59.81476002655933
 21
32.00213919167833
 31
0.0
210
0.0
220
0.0
230
-1.0
  0
LINE
  5
8F91
330
1F
100
AcDbEntity
  8
CONTINUOUS1
100
AcDbLine
 10
55.0441426403367
 20
31.3898988160678
 30
0.0
 11
55.0441426403367
 21
30.99921380198058
 31
0.0
  0
LINE
  5
8F92
330
1F
100
AcDbEntity
  8
CONTINUOUS1
100
AcDbLine
 10
55.0441426403367
 20
30.90045969473521
 30
0.0
 11
55.69565515170097
 21
31.50162161257505
 31
0.0
  0
LINE
  5
8F93
330
1F
100
AcDbEntity
  8
CONTINUOUS1
100
AcDbLine
 10
55.72971344457974
 20
31.67561208851231
 30
0.0
 11
55.22543339345934
 21
32.74965713117345
 31
0.0
  0
LINE
  5
8F94
330
1F
100
AcDbEntity
  8
CONTINUOUS1
100
AcDbLine
 10
55.22543339345934
 20
32.74965713117345
 30
0.0
 11
55.22543339345934
 21
33.92781676035483
 31
0.0
  0
LINE
  5
8F95
330
1F
100
AcDbEntity
  8
CONTINUOUS1
100
AcDbLine
 10
55.22543339345934
 20
33.92781676035483
 30
0.0
 11
53.67978067767911
 21
33.92781676035483
 31
0.0
  0
LINE
  5
8F96
330
1F
100
AcDbEntity
  8
CONTINUOUS1
100
AcDbLine
 10
53.67978067767911
 20
33.92781676035483
 30
0.0
 11
53.67978067767911
 21
32.12684505082956
 31
0.0
  0
LINE
  5
8F97
330
1F
100
AcDbEntity
  8
CONTINUOUS1
100
AcDbLine
 10
53.67978067767911
 20
32.12684505082956
 30
0.0
 11
53.0106012972043
 21
32.12684505082956
 31
0.0
  0
LINE
  5
8F98
330
1F
100
AcDbEntity
  8
CONTINUOUS1
100
AcDbLine
 10
53.0106012972043
 20
33.10699240243347
 30
0.0
 11
53.0106012972043
 21
31.99497548521008
 31
0.0
  0
LINE
  5
8F99
330
1F
100
AcDbEntity
  8
CONTINUOUS1
100
AcDbLine
 10
53.67978067767911
 20
33.92781676035483
 30
0.0
 11
53.0106012972043
 21
33.13242210470337
 31
0.0
  0
LINE
  5
8F9A
330
1F
100
AcDbEntity
  8
CONTINUOUS1
100
AcDbLine
 10
53.67978067767911
 20
32.12684505082956
 30
0.0
 11
53.67978067767911
 21
31.99497548521008
 31
0.0
  0
LINE
  5
8F9B
330
1F
100
AcDbEntity
  8
CONTINUOUS1
100
AcDbLine
 10
54.34131857257876
 20
33.92781676035483
 30
0.0
 11
54.34131857257876
 21
31.99497548521008
 31
0.0
  0
LINE
  5
8F9C
330
1F
100
AcDbEntity
  8
CONTINUOUS1
100
AcDbLine
 10
54.52704331200813
 20
33.92781676035483
 30
0.0
 11
54.52704331200813
 21
31.99497548521008
 31
0.0
  0
LWPOLYLINE
  5
8F9D
330
1F
100
AcDbEntity
  8
CONTINUOUS1
100
AcDbPolyline
 90
        6
 70
     1
 43
0.0
 10
-55.15160042373413
 20
31.78937828426704
 10
-55.32405602075212
 20
31.88894556962864
 10
-55.49651161777013
 20
31.78937828426704
 10
-55.49651161777013
 20
31.59024371354383
 10
-55.32405602075212
 20
31.49067642818223
 10
-55.15160042373413
 20
31.59024371354383
210
0.0
220
0.0
230
-1.0
  0
LWPOLYLINE
  5
8F9E
330
1F
100
AcDbEntity
  8
CONTINUOUS1
100
AcDbPolyline
 90
        6
 70
     1
 43
0.0
 10
-53.4052260123838
 20
33.0105261740032
 10
-53.48879122500844
 20
32.86578697999203
 10
-53.4052260123838
 20
32.72104778598086
 10
-53.23809558713453
 20
32.72104778598086
 10
-53.15453037450988
 20
32.86578697999203
 10
-53.23809558713453
 20
33.0105261740032
210
0.0
220
0.0
230
-1.0
  0
LINE
  5
8F9F
330
1F
100
AcDbEntity
  8
CONTINUOUS1
100
AcDbLine
 10
58.31035272370898
 20
33.93498046682308
 30
0.0
 11
56.82720000792875
 21
33.93498046682308
 31
0.0
  0
LINE
  5
8FA0
330
1F
100
AcDbEntity
  8
CONTINUOUS1
100
AcDbLine
 10
58.12906197058635
 20
33.93498046682308
 30
0.0
 11
58.12906197058634
 21
28.92248431121862
 31
0.0
210
0.0
220
0.0
230
-1.0
  0
LINE
  5
8FA1
330
1F
100
AcDbEntity
  8
CONTINUOUS1
100
AcDbLine
 10
57.42623790282839
 20
33.93498046682308
 30
0.0
 11
57.4262379028284
 21
32.00213919167833
 31
0.0
  0
LINE
  5
8FA2
330
1F
100
AcDbEntity
  8
CONTINUOUS1
100
AcDbLine
 10
57.61196264225777
 20
33.93498046682308
 30
0.0
 11
57.61196264225777
 21
32.00213919167833
 31
0.0
  0
LINE
  5
8FA3
330
1F
100
AcDbEntity
  8
CONTINUOUS1
100
AcDbLine
 10
56.82720000792875
 20
33.93498046682308
 30
0.0
 11
56.17423498490191
 21
32.86566783414195
 31
0.0
  0
LINE
  5
8FA4
330
1F
100
AcDbEntity
  8
CONTINUOUS1
100
AcDbLine
 10
56.82720000792874
 20
33.93498046682308
 30
0.0
 11
56.82720000792875
 21
32.13400875729781
 31
0.0
  0
LINE
  5
8FA5
330
1F
100
AcDbEntity
  8
CONTINUOUS1
100
AcDbLine
 10
56.82720000792875
 20
32.13400875729781
 30
0.0
 11
56.34552062745393
 21
32.13400875729781
 31
0.0
  0
LINE
  5
8FA6
330
1F
100
AcDbEntity
  8
CONTINUOUS1
100
AcDbLine
 10
56.82720000792875
 20
32.13400875729781
 30
0.0
 11
56.82720000792875
 21
32.00213919167833
 31
0.0
  0
LINE
  5
8FA7
330
1F
100
AcDbEntity
  8
CONTINUOUS1
100
AcDbLine
 10
58.31035272370898
 20
32.7568208376417
 30
0.0
 11
58.31035272370898
 21
33.93498046682308
 31
0.0
  0
LINE
  5
8FA8
330
1F
100
AcDbEntity
  8
CONTINUOUS1
100
AcDbLine
 10
58.81070126661672
 20
31.69114935030286
 30
0.0
 11
58.31035272370898
 21
32.7568208376417
 31
0.0
  0
LWPOLYLINE
  5
8FA9
330
1F
100
AcDbEntity
  8
CONTINUOUS1
100
AcDbPolyline
 90
        6
 70
     1
 43
0.0
 10
-58.23651975398376
 20
31.79654199073528
 10
-58.40897535100175
 20
31.89610927609688
 10
-58.58143094801977
 20
31.79654199073528
 10
-58.58143094801977
 20
31.59740742001208
 10
-58.40897535100175
 20
31.49784013465048
 10
-58.23651975398376
 20
31.59740742001208
210
0.0
220
0.0
230
-1.0
  0
LINE
  5
8FAA
330
1F
100
AcDbEntity
  8
CONTINUOUS1
100
AcDbLine
 10
58.12906197058634
 20
30.90045969473521
 30
0.0
 11
58.76775167183108
 21
31.50957419266716
 31
0.0
  0
LINE
  5
8FAB
330
1F
100
AcDbEntity
  8
CONTINUOUS1
100
AcDbLine
 10
61.30018584654902
 20
32.7568208376417
 30
0.0
 11
61.30018584654902
 21
33.93498046682308
 31
0.0
  0
LINE
  5
8FAC
330
1F
100
AcDbEntity
  8
CONTINUOUS1
100
AcDbLine
 10
59.69203313076878
 20
33.93498046682308
 30
0.0
 11
59.69203313076878
 21
32.13400875729781
 31
0.0
  0
LINE
  5
8FAD
330
1F
100
AcDbEntity
  8
CONTINUOUS1
100
AcDbLine
 10
59.69203313076878
 20
33.93498046682308
 30
0.0
 11
59.03906810774194
 21
32.86566783414195
 31
0.0
  0
LINE
  5
8FAE
330
1F
100
AcDbEntity
  8
CONTINUOUS1
100
AcDbLine
 10
60.53929576509779
 20
33.93498046682308
 30
0.0
 11
60.5392957650978
 21
32.00213919167833
 31
0.0
  0
LINE
  5
8FAF
330
1F
100
AcDbEntity
  8
CONTINUOUS1
100
AcDbLine
 10
60.35357102566843
 20
33.93498046682308
 30
0.0
 11
60.35357102566843
 21
32.00213919167833
 31
0.0
  0
LINE
  5
8FB0
330
1F
100
AcDbEntity
  8
CONTINUOUS1
100
AcDbLine
 10
61.11889509342637
 20
33.93498046682308
 30
0.0
 11
61.11889509342637
 21
28.92248431121862
 31
0.0
210
0.0
220
0.0
230
-1.0
  0
LINE
  5
8FB1
330
1F
100
AcDbEntity
  8
CONTINUOUS1
100
AcDbLine
 10
59.69203313076878
 20
32.13400875729781
 30
0.0
 11
59.03906810774194
 21
32.13400875729781
 31
0.0
  0
LWPOLYLINE
  5
8FB2
330
1F
100
AcDbEntity
  8
CONTINUOUS1
100
AcDbPolyline
 90
        6
 70
     1
 43
0.0
 10
-59.4470119847049
 20
32.89265943283513
 10
-59.53057719732953
 20
32.74792023882396
 10
-59.4470119847049
 20
32.60318104481278
 10
-59.27988155945561
 20
32.60318104481278
 10
-59.19631634683097
 20
32.74792023882396
 10
-59.27988155945561
 20
32.89265943283513
210
0.0
220
0.0
230
-1.0
  0
LINE
  5
8FB3
330
1F
100
AcDbEntity
  8
CONTINUOUS1
100
AcDbLine
 10
59.69203313076878
 20
32.13400875729781
 30
0.0
 11
59.69203313076878
 21
32.00213919167833
 31
0.0
  0
LINE
  5
8FB4
330
1F
100
AcDbEntity
  8
CONTINUOUS1
100
AcDbLine
 10
61.80053438945675
 20
31.69114935030286
 30
0.0
 11
61.30018584654902
 21
32.7568208376417
 31
0.0
  0
LINE
  5
8FB5
330
1F
100
AcDbEntity
  8
CONTINUOUS1
100
AcDbLine
 10
61.30018584654902
 20
33.93498046682308
 30
0.0
 11
59.69203313076878
 21
33.93498046682308
 31
0.0
  0
LINE
  5
8FB6
330
1F
100
AcDbEntity
  8
CONTINUOUS1
100
AcDbLine
 10
61.11889509342637
 20
30.90045969473521
 30
0.0
 11
61.7575847946711
 21
31.50957419266716
 31
0.0
  0
LWPOLYLINE
  5
8FB7
330
1F
100
AcDbEntity
  8
CONTINUOUS1
100
AcDbPolyline
 90
        6
 70
     1
 43
0.0
 10
-61.22635287682378
 20
31.79654199073528
 10
-61.39880847384179
 20
31.89610927609688
 10
-61.57126407085979
 20
31.79654199073528
 10
-61.57126407085979
 20
31.59740742001208
 10
-61.39880847384179
 20
31.49784013465048
 10
-61.22635287682378
 20
31.59740742001208
210
0.0
220
0.0
230
-1.0
  0
LINE
  5
8FB8
330
1F
100
AcDbEntity
  8
CONTINUOUS1
100
AcDbLine
 10
59.03906810774194
 20
32.00213919167833
 30
0.0
 11
59.03906810774194
 21
28.91226055358941
 31
0.0
  0
LINE
  5
8FB9
330
1F
100
AcDbEntity
  8
CONTINUOUS1
100
AcDbLine
 10
59.03906810774194
 20
32.00213919167833
 30
0.0
 11
59.03906810774194
 21
35.12748814834901
 31
0.0
  0
LINE
  5
8FBA
330
1F
100
AcDbEntity
  8
CONTINUOUS1
100
AcDbLine
 10
59.03906810774194
 20
35.12748814834901
 30
0.0
 11
58.87241669065226
 21
35.12748814834901
 31
0.0
  0
LINE
  5
8FBB
330
1F
100
AcDbEntity
  8
CONTINUOUS1
100
AcDbLine
 10
58.87241669065226
 20
35.12748814834901
 30
0.0
 11
58.87241669065226
 21
28.91226055358941
 31
0.0
  0
LWPOLYLINE
  5
8FBC
330
1F
100
AcDbEntity
  8
CONTINUOUS1
100
AcDbPolyline
 90
        6
 70
     1
 43
0.0
 10
-56.58217886186486
 20
32.89265943283513
 10
-56.6657440744895
 20
32.74792023882396
 10
-56.58217886186486
 20
32.60318104481278
 10
-56.41504843661557
 20
32.60318104481278
 10
-56.33148322399094
 20
32.74792023882396
 10
-56.41504843661557
 20
32.89265943283513
210
0.0
220
0.0
230
-1.0
  0
LINE
  5
8FBD
330
1F
100
AcDbEntity
  8
CONTINUOUS1
100
AcDbLine
 10
56.82720000792875
 20
32.13400875729781
 30
0.0
 11
56.17423498490191
 21
32.13400875729781
 31
0.0
  0
LINE
  5
8FBE
330
1F
100
AcDbEntity
  8
CONTINUOUS1
100
AcDbLine
 10
56.00758356781224
 20
35.12748814834901
 30
0.0
 11
56.00758356781224
 21
28.91226055358941
 31
0.0
  0
LINE
  5
8FBF
330
1F
100
AcDbEntity
  8
CONTINUOUS1
100
AcDbLine
 10
56.17423498490191
 20
32.00213919167833
 30
0.0
 11
56.17423498490191
 21
35.12748814834901
 31
0.0
  0
LINE
  5
8FC0
330
1F
100
AcDbEntity
  8
CONTINUOUS1
100
AcDbLine
 10
56.17423498490191
 20
35.12748814834901
 30
0.0
 11
56.00758356781224
 21
35.12748814834901
 31
0.0
  0
LINE
  5
8FC1
330
1F
100
AcDbEntity
  8
CONTINUOUS2
100
AcDbLine
 10
55.04414264033671
 20
28.91226055358941
 30
0.0
 11
59.81476002655933
 21
28.91226055358941
 31
0.0
  0
LINE
  5
8FC2
330
1F
100
AcDbEntity
  8
CONTINUOUS2
100
AcDbLine
 10
61.11889509342637
 20
28.91226055358941
 30
0.0
 11
64.59153121538034
 21
28.91226055358941
 31
0.0
  0
LINE
  5
8FC3
330
1F
100
AcDbEntity
  8
CONTINUOUS2
100
AcDbLine
 10
60.74389509342637
 20
53.91226055358941
 30
0.0
 11
64.59153121538034
 21
53.91226055358941
 31
0.0
  0
LINE
  5
8FC4
330
1F
100
AcDbEntity
  8
CONTINUOUS2
100
AcDbLine
 10
54.08142033595261
 20
54.29226055358942
 30
0.0
 11
54.08142033595261
 21
53.91226055358941
 31
0.0
  0
LINE
  5
8FC5
330
1F
100
AcDbEntity
  8
CONTINUOUS2
100
AcDbLine
 10
59.81476002655933
 20
54.66646828556608
 30
0.0
 11
59.81476002655933
 21
53.91226055358941
 31
0.0
  0
LINE
  5
8FC6
330
1F
100
AcDbEntity
  8
CONTINUOUS2
100
AcDbLine
 10
60.74389509342637
 20
54.66646828556608
 30
0.0
 11
60.74389509342637
 21
53.91226055358941
 31
0.0
  0
LINE
  5
8FC7
330
1F
100
AcDbEntity
  8
CONTINUOUS2
100
AcDbLine
 10
53.76892033595261
 20
28.91226055358941
 30
0.0
 11
53.76892033595261
 21
28.53532060475037
 31
0.0
  0
LINE
  5
8FC8
330
1F
100
AcDbEntity
  8
CONTINUOUS2
100
AcDbLine
 10
55.0441426403367
 20
28.91226055358941
 30
0.0
 11
55.0441426403367
 21
28.53532060475037
 31
0.0
  0
LINE
  5
8FC9
330
1F
100
AcDbEntity
  8
CONTINUOUS2
100
AcDbLine
 10
59.81476002655933
 20
28.91226055358941
 30
0.0
 11
59.81476002655933
 21
28.16111287277372
 31
0.0
  0
LINE
  5
8FCA
330
1F
100
AcDbEntity
  8
CONTINUOUS2
100
AcDbLine
 10
61.11889509342637
 20
28.91226055358941
 30
0.0
 11
61.11889509342637
 21
28.16111287277372
 31
0.0
  0
LINE
  5
8FCB
330
1F
100
AcDbEntity
  8
CONTINUOUS2
100
AcDbLine
 10
55.0441426403367
 20
54.29226055358942
 30
0.0
 11
54.08142033595261
 21
54.29226055358942
 31
0.0
  0
LINE
  5
8FCC
330
1F
100
AcDbEntity
  8
CONTINUOUS2
100
AcDbLine
 10
54.08142033595261
 20
54.29226055358942
 30
0.0
 11
54.08142033595261
 21
53.91226055358941
 31
0.0
  0
LINE
  5
8FCD
330
1F
100
AcDbEntity
  8
CONTINUOUS2
100
AcDbLine
 10
55.0441426403367
 20
53.91226055358941
 30
0.0
 11
55.0441426403367
 21
54.29226055358942
 31
0.0
  0
LINE
  5
8FCE
330
1F
100
AcDbEntity
  8
CONTINUOUS2
100
AcDbLine
 10
59.81476002655933
 20
54.66646828556608
 30
0.0
 11
60.74389509342637
 21
54.66646828556608
 31
0.0
  0
LINE
  5
8FCF
330
1F
100
AcDbEntity
  8
CONTINUOUS2
100
AcDbLine
 10
59.81476002655933
 20
54.66646828556608
 30
0.0
 11
59.81476002655933
 21
53.91226055358941
 31
0.0
  0
LINE
  5
8FD0
330
1F
100
AcDbEntity
  8
CONTINUOUS2
100
AcDbLine
 10
60.74389509342637
 20
54.66646828556608
 30
0.0
 11
60.74389509342637
 21
53.91226055358941
 31
0.0
  0
LINE
  5
8FD1
330
1F
100
AcDbEntity
  8
CONTINUOUS2
100
AcDbLine
 10
55.0441426403367
 20
53.91226055358942
 30
0.0
 11
59.81476002655933
 21
53.91226055358942
 31
0.0
  0
LINE
  5
8FD2
330
1F
100
AcDbEntity
  8
CONTINUOUS2
100
AcDbLine
 10
60.74389509342637
 20
53.91226055358942
 30
0.0
 11
64.59153121538034
 21
53.91226055358942
 31
0.0
  0
LINE
  5
8FD3
330
1F
100
AcDbEntity
  8
CONTINUOUS2
100
AcDbLine
 10
59.81476002655933
 20
28.91226055358941
 30
0.0
 11
59.81476002655933
 21
28.16111287277372
 31
0.0
  0
LINE
  5
8FD4
330
1F
100
AcDbEntity
  8
CONTINUOUS2
100
AcDbLine
 10
61.11889509342637
 20
28.91226055358941
 30
0.0
 11
61.11889509342637
 21
28.16111287277372
 31
0.0
  0
LINE
  5
8FD5
330
1F
100
AcDbEntity
  8
CONTINUOUS2
100
AcDbLine
 10
55.0441426403367
 20
28.53532060475037
 30
0.0
 11
53.76892033595261
 21
28.53532060475037
 31
0.0
210
0.0
220
0.0
230
-1.0
  0
LINE
  5
8FD6
330
1F
100
AcDbEntity
  8
CONTINUOUS2
100
AcDbLine
 10
53.76892033595261
 20
28.91226055358941
 30
0.0
 11
53.76892033595261
 21
28.53532060475037
 31
0.0
  0
LINE
  5
8FD7
330
1F
100
AcDbEntity
  8
CONTINUOUS2
100
AcDbLine
 10
55.0441426403367
 20
28.91226055358941
 30
0.0
 11
55.0441426403367
 21
28.53532060475037
 31
0.0
  0
LINE
  5
8FD8
330
1F
100
AcDbEntity
  8
CONTINUOUS2
100
AcDbLine
 10
59.81476002655933
 20
28.16111287277372
 30
0.0
 11
61.11889509342637
 21
28.16111287277372
 31
0.0
210
0.0
220
0.0
230
-1.0
  0
LINE
  5
8FD9
330
1F
100
AcDbEntity
  8
CONTINUOUS2
100
AcDbLine
 10
55.04414264033671
 20
28.91226055358941
 30
0.0
 11
59.81476002655934
 21
28.91226055358941
 31
0.0
  0
LINE
  5
8FDA
330
1F
100
AcDbEntity
  8
CONTINUOUS2
100
AcDbLine
 10
61.11889509342637
 20
28.91226055358941
 30
0.0
 11
64.59153121538034
 21
28.91226055358941
 31
0.0
  0
DIMENSION
  5
8FDB
330
1F
100
AcDbEntity
  8
DIM
100
AcDbDimension
  2
*D31
 10
47.38741981287939
 20
32.86578697999203
 30
0.0
 11
47.38741981287938
 21
31.01783742585806
 31
0.0
 70
   160
  1
X
  3
SCHNEIDERELECTRIC
100
AcDbAlignedDimension
 13
51.05153121538034
 23
28.91226055358941
 33
0.0
 14
53.27953037450988
 24
32.86578697999203
 34
0.0
 50
90.0
100
AcDbRotatedDimension
1001
ACAD
1000
DSTYLE
1002
{
1070
    40
1040
8.0
1002
}
  0
TEXT
  5
8FDC
330
1F
100
AcDbEntity
  8
TEXT1
100
AcDbText
 10
13.42955965239137
 20
50.31738704238585
 30
0.0
 40
0.7999999999999999
  1
FUSE TYPE
 72
     1
 11
16.89622631905803
 21
50.31738704238585
 31
0.0
100
AcDbText
  0
TEXT
  5
8FDD
330
1F
100
AcDbEntity
  8
TEXT1
100
AcDbText
 10
5.429559652391371
 20
49.81738704238585
 30
0.0
 40
0.7999999999999999
  1
X
 72
     1
 11
5.696226319058038
 21
49.81738704238585
 31
0.0
100
AcDbText
  0
TEXT
  5
8FDE
330
1F
100
AcDbEntity
  8
TEXT1
100
AcDbText
 10
2.696226319058038
 20
48.07962083206801
 30
0.0
 40
0.7999999999999999
  1
3.97 [101]
 72
     1
 11
5.696226319058038
 21
48.07962083206801
 31
0.0
100
AcDbText
  0
TEXT
  5
8FDF
330
1F
100
AcDbEntity
  8
TEXT1
100
AcDbText
 10
10.2628929857247
 20
48.07962083206801
 30
0.0
 40
0.7999999999999999
  1
CLASS H 400A, 600V
 72
     1
 11
16.99622631905803
 21
48.07962083206801
 31
0.0
100
AcDbText
  0
TEXT
  5
8FE0
330
1F
100
AcDbEntity
  8
TEXT1
100
AcDbText
 10
10.19622631905804
 20
45.97962083206801
 30
0.0
 40
0.7999999999999999
  1
CLASS H 400A, 250V
 72
     1
 11
16.99622631905803
 21
45.97962083206801
 31
0.0
100
AcDbText
  0
TEXT
  5
8FE1
330
1F
100
AcDbEntity
  8
TEXT1
100
AcDbText
 10
2.496226319058039
 20
45.97962083206801
 30
0.0
 40
0.7999999999999999
  1
6.97 [177]
 72
     1
 11
5.696226319058038
 21
45.97962083206801
 31
0.0
100
AcDbText
  0
TEXT
  5
8FE2
330
1F
100
AcDbEntity
  8
TEXT1
100
AcDbText
 10
10.0628929857247
 20
43.87962083206801
 30
0.0
 40
0.7999999999999999
  1
CLASS J, 400A, 600V
 72
     1
 11
16.99622631905803
 21
43.87962083206801
 31
0.0
100
AcDbText
  0
TEXT
  5
8FE3
330
1F
100
AcDbEntity
  8
TEXT1
100
AcDbText
 10
2.496226319058037
 20
43.87962083206801
 30
0.0
 40
0.7999999999999999
  1
8.38 [213]
 72
     1
 11
5.696226319058038
 21
43.87962083206801
 31
0.0
100
AcDbText
  0
LINE
  5
8FE4
330
1F
100
AcDbEntity
  8
CONTINUOUS1
100
AcDbLine
 10
1.996226319058039
 20
52.19947556632042
 30
0.0
 11
1.996226319058039
 21
43.19947556632041
 31
0.0
  0
LINE
  5
8FE5
330
1F
100
AcDbEntity
  8
CONTINUOUS1
100
AcDbLine
 10
1.996226319058039
 20
43.19947556632041
 30
0.0
 11
24.49622631905803
 21
43.19947556632041
 31
0.0
  0
LINE
  5
8FE6
330
1F
100
AcDbEntity
  8
CONTINUOUS1
100
AcDbLine
 10
9.596226319058036
 20
52.19947556632042
 30
0.0
 11
9.596226319058036
 21
43.19947556632041
 31
0.0
  0
LINE
  5
8FE7
330
1F
100
AcDbEntity
  8
CONTINUOUS1
100
AcDbLine
 10
24.49622631905803
 20
52.19947556632042
 30
0.0
 11
24.49622631905803
 21
43.19947556632041
 31
0.0
  0
LINE
  5
8FE8
330
1F
100
AcDbEntity
  8
CONTINUOUS1
100
AcDbLine
 10
1.996226319058039
 20
52.19947556632042
 30
0.0
 11
24.49622631905803
 21
52.19947556632042
 31
0.0
  0
LINE
  5
8FE9
330
1F
100
AcDbEntity
  8
CONTINUOUS1
100
AcDbLine
 10
1.996226319058039
 20
49.39947556632041
 30
0.0
 11
24.49622631905803
 21
49.39947556632041
 31
0.0
  0
LINE
  5
8FEA
330
1F
100
AcDbEntity
  8
CONTINUOUS1
100
AcDbLine
 10
1.996226319058039
 20
47.59947556632042
 30
0.0
 11
24.49622631905803
 21
47.59947556632042
 31
0.0
  0
LINE
  5
8FEB
330
1F
100
AcDbEntity
  8
CONTINUOUS1
100
AcDbLine
 10
1.996226319058039
 20
45.2994755663204
 30
0.0
 11
24.49622631905803
 21
45.2994755663204
 31
0.0
  0
CIRCLE
  5
8FEC
330
1F
100
AcDbEntity
  8
CONTINUOUS1
100
AcDbCircle
 10
-54.43778148814466
 20
30.81481099890543
 30
0.0
 40
0.2408455354170975
210
0.0
220
0.0
230
-1.0
  0
LWPOLYLINE
  5
8FED
330
1F
100
AcDbEntity
  8
CONTINUOUS1
100
AcDbPolyline
 90
        6
 70
     1
 43
0.0
 10
-54.26532589112665
 20
30.91437828426704
 10
-54.43778148814466
 20
31.01394556962864
 10
-54.61023708516266
 20
30.91437828426704
 10
-54.61023708516266
 20
30.71524371354383
 10
-54.43778148814466
 20
30.61567642818223
 10
-54.26532589112665
 20
30.71524371354383
210
0.0
220
0.0
230
-1.0
  0
LWPOLYLINE
  5
8FEE
330
1F
100
AcDbEntity
  8
CONTINUOUS1
100
AcDbPolyline
 90
        6
 70
     1
 43
0.0
 10
-54.26532589112665
 20
30.22687828426704
 10
-54.43778148814466
 20
30.32644556962864
 10
-54.61023708516266
 20
30.22687828426704
 10
-54.61023708516266
 20
30.02774371354383
 10
-54.43778148814466
 20
29.92817642818223
 10
-54.26532589112665
 20
30.02774371354383
210
0.0
220
0.0
230
-1.0
  0
CIRCLE
  5
8FEF
330
1F
100
AcDbEntity
  8
CONTINUOUS1
100
AcDbCircle
 10
-54.43778148814466
 20
30.12731099890543
 30
0.0
 40
0.2408455354170975
210
0.0
220
0.0
230
-1.0
  0
ARC
  5
8FF0
330
1F
100
AcDbEntity
  8
CONTINUOUS1
100
AcDbCircle
 10
55.59393453915511
 20
31.61186188191115
 30
0.0
 40
0.15
100
AcDbArc
 50
312.6982651328475
 51
25.15075059376211
  0
ARC
  5
8FF1
330
1F
100
AcDbEntity
  8
CONTINUOUS1
100
AcDbCircle
 10
58.6749223611921
 20
31.6273991437017
 30
0.0
 40
0.15
100
AcDbArc
 50
308.233084400065
 51
25.15075059376211
  0
ARC
  5
8FF2
330
1F
100
AcDbEntity
  8
CONTINUOUS1
100
AcDbCircle
 10
61.66475548403212
 20
31.6273991437017
 30
0.0
 40
0.15
100
AcDbArc
 50
308.233084400065
 51
25.15075059376211
  0
CIRCLE
  5
8FF3
330
1F
100
AcDbEntity
  8
CONTINUOUS1
100
AcDbCircle
 10
-59.41449443715282
 20
31.45417291848005
 30
0.0
 40
0.2015186237047057
210
0.0
220
0.0
230
-1.0
  0
LWPOLYLINE
  5
8FF4
330
1F
100
AcDbEntity
  8
CONTINUOUS1
100
AcDbPolyline
 90
        6
 70
     1
 43
0.0
 10
-59.49805964977747
 20
31.59891211249122
 10
-59.58162486240211
 20
31.45417291848005
 10
-59.49805964977747
 20
31.30943372446887
 10
-59.33092922452818
 20
31.30943372446887
 10
-59.24736401190354
 20
31.45417291848005
 10
-59.33092922452818
 20
31.59891211249122
210
0.0
220
0.0
230
-1.0
  0
LINE
  5
8FF5
330
1F
100
AcDbEntity
  8
CONTINUOUS1
100
AcDbLine
 10
52.68918854986688
 20
41.52176371838578
 30
0.0
 11
55.87469624667647
 21
41.52176371838578
 31
0.0
  0
LINE
  5
8FF6
330
1F
100
AcDbEntity
  8
CONTINUOUS1
100
AcDbLine
 10
55.99691344279818
 20
41.52176371838578
 30
0.0
 11
58.7395293695165
 21
41.52176371838578
 31
0.0
  0
LINE
  5
8FF7
330
1F
100
AcDbEntity
  8
CONTINUOUS1
100
AcDbLine
 10
58.8617465656382
 20
41.52176371838578
 30
0.0
 11
61.9858210899091
 21
41.52176371838578
 31
0.0
  0
LINE
  5
8FF8
330
1F
100
AcDbEntity
  8
CONTINUOUS1
100
AcDbLine
 10
58.7395293695165
 20
40.40888963191831
 30
0.0
 11
58.86174656563821
 21
40.40888963191831
 31
0.0
  0
LINE
  5
8FF9
330
1F
100
AcDbEntity
  8
CONTINUOUS2
100
AcDbLine
 10
65.46153121538035
 20
31.28976055358942
 30
0.0
 11
65.46153121538035
 21
30.28976055358941
 31
0.0
  0
LINE
  5
8FFA
330
1F
100
AcDbEntity
  8
CONTINUOUS2
100
AcDbLine
 10
65.46153121538035
 20
52.91476055358942
 30
0.0
 11
65.46153121538035
 21
51.91476055358942
 31
0.0
  0
TEXT
  5
8FFB
330
1F
100
AcDbEntity
  8
TEXT1
100
AcDbText
 10
2.350853243791376
 20
56.28517837166967
 30
0.0
 40
0.8
  1
ADJUSTABLE IS STEPS OF 0.63 INCHES.
  7
SIMPLEX
100
AcDbText
  0
TEXT
  5
8FFC
330
1F
100
AcDbEntity
  8
TEXT1
100
AcDbText
 10
2.350853243791376
 20
54.88517837166966
 30
0.0
 40
0.8
  1
RIGHT HAND FLANGE MOUNTED ONLY.
  7
SIMPLEX
100
AcDbText
  0
TEXT
  5
8FFD
330
1F
100
AcDbEntity
  8
TEXT1
100
AcDbText
 10
2.496226319058038
 20
50.91738704238585
 30
0.0
 40
0.7999999999999999
  1
DIMENSION
 72
     1
 11
5.696226319058038
 21
50.91738704238585
 31
0.0
100
AcDbText
  0
DIMENSION
  5
9EEC
330
1F
100
AcDbEntity
  8
DIM
100
AcDbDimension
  2
*D33
 10
63.80457351553237
 20
40.10006201190729
 30
0.0
 11
73.74430971074786
 21
36.45468859073409
 31
0.0
 70
   163
  1
\P%%C.34\P [9]
  3
SCHNEIDERELECTRIC
100
AcDbDiametricDimension
 15
63.96153121538034
 25
39.85476055358942
 35
0.0
 40
0.0
1001
ACAD
1000
DSTYLE
1002
{
1070
    40
1040
8.0
1002
}
  0
VIEWPORT
  5
32
330
1B
100
AcDbEntity
 67
     1
  8
0
100
AcDbViewport
 10
8.812554302834026
 20
5.977785532946785
 30
0.0
 40
19.16417646133319
 41
12.3577561060486
 68
     1
 69
     1
1001
ACAD
1000
MVIEW
1002
{
1070
    16
1010
0.0
1020
0.0
1030
0.0
1010
0.0
1020
0.0
1030
1.0
1040
0.0
1040
12.3577561060486
1040
8.812554302834026
1040
5.977785532946785
1040
50.0
1040
0.0
1040
0.0
1070
     0
1070
   100
1070
     1
1070
     0
1070
     0
1070
     0
1070
     0
1070
     0
1040
0.0
1040
0.0
1040
0.0
1040
0.5
1040
0.5
1040
0.5
1040
0.5
1070
     0
1002
{
1002
}
1002
}
  0
LWPOLYLINE
  5
175
330
1B
100
AcDbEntity
 67
     1
  8
VIEWPORT
100
AcDbPolyline
 90
        6
 70
     1
 43
0.0
 10
16.40000099999999
 20
10.25
 10
16.40000099999999
 20
0.9120019999999993
 10
8.002461
 20
0.9120019999999993
 10
8.002461
 20
0.0
 10
0.0
 20
0.0
 10
0.0
 20
10.25
1001
GENIUS_GENOREF_13
1005
0
1005
0
1005
0
1005
0
1005
0
1005
0
1005
0
  0
VIEWPORT
  5
177
330
1B
100
AcDbEntity
 67
     1
  8
VIEWPORT
100
AcDbViewport
 10
8.200000499999999
 20
5.125
 30
0.0
 40
16.40000099999999
 41
10.25
 68
     2
 69
     2
1001
ACAD
1000
MVIEW
1002
{
1070
    16
1010
0.0
1020
0.0
1030
0.0
1010
0.0
1020
0.0
1030
1.0
1040
0.0
1040
82.0
1040
65.57676012394232
1040
41.01288126893353
1040
50.0
1040
0.0
1040
0.0
1070
     0
1070
   100
1070
     1
1070
     2
1070
     0
1070
     0
1070
     0
1070
     0
1040
0.0
1040
0.0
1040
0.0
1040
0.5
1040
0.5
1040
0.5
1040
0.5
1070
     0
1002
{
1002
}
1002
}
1001
GENIUS_GENOREF_13
1005
0
1005
0
1005
0
1005
0
1005
0
1005
0
1005
0
1001
GENIUS_GENSCREG_15
1000
PF
1040
0.0
1000
DF
1040
0.0
1000
MIN
1011
0.0
1021
0.0
1031
0.0
1000
MAX
1011
16.40000099999999
1021
10.25
1031
0.0
1000
FLAGS
1070
     2
  0
INSERT
  5
B2C
330
1B
100
AcDbEntity
 67
     1
  8
TITLEBLOCK
100
AcDbBlockReference
 66
     1
  2
TITLE-PAD
 10
0.0
 20
0.0
 30
0.0
  0
ATTRIB
  5
B2D
330
B2C
100
AcDbEntity
 67
     1
  8
TEXT1
 62
     0
100
AcDbText
 10
8.982790729890369
 20
0.6974460884590165
 30
0.0
 40
0.1
  1
FUSIBLE DISCONNECT SWITCH
  7
ROMANS
 72
     4
 11
10.10183834893798
 21
0.7474460884590166
 31
0.0
100
AcDbAttribute
  2
DESCRIPTION 1
 70
     0
  0
ATTRIB
  5
B2E
330
B2C
100
AcDbEntity
 67
     1
  8
TEXT1
 62
     0
100
AcDbText
 10
9.220885967985608
 20
0.5517231711406715
 30
0.0
 40
0.1
  1
CLASS 9422 TYPE TG2
  7
ROMANS
 72
     4
 11
10.10183834893798
 21
0.6017231711406717
 31
0.0
100
AcDbAttribute
  2
DESCRIPTION 2
 70
     0
  0
ATTRIB
  5
B2F
330
B2C
100
AcDbEntity
 67
     1
  8
TEXT1
 62
     0
100
AcDbText
 10
10.10183834893798
 20
0.4560002538223267
 30
0.0
 40
0.08
  1

  7
ROMANS
 72
     4
 11
10.10183834893798
 21
0.4560002538223267
 31
0.0
100
AcDbAttribute
  2
DESCRIPTION 3
 70
     0
  0
ATTRIB
  5
B30
330
B2C
100
AcDbEntity
 67
     1
  8
TEXT1
 62
     0
100
AcDbText
 10
9.981838348937989
 20
0.3202773365039833
 30
0.0
 40
0.08
  1
   
  7
ROMANS
 72
     4
 11
10.10183834893798
 21
0.3202773365039833
 31
0.0
100
AcDbAttribute
  2
DESCRIPTION 4
 70
     0
  0
ATTRIB
  5
B31
330
B2C
100
AcDbEntity
 67
     1
  8
TEXT1
 62
     0
100
AcDbText
 10
10.10183834893798
 20
0.1845544191856399
 30
0.0
 40
0.08
  1

  7
ROMANS
 72
     4
 11
10.10183834893798
 21
0.1845544191856399
 31
0.0
100
AcDbAttribute
  2
DESCRIPTION 5
 70
     0
  0
ATTRIB
  5
B32
330
B2C
100
AcDbEntity
 67
     1
  8
TEXT1
 62
     0
100
AcDbText
 10
12.74772367103195
 20
0.096540546036505
 30
0.0
 40
0.12
  1
9422 TG_OUTLINE_002
 41
0.9512024731840066
  7
M_STANDARD
 11
12.74772367103195
 21
0.156540546036505
 31
0.0
100
AcDbAttribute
  2
DWGNO
 70
     0
 74
     2
  0
ATTRIB
  5
B33
330
B2C
100
AcDbEntity
 67
     1
  8
TEXT1
 62
     0
100
AcDbText
 10
15.78363597806468
 20
-0.1507193079929352
 30
0.0
 40
0.08
  1
E0104701
  7
ROMANS
 72
     2
 11
16.35506454949325
 21
-0.1107193079929352
 31
0.0
100
AcDbAttribute
  2
REF
 70
     0
 74
     2
  0
ATTRIB
  5
B34
330
B2C
100
AcDbEntity
 67
     1
  8
TEXT1
 62
     0
100
AcDbText
 10
0.0266402374038712
 20
-0.1507193079929352
 30
0.0
 40
0.08
  1
FEBRUARY 2001
  7
ROMANS
 11
0.0266402374038712
 21
-0.1107193079929352
 31
0.0
100
AcDbAttribute
  2
DATE
 70
     0
 74
     2
  0
SEQEND
  5
B35
330
B2C
100
AcDbEntity
 67
     1
  8
0
  0
INSERT
  5
D86
330
1B
100
AcDbEntity
 67
     1
  8
TITLEBLOCK
100
AcDbBlockReference
  2
OEM-NOTES
 10
0.0
 20
0.0
 30
0.0
 41
0.5
 42
0.5
 43
0.5
  0
ENDSEC
  0
SECTION
  2
OBJECTS
  0
DICTIONARY
  5
C
330
0
100
AcDbDictionary
  3
ACAD_GROUP
350
D
  3
ACAD_LAYOUT
350
1A
  3
ACAD_MLINESTYLE
350
17
  3
ACAD_PLOTSETTINGS
350
19
  3
ACAD_PLOTSTYLENAME
350
E
  3
ACADDIM
350
806A
  3
ACDBHEADERROUNDTRIPXREC
350
A0DE
  3
ACDBVARIABLEDICTIONARY
350
374
  3
ACMDICTIONARY
350
383
  3
AMG
350
36B
  3
AMGSNAPSETTINGS
350
399
  3
ASE_INDEX_DICTIONARY
350
6A
  3
DWGPROPS
350
CB4
  0
DICTIONARY
  5
73
330
1F
100
AcDbDictionary
280
     1
  3
ACAD_INDEX
360
CB8
  3
ACAD_LAYOUTSELFREF
360
A100
  0
DICTIONARY
  5
75
330
1B
100
AcDbDictionary
280
     1
  3
ACAD_LAYOUTSELFREF
360
A0FF
  0
DICTIONARY
  5
D
102
{ACAD_REACTORS
330
C
102
}
330
C
100
AcDbDictionary
  0
DICTIONARY
  5
1A
102
{ACAD_REACTORS
330
C
102
}
330
C
100
AcDbDictionary
  0
DICTIONARY
  5
17
102
{ACAD_REACTORS
330
C
102
}
330
C
100
AcDbDictionary
  3
STANDARD
350
18
  0
DICTIONARY
  5
19
102
{ACAD_REACTORS
330
C
102
}
330
C
100
AcDbDictionary
  3
A_SIZE_PAPER
350
2FF
  3
B_SIZE_PAPER
350
2FD
  3
D_SIZE_PAPER
350
2FE
  0
ACDBDICTIONARYWDFLT
  5
E
102
{ACAD_REACTORS
330
C
102
}
330
C
100
AcDbDictionary
281
     1
  3
Normal
350
F
100
AcDbDictionaryWithDefault
340
F
  0
XRECORD
  5
806A
102
{ACAD_REACTORS
330
C
102
}
330
C
100
AcDbXrecord
 90
   990106
  3

 60
     0
 61
     0
 62
     1
 63
     3
 64
     0
 65
     0
 66
     0
 67
     3
 68
     1
 69
     0
 70
     0
 71
     0
 72
     0
 40
0.0
170
     0
  0
DICTIONARY
  5
A0DE
102
{ACAD_REACTORS
330
C
102
}
330
C
100
AcDbDictionary
  3
CEPSNTYPE
350
A0E8
  3
DIMSTYLEDATA
350
A0EC
  3
FINGERPRINTGUID
350
A0E9
  3
HYPERLINKBASE
350
A0E1
  3
INSUNITS
350
A0E7
  3
LAYOUTDICT
350
A0E3
  3
LWETCUNION
350
A0E6
  3
PLOTSETDICT
350
A0E4
  3
PLOTSTYLNAMDICT
350
A0E5
  3
PSVPSCALE
350
A0EB
  3
PUCSBASE
350
A0EF
  3
PUCSORGBACK
350
A0F5
  3
PUCSORGBOTTOM
350
A0F1
  3
PUCSORGFRONT
350
A0F4
  3
PUCSORGLEFT
350
A0F2
  3
PUCSORGRIGHT
350
A0F3
  3
PUCSORGTOP
350
A0F0
  3
PUCSORTHOREF
350
A0ED
  3
PUCSORTHOVIEW
350
A0EE
  3
STYLESHEET
350
A0E2
  3
TSTACKALIGN
350
A0DF
  3
TSTACKSIZE
350
A0E0
  3
UCSBASE
350
A0F8
  3
UCSORGBACK
350
A0FE
  3
UCSORGBOTTOM
350
A0FA
  3
UCSORGFRONT
350
A0FD
  3
UCSORGLEFT
350
A0FB
  3
UCSORGRIGHT
350
A0FC
  3
UCSORGTOP
350
A0F9
  3
UCSORTHOREF
350
A0F6
  3
UCSORTHOVIEW
350
A0F7
  3
VERSIONGUID
350
A0EA
  0
DICTIONARY
  5
374
102
{ACAD_REACTORS
330
C
102
}
330
C
100
AcDbDictionary
  3
INDEXCTL
350
375
  0
DICTIONARY
  5
383
102
{ACAD_REACTORS
330
C
102
}
330
C
100
AcDbDictionary
  0
DICTIONARY
  5
36B
102
{ACAD_REACTORS
330
C
102
}
330
C
100
AcDbDictionary
  3
ACMGSETTINGS
350
36C
  0
DICTIONARY
  5
399
102
{ACAD_REACTORS
330
C
102
}
330
C
100
AcDbDictionary
  0
DICTIONARY
  5
6A
102
{ACAD_REACTORS
330
C
102
}
330
C
100
AcDbDictionary
  3
ASEBLOCKHIERARCHYINDEXRECORD
350
6C
1001
DCO15
1040
1379130883.246999
  0
XRECORD
  5
CB4
102
{ACAD_REACTORS
330
C
102
}
330
C
100
AcDbXrecord
  1
DWGPROPS COOKIE
  2

  3

  4

  6

  7

  8
mgp706
  9

300
AmdtFileType=84
301
=
302
=
303
=
304
=
305
=
306
=
307
=
308
=
309
=
 40
0.2107598032407407
 41
2451764.535041909
 42
2451851.591606284
  1

 90
        1
  0
DICTIONARY
  5
CB8
102
{ACAD_REACTORS
330
73
102
}
330
73
100
AcDbDictionary
  3
*A1
350
CB9
  0
XRECORD
  5
A100
102
{ACAD_REACTORS
330
73
102
}
330
73
100
AcDbXrecord
340
1F
  0
XRECORD
  5
A0FF
102
{ACAD_REACTORS
330
75
102
}
330
75
100
AcDbXrecord
340
1B
  0
MLINESTYLE
  5
18
102
{ACAD_REACTORS
330
17
102
}
330
17
100
AcDbMlineStyle
  2
STANDARD
 70
     0
  3

 62
   256
 51
90.0
 52
90.0
 71
     2
 49
0.5
 62
   256
  6
BYLAYER
 49
-0.5
 62
   256
  6
BYLAYER
  0
PLOTSETTINGS
  5
2FF
102
{ACAD_REACTORS
330
19
102
}
330
19
100
AcDbPlotSettings
  1
A Size Paper
  2
none_device
  4
ANSI_A_(8.50_x_11.00_Inches)
  6

 40
6.349999904632568
 41
19.04999923706054
 42
6.350006103515625
 43
19.04998779296875
 44
215.8999938964843
 45
279.3999938964843
 46
19.04999999999999
 47
-9.651999999999999
 48
0.0
 49
0.0
140
0.0
141
0.0
142
1.0
143
1.6
 70
   740
 72
     0
 73
     1
 74
     1
  7
monochrome.ctb
 75
     0
147
0.625
148
0.0034886547032954
149
0.0199946439100934
  0
PLOTSETTINGS
  5
2FD
102
{ACAD_REACTORS
330
19
102
}
330
19
100
AcDbPlotSettings
  1
B Size Paper
  2
none_device
  4
ANSI_B_(11.00_x_17.00_Inches)
  6

 40
6.349999904632568
 41
19.04999923706054
 42
6.350006103515625
 43
19.04998779296875
 44
279.3999938964843
 45
431.7999877929687
 46
1.27
 47
-11.43
 48
0.0
 49
0.0
140
0.0
141
0.0
142
1.0
143
1.0
 70
   756
 72
     0
 73
     1
 74
     1
  7
monochrome.ctb
 75
    16
147
1.0
148
0.0034886547032954
149
0.0199946439100934
  0
PLOTSETTINGS
  5
2FE
102
{ACAD_REACTORS
330
19
102
}
330
19
100
AcDbPlotSettings
  1
D Size Paper
  2
none_device
  4
ANSI_D_(22.00_x_34.00_Inches)
  6

 40
6.349999904632568
 41
19.04999923706054
 42
6.3499755859375
 43
19.04998779296875
 44
558.7999877929687
 45
863.5999755859375
 46
8.889999999999998
 47
-3.809999999999999
 48
0.0
 49
0.0
140
0.0
141
0.0
142
1.0
143
0.5
 70
   740
 72
     0
 73
     1
 74
     1
  7
monochrome.ctb
 75
     0
147
2.0
148
0.0034886547032954
149
0.0199946439100934
  0
ACDBPLACEHOLDER
  5
F
102
{ACAD_REACTORS
330
E
102
}
330
E
100
AcDbPlaceHolder
280
     0
  0
XRECORD
  5
A0E8
102
{ACAD_REACTORS
330
A0DE
102
}
330
A0DE
100
AcDbXrecord
 90
        0
  0
XRECORD
  5
A0EC
102
{ACAD_REACTORS
330
A0DE
102
}
330
A0DE
100
AcDbXrecord
1000
DSTYLE
1002
{
1070
    79
 70
     1
1070
   148
 40
0.1
1070
   341
340
9A22
1070
   342
340
9A22
1070
   371
 70
    -1
1070
   372
 70
    -1
1002
}
  0
XRECORD
  5
A0E9
102
{ACAD_REACTORS
330
A0DE
102
}
330
A0DE
100
AcDbXrecord
  1
{4E694E3A-6C64-11D4-81E3-0004AC4461C9}
  0
XRECORD
  5
A0E1
102
{ACAD_REACTORS
330
A0DE
102
}
330
A0DE
100
AcDbXrecord
  1

  0
XRECORD
  5
A0E7
102
{ACAD_REACTORS
330
A0DE
102
}
330
A0DE
100
AcDbXrecord
 90
        1
  0
XRECORD
  5
A0E3
102
{ACAD_REACTORS
330
A0DE
102
}
330
A0DE
100
AcDbXrecord
340
1A
  0
XRECORD
  5
A0E6
102
{ACAD_REACTORS
330
A0DE
102
}
330
A0DE
100
AcDbXrecord
 90
    10269
  0
XRECORD
  5
A0E4
102
{ACAD_REACTORS
330
A0DE
102
}
330
A0DE
100
AcDbXrecord
340
19
  0
XRECORD
  5
A0E5
102
{ACAD_REACTORS
330
A0DE
102
}
330
A0DE
100
AcDbXrecord
340
E
  0
XRECORD
  5
A0EB
102
{ACAD_REACTORS
330
A0DE
102
}
330
A0DE
100
AcDbXrecord
 40
1.0
  0
XRECORD
  5
A0EF
102
{ACAD_REACTORS
330
A0DE
102
}
330
A0DE
100
AcDbXrecord
340
0
  0
XRECORD
  5
A0F5
102
{ACAD_REACTORS
330
A0DE
102
}
330
A0DE
100
AcDbXrecord
 10
0.0
 20
0.0
 30
0.0
  0
XRECORD
  5
A0F1
102
{ACAD_REACTORS
330
A0DE
102
}
330
A0DE
100
AcDbXrecord
 10
0.0
 20
0.0
 30
0.0
  0
XRECORD
  5
A0F4
102
{ACAD_REACTORS
330
A0DE
102
}
330
A0DE
100
AcDbXrecord
 10
0.0
 20
0.0
 30
0.0
  0
XRECORD
  5
A0F2
102
{ACAD_REACTORS
330
A0DE
102
}
330
A0DE
100
AcDbXrecord
 10
0.0
 20
0.0
 30
0.0
  0
XRECORD
  5
A0F3
102
{ACAD_REACTORS
330
A0DE
102
}
330
A0DE
100
AcDbXrecord
 10
0.0
 20
0.0
 30
0.0
  0
XRECORD
  5
A0F0
102
{ACAD_REACTORS
330
A0DE
102
}
330
A0DE
100
AcDbXrecord
 10
0.0
 20
0.0
 30
0.0
  0
XRECORD
  5
A0ED
102
{ACAD_REACTORS
330
A0DE
102
}
330
A0DE
100
AcDbXrecord
340
0
  0
XRECORD
  5
A0EE
102
{ACAD_REACTORS
330
A0DE
102
}
330
A0DE
100
AcDbXrecord
 70
     0
  0
XRECORD
  5
A0E2
102
{ACAD_REACTORS
330
A0DE
102
}
330
A0DE
100
AcDbXrecord
  1

  0
XRECORD
  5
A0DF
102
{ACAD_REACTORS
330
A0DE
102
}
330
A0DE
100
AcDbXrecord
 90
        1
  0
XRECORD
  5
A0E0
102
{ACAD_REACTORS
330
A0DE
102
}
330
A0DE
100
AcDbXrecord
 90
       70
  0
XRECORD
  5
A0F8
102
{ACAD_REACTORS
330
A0DE
102
}
330
A0DE
100
AcDbXrecord
340
0
  0
XRECORD
  5
A0FE
102
{ACAD_REACTORS
330
A0DE
102
}
330
A0DE
100
AcDbXrecord
 10
0.0
 20
0.0
 30
0.0
  0
XRECORD
  5
A0FA
102
{ACAD_REACTORS
330
A0DE
102
}
330
A0DE
100
AcDbXrecord
 10
0.0
 20
0.0
 30
0.0
  0
XRECORD
  5
A0FD
102
{ACAD_REACTORS
330
A0DE
102
}
330
A0DE
100
AcDbXrecord
 10
0.0
 20
0.0
 30
0.0
  0
XRECORD
  5
A0FB
102
{ACAD_REACTORS
330
A0DE
102
}
330
A0DE
100
AcDbXrecord
 10
0.0
 20
0.0
 30
0.0
  0
XRECORD
  5
A0FC
102
{ACAD_REACTORS
330
A0DE
102
}
330
A0DE
100
AcDbXrecord
 10
0.0
 20
0.0
 30
0.0
  0
XRECORD
  5
A0F9
102
{ACAD_REACTORS
330
A0DE
102
}
330
A0DE
100
AcDbXrecord
 10
0.0
 20
0.0
 30
0.0
  0
XRECORD
  5
A0F6
102
{ACAD_REACTORS
330
A0DE
102
}
330
A0DE
100
AcDbXrecord
340
0
  0
XRECORD
  5
A0F7
102
{ACAD_REACTORS
330
A0DE
102
}
330
A0DE
100
AcDbXrecord
 70
     0
  0
XRECORD
  5
A0EA
102
{ACAD_REACTORS
330
A0DE
102
}
330
A0DE
100
AcDbXrecord
  1
{B6EAA516-0C2A-11D5-B1B2-000629309E34}
  0
DICTIONARYVAR
  5
375
102
{ACAD_REACTORS
330
374
102
}
330
374
100
DictionaryVariables
280
     0
  1
1
  0
DICTIONARY
  5
36C
102
{ACAD_REACTORS
330
36B
102
}
330
36B
100
AcDbDictionary
  3
DWGSETTINGS
350
CA0
  0
XRECORD
  5
6C
102
{ACAD_REACTORS
330
6A
102
}
330
6A
100
AcDbXrecord
  0
LAYER_INDEX
  5
CB9
102
{ACAD_REACTORS
330
CB8
102
}
330
CB8
100
AcDbIndex
 40
2451967.654768333
100
AcDbLayerIndex
  8
0
360
CBA
 90
        1
  8
BLOCKS
360
CBB
 90
        0
  8
CENTER1
360
CBC
 90
       10
  8
CENTER2
360
CBD
 90
        4
  8
CENTER3
360
CBE
 90
        0
  8
CONSTRUCTION
360
CBF
 90
        0
  8
CONTINUOUS1
360
CC0
 90
      334
  8
CONTINUOUS2
360
CC1
 90
       68
  8
CONTINUOUS3
360
CC2
 90
        0
  8
DASHDOT1
360
CC3
 90
        0
  8
DASHDOT2
360
CC4
 90
        0
  8
DASHDOT3
360
CC5
 90
        0
  8
DIM
360
CC6
 90
       28
  8
HIDDEN1
360
CC7
 90
        0
  8
HIDDEN2
360
CC8
 90
        0
  8
HIDDEN3
360
CC9
 90
        0
  8
PHANTOM1
360
CCA
 90
       16
  8
PHANTOM2
360
CCB
 90
        0
  8
PHANTOM3
360
CCC
 90
        0
  8
TEXT1
360
CCD
 90
       41
  8
TEXT2
360
CCE
 90
        0
  8
TEXT3
360
CCF
 90
        0
  8
TITLEBLOCK
360
CD0
 90
        0
  8
VIEWPORT
360
CD1
 90
        2
  8
MOUNTING
360
988C
 90
        0
  8
DEFPOINTS
360
988D
 90
        0
  0
XRECORD
  5
CA0
102
{ACAD_REACTORS
330
36C
102
}
330
36C
100
AcDbXrecord
  1
VERSION
140
15.0
  1
PRODUCT
  2
AutoCAD Mechanical 2000
  0
IDBUFFER
  5
CBA
330
0
100
AcDbIdBuffer
330
79E
  0
IDBUFFER
  5
CBB
330
0
100
AcDbIdBuffer
  0
IDBUFFER
  5
CBC
330
0
100
AcDbIdBuffer
330
8E72
330
8E73
330
8E79
330
8E7B
330
8E80
330
8E83
330
8E91
330
8E92
330
8E99
330
8E9B
  0
IDBUFFER
  5
CBD
330
0
100
AcDbIdBuffer
330
8E05
330
8E06
330
8E08
330
8E0C
  0
IDBUFFER
  5
CBE
330
0
100
AcDbIdBuffer
  0
IDBUFFER
  5
CBF
330
0
100
AcDbIdBuffer
  0
IDBUFFER
  5
CC0
330
0
100
AcDbIdBuffer
330
8DC2
330
8DC3
330
8DC4
330
8DC8
330
8DC9
330
8DCD
330
8DCF
330
8DD1
330
8DD2
330
8DD3
330
8DD4
330
8DD5
330
8DDB
330
8DDE
330
8DDF
330
8DE0
330
8DE1
330
8DE2
330
8DE3
330
8DE4
330
8DE5
330
8DE6
330
8DE7
330
8DE8
330
8DE9
330
8DEA
330
8DEB
330
8DEC
330
8DED
330
8DEE
330
8DEF
330
8DF0
330
8DF1
330
8DF2
330
8DF3
330
8DF4
330
8DF5
330
8DF6
330
8DF7
330
8DF8
330
8DF9
330
8DFA
330
8DFB
330
8E34
330
8E35
330
8E6C
330
8E6D
330
8E6E
330
8E6F
330
8E70
330
8E71
330
8E74
330
8E75
330
8E76
330
8E77
330
8E78
330
8E7A
330
8E7C
330
8E7D
330
8E7E
330
8E7F
330
8E8B
330
8E8C
330
8E8D
330
8E8E
330
8E8F
330
8E90
330
8E93
330
8E94
330
8E95
330
8E96
330
8E97
330
8E98
330
8E9A
330
8E9C
330
8E9D
330
8E9F
330
8EA1
330
8EA6
330
8EAB
330
8EAF
330
8EB2
330
8EB6
330
8ED5
330
8ED6
330
8ED7
330
8ED8
330
8ED9
330
8EDA
330
8EDB
330
8EDC
330
8EDD
330
8EDE
330
8EDF
330
8EE0
330
8EE1
330
8EE2
330
8EE3
330
8EE4
330
8EE5
330
8EE6
330
8EE7
330
8EE8
330
8EEB
330
8EED
330
8EEE
330
8EEF
330
8EF0
330
8EF1
330
8EF2
330
8EF3
330
8EF4
330
8EF5
330
8EF6
330
8EF7
330
8EF8
330
8EF9
330
8EFA
330
8EFB
330
8EFC
330
8EFD
330
8EFE
330
8EFF
330
8F00
330
8F01
330
8F02
330
8F03
330
8F04
330
8F05
330
8F06
330
8F07
330
8F08
330
8F09
330
8F0A
330
8F0B
330
8F0C
330
8F0D
330
8F0E
330
8F0F
330
8F10
330
8F11
330
8F12
330
8F13
330
8F14
330
8F15
330
8F16
330
8F17
330
8F18
330
8F19
330
8F1A
330
8F1B
330
8F1C
330
8F1D
330
8F1E
330
8F1F
330
8F20
330
8F21
330
8F22
330
8F23
330
8F24
330
8F25
330
8F26
330
8F27
330
8F28
330
8F29
330
8F2A
330
8F2B
330
8F2C
330
8F2D
330
8F2E
330
8F2F
330
8F30
330
8F31
330
8F32
330
8F33
330
8F34
330
8F35
330
8F36
330
8F37
330
8F38
330
8F39
330
8F3A
330
8F3B
330
8F3C
330
8F3E
330
8F3F
330
8F40
330
8F41
330
8F42
330
8F43
330
8F44
330
8F45
330
8F46
330
8F47
330
8F48
330
8F49
330
8F4A
330
8F4B
330
8F4C
330
8F4D
330
8F4E
330
8F4F
330
8F50
330
8F51
330
8F52
330
8F53
330
8F54
330
8F55
330
8F56
330
8F57
330
8F58
330
8F59
330
8F5A
330
8F5B
330
8F5C
330
8F5D
330
8F5E
330
8F5F
330
8F60
330
8F61
330
8F62
330
8F63
330
8F64
330
8F65
330
8F67
330
8F68
330
8F69
330
8F6A
330
8F6B
330
8F6C
330
8F6D
330
8F6E
330
8F6F
330
8F70
330
8F71
330
8F72
330
8F73
330
8F74
330
8F75
330
8F76
330
8F77
330
8F78
330
8F79
330
8F7A
330
8F7B
330
8F7C
330
8F7D
330
8F7E
330
8F7F
330
8F80
330
8F81
330
8F82
330
8F83
330
8F84
330
8F85
330
8F86
330
8F87
330
8F88
330
8F8A
330
8F8B
330
8F8C
330
8F8D
330
8F8E
330
8F8F
330
8F90
330
8F91
330
8F92
330
8F93
330
8F94
330
8F95
330
8F96
330
8F97
330
8F98
330
8F99
330
8F9A
330
8F9B
330
8F9C
330
8F9D
330
8F9E
330
8F9F
330
8FA0
330
8FA1
330
8FA2
330
8FA3
330
8FA4
330
8FA5
330
8FA6
330
8FA7
330
8FA8
330
8FA9
330
8FAA
330
8FAB
330
8FAC
330
8FAD
330
8FAE
330
8FAF
330
8FB0
330
8FB1
330
8FB2
330
8FB3
330
8FB4
330
8FB5
330
8FB6
330
8FB7
330
8FB8
330
8FB9
330
8FBA
330
8FBB
330
8FBC
330
8FBD
330
8FBE
330
8FBF
330
8FC0
330
8FE4
330
8FE5
330
8FE6
330
8FE7
330
8FE8
330
8FE9
330
8FEA
330
8FEB
330
8FEC
330
8FED
330
8FEE
330
8FEF
330
8FF0
330
8FF1
330
8FF2
330
8FF3
330
8FF4
330
8FF5
330
8FF6
330
8FF7
330
8FF8
  0
IDBUFFER
  5
CC1
330
0
100
AcDbIdBuffer
330
8DD0
330
8DD6
330
8DD7
330
8DD8
330
8DD9
330
8DDA
330
8DDC
330
8DDD
330
8DFF
330
8E00
330
8E01
330
8E02
330
8E03
330
8E04
330
8E07
330
8E09
330
8E0A
330
8E0B
330
8E0D
330
8E36
330
8E61
330
8E62
330
8E63
330
8E64
330
8E65
330
8E66
330
8E67
330
8E84
330
8E85
330
8E86
330
8E87
330
8E88
330
8E89
330
8E8A
330
8EE9
330
8EEA
330
8EEC
330
8F3D
330
8F66
330
8F89
330
8FC1
330
8FC2
330
8FC3
330
8FC4
330
8FC5
330
8FC6
330
8FC7
330
8FC8
330
8FC9
330
8FCA
330
8FCB
330
8FCC
330
8FCD
330
8FCE
330
8FCF
330
8FD0
330
8FD1
330
8FD2
330
8FD3
330
8FD4
330
8FD5
330
8FD6
330
8FD7
330
8FD8
330
8FD9
330
8FDA
330
8FF9
330
8FFA
  0
IDBUFFER
  5
CC2
330
0
100
AcDbIdBuffer
  0
IDBUFFER
  5
CC3
330
0
100
AcDbIdBuffer
  0
IDBUFFER
  5
CC4
330
0
100
AcDbIdBuffer
  0
IDBUFFER
  5
CC5
330
0
100
AcDbIdBuffer
  0
IDBUFFER
  5
CC6
330
0
100
AcDbIdBuffer
330
8EBA
330
8EBB
330
8EBC
330
8EBD
330
8EBE
330
8EBF
330
8EC0
330
8EC1
330
8EC2
330
8EC3
330
8EC4
330
8EC5
330
8EC6
330
8EC7
330
8EC8
330
8EC9
330
8ECB
330
8ECC
330
8ECD
330
8ECE
330
8ECF
330
8ED0
330
8ED1
330
8ED2
330
8ED3
330
8ED4
330
8FDB
330
9EEC
  0
IDBUFFER
  5
CC7
330
0
100
AcDbIdBuffer
  0
IDBUFFER
  5
CC8
330
0
100
AcDbIdBuffer
  0
IDBUFFER
  5
CC9
330
0
100
AcDbIdBuffer
  0
IDBUFFER
  5
CCA
330
0
100
AcDbIdBuffer
330
8DFC
330
8DFD
330
8DFE
330
8E0E
330
8E2F
330
8E30
330
8E31
330
8E32
330
8E33
330
8E37
330
8E68
330
8E69
330
8E6A
330
8E6B
330
8E81
330
8E82
  0
IDBUFFER
  5
CCB
330
0
100
AcDbIdBuffer
  0
IDBUFFER
  5
CCC
330
0
100
AcDbIdBuffer
  0
IDBUFFER
  5
CCD
330
0
100
AcDbIdBuffer
330
8DB0
330
8DC0
330
8DC1
330
8DC5
330
8DC6
330
8DC7
330
8DCA
330
8DCB
330
8DCC
330
8DCE
330
8E9E
330
8EA0
330
8EA2
330
8EA3
330
8EA4
330
8EA5
330
8EA7
330
8EA8
330
8EA9
330
8EAA
330
8EAC
330
8EAD
330
8EAE
330
8EB0
330
8EB1
330
8EB3
330
8EB4
330
8EB7
330
8EB8
330
8EB9
330
8FDC
330
8FDD
330
8FDE
330
8FDF
330
8FE0
330
8FE1
330
8FE2
330
8FE3
330
8FFB
330
8FFC
330
8FFD
  0
IDBUFFER
  5
CCE
330
0
100
AcDbIdBuffer
  0
IDBUFFER
  5
CCF
330
0
100
AcDbIdBuffer
  0
IDBUFFER
  5
CD0
330
0
100
AcDbIdBuffer
  0
IDBUFFER
  5
CD1
330
0
100
AcDbIdBuffer
330
BF7
330
BF8
  0
IDBUFFER
  5
988C
330
0
100
AcDbIdBuffer
  0
IDBUFFER
  5
988D
330
0
100
AcDbIdBuffer
  0
ENDSEC
  0
EOF